  0
SECTION
  2
HEADER
  9
$ACADVER
  1
AC1014
  9
$ACADMAINTVER
 70
     9
  9
$DWGCODEPAGE
  3
ANSI_1252
  9
$INSBASE
 10
105.4640269999999
 20
-4.528761
 30
0.0
  9
$EXTMIN
 10
281.3870252079646
 20
29.87977670398516
 30
-0.0015258207003583
  9
$EXTMAX
 10
291.8972786491472
 20
44.76930275439428
 30
0.0000000349246037
  9
$LIMMIN
 10
0.0
 20
0.0
  9
$LIMMAX
 10
410.0
 20
287.0
  9
$ORTHOMODE
 70
     0
  9
$REGENMODE
 70
     1
  9
$FILLMODE
 70
     1
  9
$QTEXTMODE
 70
     0
  9
$MIRRTEXT
 70
     1
  9
$DRAGMODE
 70
     2
  9
$LTSCALE
 40
25.0
  9
$OSMODE
 70
    37
  9
$ATTMODE
 70
     1
  9
$TEXTSIZE
 40
0.1
  9
$TRACEWID
 40
1.0
  9
$TEXTSTYLE
  7
ROMANC
  9
$CLAYER
  8
0
  9
$CELTYPE
  6
BYLAYER
  9
$CECOLOR
 62
   256
  9
$CELTSCALE
 40
1.0
  9
$DELOBJ
 70
     1
  9
$DISPSILH
 70
     0
  9
$DIMSCALE
 40
1.5
  9
$DIMASZ
 40
0.1
  9
$DIMEXO
 40
0.01
  9
$DIMDLI
 40
7.0
  9
$DIMRND
 40
0.0
  9
$DIMDLE
 40
0.0
  9
$DIMEXE
 40
0.01
  9
$DIMTP
 40
0.0
  9
$DIMTM
 40
0.0
  9
$DIMTXT
 40
0.05
  9
$DIMCEN
 40
0.1
  9
$DIMTSZ
 40
0.0
  9
$DIMTOL
 70
     0
  9
$DIMLIM
 70
     0
  9
$DIMTIH
 70
     0
  9
$DIMTOH
 70
     0
  9
$DIMSE1
 70
     0
  9
$DIMSE2
 70
     0
  9
$DIMTAD
 70
     1
  9
$DIMZIN
 70
     0
  9
$DIMBLK
  1

  9
$DIMASO
 70
     1
  9
$DIMSHO
 70
     0
  9
$DIMPOST
  1

  9
$DIMAPOST
  1

  9
$DIMALT
 70
     0
  9
$DIMALTD
 70
     2
  9
$DIMALTF
 40
25.4
  9
$DIMLFAC
 40
1.0
  9
$DIMTOFL
 70
     1
  9
$DIMTVP
 40
0.0
  9
$DIMTIX
 70
     1
  9
$DIMSOXD
 70
     0
  9
$DIMSAH
 70
     0
  9
$DIMBLK1
  1

  9
$DIMBLK2
  1

  9
$DIMSTYLE
  2
SILVIA
  9
$DIMCLRD
 70
     0
  9
$DIMCLRE
 70
     0
  9
$DIMCLRT
 70
     0
  9
$DIMTFAC
 40
70.0
  9
$DIMGAP
 40
0.09
  9
$DIMJUST
 70
     0
  9
$DIMSD1
 70
     0
  9
$DIMSD2
 70
     0
  9
$DIMTOLJ
 70
     1
  9
$DIMTZIN
 70
     0
  9
$DIMALTZ
 70
     0
  9
$DIMALTTZ
 70
     0
  9
$DIMFIT
 70
     3
  9
$DIMUPT
 70
     0
  9
$DIMUNIT
 70
     2
  9
$DIMDEC
 70
     4
  9
$DIMTDEC
 70
     4
  9
$DIMALTU
 70
     2
  9
$DIMALTTD
 70
     2
  9
$DIMTXSTY
  7
STANDARD
  9
$DIMAUNIT
 70
     0
  9
$LUNITS
 70
     2
  9
$LUPREC
 70
     2
  9
$SKETCHINC
 40
1.0
  9
$FILLETRAD
 40
0.0
  9
$AUNITS
 70
     0
  9
$AUPREC
 70
     0
  9
$MENU
  1
acad
  9
$ELEVATION
 40
0.0
  9
$PELEVATION
 40
0.0
  9
$THICKNESS
 40
0.0
  9
$LIMCHECK
 70
     0
  9
$BLIPMODE
 70
     0
  9
$CHAMFERA
 40
0.0
  9
$CHAMFERB
 40
0.0
  9
$CHAMFERC
 40
0.0
  9
$CHAMFERD
 40
0.0
  9
$SKPOLY
 70
     0
  9
$TDCREATE
 40
2450305.554557986
  9
$TDUPDATE
 40
2451726.582646377
  9
$TDINDWG
 40
0.0195506019
  9
$TDUSRTIMER
 40
0.0195487500
  9
$USRTIMER
 70
     1
  9
$ANGBASE
 50
0.0
  9
$ANGDIR
 70
     0
  9
$PDMODE
 70
     0
  9
$PDSIZE
 40
0.0
  9
$PLINEWID
 40
0.0
  9
$COORDS
 70
     1
  9
$SPLFRAME
 70
     0
  9
$SPLINETYPE
 70
     6
  9
$SPLINESEGS
 70
     8
  9
$ATTDIA
 70
     0
  9
$ATTREQ
 70
     1
  9
$HANDLING
 70
  4097
  9
$HANDSEED
  5
1D0
  9
$SURFTAB1
 70
     6
  9
$SURFTAB2
 70
     6
  9
$SURFTYPE
 70
     6
  9
$SURFU
 70
     6
  9
$SURFV
 70
     6
  9
$UCSNAME
  2

  9
$UCSORG
 10
0.0
 20
0.0
 30
0.0
  9
$UCSXDIR
 10
1.0
 20
0.0
 30
0.0
  9
$UCSYDIR
 10
0.0
 20
1.0
 30
0.0
  9
$PUCSNAME
  2

  9
$PUCSORG
 10
0.0
 20
0.0
 30
0.0
  9
$PUCSXDIR
 10
1.0
 20
0.0
 30
0.0
  9
$PUCSYDIR
 10
0.0
 20
1.0
 30
0.0
  9
$USERI1
 70
     0
  9
$USERI2
 70
     0
  9
$USERI3
 70
     0
  9
$USERI4
 70
     0
  9
$USERI5
 70
     0
  9
$USERR1
 40
0.0
  9
$USERR2
 40
0.0
  9
$USERR3
 40
0.0
  9
$USERR4
 40
0.0
  9
$USERR5
 40
0.0
  9
$WORLDVIEW
 70
     1
  9
$SHADEDGE
 70
     3
  9
$SHADEDIF
 70
    70
  9
$TILEMODE
 70
     1
  9
$MAXACTVP
 70
    16
  9
$PINSBASE
 10
0.0
 20
0.0
 30
0.0
  9
$PLIMCHECK
 70
     0
  9
$PEXTMIN
 10
-0.3714446947804078
 20
0.6007864414993378
 30
0.0
  9
$PEXTMAX
 10
199.7495029620984
 20
286.854031687021
 30
0.0
  9
$PLIMMIN
 10
-5.027084350585936
 20
-5.069416522979736
  9
$PLIMMAX
 10
204.9885864257811
 20
291.9412341117858
  9
$UNITMODE
 70
     0
  9
$VISRETAIN
 70
     0
  9
$PLINEGEN
 70
     0
  9
$PSLTSCALE
 70
     0
  9
$TREEDEPTH
 70
  3020
  9
$PICKSTYLE
 70
     1
  9
$CMLSTYLE
  2
STANDARD
  9
$CMLJUST
 70
     0
  9
$CMLSCALE
 40
1.0
  9
$PROXYGRAPHICS
 70
     1
  9
$MEASUREMENT
 70
     0
  0
ENDSEC
  0
SECTION
  2
CLASSES
  0
CLASS
  1
ACDBDICTIONARYWDFLT
  2
AcDbDictionaryWithDefault
  3
AutoCAD 2000
 90
        0
280
     0
281
     0
  0
CLASS
  1
ACDBPLACEHOLDER
  2
AcDbPlaceHolder
  3
AutoCAD 2000
 90
        0
280
     0
281
     0
  0
CLASS
  1
LAYOUT
  2
AcDbLayout
  3
AutoCAD 2000
 90
        0
280
     0
281
     0
  0
CLASS
  1
LONG_TRANSACTION
  2
AcDbLongTransaction
  3
AutoCAD 2000
 90
        0
280
     0
281
     0
  0
CLASS
  1
LWPOLYLINE
  2
AcDbPolyline
  3
AutoCAD 2000
 90
        0
280
     0
281
     1
  0
CLASS
  1
HATCH
  2
AcDbHatch
  3
AutoCAD 2000
 90
        0
280
     0
281
     1
  0
CLASS
  1
XRECORD
  2
AcDbXrecord
  3
AutoCAD 2000
 90
        0
280
     0
281
     0
  0
ENDSEC
  0
SECTION
  2
TABLES
  0
TABLE
  2
VPORT
  5
8
330
0
100
AcDbSymbolTable
 70
     3
  0
VPORT
  5
185
330
8
100
AcDbSymbolTableRecord
100
AcDbViewportTableRecord
  2
*ACTIVE
 70
     0
 10
0.0
 20
0.0
 11
1.0
 21
1.0
 12
286.6421519285558
 22
37.32453972918972
 13
0.0
 23
0.0
 14
1.0
 24
1.0
 15
10.0
 25
10.0
 16
0.0
 26
0.0
 36
1.0
 17
0.0
 27
0.0
 37
0.0
 40
15.00064191645695
 41
1.500622665006226
 42
50.0
 43
0.0
 44
0.0
 50
0.0
 51
0.0
 71
     0
 72
   100
 73
     1
 74
     0
 75
     0
 76
     0
 77
     0
 78
     1
  0
ENDTAB
  0
TABLE
  2
LTYPE
  5
5
330
0
100
AcDbSymbolTable
 70
     1
  0
LTYPE
  5
13
330
5
100
AcDbSymbolTableRecord
100
AcDbLinetypeTableRecord
  2
BYBLOCK
 70
     0
  3

 72
    65
 73
     0
 40
0.0
  0
LTYPE
  5
14
330
5
100
AcDbSymbolTableRecord
100
AcDbLinetypeTableRecord
  2
BYLAYER
 70
     0
  3

 72
    65
 73
     0
 40
0.0
  0
LTYPE
  5
15
330
5
100
AcDbSymbolTableRecord
100
AcDbLinetypeTableRecord
  2
CONTINUOUS
 70
     0
  3
Solid line
 72
    65
 73
     0
 40
0.0
  0
ENDTAB
  0
TABLE
  2
LAYER
  5
2
330
0
100
AcDbSymbolTable
 70
     3
  0
LAYER
  5
10
330
2
100
AcDbSymbolTableRecord
100
AcDbLayerTableRecord
  2
0
 70
     0
 62
     7
  6
CONTINUOUS
  0
LAYER
  5
25
330
2
100
AcDbSymbolTableRecord
100
AcDbLayerTableRecord
  2
DEFPOINTS
 70
     0
 62
     7
  6
CONTINUOUS
  0
ENDTAB
  0
TABLE
  2
STYLE
  5
3
330
0
100
AcDbSymbolTable
 70
     2
  0
STYLE
  5
11
330
3
100
AcDbSymbolTableRecord
100
AcDbTextStyleTableRecord
  2
STANDARD
 70
     0
 40
0.0
 41
1.0
 50
0.0
 71
     0
 42
0.1
  3
txt
  4

  0
STYLE
  5
22
330
3
100
AcDbSymbolTableRecord
100
AcDbTextStyleTableRecord
  2
ROMANC
 70
     0
 40
0.0
 41
1.0
 50
0.0
 71
     0
 42
0.1
  3
romanc
  4

  0
ENDTAB
  0
TABLE
  2
VIEW
  5
6
330
0
100
AcDbSymbolTable
 70
     0
  0
ENDTAB
  0
TABLE
  2
UCS
  5
7
330
0
100
AcDbSymbolTable
 70
     0
  0
ENDTAB
  0
TABLE
  2
APPID
  5
9
330
0
100
AcDbSymbolTable
 70
     1
  0
APPID
  5
12
330
9
100
AcDbSymbolTableRecord
100
AcDbRegAppTableRecord
  2
ACAD
 70
     0
  0
ENDTAB
  0
TABLE
  2
DIMSTYLE
  5
A
330
0
100
AcDbSymbolTable
 70
     1
  0
DIMSTYLE
105
26
102
{ACAD_REACTORS
330
BD
330
CA
330
D7
330
F1
102
}
330
A
100
AcDbSymbolTableRecord
100
AcDbDimStyleTableRecord
  2
SILVIA
 70
     0
  3

  4

  5

  6

  7

 40
1.5
 41
0.1
 42
0.01
 43
7.0
 44
0.01
 45
0.0
 46
0.0
 47
0.0
 48
0.0
140
0.05
141
0.1
142
0.0
143
25.4
144
1.0
145
0.0
146
70.0
147
0.09
 71
     0
 72
     0
 73
     0
 74
     0
 75
     0
 76
     0
 77
     1
 78
     0
170
     0
171
     2
172
     1
173
     0
174
     1
175
     0
176
     0
177
     0
178
     0
270
     2
271
     2
272
     2
273
     2
274
     2
340
22
275
     0
280
     0
281
     0
282
     0
283
     1
284
     0
285
     0
286
     0
287
     5
288
     0
  0
ENDTAB
  0
TABLE
  2
BLOCK_RECORD
  5
1
330
0
100
AcDbSymbolTable
 70
     4
  0
BLOCK_RECORD
  5
1E
102
{ACAD_XDICTIONARY
360
1A8
102
}
330
1
100
AcDbSymbolTableRecord
100
AcDbBlockTableRecord
  2
*MODEL_SPACE
  0
BLOCK_RECORD
  5
1A
102
{ACAD_XDICTIONARY
360
1A6
102
}
330
1
100
AcDbSymbolTableRecord
100
AcDbBlockTableRecord
  2
*PAPER_SPACE
  0
BLOCK_RECORD
  5
BE
330
1
100
AcDbSymbolTableRecord
100
AcDbBlockTableRecord
  2
*D0
  0
BLOCK_RECORD
  5
CB
330
1
100
AcDbSymbolTableRecord
100
AcDbBlockTableRecord
  2
*D1
  0
BLOCK_RECORD
  5
D8
330
1
100
AcDbSymbolTableRecord
100
AcDbBlockTableRecord
  2
*D2
  0
BLOCK_RECORD
  5
F2
330
1
100
AcDbSymbolTableRecord
100
AcDbBlockTableRecord
  2
*D3
  0
ENDTAB
  0
ENDSEC
  0
SECTION
  2
BLOCKS
  0
BLOCK
  5
1F
330
1E
100
AcDbEntity
  8
0
100
AcDbBlockBegin
  2
*MODEL_SPACE
 70
     0
 10
0.0
 20
0.0
 30
0.0
  3
*MODEL_SPACE
  1

  0
ENDBLK
  5
20
330
1E
100
AcDbEntity
  8
0
100
AcDbBlockEnd
  0
BLOCK
  5
1B
330
1A
100
AcDbEntity
 67
     1
  8
0
100
AcDbBlockBegin
  2
*PAPER_SPACE
 70
     0
 10
0.0
 20
0.0
 30
0.0
  3
*PAPER_SPACE
  1

  0
ENDBLK
  5
1C
330
1A
100
AcDbEntity
 67
     1
  8
0
100
AcDbBlockEnd
  0
BLOCK
  5
C8
330
BE
100
AcDbEntity
  8
0
100
AcDbBlockBegin
  2
*D0
 70
     1
 10
0.0
 20
0.0
 30
0.0
  3
*D0
  1

  0
LINE
  5
1AA
330
BE
100
AcDbEntity
  8
0
 62
     0
100
AcDbLine
 10
283.9193370915543
 20
36.04196103536906
 30
0.0
 11
283.9193370915543
 21
36.37095789724834
 31
0.0
  0
LINE
  5
1AB
330
BE
100
AcDbEntity
  8
0
 62
     0
100
AcDbLine
 10
287.9693370915545
 20
36.04196103536906
 30
0.0
 11
287.9693370915545
 21
36.37095789724834
 31
0.0
  0
LINE
  5
1AC
330
BE
100
AcDbEntity
  8
0
 62
     0
100
AcDbLine
 10
284.0693370915543
 20
36.35595789724834
 30
0.0
 11
287.8193370915545
 21
36.35595789724834
 31
0.0
  0
SOLID
  5
1AD
330
BE
100
AcDbEntity
  8
0
 62
     0
100
AcDbTrace
 10
284.0693370915543
 20
36.38095789724834
 30
0.0
 11
284.0693370915543
 21
36.33095789724834
 31
0.0
 12
283.9193370915543
 22
36.35595789724834
 32
0.0
 13
283.9193370915543
 23
36.35595789724834
 33
0.0
  0
SOLID
  5
1AE
330
BE
100
AcDbEntity
  8
0
 62
     0
100
AcDbTrace
 10
287.8193370915545
 20
36.38095789724834
 30
0.0
 11
287.8193370915545
 21
36.33095789724834
 31
0.0
 12
287.9693370915545
 22
36.35595789724834
 32
0.0
 13
287.9693370915545
 23
36.35595789724834
 33
0.0
  0
MTEXT
  5
1AF
330
BE
100
AcDbEntity
  8
0
 62
     0
100
AcDbMText
 10
285.9443370915544
 20
36.52845789724834
 30
0.0
 40
0.075
 41
0.0
 71
     5
 72
     1
  1
\A1;4.0500
  0
POINT
  5
1B0
330
BE
100
AcDbEntity
  8
DEFPOINTS
 62
     0
100
AcDbPoint
 10
283.9193370915543
 20
36.02696103536906
 30
0.0
  0
POINT
  5
1B1
330
BE
100
AcDbEntity
  8
DEFPOINTS
 62
     0
100
AcDbPoint
 10
287.9693370915545
 20
36.02696103536906
 30
0.0
  0
POINT
  5
1B2
330
BE
100
AcDbEntity
  8
DEFPOINTS
 62
     0
100
AcDbPoint
 10
287.9693370915545
 20
36.35595789724834
 30
0.0
  0
ENDBLK
  5
C9
330
BE
100
AcDbEntity
  8
0
100
AcDbBlockEnd
  0
BLOCK
  5
D5
330
CB
100
AcDbEntity
  8
0
100
AcDbBlockBegin
  2
*D1
 70
     1
 10
0.0
 20
0.0
 30
0.0
  3
*D1
  1

  0
LINE
  5
1B3
330
CB
100
AcDbEntity
  8
0
 62
     0
100
AcDbLine
 10
283.9043370915543
 20
36.02696103536906
 30
0.0
 11
283.4388981834345
 21
36.02696103536906
 31
0.0
  0
LINE
  5
1B4
330
CB
100
AcDbEntity
  8
0
 62
     0
100
AcDbLine
 10
283.9043370915543
 20
33.72696103536907
 30
0.0
 11
283.4388981834345
 21
33.72696103536907
 31
0.0
  0
LINE
  5
1B5
330
CB
100
AcDbEntity
  8
0
 62
     0
100
AcDbLine
 10
283.4538981834345
 20
35.87696103536906
 30
0.0
 11
283.4538981834345
 21
33.87696103536907
 31
0.0
  0
SOLID
  5
1B6
330
CB
100
AcDbEntity
  8
0
 62
     0
100
AcDbTrace
 10
283.4288981834345
 20
35.87696103536906
 30
0.0
 11
283.4788981834344
 21
35.87696103536906
 31
0.0
 12
283.4538981834345
 22
36.02696103536906
 32
0.0
 13
283.4538981834345
 23
36.02696103536906
 33
0.0
  0
SOLID
  5
1B7
330
CB
100
AcDbEntity
  8
0
 62
     0
100
AcDbTrace
 10
283.4288981834345
 20
33.87696103536907
 30
0.0
 11
283.4788981834344
 21
33.87696103536907
 31
0.0
 12
283.4538981834345
 22
33.72696103536907
 32
0.0
 13
283.4538981834345
 23
33.72696103536907
 33
0.0
  0
MTEXT
  5
1B8
330
CB
100
AcDbEntity
  8
0
 62
     0
100
AcDbMText
 10
283.2813981834344
 20
34.87696103536912
 30
0.0
 40
0.075
 41
0.0
 71
     5
 72
     1
  1
\A1;2.3000
 11
0.0000000000000001
 21
1.0
 31
0.0
  0
POINT
  5
1B9
330
CB
100
AcDbEntity
  8
DEFPOINTS
 62
     0
100
AcDbPoint
 10
283.9193370915543
 20
36.02696103536906
 30
0.0
  0
POINT
  5
1BA
330
CB
100
AcDbEntity
  8
DEFPOINTS
 62
     0
100
AcDbPoint
 10
283.9193370915543
 20
33.72696103536907
 30
0.0
  0
POINT
  5
1BB
330
CB
100
AcDbEntity
  8
DEFPOINTS
 62
     0
100
AcDbPoint
 10
283.4538981834345
 20
33.72696103536907
 30
0.0
  0
ENDBLK
  5
D6
330
CB
100
AcDbEntity
  8
0
100
AcDbBlockEnd
  0
BLOCK
  5
E4
330
D8
100
AcDbEntity
  8
0
100
AcDbBlockBegin
  2
*D2
 70
     1
 10
0.0
 20
0.0
 30
0.0
  3
*D2
  1

  0
LINE
  5
1BC
330
D8
100
AcDbEntity
  8
0
 62
     0
100
AcDbLine
 10
287.9843370915545
 20
33.92696103536906
 30
0.0
 11
288.4182480084927
 21
33.92696103536906
 31
0.0
  0
LINE
  5
1BD
330
D8
100
AcDbEntity
  8
0
 62
     0
100
AcDbLine
 10
287.9843370915545
 20
33.72696103536907
 30
0.0
 11
288.4182480084927
 21
33.72696103536907
 31
0.0
  0
LINE
  5
1BE
330
D8
100
AcDbEntity
  8
0
 62
     0
100
AcDbLine
 10
288.4032480084927
 20
34.07696103536906
 30
0.0
 11
288.4032480084927
 21
34.22696103536905
 31
0.0
  0
LINE
  5
1BF
330
D8
100
AcDbEntity
  8
0
 62
     0
100
AcDbLine
 10
288.4032480084927
 20
33.57696103536907
 30
0.0
 11
288.4032480084927
 21
32.83196103536907
 31
0.0
  0
LINE
  5
1C0
330
D8
100
AcDbEntity
  8
0
 62
     0
100
AcDbLine
 10
288.4032480084927
 20
33.92696103536906
 30
0.0
 11
288.4032480084927
 21
33.72696103536907
 31
0.0
  0
SOLID
  5
1C1
330
D8
100
AcDbEntity
  8
0
 62
     0
100
AcDbTrace
 10
288.3782480084927
 20
34.07696103536906
 30
0.0
 11
288.4282480084926
 21
34.07696103536906
 31
0.0
 12
288.4032480084927
 22
33.92696103536906
 32
0.0
 13
288.4032480084927
 23
33.92696103536906
 33
0.0
  0
SOLID
  5
1C2
330
D8
100
AcDbEntity
  8
0
 62
     0
100
AcDbTrace
 10
288.3782480084927
 20
33.57696103536907
 30
0.0
 11
288.4282480084926
 21
33.57696103536907
 31
0.0
 12
288.4032480084927
 22
33.72696103536907
 32
0.0
 13
288.4032480084927
 23
33.72696103536907
 33
0.0
  0
MTEXT
  5
1C3
330
D8
100
AcDbEntity
  8
0
 62
     0
100
AcDbMText
 10
288.2307480084926
 20
33.12946103536912
 30
0.0
 40
0.075
 41
0.0
 71
     5
 72
     1
  1
\A1;0.2000
 11
0.0000000000000001
 21
1.0
 31
0.0
  0
POINT
  5
1C4
330
D8
100
AcDbEntity
  8
DEFPOINTS
 62
     0
100
AcDbPoint
 10
287.9693370915545
 20
33.92696103536906
 30
0.0
  0
POINT
  5
1C5
330
D8
100
AcDbEntity
  8
DEFPOINTS
 62
     0
100
AcDbPoint
 10
287.9693370915545
 20
33.72696103536907
 30
0.0
  0
POINT
  5
1C6
330
D8
100
AcDbEntity
  8
DEFPOINTS
 62
     0
100
AcDbPoint
 10
288.4032480084927
 20
33.72696103536907
 30
0.0
  0
ENDBLK
  5
E5
330
D8
100
AcDbEntity
  8
0
100
AcDbBlockEnd
  0
BLOCK
  5
FC
330
F2
100
AcDbEntity
  8
0
100
AcDbBlockBegin
  2
*D3
 70
     1
 10
0.0
 20
0.0
 30
0.0
  3
*D3
  1

  0
LINE
  5
1C7
330
F2
100
AcDbEntity
  8
0
 62
     0
100
AcDbLine
 10
287.3693370915542
 20
33.71196103536907
 30
0.0
 11
287.3693370915542
 21
33.36297876822219
 31
0.0
  0
LINE
  5
1C8
330
F2
100
AcDbEntity
  8
0
 62
     0
100
AcDbLine
 10
287.9693370915545
 20
33.69696103536905
 30
0.0
 11
287.9693370915545
 21
33.36297876822219
 31
0.0
  0
LINE
  5
1C9
330
F2
100
AcDbEntity
  8
0
 62
     0
100
AcDbLine
 10
287.5193370915543
 20
33.37797876822219
 30
0.0
 11
287.8193370915545
 21
33.37797876822219
 31
0.0
  0
SOLID
  5
1CA
330
F2
100
AcDbEntity
  8
0
 62
     0
100
AcDbTrace
 10
287.5193370915543
 20
33.40297876822219
 30
0.0
 11
287.5193370915543
 21
33.35297876822219
 31
0.0
 12
287.3693370915542
 22
33.37797876822219
 32
0.0
 13
287.3693370915542
 23
33.37797876822219
 33
0.0
  0
SOLID
  5
1CB
330
F2
100
AcDbEntity
  8
0
 62
     0
100
AcDbTrace
 10
287.8193370915545
 20
33.40297876822219
 30
0.0
 11
287.8193370915545
 21
33.35297876822219
 31
0.0
 12
287.9693370915545
 22
33.37797876822219
 32
0.0
 13
287.9693370915545
 23
33.37797876822219
 33
0.0
  0
MTEXT
  5
1CC
330
F2
100
AcDbEntity
  8
0
 62
     0
100
AcDbMText
 10
287.6693370915544
 20
33.55047876822219
 30
0.0
 40
0.075
 41
0.0
 71
     5
 72
     1
  1
\A1;0.6000
  0
POINT
  5
1CD
330
F2
100
AcDbEntity
  8
DEFPOINTS
 62
     0
100
AcDbPoint
 10
287.3693370915542
 20
33.72696103536907
 30
0.0
  0
POINT
  5
1CE
330
F2
100
AcDbEntity
  8
DEFPOINTS
 62
     0
100
AcDbPoint
 10
287.9693370915545
 20
33.71196103536906
 30
0.0
  0
POINT
  5
1CF
330
F2
100
AcDbEntity
  8
DEFPOINTS
 62
     0
100
AcDbPoint
 10
287.9693370915545
 20
33.37797876822219
 30
0.0
  0
ENDBLK
  5
FD
330
F2
100
AcDbEntity
  8
0
100
AcDbBlockEnd
  0
ENDSEC
  0
SECTION
  2
ENTITIES
  0
LINE
  5
81
330
1E
100
AcDbEntity
  8
0
100
AcDbLine
 10
291.895795
 20
29.897444
 30
0.0
 11
291.895795
 21
44.747444
 31
0.0
  0
TEXT
  5
82
330
1E
100
AcDbEntity
  8
0
100
AcDbText
 10
283.887846
 20
40.56142
 30
0.0
 40
0.3
  1
P = 127 dm
  7
ROMANC
100
AcDbText
  0
LINE
  5
83
330
1E
100
AcDbEntity
  8
0
100
AcDbLine
 10
281.395795
 20
44.747444
 30
0.0
 11
281.395795
 21
29.897444
 31
0.0
  0
LINE
  5
84
330
1E
100
AcDbEntity
  8
0
100
AcDbLine
 10
281.395795
 20
29.897444
 30
0.0
 11
291.895795
 21
29.897444
 31
0.0
  0
LINE
  5
85
330
1E
100
AcDbEntity
  8
0
100
AcDbLine
 10
291.895795
 20
44.747444
 30
0.0
 11
281.395795
 21
44.747444
 31
0.0
  0
TEXT
  5
86
330
1E
100
AcDbEntity
  8
0
100
AcDbText
 10
287.1222709999999
 20
41.564915
 30
0.0
 40
0.1
  1
2
  7
ROMANC
100
AcDbText
  0
TEXT
  5
87
330
1E
100
AcDbEntity
  8
0
100
AcDbText
 10
283.925768
 20
41.857589
 30
0.0
 40
0.3
  1
ESCALA  1:50
  7
ROMANC
100
AcDbText
  0
TEXT
  5
88
330
1E
100
AcDbEntity
  8
0
100
AcDbText
 10
283.925768
 20
42.343303
 30
0.0
 40
0.3
  1
TIPUS   NT914
  7
ROMANC
100
AcDbText
  0
TEXT
  5
89
330
1E
100
AcDbEntity
  8
0
100
AcDbText
 10
283.938862
 20
41.25899899999999
 30
0.0
 40
0.3
  1
S= 914 dm
  7
ROMANC
100
AcDbText
  0
LINE
  5
B7
330
1E
100
AcDbEntity
  8
0
100
AcDbLine
 10
283.9193370915543
 20
33.72696103536907
 30
0.0
 11
287.3693370915542
 21
33.72696103536907
 31
0.0
  0
LINE
  5
B8
330
1E
100
AcDbEntity
  8
0
100
AcDbLine
 10
287.9693370915545
 20
33.92696103536906
 30
0.0
 11
287.9693370915545
 21
36.02696103536906
 31
0.0
  0
LINE
  5
B9
330
1E
100
AcDbEntity
  8
0
100
AcDbLine
 10
287.9693370915545
 20
36.02696103536906
 30
0.0
 11
283.9193370915543
 21
36.02696103536906
 31
0.0
  0
LINE
  5
BA
330
1E
100
AcDbEntity
  8
0
100
AcDbLine
 10
283.9193370915543
 20
36.02696103536906
 30
0.0
 11
283.9193370915543
 21
33.72696103536907
 31
0.0
  0
LINE
  5
BB
330
1E
100
AcDbEntity
  8
0
100
AcDbLine
 10
287.3693370915542
 20
33.92696103536906
 30
0.0
 11
287.9693370915545
 21
33.92696103536907
 31
0.0
  0
LINE
  5
BC
330
1E
100
AcDbEntity
  8
0
100
AcDbLine
 10
287.3693370915543
 20
33.72696103536907
 30
0.0
 11
287.3693370915542
 21
33.92696103536906
 31
0.0
  0
DIMENSION
  5
BD
330
1E
100
AcDbEntity
  8
0
100
AcDbDimension
  2
*D0
 10
287.9693370915545
 20
36.35595789724834
 30
0.0
 11
285.9443370915544
 21
36.52845789724834
 31
0.0
 70
    32
  3
SILVIA
100
AcDbAlignedDimension
 13
283.9193370915543
 23
36.02696103536906
 33
0.0
 14
287.9693370915545
 24
36.02696103536906
 34
0.0
100
AcDbRotatedDimension
1001
ACAD
1000
DSTYLE
1002
{
1070
   287
1070
     3
1070
   271
1070
     4
1070
   272
1070
     4
1070
   279
1070
     0
1070
   340
1005
11
1002
}
  0
DIMENSION
  5
CA
330
1E
100
AcDbEntity
  8
0
100
AcDbDimension
  2
*D1
 10
283.4538981834345
 20
33.72696103536907
 30
0.0
 11
283.2813981834344
 21
34.87696103536912
 31
0.0
 70
    32
  3
SILVIA
100
AcDbAlignedDimension
 13
283.9193370915543
 23
36.02696103536906
 33
0.0
 14
283.9193370915543
 24
33.72696103536907
 34
0.0
 50
90.0
100
AcDbRotatedDimension
1001
ACAD
1000
DSTYLE
1002
{
1070
   287
1070
     3
1070
   271
1070
     4
1070
   272
1070
     4
1070
   279
1070
     0
1070
   340
1005
11
1002
}
  0
DIMENSION
  5
D7
330
1E
100
AcDbEntity
  8
0
100
AcDbDimension
  2
*D2
 10
288.4032480084927
 20
33.72696103536907
 30
0.0
 11
288.4032480084927
 21
33.12946103536912
 31
0.0
 70
   160
  3
SILVIA
100
AcDbAlignedDimension
 13
287.9693370915545
 23
33.92696103536906
 33
0.0
 14
287.9693370915545
 24
33.72696103536907
 34
0.0
 50
90.0
100
AcDbRotatedDimension
1001
ACAD
1000
DSTYLE
1002
{
1070
   287
1070
     3
1070
   271
1070
     4
1070
   272
1070
     4
1070
   279
1070
     0
1070
   340
1005
11
1002
}
  0
DIMENSION
  5
F1
330
1E
100
AcDbEntity
  8
0
100
AcDbDimension
  2
*D3
 10
287.9693370915545
 20
33.37797876822219
 30
0.0
 11
287.6693370915544
 21
33.55047876822219
 31
0.0
 70
    32
  3
SILVIA
100
AcDbAlignedDimension
 13
287.3693370915542
 23
33.72696103536907
 33
0.0
 14
287.9693370915545
 24
33.71196103536906
 34
0.0
100
AcDbRotatedDimension
1001
ACAD
1000
DSTYLE
1002
{
1070
   287
1070
     3
1070
   271
1070
     4
1070
   272
1070
     4
1070
   279
1070
     0
1070
   340
1005
11
1002
}
  0
LINE
  5
124
330
1E
100
AcDbEntity
  8
0
100
AcDbLine
 10
287.9693370915545
 20
36.01696103536906
 30
0.0
 11
283.9193370915543
 21
36.01696103536906
 31
0.0
  0
LINE
  5
125
330
1E
100
AcDbEntity
  8
0
100
AcDbLine
 10
283.9293370915545
 20
36.02696103536906
 30
0.0
 11
283.9293370915545
 21
33.72696103536907
 31
0.0
  0
LINE
  5
126
330
1E
100
AcDbEntity
  8
0
100
AcDbLine
 10
283.9193370915543
 20
33.73696103536907
 30
0.0
 11
287.3693370915542
 21
33.73696103536907
 31
0.0
  0
LINE
  5
127
330
1E
100
AcDbEntity
  8
0
100
AcDbLine
 10
287.3593370915545
 20
33.72696103536906
 30
0.0
 11
287.3593370915543
 21
33.92696103536905
 31
0.0
  0
LINE
  5
128
330
1E
100
AcDbEntity
  8
0
100
AcDbLine
 10
287.3693370915542
 20
33.93696103536905
 30
0.0
 11
287.9693370915545
 21
33.93696103536907
 31
0.0
  0
LINE
  5
129
330
1E
100
AcDbEntity
  8
0
100
AcDbLine
 10
287.9593370915545
 20
33.92696103536906
 30
0.0
 11
287.9593370915545
 21
36.02696103536906
 31
0.0
  0
VIEWPORT
  5
12D
330
1A
100
AcDbEntity
 67
     1
  8
0
100
AcDbViewport
 10
99.98075103759759
 20
143.4359087944029
 30
0.0
 40
531.516569178698
 41
314.2372683715819
 68
     1
 69
     1
1001
ACAD
1000
MVIEW
1002
{
1070
    16
1010
0.0
1020
0.0
1030
0.0
1010
0.0
1020
0.0
1030
1.0
1040
0.0
1040
314.2372683715819
1040
99.98075103759759
1040
143.4359087944029
1040
50.0
1040
0.0
1040
0.0
1070
     0
1070
   100
1070
     1
1070
     1
1070
     0
1070
     0
1070
     0
1070
     0
1040
0.0
1040
0.0
1040
0.0
1040
10.0
1040
10.0
1040
10.0
1040
10.0
1070
     0
1002
{
1002
}
1002
}
  0
VIEWPORT
  5
131
330
1A
100
AcDbEntity
 67
     1
  8
0
100
AcDbViewport
 10
99.68902913365901
 20
143.7274090642602
 30
0.0
 40
200.1209476568788
 41
286.2532452455217
 68
     2
 69
     2
1001
ACAD
1000
MVIEW
1002
{
1070
    16
1010
0.0
1020
0.0
1030
0.0
1010
0.0
1020
0.0
1030
1.0
1040
0.0
1040
15.28270764182108
1040
286.645795
1040
37.32244399999999
1040
50.0
1040
0.0
1040
0.0
1070
     0
1070
   100
1070
     1
1070
     0
1070
     0
1070
     0
1070
     0
1070
     1
1040
0.0
1040
0.0
1040
0.0
1040
1.0
1040
1.0
1040
10.0
1040
10.0
1070
     0
1002
{
1002
}
1002
}
  0
ENDSEC
  0
SECTION
  2
OBJECTS
  0
DICTIONARY
  5
C
330
0
100
AcDbDictionary
  3
ACAD_GROUP
350
D
  3
ACAD_LAYOUT
350
19
  3
ACAD_MLINESTYLE
350
16
  3
ACAD_PLOTSETTINGS
350
18
  3
ACAD_PLOTSTYLENAME
350
E
  3
ACDBHEADERROUNDTRIPXREC
350
186
  0
DICTIONARY
  5
1A8
330
1E
100
AcDbDictionary
280
     1
  3
ACAD_LAYOUTSELFREF
360
1A9
  0
DICTIONARY
  5
1A6
330
1A
100
AcDbDictionary
280
     1
  3
ACAD_LAYOUTSELFREF
360
1A7
  0
DICTIONARY
  5
D
102
{ACAD_REACTORS
330
C
102
}
330
C
100
AcDbDictionary
  0
DICTIONARY
  5
19
102
{ACAD_REACTORS
330
C
102
}
330
C
100
AcDbDictionary
  0
DICTIONARY
  5
16
102
{ACAD_REACTORS
330
C
102
}
330
C
100
AcDbDictionary
  3
STANDARD
350
17
  0
DICTIONARY
  5
18
102
{ACAD_REACTORS
330
C
102
}
330
C
100
AcDbDictionary
  0
ACDBDICTIONARYWDFLT
  5
E
102
{ACAD_REACTORS
330
C
102
}
330
C
100
AcDbDictionary
281
     1
  3
Normal
350
F
100
AcDbDictionaryWithDefault
340
F
  0
DICTIONARY
  5
186
102
{ACAD_REACTORS
330
C
102
}
330
C
100
AcDbDictionary
  3
TSTACKALIGN
350
187
  3
TSTACKSIZE
350
188
  3
HYPERLINKBASE
350
189
  3
STYLESHEET
350
18A
  3
LAYOUTDICT
350
18B
  3
PLOTSETDICT
350
18C
  3
PLOTSTYLNAMDICT
350
18D
  3
LWETCUNION
350
18E
  3
INSUNITS
350
18F
  3
CEPSNTYPE
350
190
  3
FINGERPRINTGUID
350
191
  3
VERSIONGUID
350
192
  3
PSVPSCALE
350
193
  3
PUCSORTHOREF
350
194
  3
PUCSORTHOVIEW
350
195
  3
PUCSBASE
350
196
  3
PUCSORGTOP
350
197
  3
PUCSORGBOTTOM
350
198
  3
PUCSORGLEFT
350
199
  3
PUCSORGRIGHT
350
19A
  3
PUCSORGFRONT
350
19B
  3
PUCSORGBACK
350
19C
  3
UCSORTHOREF
350
19D
  3
UCSORTHOVIEW
350
19E
  3
UCSBASE
350
19F
  3
UCSORGTOP
350
1A0
  3
UCSORGBOTTOM
350
1A1
  3
UCSORGLEFT
350
1A2
  3
UCSORGRIGHT
350
1A3
  3
UCSORGFRONT
350
1A4
  3
UCSORGBACK
350
1A5
  0
XRECORD
  5
1A9
102
{ACAD_REACTORS
330
1A8
102
}
330
1A8
100
AcDbXrecord
340
1E
  0
XRECORD
  5
1A7
102
{ACAD_REACTORS
330
1A6
102
}
330
1A6
100
AcDbXrecord
340
1A
  0
MLINESTYLE
  5
17
102
{ACAD_REACTORS
330
16
102
}
330
16
100
AcDbMlineStyle
  2
STANDARD
 70
     0
  3

 62
   256
 51
90.0
 52
90.0
 71
     2
 49
0.5
 62
   256
  6
BYLAYER
 49
-0.5
 62
   256
  6
BYLAYER
  0
ACDBPLACEHOLDER
  5
F
102
{ACAD_REACTORS
330
E
102
}
330
E
100
AcDbPlaceHolder
280
     0
  0
XRECORD
  5
187
102
{ACAD_REACTORS
330
186
102
}
330
186
100
AcDbXrecord
 90
        1
  0
XRECORD
  5
188
102
{ACAD_REACTORS
330
186
102
}
330
186
100
AcDbXrecord
 90
       70
  0
XRECORD
  5
189
102
{ACAD_REACTORS
330
186
102
}
330
186
100
AcDbXrecord
  1

  0
XRECORD
  5
18A
102
{ACAD_REACTORS
330
186
102
}
330
186
100
AcDbXrecord
  1

  0
XRECORD
  5
18B
102
{ACAD_REACTORS
330
186
102
}
330
186
100
AcDbXrecord
340
19
  0
XRECORD
  5
18C
102
{ACAD_REACTORS
330
186
102
}
330
186
100
AcDbXrecord
340
18
  0
XRECORD
  5
18D
102
{ACAD_REACTORS
330
186
102
}
330
186
100
AcDbXrecord
340
E
  0
XRECORD
  5
18E
102
{ACAD_REACTORS
330
186
102
}
330
186
100
AcDbXrecord
 90
    10781
  0
XRECORD
  5
18F
102
{ACAD_REACTORS
330
186
102
}
330
186
100
AcDbXrecord
 90
        0
  0
XRECORD
  5
190
102
{ACAD_REACTORS
330
186
102
}
330
186
100
AcDbXrecord
 90
        0
  0
XRECORD
  5
191
102
{ACAD_REACTORS
330
186
102
}
330
186
100
AcDbXrecord
  1
{3A9A1BF3-37C0-11D4-A5B7-0008C769B1B5}
  0
XRECORD
  5
192
102
{ACAD_REACTORS
330
186
102
}
330
186
100
AcDbXrecord
  1
{7FC69AA8-4E59-11D4-AAC8-08002B96339B}
  0
XRECORD
  5
193
102
{ACAD_REACTORS
330
186
102
}
330
186
100
AcDbXrecord
 40
0.0
  0
XRECORD
  5
194
102
{ACAD_REACTORS
330
186
102
}
330
186
100
AcDbXrecord
340
0
  0
XRECORD
  5
195
102
{ACAD_REACTORS
330
186
102
}
330
186
100
AcDbXrecord
 70
     0
  0
XRECORD
  5
196
102
{ACAD_REACTORS
330
186
102
}
330
186
100
AcDbXrecord
340
0
  0
XRECORD
  5
197
102
{ACAD_REACTORS
330
186
102
}
330
186
100
AcDbXrecord
 10
0.0
 20
0.0
 30
0.0
  0
XRECORD
  5
198
102
{ACAD_REACTORS
330
186
102
}
330
186
100
AcDbXrecord
 10
0.0
 20
0.0
 30
0.0
  0
XRECORD
  5
199
102
{ACAD_REACTORS
330
186
102
}
330
186
100
AcDbXrecord
 10
0.0
 20
0.0
 30
0.0
  0
XRECORD
  5
19A
102
{ACAD_REACTORS
330
186
102
}
330
186
100
AcDbXrecord
 10
0.0
 20
0.0
 30
0.0
  0
XRECORD
  5
19B
102
{ACAD_REACTORS
330
186
102
}
330
186
100
AcDbXrecord
 10
0.0
 20
0.0
 30
0.0
  0
XRECORD
  5
19C
102
{ACAD_REACTORS
330
186
102
}
330
186
100
AcDbXrecord
 10
0.0
 20
0.0
 30
0.0
  0
XRECORD
  5
19D
102
{ACAD_REACTORS
330
186
102
}
330
186
100
AcDbXrecord
340
0
  0
XRECORD
  5
19E
102
{ACAD_REACTORS
330
186
102
}
330
186
100
AcDbXrecord
 70
     0
  0
XRECORD
  5
19F
102
{ACAD_REACTORS
330
186
102
}
330
186
100
AcDbXrecord
340
0
  0
XRECORD
  5
1A0
102
{ACAD_REACTORS
330
186
102
}
330
186
100
AcDbXrecord
 10
0.0
 20
0.0
 30
0.0
  0
XRECORD
  5
1A1
102
{ACAD_REACTORS
330
186
102
}
330
186
100
AcDbXrecord
 10
0.0
 20
0.0
 30
0.0
  0
XRECORD
  5
1A2
102
{ACAD_REACTORS
330
186
102
}
330
186
100
AcDbXrecord
 10
0.0
 20
0.0
 30
0.0
  0
XRECORD
  5
1A3
102
{ACAD_REACTORS
330
186
102
}
330
186
100
AcDbXrecord
 10
0.0
 20
0.0
 30
0.0
  0
XRECORD
  5
1A4
102
{ACAD_REACTORS
330
186
102
}
330
186
100
AcDbXrecord
 10
0.0
 20
0.0
 30
0.0
  0
XRECORD
  5
1A5
102
{ACAD_REACTORS
330
186
102
}
330
186
100
AcDbXrecord
 10
0.0
 20
0.0
 30
0.0
  0
ENDSEC
  0
EOF
