  0
SECTION
  2
HEADER
  9
$ACADVER
  1
AC1014
  9
$ACADMAINTVER
 70
     9
  9
$DWGCODEPAGE
  3
ANSI_1252
  9
$INSBASE
 10
0.0
 20
0.0
 30
0.0
  9
$EXTMIN
 10
318.8298047925693
 20
29.85788034165489
 30
-0.0000000000000015
  9
$EXTMAX
 10
329.3713387513664
 20
44.72551002973398
 30
0.0000000000000148
  9
$LIMMIN
 10
0.0
 20
0.0
  9
$LIMMAX
 10
410.0
 20
287.0
  9
$ORTHOMODE
 70
     1
  9
$REGENMODE
 70
     1
  9
$FILLMODE
 70
     1
  9
$QTEXTMODE
 70
     0
  9
$MIRRTEXT
 70
     1
  9
$DRAGMODE
 70
     2
  9
$LTSCALE
 40
25.0
  9
$OSMODE
 70
   549
  9
$ATTMODE
 70
     1
  9
$TEXTSIZE
 40
0.1
  9
$TRACEWID
 40
1.0
  9
$TEXTSTYLE
  7
ROMANC
  9
$CLAYER
  8
0
  9
$CELTYPE
  6
BYLAYER
  9
$CECOLOR
 62
   256
  9
$CELTSCALE
 40
1.0
  9
$DELOBJ
 70
     1
  9
$DISPSILH
 70
     0
  9
$DIMSCALE
 40
1.5
  9
$DIMASZ
 40
0.1
  9
$DIMEXO
 40
0.01
  9
$DIMDLI
 40
7.0
  9
$DIMRND
 40
0.0
  9
$DIMDLE
 40
0.0
  9
$DIMEXE
 40
0.01
  9
$DIMTP
 40
0.0
  9
$DIMTM
 40
0.0
  9
$DIMTXT
 40
0.18
  9
$DIMCEN
 40
0.0
  9
$DIMTSZ
 40
0.0
  9
$DIMTOL
 70
     0
  9
$DIMLIM
 70
     0
  9
$DIMTIH
 70
     0
  9
$DIMTOH
 70
     0
  9
$DIMSE1
 70
     0
  9
$DIMSE2
 70
     0
  9
$DIMTAD
 70
     0
  9
$DIMZIN
 70
     0
  9
$DIMBLK
  1

  9
$DIMASO
 70
     1
  9
$DIMSHO
 70
     0
  9
$DIMPOST
  1

  9
$DIMAPOST
  1

  9
$DIMALT
 70
     0
  9
$DIMALTD
 70
     2
  9
$DIMALTF
 40
25.4
  9
$DIMLFAC
 40
1.0
  9
$DIMTOFL
 70
     1
  9
$DIMTVP
 40
0.0
  9
$DIMTIX
 70
     1
  9
$DIMSOXD
 70
     0
  9
$DIMSAH
 70
     0
  9
$DIMBLK1
  1

  9
$DIMBLK2
  1

  9
$DIMSTYLE
  2
MERITXELL
  9
$DIMCLRD
 70
     0
  9
$DIMCLRE
 70
     0
  9
$DIMCLRT
 70
     0
  9
$DIMTFAC
 40
70.0
  9
$DIMGAP
 40
0.025
  9
$DIMJUST
 70
     0
  9
$DIMSD1
 70
     0
  9
$DIMSD2
 70
     0
  9
$DIMTOLJ
 70
     1
  9
$DIMTZIN
 70
     0
  9
$DIMALTZ
 70
     0
  9
$DIMALTTZ
 70
     0
  9
$DIMFIT
 70
     3
  9
$DIMUPT
 70
     0
  9
$DIMUNIT
 70
     2
  9
$DIMDEC
 70
     2
  9
$DIMTDEC
 70
     2
  9
$DIMALTU
 70
     2
  9
$DIMALTTD
 70
     2
  9
$DIMTXSTY
  7
STANDARD
  9
$DIMAUNIT
 70
     0
  9
$LUNITS
 70
     2
  9
$LUPREC
 70
     2
  9
$SKETCHINC
 40
1.0
  9
$FILLETRAD
 40
0.0
  9
$AUNITS
 70
     0
  9
$AUPREC
 70
     0
  9
$MENU
  1
acad
  9
$ELEVATION
 40
0.0
  9
$PELEVATION
 40
0.0
  9
$THICKNESS
 40
0.0
  9
$LIMCHECK
 70
     0
  9
$BLIPMODE
 70
     0
  9
$CHAMFERA
 40
0.0
  9
$CHAMFERB
 40
0.0
  9
$CHAMFERC
 40
0.0
  9
$CHAMFERD
 40
0.0
  9
$SKPOLY
 70
     0
  9
$TDCREATE
 40
2450927.461950000
  9
$TDUPDATE
 40
2452122.399473090
  9
$TDINDWG
 40
0.0767930093
  9
$TDUSRTIMER
 40
0.0767828125
  9
$USRTIMER
 70
     1
  9
$ANGBASE
 50
0.0
  9
$ANGDIR
 70
     0
  9
$PDMODE
 70
     0
  9
$PDSIZE
 40
0.0
  9
$PLINEWID
 40
0.0
  9
$COORDS
 70
     1
  9
$SPLFRAME
 70
     0
  9
$SPLINETYPE
 70
     6
  9
$SPLINESEGS
 70
     8
  9
$ATTDIA
 70
     0
  9
$ATTREQ
 70
     1
  9
$HANDLING
 70
  4097
  9
$HANDSEED
  5
558
  9
$SURFTAB1
 70
     6
  9
$SURFTAB2
 70
     6
  9
$SURFTYPE
 70
     6
  9
$SURFU
 70
     6
  9
$SURFV
 70
     6
  9
$UCSNAME
  2

  9
$UCSORG
 10
0.0
 20
0.0
 30
0.0
  9
$UCSXDIR
 10
1.0
 20
0.0
 30
0.0
  9
$UCSYDIR
 10
0.0
 20
1.0
 30
0.0
  9
$PUCSNAME
  2

  9
$PUCSORG
 10
0.0
 20
0.0
 30
0.0
  9
$PUCSXDIR
 10
1.0
 20
0.0
 30
0.0
  9
$PUCSYDIR
 10
0.0
 20
1.0
 30
0.0
  9
$USERI1
 70
     0
  9
$USERI2
 70
     0
  9
$USERI3
 70
     0
  9
$USERI4
 70
     0
  9
$USERI5
 70
     0
  9
$USERR1
 40
0.0
  9
$USERR2
 40
0.0
  9
$USERR3
 40
0.0
  9
$USERR4
 40
0.0
  9
$USERR5
 40
0.0
  9
$WORLDVIEW
 70
     1
  9
$SHADEDGE
 70
     3
  9
$SHADEDIF
 70
    70
  9
$TILEMODE
 70
     1
  9
$MAXACTVP
 70
    16
  9
$PINSBASE
 10
0.0
 20
0.0
 30
0.0
  9
$PLIMCHECK
 70
     0
  9
$PEXTMIN
 10
1.000000000000000E+20
 20
1.000000000000000E+20
 30
1.000000000000000E+20
  9
$PEXTMAX
 10
-1.000000000000000E+20
 20
-1.000000000000000E+20
 30
-1.000000000000000E+20
  9
$PLIMMIN
 10
0.0
 20
0.0
  9
$PLIMMAX
 10
12.0
 20
9.0
  9
$UNITMODE
 70
     0
  9
$VISRETAIN
 70
     0
  9
$PLINEGEN
 70
     0
  9
$PSLTSCALE
 70
     0
  9
$TREEDEPTH
 70
  3020
  9
$PICKSTYLE
 70
     1
  9
$CMLSTYLE
  2
STANDARD
  9
$CMLJUST
 70
     0
  9
$CMLSCALE
 40
1.0
  9
$PROXYGRAPHICS
 70
     1
  9
$MEASUREMENT
 70
     0
  0
ENDSEC
  0
SECTION
  2
CLASSES
  0
CLASS
  1
ACDBDICTIONARYWDFLT
  2
AcDbDictionaryWithDefault
  3
AutoCAD 2000
 90
        0
280
     0
281
     0
  0
CLASS
  1
ACDBPLACEHOLDER
  2
AcDbPlaceHolder
  3
AutoCAD 2000
 90
        0
280
     0
281
     0
  0
CLASS
  1
LAYOUT
  2
AcDbLayout
  3
AutoCAD 2000
 90
        0
280
     0
281
     0
  0
CLASS
  1
LONG_TRANSACTION
  2
AcDbLongTransaction
  3
AutoCAD 2000
 90
        0
280
     0
281
     0
  0
CLASS
  1
LWPOLYLINE
  2
AcDbPolyline
  3
AutoCAD 2000
 90
        0
280
     0
281
     1
  0
CLASS
  1
HATCH
  2
AcDbHatch
  3
AutoCAD 2000
 90
        0
280
     0
281
     1
  0
CLASS
  1
XRECORD
  2
AcDbXrecord
  3
AutoCAD 2000
 90
        0
280
     0
281
     0
  0
CLASS
  1
LONG_TRANSACTION
  2
AcDbLongTransaction
  3
AutoCAD 2000
 90
        0
280
     0
281
     0
  0
CLASS
  1
LWPOLYLINE
  2
AcDbPolyline
  3
AutoCAD 2000
 90
        0
280
     0
281
     1
  0
CLASS
  1
HATCH
  2
AcDbHatch
  3
AutoCAD 2000
 90
        0
280
     0
281
     1
  0
CLASS
  1
XRECORD
  2
AcDbXrecord
  3
AutoCAD 2000
 90
        0
280
     0
281
     0
  0
CLASS
  1
LONG_TRANSACTION
  2
AcDbLongTransaction
  3
AutoCAD 2000
 90
        0
280
     0
281
     0
  0
CLASS
  1
LWPOLYLINE
  2
AcDbPolyline
  3
AutoCAD 2000
 90
        0
280
     0
281
     1
  0
CLASS
  1
HATCH
  2
AcDbHatch
  3
AutoCAD 2000
 90
        0
280
     0
281
     1
  0
CLASS
  1
XRECORD
  2
AcDbXrecord
  3
AutoCAD 2000
 90
        0
280
     0
281
     0
  0
ENDSEC
  0
SECTION
  2
TABLES
  0
TABLE
  2
VPORT
  5
293
330
0
100
AcDbSymbolTable
 70
     3
  0
VPORT
  5
535
330
293
100
AcDbSymbolTableRecord
100
AcDbViewportTableRecord
  2
*ACTIVE
 70
     0
 10
0.0
 20
0.0
 11
1.0
 21
1.0
 12
324.1005717719679
 22
37.29169518569444
 13
0.0
 23
0.0
 14
1.0
 24
1.0
 15
10.0
 25
10.0
 16
0.0
 26
0.0
 36
1.0
 17
0.0
 27
0.0
 37
0.0
 40
14.97471945774112
 41
1.448317307692307
 42
50.0
 43
0.0
 44
0.0
 50
0.0
 51
0.0
 71
     0
 72
   100
 73
     1
 74
     0
 75
     0
 76
     0
 77
     0
 78
     1
  0
ENDTAB
  0
TABLE
  2
LTYPE
  5
290
330
0
100
AcDbSymbolTable
 70
     1
  0
LTYPE
  5
29E
330
290
100
AcDbSymbolTableRecord
100
AcDbLinetypeTableRecord
  2
BYBLOCK
 70
     0
  3

 72
    65
 73
     0
 40
0.0
  0
LTYPE
  5
29F
330
290
100
AcDbSymbolTableRecord
100
AcDbLinetypeTableRecord
  2
BYLAYER
 70
     0
  3

 72
    65
 73
     0
 40
0.0
  0
LTYPE
  5
2A0
330
290
100
AcDbSymbolTableRecord
100
AcDbLinetypeTableRecord
  2
CONTINUOUS
 70
     0
  3
Solid line
 72
    65
 73
     0
 40
0.0
  0
ENDTAB
  0
TABLE
  2
LAYER
  5
28D
330
0
100
AcDbSymbolTable
 70
     2
  0
LAYER
  5
29B
330
28D
100
AcDbSymbolTableRecord
100
AcDbLayerTableRecord
  2
0
 70
     0
 62
     7
  6
CONTINUOUS
  0
LAYER
  5
2AF
330
28D
100
AcDbSymbolTableRecord
100
AcDbLayerTableRecord
  2
DEFPOINTS
 70
     0
 62
     7
  6
CONTINUOUS
  0
ENDTAB
  0
TABLE
  2
STYLE
  5
28E
330
0
100
AcDbSymbolTable
 70
     2
  0
STYLE
  5
29C
330
28E
100
AcDbSymbolTableRecord
100
AcDbTextStyleTableRecord
  2
STANDARD
 70
     0
 40
0.0
 41
1.0
 50
0.0
 71
     0
 42
0.1
  3
txt
  4

  0
STYLE
  5
2AD
330
28E
100
AcDbSymbolTableRecord
100
AcDbTextStyleTableRecord
  2
ROMANC
 70
     0
 40
0.0
 41
1.0
 50
0.0
 71
     0
 42
0.1
  3
romanc
  4

  0
ENDTAB
  0
TABLE
  2
VIEW
  5
291
330
0
100
AcDbSymbolTable
 70
     0
  0
ENDTAB
  0
TABLE
  2
UCS
  5
292
330
0
100
AcDbSymbolTable
 70
     0
  0
ENDTAB
  0
TABLE
  2
APPID
  5
294
330
0
100
AcDbSymbolTable
 70
     1
  0
APPID
  5
29D
330
294
100
AcDbSymbolTableRecord
100
AcDbRegAppTableRecord
  2
ACAD
 70
     0
  0
ENDTAB
  0
TABLE
  2
DIMSTYLE
  5
295
330
0
100
AcDbSymbolTable
 70
     1
  0
DIMSTYLE
105
2B0
102
{ACAD_REACTORS
330
454
330
462
102
}
330
295
100
AcDbSymbolTableRecord
100
AcDbDimStyleTableRecord
  2
MERITXELL
 70
     0
  3

  4

  5

  6

  7

 40
1.5
 41
0.1
 42
0.01
 43
7.0
 44
0.01
 45
0.0
 46
0.0
 47
0.0
 48
0.0
140
0.05
141
0.1
142
0.0
143
25.4
144
1.0
145
0.0
146
70.0
147
0.09
 71
     0
 72
     0
 73
     0
 74
     0
 75
     0
 76
     0
 77
     1
 78
     0
170
     0
171
     2
172
     1
173
     0
174
     1
175
     0
176
     0
177
     0
178
     0
270
     2
271
     2
272
     2
273
     2
274
     2
340
2AD
275
     0
280
     0
281
     0
282
     0
283
     1
284
     0
285
     0
286
     0
287
     3
288
     0
  0
ENDTAB
  0
TABLE
  2
BLOCK_RECORD
  5
28C
330
0
100
AcDbSymbolTable
 70
    11
  0
BLOCK_RECORD
  5
2A9
102
{ACAD_XDICTIONARY
360
3B4
102
}
330
28C
100
AcDbSymbolTableRecord
100
AcDbBlockTableRecord
  2
*MODEL_SPACE
  0
BLOCK_RECORD
  5
2A5
102
{ACAD_XDICTIONARY
360
3B2
102
}
330
28C
100
AcDbSymbolTableRecord
100
AcDbBlockTableRecord
  2
*PAPER_SPACE
  0
BLOCK_RECORD
  5
2B3
330
28C
100
AcDbSymbolTableRecord
100
AcDbBlockTableRecord
  2
$MODEL_SPACE
  0
BLOCK_RECORD
  5
2B6
330
28C
100
AcDbSymbolTableRecord
100
AcDbBlockTableRecord
  2
$PAPER_SPACE
  0
BLOCK_RECORD
  5
2B9
330
28C
100
AcDbSymbolTableRecord
100
AcDbBlockTableRecord
  2
*D2
  0
BLOCK_RECORD
  5
2C5
330
28C
100
AcDbSymbolTableRecord
100
AcDbBlockTableRecord
  2
*D3
  0
BLOCK_RECORD
  5
2FA
330
28C
100
AcDbSymbolTableRecord
100
AcDbBlockTableRecord
  2
*D4
  0
BLOCK_RECORD
  5
310
330
28C
100
AcDbSymbolTableRecord
100
AcDbBlockTableRecord
  2
*D5
  0
BLOCK_RECORD
  5
338
330
28C
100
AcDbSymbolTableRecord
100
AcDbBlockTableRecord
  2
*D6
  0
BLOCK_RECORD
  5
34E
330
28C
100
AcDbSymbolTableRecord
100
AcDbBlockTableRecord
  2
*D7
  0
BLOCK_RECORD
  5
447
330
28C
100
AcDbSymbolTableRecord
100
AcDbBlockTableRecord
  2
*D8
  0
BLOCK_RECORD
  5
455
330
28C
100
AcDbSymbolTableRecord
100
AcDbBlockTableRecord
  2
*D9
  0
BLOCK_RECORD
  5
463
330
28C
100
AcDbSymbolTableRecord
100
AcDbBlockTableRecord
  2
*D10
  0
ENDTAB
  0
ENDSEC
  0
SECTION
  2
BLOCKS
  0
BLOCK
  5
2AA
330
2A9
100
AcDbEntity
  8
0
100
AcDbBlockBegin
  2
*MODEL_SPACE
 70
     0
 10
0.0
 20
0.0
 30
0.0
  3
*MODEL_SPACE
  1

  0
ENDBLK
  5
2AB
330
2A9
100
AcDbEntity
  8
0
100
AcDbBlockEnd
  0
BLOCK
  5
2A6
330
2A5
100
AcDbEntity
 67
     1
  8
0
100
AcDbBlockBegin
  2
*PAPER_SPACE
 70
     0
 10
0.0
 20
0.0
 30
0.0
  3
*PAPER_SPACE
  1

  0
ENDBLK
  5
2A7
330
2A5
100
AcDbEntity
 67
     1
  8
0
100
AcDbBlockEnd
  0
BLOCK
  5
2B4
330
2B3
100
AcDbEntity
  8
0
100
AcDbBlockBegin
  2
$MODEL_SPACE
 70
     0
 10
0.0
 20
0.0
 30
0.0
  3
$MODEL_SPACE
  1

  0
ENDBLK
  5
2B5
330
2B3
100
AcDbEntity
  8
0
100
AcDbBlockEnd
  0
BLOCK
  5
2B7
330
2B6
100
AcDbEntity
  8
0
100
AcDbBlockBegin
  2
$PAPER_SPACE
 70
     0
 10
0.0
 20
0.0
 30
0.0
  3
$PAPER_SPACE
  1

  0
ENDBLK
  5
2B8
330
2B6
100
AcDbEntity
  8
0
100
AcDbBlockEnd
  0
BLOCK
  5
2BA
330
2B9
100
AcDbEntity
  8
0
100
AcDbBlockBegin
  2
*D2
 70
     1
 10
0.0
 20
0.0
 30
0.0
  3
*D2
  1

  0
LINE
  5
2BB
330
2B9
100
AcDbEntity
  8
0
  6
BYBLOCK
 62
     0
100
AcDbLine
 10
321.702737
 20
34.199902
 30
0.0
 11
321.702737
 21
33.722912
 31
0.0
  0
LINE
  5
2BC
330
2B9
100
AcDbEntity
  8
0
  6
BYBLOCK
 62
     0
100
AcDbLine
 10
326.202737
 20
34.199902
 30
0.0
 11
326.202737
 21
33.722912
 31
0.0
  0
LINE
  5
2BD
330
2B9
100
AcDbEntity
  8
0
  6
BYBLOCK
 62
     0
100
AcDbLine
 10
321.8527369999998
 20
33.737912
 30
0.0
 11
326.052737
 21
33.737912
 31
0.0
  0
SOLID
  5
2BE
330
2B9
100
AcDbEntity
  8
0
  6
BYBLOCK
 62
     0
100
AcDbTrace
 10
321.8527369999998
 20
33.762912
 30
0.0
 11
321.8527369999998
 21
33.712912
 31
0.0
 12
321.702737
 22
33.737912
 32
0.0
 13
321.702737
 23
33.737912
 33
0.0
  0
SOLID
  5
2BF
330
2B9
100
AcDbEntity
  8
0
  6
BYBLOCK
 62
     0
100
AcDbTrace
 10
326.052737
 20
33.762912
 30
0.0
 11
326.052737
 21
33.712912
 31
0.0
 12
326.202737
 22
33.737912
 32
0.0
 13
326.202737
 23
33.737912
 33
0.0
  0
TEXT
  5
2C0
330
2B9
100
AcDbEntity
  8
0
 62
     0
100
AcDbText
 10
323.803
 20
33.6802
 30
0.0
 40
0.075
  1
4.50
  7
ROMANC
100
AcDbText
  0
POINT
  5
2C1
330
2B9
100
AcDbEntity
  8
DEFPOINTS
  6
BYBLOCK
 62
     0
100
AcDbPoint
 10
321.702737
 20
34.214902
 30
0.0
  0
POINT
  5
2C2
330
2B9
100
AcDbEntity
  8
DEFPOINTS
  6
BYBLOCK
 62
     0
100
AcDbPoint
 10
326.202737
 20
34.214902
 30
0.0
  0
POINT
  5
2C3
330
2B9
100
AcDbEntity
  8
DEFPOINTS
  6
BYBLOCK
 62
     0
100
AcDbPoint
 10
326.202737
 20
33.737912
 30
0.0
  0
ENDBLK
  5
2C4
330
2B9
100
AcDbEntity
  8
0
100
AcDbBlockEnd
  0
BLOCK
  5
2C6
330
2C5
100
AcDbEntity
  8
0
100
AcDbBlockBegin
  2
*D3
 70
     1
 10
0.0
 20
0.0
 30
0.0
  3
*D3
  1

  0
LINE
  5
2C7
330
2C5
100
AcDbEntity
  8
0
  6
BYBLOCK
 62
     0
100
AcDbLine
 10
326.2177369999998
 20
36.214902
 30
0.0
 11
326.649777
 21
36.214902
 31
0.0
  0
LINE
  5
2C8
330
2C5
100
AcDbEntity
  8
0
  6
BYBLOCK
 62
     0
100
AcDbLine
 10
326.2177369999998
 20
34.214902
 30
0.0
 11
326.649777
 21
34.214902
 31
0.0
  0
LINE
  5
2C9
330
2C5
100
AcDbEntity
  8
0
  6
BYBLOCK
 62
     0
100
AcDbLine
 10
326.6347769999998
 20
36.064902
 30
0.0
 11
326.6347769999998
 21
34.364902
 31
0.0
  0
SOLID
  5
2CA
330
2C5
100
AcDbEntity
  8
0
  6
BYBLOCK
 62
     0
100
AcDbTrace
 10
326.609777
 20
36.064902
 30
0.0
 11
326.659777
 21
36.064902
 31
0.0
 12
326.6347769999998
 22
36.214902
 32
0.0
 13
326.6347769999998
 23
36.214902
 33
0.0
  0
SOLID
  5
2CB
330
2C5
100
AcDbEntity
  8
0
  6
BYBLOCK
 62
     0
100
AcDbTrace
 10
326.609777
 20
34.364902
 30
0.0
 11
326.659777
 21
34.364902
 31
0.0
 12
326.6347769999998
 22
34.214902
 32
0.0
 13
326.6347769999998
 23
34.214902
 33
0.0
  0
TEXT
  5
2CC
330
2C5
100
AcDbEntity
  8
0
 62
     0
100
AcDbText
 10
326.41
 20
35.0822
 30
0.0
 40
0.075
  1
2.00
  7
ROMANC
100
AcDbText
  0
POINT
  5
2CD
330
2C5
100
AcDbEntity
  8
DEFPOINTS
  6
BYBLOCK
 62
     0
100
AcDbPoint
 10
326.202737
 20
36.214902
 30
0.0
  0
POINT
  5
2CE
330
2C5
100
AcDbEntity
  8
DEFPOINTS
  6
BYBLOCK
 62
     0
100
AcDbPoint
 10
326.202737
 20
34.214902
 30
0.0
  0
POINT
  5
2CF
330
2C5
100
AcDbEntity
  8
DEFPOINTS
  6
BYBLOCK
 62
     0
100
AcDbPoint
 10
326.6347769999998
 20
34.214902
 30
0.0
  0
ENDBLK
  5
2D0
330
2C5
100
AcDbEntity
  8
0
100
AcDbBlockEnd
  0
BLOCK
  5
304
330
2FA
100
AcDbEntity
  8
0
100
AcDbBlockBegin
  2
*D4
 70
     1
 10
0.0
 20
0.0
 30
0.0
  3
*D4
  1

  0
LINE
  5
306
330
2FA
100
AcDbEntity
  8
0
 62
     0
100
AcDbLine
 10
321.702737
 20
34.199902
 30
0.0
 11
321.702737
 21
33.81025372237856
 31
0.0
  0
LINE
  5
307
330
2FA
100
AcDbEntity
  8
0
 62
     0
100
AcDbLine
 10
326.202737
 20
34.199902
 30
0.0
 11
326.202737
 21
33.81025372237856
 31
0.0
  0
LINE
  5
308
330
2FA
100
AcDbEntity
  8
0
 62
     0
100
AcDbLine
 10
321.8527369999998
 20
33.82525372237856
 30
0.0
 11
326.052737
 21
33.82525372237856
 31
0.0
  0
SOLID
  5
309
330
2FA
100
AcDbEntity
  8
0
 62
     0
100
AcDbTrace
 10
321.8527369999998
 20
33.85025372237856
 30
0.0
 11
321.8527369999998
 21
33.80025372237855
 31
0.0
 12
321.702737
 22
33.82525372237856
 32
0.0
 13
321.702737
 23
33.82525372237856
 33
0.0
  0
SOLID
  5
30A
330
2FA
100
AcDbEntity
  8
0
 62
     0
100
AcDbTrace
 10
326.052737
 20
33.85025372237856
 30
0.0
 11
326.052737
 21
33.80025372237855
 31
0.0
 12
326.202737
 22
33.82525372237856
 32
0.0
 13
326.202737
 23
33.82525372237856
 33
0.0
  0
MTEXT
  5
30B
330
2FA
100
AcDbEntity
  8
0
 62
     0
100
AcDbMText
 10
323.952737
 20
33.90025372237856
 30
0.0
 40
0.075
 41
0.0
 71
     5
 72
     1
  1
\A1;4.5000
1001
ACAD
1000
MTEXTBEGIN
1070
    73
1070
     1
1070
    44
1040
1.0
1070
    74
1070
     0
1000
MTEXTEND
1000
MTEXTBEGIN
1070
    73
1070
     1
1070
    44
1040
1.0
1070
    74
1070
     0
1000
MTEXTEND
1000
MTEXTBEGIN
1070
    73
1070
     1
1070
    44
1040
1.0
1070
    74
1070
     0
1000
MTEXTEND
  0
POINT
  5
30C
330
2FA
100
AcDbEntity
  8
DEFPOINTS
 62
     0
100
AcDbPoint
 10
321.702737
 20
34.214902
 30
0.0
  0
POINT
  5
30D
330
2FA
100
AcDbEntity
  8
DEFPOINTS
 62
     0
100
AcDbPoint
 10
326.202737
 20
34.214902
 30
0.0
  0
POINT
  5
30E
330
2FA
100
AcDbEntity
  8
DEFPOINTS
 62
     0
100
AcDbPoint
 10
326.202737
 20
33.82525372237856
 30
0.0
  0
ENDBLK
  5
305
330
2FA
100
AcDbEntity
  8
0
100
AcDbBlockEnd
  0
BLOCK
  5
31A
330
310
100
AcDbEntity
  8
0
100
AcDbBlockBegin
  2
*D5
 70
     1
 10
0.0
 20
0.0
 30
0.0
  3
*D5
  1

  0
LINE
  5
32E
330
310
100
AcDbEntity
  8
0
 62
     0
100
AcDbLine
 10
326.2277369999998
 20
36.21490199999997
 30
0.0
 11
326.5746026158798
 21
36.21490199999997
 31
0.0
  0
LINE
  5
32F
330
310
100
AcDbEntity
  8
0
 62
     0
100
AcDbLine
 10
326.2177369999998
 20
34.214902
 30
0.0
 11
326.5746026158798
 21
34.214902
 31
0.0
  0
LINE
  5
330
330
310
100
AcDbEntity
  8
0
 62
     0
100
AcDbLine
 10
326.5596026158798
 20
36.06490199999999
 30
0.0
 11
326.5596026158798
 21
34.364902
 31
0.0
  0
SOLID
  5
331
330
310
100
AcDbEntity
  8
0
 62
     0
100
AcDbTrace
 10
326.5346026158798
 20
36.06490199999999
 30
0.0
 11
326.5846026158798
 21
36.06490199999999
 31
0.0
 12
326.5596026158798
 22
36.21490199999997
 32
0.0
 13
326.5596026158798
 23
36.21490199999997
 33
0.0
  0
SOLID
  5
332
330
310
100
AcDbEntity
  8
0
 62
     0
100
AcDbTrace
 10
326.5346026158798
 20
34.364902
 30
0.0
 11
326.5846026158798
 21
34.364902
 31
0.0
 12
326.5596026158798
 22
34.214902
 32
0.0
 13
326.5596026158798
 23
34.214902
 33
0.0
  0
MTEXT
  5
333
330
310
100
AcDbEntity
  8
0
 62
     0
100
AcDbMText
 10
326.4846026158798
 20
35.21490200000004
 30
0.0
 40
0.075
 41
0.0
 71
     5
 72
     1
  1
\A1;2.0000
 11
0.0000000000000001
 21
1.0
 31
0.0
1001
ACAD
1000
MTEXTBEGIN
1070
    73
1070
     1
1070
    44
1040
1.0
1070
    74
1070
     0
1000
MTEXTEND
1000
MTEXTBEGIN
1070
    73
1070
     1
1070
    44
1040
1.0
1070
    74
1070
     0
1000
MTEXTEND
1000
MTEXTBEGIN
1070
    73
1070
     1
1070
    44
1040
1.0
1070
    74
1070
     0
1000
MTEXTEND
  0
POINT
  5
334
330
310
100
AcDbEntity
  8
DEFPOINTS
 62
     0
100
AcDbPoint
 10
326.2127369999999
 20
36.21490199999997
 30
0.0
  0
POINT
  5
335
330
310
100
AcDbEntity
  8
DEFPOINTS
 62
     0
100
AcDbPoint
 10
326.202737
 20
34.214902
 30
0.0
  0
POINT
  5
336
330
310
100
AcDbEntity
  8
DEFPOINTS
 62
     0
100
AcDbPoint
 10
326.5596026158798
 20
34.214902
 30
0.0
  0
ENDBLK
  5
31B
330
310
100
AcDbEntity
  8
0
100
AcDbBlockEnd
  0
BLOCK
  5
342
330
338
100
AcDbEntity
  8
0
100
AcDbBlockBegin
  2
*D6
 70
     1
 10
0.0
 20
0.0
 30
0.0
  3
*D6
  1

  0
LINE
  5
43D
330
338
100
AcDbEntity
  8
0
 62
     0
100
AcDbLine
 10
326.2177369999998
 20
36.214902
 30
0.0
 11
327.0596797128857
 21
36.214902
 31
0.0
  0
LINE
  5
43E
330
338
100
AcDbEntity
  8
0
 62
     0
100
AcDbLine
 10
326.2177369999998
 20
34.214902
 30
0.0
 11
327.0596797128857
 21
34.214902
 31
0.0
  0
LINE
  5
43F
330
338
100
AcDbEntity
  8
0
 62
     0
100
AcDbLine
 10
327.0446797128858
 20
36.064902
 30
0.0
 11
327.0446797128858
 21
34.364902
 31
0.0
  0
SOLID
  5
440
330
338
100
AcDbEntity
  8
0
 62
     0
100
AcDbTrace
 10
327.0196797128858
 20
36.064902
 30
0.0
 11
327.0696797128857
 21
36.064902
 31
0.0
 12
327.0446797128858
 22
36.214902
 32
0.0
 13
327.0446797128858
 23
36.214902
 33
0.0
  0
SOLID
  5
441
330
338
100
AcDbEntity
  8
0
 62
     0
100
AcDbTrace
 10
327.0196797128858
 20
34.364902
 30
0.0
 11
327.0696797128857
 21
34.364902
 31
0.0
 12
327.0446797128858
 22
34.214902
 32
0.0
 13
327.0446797128858
 23
34.214902
 33
0.0
  0
MTEXT
  5
442
330
338
100
AcDbEntity
  8
0
 62
     0
100
AcDbMText
 10
326.7746797128858
 20
35.21490200000004
 30
0.0
 40
0.27
 41
0.0
 71
     5
 72
     1
  1
\A1;2.00
 11
0.0000000000000001
 21
1.0
 31
0.0
1001
ACAD
1000
MTEXTBEGIN
1070
    73
1070
     1
1070
    44
1040
1.0
1070
    74
1070
     0
1000
MTEXTEND
1000
MTEXTBEGIN
1070
    73
1070
     1
1070
    44
1040
1.0
1070
    74
1070
     0
1000
MTEXTEND
  0
POINT
  5
443
330
338
100
AcDbEntity
  8
DEFPOINTS
 62
     0
100
AcDbPoint
 10
326.202737
 20
36.214902
 30
0.0
  0
POINT
  5
444
330
338
100
AcDbEntity
  8
DEFPOINTS
 62
     0
100
AcDbPoint
 10
326.202737
 20
34.214902
 30
0.0
  0
POINT
  5
445
330
338
100
AcDbEntity
  8
DEFPOINTS
 62
     0
100
AcDbPoint
 10
327.0446797128858
 20
34.214902
 30
0.0
  0
ENDBLK
  5
343
330
338
100
AcDbEntity
  8
0
100
AcDbBlockEnd
  0
BLOCK
  5
358
330
34E
100
AcDbEntity
  8
0
100
AcDbBlockBegin
  2
*D7
 70
     1
 10
0.0
 20
0.0
 30
0.0
  3
*D7
  1

  0
LINE
  5
3FC
330
34E
100
AcDbEntity
  8
0
 62
     0
100
AcDbLine
 10
321.702737
 20
34.199902
 30
0.0
 11
321.702737
 21
33.49296661260955
 31
0.0
  0
LINE
  5
3FD
330
34E
100
AcDbEntity
  8
0
 62
     0
100
AcDbLine
 10
326.202737
 20
34.199902
 30
0.0
 11
326.202737
 21
33.49296661260955
 31
0.0
  0
LINE
  5
3FE
330
34E
100
AcDbEntity
  8
0
 62
     0
100
AcDbLine
 10
321.8527369999998
 20
33.50796661260955
 30
0.0
 11
326.052737
 21
33.50796661260955
 31
0.0
  0
SOLID
  5
3FF
330
34E
100
AcDbEntity
  8
0
 62
     0
100
AcDbTrace
 10
321.8527369999998
 20
33.53296661260955
 30
0.0
 11
321.8527369999998
 21
33.48296661260955
 31
0.0
 12
321.702737
 22
33.50796661260955
 32
0.0
 13
321.702737
 23
33.50796661260955
 33
0.0
  0
SOLID
  5
400
330
34E
100
AcDbEntity
  8
0
 62
     0
100
AcDbTrace
 10
326.052737
 20
33.53296661260955
 30
0.0
 11
326.052737
 21
33.48296661260955
 31
0.0
 12
326.202737
 22
33.50796661260955
 32
0.0
 13
326.202737
 23
33.50796661260955
 33
0.0
  0
MTEXT
  5
401
330
34E
100
AcDbEntity
  8
0
 62
     0
100
AcDbMText
 10
323.952737
 20
33.77796661260954
 30
0.0
 40
0.27
 41
0.0
 71
     5
 72
     1
  1
\A1;4.50
1001
ACAD
1000
MTEXTBEGIN
1070
    73
1070
     1
1070
    44
1040
1.0
1070
    74
1070
     0
1000
MTEXTEND
1000
MTEXTBEGIN
1070
    73
1070
     1
1070
    44
1040
1.0
1070
    74
1070
     0
1000
MTEXTEND
  0
POINT
  5
402
330
34E
100
AcDbEntity
  8
DEFPOINTS
 62
     0
100
AcDbPoint
 10
321.702737
 20
34.214902
 30
0.0
  0
POINT
  5
403
330
34E
100
AcDbEntity
  8
DEFPOINTS
 62
     0
100
AcDbPoint
 10
326.202737
 20
34.214902
 30
0.0
  0
POINT
  5
404
330
34E
100
AcDbEntity
  8
DEFPOINTS
 62
     0
100
AcDbPoint
 10
326.202737
 20
33.50796661260955
 30
0.0
  0
ENDBLK
  5
359
330
34E
100
AcDbEntity
  8
0
100
AcDbBlockEnd
  0
BLOCK
  5
452
330
447
100
AcDbEntity
  8
0
100
AcDbBlockBegin
  2
*D8
 70
     1
 10
0.0
 20
0.0
 30
0.0
  3
*D8
  1

  0
LINE
  5
448
330
447
100
AcDbEntity
  8
0
 62
     0
100
AcDbLine
 10
321.702737
 20
34.199902
 30
0.0
 11
321.702737
 21
33.02161913699398
 31
0.0
  0
LINE
  5
449
330
447
100
AcDbEntity
  8
0
 62
     0
100
AcDbLine
 10
326.202737
 20
34.199902
 30
0.0
 11
326.202737
 21
33.02161913699398
 31
0.0
  0
LINE
  5
44A
330
447
100
AcDbEntity
  8
0
 62
     0
100
AcDbLine
 10
321.8527369999998
 20
33.03661913699397
 30
0.0
 11
323.808987
 21
33.03661913699397
 31
0.0
  0
LINE
  5
44B
330
447
100
AcDbEntity
  8
0
 62
     0
100
AcDbLine
 10
326.052737
 20
33.03661913699397
 30
0.0
 11
324.096487
 21
33.03661913699397
 31
0.0
  0
SOLID
  5
44C
330
447
100
AcDbEntity
  8
0
 62
     0
100
AcDbTrace
 10
321.8527369999998
 20
33.06161913699398
 30
0.0
 11
321.8527369999998
 21
33.01161913699397
 31
0.0
 12
321.702737
 22
33.03661913699397
 32
0.0
 13
321.702737
 23
33.03661913699397
 33
0.0
  0
SOLID
  5
44D
330
447
100
AcDbEntity
  8
0
 62
     0
100
AcDbTrace
 10
326.052737
 20
33.06161913699398
 30
0.0
 11
326.052737
 21
33.01161913699397
 31
0.0
 12
326.202737
 22
33.03661913699397
 32
0.0
 13
326.202737
 23
33.03661913699397
 33
0.0
  0
MTEXT
  5
44E
330
447
100
AcDbEntity
  8
0
 62
     0
100
AcDbMText
 10
323.952737
 20
33.03661913699397
 30
0.0
 40
0.075
 41
0.0
 71
     5
 72
     1
  1
\A1;4.50
1001
ACAD
1000
MTEXTBEGIN
1070
    73
1070
     1
1070
    44
1040
1.0
1070
    74
1070
     0
1000
MTEXTEND
1000
MTEXTBEGIN
1070
    73
1070
     1
1070
    44
1040
1.0
1070
    74
1070
     0
1000
MTEXTEND
  0
POINT
  5
44F
330
447
100
AcDbEntity
  8
DEFPOINTS
 62
     0
100
AcDbPoint
 10
321.702737
 20
34.214902
 30
0.0
  0
POINT
  5
450
330
447
100
AcDbEntity
  8
DEFPOINTS
 62
     0
100
AcDbPoint
 10
326.202737
 20
34.214902
 30
0.0
  0
POINT
  5
451
330
447
100
AcDbEntity
  8
DEFPOINTS
 62
     0
100
AcDbPoint
 10
326.202737
 20
33.03661913699397
 30
0.0
  0
ENDBLK
  5
453
330
447
100
AcDbEntity
  8
0
100
AcDbBlockEnd
  0
BLOCK
  5
460
330
455
100
AcDbEntity
  8
0
100
AcDbBlockBegin
  2
*D9
 70
     1
 10
0.0
 20
0.0
 30
0.0
  3
*D9
  1

  0
LINE
  5
4F4
330
455
100
AcDbEntity
  8
0
 62
     0
100
AcDbLine
 10
321.702737
 20
35.24255952590571
 30
0.0
 11
321.702737
 21
34.57531135224361
 31
0.0
  0
LINE
  5
4F5
330
455
100
AcDbEntity
  8
0
 62
     0
100
AcDbLine
 10
326.202737
 20
35.24255952590571
 30
0.0
 11
326.202737
 21
34.57531135224361
 31
0.0
  0
LINE
  5
4F6
330
455
100
AcDbEntity
  8
0
 62
     0
100
AcDbLine
 10
321.882737
 20
34.59031135224361
 30
0.0
 11
323.6602369999999
 21
34.59031135224361
 31
0.0
  0
LINE
  5
4F7
330
455
100
AcDbEntity
  8
0
 62
     0
100
AcDbLine
 10
326.0227369999999
 20
34.59031135224361
 30
0.0
 11
324.245237
 21
34.59031135224361
 31
0.0
  0
SOLID
  5
4F8
330
455
100
AcDbEntity
  8
0
 62
     0
100
AcDbTrace
 10
321.882737
 20
34.62031135224362
 30
0.0
 11
321.882737
 21
34.56031135224361
 31
0.0
 12
321.702737
 22
34.59031135224361
 32
0.0
 13
321.702737
 23
34.59031135224361
 33
0.0
  0
SOLID
  5
4F9
330
455
100
AcDbEntity
  8
0
 62
     0
100
AcDbTrace
 10
326.0227369999999
 20
34.62031135224362
 30
0.0
 11
326.0227369999999
 21
34.56031135224361
 31
0.0
 12
326.202737
 22
34.59031135224361
 32
0.0
 13
326.202737
 23
34.59031135224361
 33
0.0
  0
MTEXT
  5
4FA
330
455
100
AcDbEntity
  8
0
 62
     0
100
AcDbMText
 10
323.952737
 20
34.59031135224361
 30
0.0
 40
0.18
 41
0.0
 71
     5
 72
     1
  1
\A1;4.50
1001
ACAD
1000
MTEXTBEGIN
1070
    73
1070
     1
1070
    44
1040
1.0
1070
    74
1070
     0
1000
MTEXTEND
  0
POINT
  5
4FB
330
455
100
AcDbEntity
  8
DEFPOINTS
 62
     0
100
AcDbPoint
 10
321.702737
 20
35.25755952590571
 30
0.0
  0
POINT
  5
4FC
330
455
100
AcDbEntity
  8
DEFPOINTS
 62
     0
100
AcDbPoint
 10
326.202737
 20
35.25755952590571
 30
0.0
  0
POINT
  5
4FD
330
455
100
AcDbEntity
  8
DEFPOINTS
 62
     0
100
AcDbPoint
 10
326.202737
 20
34.59031135224361
 30
0.0
  0
ENDBLK
  5
461
330
455
100
AcDbEntity
  8
0
100
AcDbBlockEnd
  0
BLOCK
  5
46E
330
463
100
AcDbEntity
  8
0
100
AcDbBlockBegin
  2
*D10
 70
     1
 10
0.0
 20
0.0
 30
0.0
  3
*D10
  1

  0
LINE
  5
508
330
463
100
AcDbEntity
  8
0
 62
     0
100
AcDbLine
 10
326.2177369999999
 20
37.25755952590571
 30
0.0
 11
326.8182403903683
 21
37.25755952590571
 31
0.0
  0
LINE
  5
509
330
463
100
AcDbEntity
  8
0
 62
     0
100
AcDbLine
 10
326.2177369999999
 20
35.25755952590571
 30
0.0
 11
326.8182403903683
 21
35.25755952590571
 31
0.0
  0
LINE
  5
50A
330
463
100
AcDbEntity
  8
0
 62
     0
100
AcDbLine
 10
326.8032403903684
 20
37.07755952590571
 30
0.0
 11
326.8032403903684
 21
36.53505952590571
 31
0.0
  0
LINE
  5
50B
330
463
100
AcDbEntity
  8
0
 62
     0
100
AcDbLine
 10
326.8032403903684
 20
35.43755952590571
 30
0.0
 11
326.8032403903684
 21
35.9800595259057
 31
0.0
  0
SOLID
  5
50C
330
463
100
AcDbEntity
  8
0
 62
     0
100
AcDbTrace
 10
326.7732403903684
 20
37.07755952590571
 30
0.0
 11
326.8332403903683
 21
37.07755952590571
 31
0.0
 12
326.8032403903684
 22
37.25755952590571
 32
0.0
 13
326.8032403903684
 23
37.25755952590571
 33
0.0
  0
SOLID
  5
50D
330
463
100
AcDbEntity
  8
0
 62
     0
100
AcDbTrace
 10
326.7732403903684
 20
35.43755952590571
 30
0.0
 11
326.8332403903683
 21
35.43755952590571
 31
0.0
 12
326.8032403903684
 22
35.25755952590571
 32
0.0
 13
326.8032403903684
 23
35.25755952590571
 33
0.0
  0
MTEXT
  5
50E
330
463
100
AcDbEntity
  8
0
 62
     0
100
AcDbMText
 10
326.8032403903684
 20
36.25755952590576
 30
0.0
 40
0.18
 41
0.0
 71
     5
 72
     1
  1
\A1;2.00
 11
0.0000000000000001
 21
1.0
 31
0.0
1001
ACAD
1000
MTEXTBEGIN
1070
    73
1070
     1
1070
    44
1040
1.0
1070
    74
1070
     0
1000
MTEXTEND
  0
POINT
  5
50F
330
463
100
AcDbEntity
  8
DEFPOINTS
 62
     0
100
AcDbPoint
 10
326.202737
 20
37.25755952590571
 30
0.0
  0
POINT
  5
510
330
463
100
AcDbEntity
  8
DEFPOINTS
 62
     0
100
AcDbPoint
 10
326.202737
 20
35.25755952590571
 30
0.0
  0
POINT
  5
511
330
463
100
AcDbEntity
  8
DEFPOINTS
 62
     0
100
AcDbPoint
 10
326.8032403903684
 20
35.25755952590571
 30
0.0
  0
ENDBLK
  5
46F
330
463
100
AcDbEntity
  8
0
100
AcDbBlockEnd
  0
ENDSEC
  0
SECTION
  2
ENTITIES
  0
LINE
  5
2D1
330
2A9
100
AcDbEntity
  8
0
100
AcDbLine
 10
329.348696
 20
29.86362299999999
 30
0.0
 11
329.348696
 21
44.713623
 31
0.0
  0
LINE
  5
2D2
330
2A9
100
AcDbEntity
  8
0
100
AcDbLine
 10
318.848696
 20
44.713623
 30
0.0
 11
318.848696
 21
29.86362299999999
 31
0.0
  0
LINE
  5
2D3
330
2A9
100
AcDbEntity
  8
0
100
AcDbLine
 10
318.848696
 20
29.86362299999999
 30
0.0
 11
329.348696
 21
29.86362299999999
 31
0.0
  0
TEXT
  5
2D4
330
2A9
100
AcDbEntity
  8
0
100
AcDbText
 10
322.0429020458173
 20
42.309482
 30
0.0
 40
0.3
  1
TIPUS   NT900
  7
ROMANC
100
AcDbText
  0
TEXT
  5
2D5
330
2A9
100
AcDbEntity
  8
0
100
AcDbText
 10
322.0049800458173
 20
40.527599
 30
0.0
 40
0.3
  1
P = 130 dm
  7
ROMANC
100
AcDbText
  0
TEXT
  5
2D6
330
2A9
100
AcDbEntity
  8
0
100
AcDbText
 10
322.0559960458174
 20
41.22517799999999
 30
0.0
 40
0.3
  1
S = 900 dm
  7
ROMANC
100
AcDbText
  0
TEXT
  5
2D7
330
2A9
100
AcDbEntity
  8
0
100
AcDbText
 10
322.0429020458173
 20
41.823768
 30
0.0
 40
0.3
  1
ESCALA  1:50
  7
ROMANC
100
AcDbText
  0
TEXT
  5
2D8
330
2A9
100
AcDbEntity
  8
0
100
AcDbText
 10
325.2609310458173
 20
41.531094
 30
0.0
 40
0.1
  1
2
  7
ROMANC
100
AcDbText
  0
LINE
  5
2D9
330
2A9
100
AcDbEntity
  8
0
100
AcDbLine
 10
329.348696
 20
44.713623
 30
0.0
 11
318.848696
 21
44.713623
 31
0.0
  0
POINT
  5
2E8
330
2A9
100
AcDbEntity
  8
DEFPOINTS
  6
BYBLOCK
 62
     0
100
AcDbPoint
 10
326.202737
 20
37.25755952590571
 30
0.0
  0
POINT
  5
2E9
330
2A9
100
AcDbEntity
  8
DEFPOINTS
  6
BYBLOCK
 62
     0
100
AcDbPoint
 10
326.202737
 20
35.25755952590571
 30
0.0
  0
POINT
  5
2F1
330
2A9
100
AcDbEntity
  8
DEFPOINTS
  6
BYBLOCK
 62
     0
100
AcDbPoint
 10
321.702737
 20
35.25755952590571
 30
0.0
  0
POINT
  5
2F2
330
2A9
100
AcDbEntity
  8
DEFPOINTS
  6
BYBLOCK
 62
     0
100
AcDbPoint
 10
326.202737
 20
35.25755952590571
 30
0.0
  0
LWPOLYLINE
  5
429
330
2A9
100
AcDbEntity
  8
0
100
AcDbPolyline
 90
        4
 70
     1
 43
0.0
 10
326.202737
 20
35.25755952590571
 10
326.202737
 20
37.25755952590571
 10
321.702737
 20
37.25755952590571
 10
321.702737
 20
35.25755952590571
  0
LWPOLYLINE
  5
42A
330
2A9
100
AcDbEntity
  8
0
100
AcDbPolyline
 90
        4
 70
     1
 43
0.0
 10
326.2127369999999
 20
35.2475595259057
 10
326.2127369999999
 20
37.26755952590571
 10
321.692737
 20
37.26755952590571
 10
321.692737
 20
35.2475595259057
  0
DIMENSION
  5
454
330
2A9
100
AcDbEntity
  8
0
100
AcDbDimension
  2
*D9
 10
326.202737
 20
34.59031135224361
 30
0.0
 11
323.952737
 21
34.59031135224361
 31
0.0
 70
    32
  3
MERITXELL
100
AcDbAlignedDimension
 13
321.702737
 23
35.25755952590571
 33
0.0
 14
326.202737
 24
35.25755952590571
 34
0.0
100
AcDbRotatedDimension
1001
ACAD
1000
DSTYLE
1002
{
1070
    41
1040
0.12
1070
    77
1070
     0
1070
   140
1040
0.12
1070
   141
1040
0.0
1070
   147
1040
0.025
1070
   340
1005
29C
1002
}
  0
DIMENSION
  5
462
330
2A9
100
AcDbEntity
  8
0
100
AcDbDimension
  2
*D10
 10
326.8032403903684
 20
35.25755952590571
 30
0.0
 11
326.8032403903684
 21
36.25755952590576
 31
0.0
 70
    32
  3
MERITXELL
100
AcDbAlignedDimension
 13
326.202737
 23
37.25755952590571
 33
0.0
 14
326.202737
 24
35.25755952590571
 34
0.0
 50
90.0
100
AcDbRotatedDimension
1001
ACAD
1000
DSTYLE
1002
{
1070
    41
1040
0.12
1070
    77
1070
     0
1070
   140
1040
0.12
1070
   141
1040
0.0
1070
   147
1040
0.025
1070
   340
1005
29C
1002
}
  0
ENDSEC
  0
SECTION
  2
OBJECTS
  0
DICTIONARY
  5
297
330
0
100
AcDbDictionary
  3
ACAD_GROUP
350
298
  3
ACAD_PLOTSTYLENAME
350
299
  3
ACAD_MLINESTYLE
350
2A1
  3
ACAD_PLOTSETTINGS
350
2A3
  3
ACAD_LAYOUT
350
2A4
  3
ACDBHEADERROUNDTRIPXREC
350
536
  0
DICTIONARY
  5
3B4
330
2A9
100
AcDbDictionary
280
     1
  3
ACAD_LAYOUTSELFREF
360
557
  0
DICTIONARY
  5
3B2
330
2A5
100
AcDbDictionary
280
     1
  3
ACAD_LAYOUTSELFREF
360
556
  0
DICTIONARY
  5
298
102
{ACAD_REACTORS
330
297
102
}
330
297
100
AcDbDictionary
  0
ACDBDICTIONARYWDFLT
  5
299
102
{ACAD_REACTORS
330
297
102
}
330
297
100
AcDbDictionary
281
     1
  3
Normal
350
29A
100
AcDbDictionaryWithDefault
340
29A
  0
DICTIONARY
  5
2A1
102
{ACAD_REACTORS
330
297
102
}
330
297
100
AcDbDictionary
  3
STANDARD
350
2A2
  0
DICTIONARY
  5
2A3
102
{ACAD_REACTORS
330
297
102
}
330
297
100
AcDbDictionary
  0
DICTIONARY
  5
2A4
102
{ACAD_REACTORS
330
297
102
}
330
297
100
AcDbDictionary
  0
DICTIONARY
  5
536
102
{ACAD_REACTORS
330
297
102
}
330
297
100
AcDbDictionary
  3
TSTACKALIGN
350
537
  3
TSTACKSIZE
350
538
  3
HYPERLINKBASE
350
539
  3
STYLESHEET
350
53A
  3
LAYOUTDICT
350
53B
  3
PLOTSETDICT
350
53C
  3
PLOTSTYLNAMDICT
350
53D
  3
LWETCUNION
350
53E
  3
INSUNITS
350
53F
  3
CEPSNTYPE
350
540
  3
FINGERPRINTGUID
350
541
  3
VERSIONGUID
350
542
  3
PSVPSCALE
350
543
  3
PUCSORTHOREF
350
544
  3
PUCSORTHOVIEW
350
545
  3
PUCSBASE
350
546
  3
PUCSORGTOP
350
547
  3
PUCSORGBOTTOM
350
548
  3
PUCSORGLEFT
350
549
  3
PUCSORGRIGHT
350
54A
  3
PUCSORGFRONT
350
54B
  3
PUCSORGBACK
350
54C
  3
UCSORTHOREF
350
54D
  3
UCSORTHOVIEW
350
54E
  3
UCSBASE
350
54F
  3
UCSORGTOP
350
550
  3
UCSORGBOTTOM
350
551
  3
UCSORGLEFT
350
552
  3
UCSORGRIGHT
350
553
  3
UCSORGFRONT
350
554
  3
UCSORGBACK
350
555
  0
XRECORD
  5
557
102
{ACAD_REACTORS
330
3B4
102
}
330
3B4
100
AcDbXrecord
340
2A9
  0
XRECORD
  5
556
102
{ACAD_REACTORS
330
3B2
102
}
330
3B2
100
AcDbXrecord
340
2A5
  0
ACDBPLACEHOLDER
  5
29A
102
{ACAD_REACTORS
330
299
102
}
330
299
100
AcDbPlaceHolder
280
     0
  0
MLINESTYLE
  5
2A2
102
{ACAD_REACTORS
330
2A1
102
}
330
2A1
100
AcDbMlineStyle
  2
STANDARD
 70
     0
  3

 62
   256
 51
90.0
 52
90.0
 71
     2
 49
0.5
 62
   256
  6
BYLAYER
 49
-0.5
 62
   256
  6
BYLAYER
  0
XRECORD
  5
537
102
{ACAD_REACTORS
330
536
102
}
330
536
100
AcDbXrecord
 90
        1
  0
XRECORD
  5
538
102
{ACAD_REACTORS
330
536
102
}
330
536
100
AcDbXrecord
 90
       70
  0
XRECORD
  5
539
102
{ACAD_REACTORS
330
536
102
}
330
536
100
AcDbXrecord
  1

  0
XRECORD
  5
53A
102
{ACAD_REACTORS
330
536
102
}
330
536
100
AcDbXrecord
  1
STANDARD2.ctb
  0
XRECORD
  5
53B
102
{ACAD_REACTORS
330
536
102
}
330
536
100
AcDbXrecord
340
2A4
  0
XRECORD
  5
53C
102
{ACAD_REACTORS
330
536
102
}
330
536
100
AcDbXrecord
340
2A3
  0
XRECORD
  5
53D
102
{ACAD_REACTORS
330
536
102
}
330
536
100
AcDbXrecord
340
299
  0
XRECORD
  5
53E
102
{ACAD_REACTORS
330
536
102
}
330
536
100
AcDbXrecord
 90
    10781
  0
XRECORD
  5
53F
102
{ACAD_REACTORS
330
536
102
}
330
536
100
AcDbXrecord
 90
        0
  0
XRECORD
  5
540
102
{ACAD_REACTORS
330
536
102
}
330
536
100
AcDbXrecord
 90
        0
  0
XRECORD
  5
541
102
{ACAD_REACTORS
330
536
102
}
330
536
100
AcDbXrecord
  1
{CA826CE8-564E-496A-A574-14D4EC497362}
  0
XRECORD
  5
542
102
{ACAD_REACTORS
330
536
102
}
330
536
100
AcDbXrecord
  1
{F12BC475-6240-45B3-9028-3791F21A81A6}
  0
XRECORD
  5
543
102
{ACAD_REACTORS
330
536
102
}
330
536
100
AcDbXrecord
 40
0.0
  0
XRECORD
  5
544
102
{ACAD_REACTORS
330
536
102
}
330
536
100
AcDbXrecord
340
0
  0
XRECORD
  5
545
102
{ACAD_REACTORS
330
536
102
}
330
536
100
AcDbXrecord
 70
     0
  0
XRECORD
  5
546
102
{ACAD_REACTORS
330
536
102
}
330
536
100
AcDbXrecord
340
0
  0
XRECORD
  5
547
102
{ACAD_REACTORS
330
536
102
}
330
536
100
AcDbXrecord
 10
0.0
 20
0.0
 30
0.0
  0
XRECORD
  5
548
102
{ACAD_REACTORS
330
536
102
}
330
536
100
AcDbXrecord
 10
0.0
 20
0.0
 30
0.0
  0
XRECORD
  5
549
102
{ACAD_REACTORS
330
536
102
}
330
536
100
AcDbXrecord
 10
0.0
 20
0.0
 30
0.0
  0
XRECORD
  5
54A
102
{ACAD_REACTORS
330
536
102
}
330
536
100
AcDbXrecord
 10
0.0
 20
0.0
 30
0.0
  0
XRECORD
  5
54B
102
{ACAD_REACTORS
330
536
102
}
330
536
100
AcDbXrecord
 10
0.0
 20
0.0
 30
0.0
  0
XRECORD
  5
54C
102
{ACAD_REACTORS
330
536
102
}
330
536
100
AcDbXrecord
 10
0.0
 20
0.0
 30
0.0
  0
XRECORD
  5
54D
102
{ACAD_REACTORS
330
536
102
}
330
536
100
AcDbXrecord
340
0
  0
XRECORD
  5
54E
102
{ACAD_REACTORS
330
536
102
}
330
536
100
AcDbXrecord
 70
     0
  0
XRECORD
  5
54F
102
{ACAD_REACTORS
330
536
102
}
330
536
100
AcDbXrecord
340
0
  0
XRECORD
  5
550
102
{ACAD_REACTORS
330
536
102
}
330
536
100
AcDbXrecord
 10
0.0
 20
0.0
 30
0.0
  0
XRECORD
  5
551
102
{ACAD_REACTORS
330
536
102
}
330
536
100
AcDbXrecord
 10
0.0
 20
0.0
 30
0.0
  0
XRECORD
  5
552
102
{ACAD_REACTORS
330
536
102
}
330
536
100
AcDbXrecord
 10
0.0
 20
0.0
 30
0.0
  0
XRECORD
  5
553
102
{ACAD_REACTORS
330
536
102
}
330
536
100
AcDbXrecord
 10
0.0
 20
0.0
 30
0.0
  0
XRECORD
  5
554
102
{ACAD_REACTORS
330
536
102
}
330
536
100
AcDbXrecord
 10
0.0
 20
0.0
 30
0.0
  0
XRECORD
  5
555
102
{ACAD_REACTORS
330
536
102
}
330
536
100
AcDbXrecord
 10
0.0
 20
0.0
 30
0.0
  0
ENDSEC
  0
EOF
