  0
SECTION
  2
HEADER
  9
$ACADVER
  1
AC1014
  9
$ACADMAINTVER
 70
     9
  9
$DWGCODEPAGE
  3
ANSI_1252
  9
$INSBASE
 10
0.0
 20
0.0
 30
0.0
  9
$EXTMIN
 10
281.395069244134
 20
29.89657355491301
 30
-0.0015258207003583
  9
$EXTMAX
 10
291.8969308140735
 20
44.7474837405175
 30
0.0000000349246037
  9
$LIMMIN
 10
280.3959999999999
 20
28.89699999999999
  9
$LIMMAX
 10
292.8959999999999
 20
43.74699999999999
  9
$ORTHOMODE
 70
     1
  9
$REGENMODE
 70
     1
  9
$FILLMODE
 70
     1
  9
$QTEXTMODE
 70
     0
  9
$MIRRTEXT
 70
     1
  9
$DRAGMODE
 70
     2
  9
$LTSCALE
 40
1.0
  9
$OSMODE
 70
    33
  9
$ATTMODE
 70
     1
  9
$TEXTSIZE
 40
0.2
  9
$TRACEWID
 40
0.05
  9
$TEXTSTYLE
  7
STANDARD
  9
$CLAYER
  8
0
  9
$CELTYPE
  6
BYLAYER
  9
$CECOLOR
 62
   256
  9
$CELTSCALE
 40
1.0
  9
$DELOBJ
 70
     1
  9
$DISPSILH
 70
     0
  9
$DIMSCALE
 40
1.0
  9
$DIMASZ
 40
0.075
  9
$DIMEXO
 40
0.01
  9
$DIMDLI
 40
0.38
  9
$DIMRND
 40
0.0
  9
$DIMDLE
 40
0.0
  9
$DIMEXE
 40
0.075
  9
$DIMTP
 40
0.0
  9
$DIMTM
 40
0.0
  9
$DIMTXT
 40
0.075
  9
$DIMCEN
 40
0.09
  9
$DIMTSZ
 40
0.0
  9
$DIMTOL
 70
     0
  9
$DIMLIM
 70
     0
  9
$DIMTIH
 70
     1
  9
$DIMTOH
 70
     1
  9
$DIMSE1
 70
     0
  9
$DIMSE2
 70
     0
  9
$DIMTAD
 70
     0
  9
$DIMZIN
 70
     0
  9
$DIMBLK
  1
OBLIQUE
  9
$DIMASO
 70
     1
  9
$DIMSHO
 70
     1
  9
$DIMPOST
  1

  9
$DIMAPOST
  1

  9
$DIMALT
 70
     0
  9
$DIMALTD
 70
     2
  9
$DIMALTF
 40
25.4
  9
$DIMLFAC
 40
1.0
  9
$DIMTOFL
 70
     0
  9
$DIMTVP
 40
0.0
  9
$DIMTIX
 70
     1
  9
$DIMSOXD
 70
     0
  9
$DIMSAH
 70
     0
  9
$DIMBLK1
  1

  9
$DIMBLK2
  1

  9
$DIMSTYLE
  2
SECCIONS
  9
$DIMCLRD
 70
     0
  9
$DIMCLRE
 70
     0
  9
$DIMCLRT
 70
     0
  9
$DIMTFAC
 40
1.0
  9
$DIMGAP
 40
0.1
  9
$DIMJUST
 70
     0
  9
$DIMSD1
 70
     0
  9
$DIMSD2
 70
     0
  9
$DIMTOLJ
 70
     1
  9
$DIMTZIN
 70
     0
  9
$DIMALTZ
 70
     0
  9
$DIMALTTZ
 70
     0
  9
$DIMFIT
 70
     0
  9
$DIMUPT
 70
     1
  9
$DIMUNIT
 70
     2
  9
$DIMDEC
 70
     2
  9
$DIMTDEC
 70
     2
  9
$DIMALTU
 70
     2
  9
$DIMALTTD
 70
     2
  9
$DIMTXSTY
  7
ROMANC
  9
$DIMAUNIT
 70
     0
  9
$LUNITS
 70
     2
  9
$LUPREC
 70
     4
  9
$SKETCHINC
 40
0.1
  9
$FILLETRAD
 40
0.0
  9
$AUNITS
 70
     0
  9
$AUPREC
 70
     0
  9
$MENU
  1
acad
  9
$ELEVATION
 40
0.0
  9
$PELEVATION
 40
0.0
  9
$THICKNESS
 40
0.0
  9
$LIMCHECK
 70
     0
  9
$BLIPMODE
 70
     0
  9
$CHAMFERA
 40
0.0
  9
$CHAMFERB
 40
0.0
  9
$CHAMFERC
 40
0.0
  9
$CHAMFERD
 40
0.0
  9
$SKPOLY
 70
     0
  9
$TDCREATE
 40
2448315.373408102
  9
$TDUPDATE
 40
2452221.577791805
  9
$TDINDWG
 40
0.0628321065
  9
$TDUSRTIMER
 40
0.0628275810
  9
$USRTIMER
 70
     1
  9
$ANGBASE
 50
0.0
  9
$ANGDIR
 70
     0
  9
$PDMODE
 70
     0
  9
$PDSIZE
 40
0.0
  9
$PLINEWID
 40
0.0
  9
$COORDS
 70
     1
  9
$SPLFRAME
 70
     0
  9
$SPLINETYPE
 70
     6
  9
$SPLINESEGS
 70
     8
  9
$ATTDIA
 70
     0
  9
$ATTREQ
 70
     1
  9
$HANDLING
 70
  4097
  9
$HANDSEED
  5
47A
  9
$SURFTAB1
 70
     6
  9
$SURFTAB2
 70
     6
  9
$SURFTYPE
 70
     6
  9
$SURFU
 70
     6
  9
$SURFV
 70
     6
  9
$UCSNAME
  2

  9
$UCSORG
 10
0.0
 20
0.0
 30
0.0
  9
$UCSXDIR
 10
1.0
 20
0.0
 30
0.0
  9
$UCSYDIR
 10
0.0
 20
1.0
 30
0.0
  9
$PUCSNAME
  2

  9
$PUCSORG
 10
0.0
 20
0.0
 30
0.0
  9
$PUCSXDIR
 10
1.0
 20
0.0
 30
0.0
  9
$PUCSYDIR
 10
0.0
 20
1.0
 30
0.0
  9
$USERI1
 70
     0
  9
$USERI2
 70
     0
  9
$USERI3
 70
     0
  9
$USERI4
 70
     0
  9
$USERI5
 70
     0
  9
$USERR1
 40
0.0
  9
$USERR2
 40
0.0
  9
$USERR3
 40
0.0
  9
$USERR4
 40
0.0
  9
$USERR5
 40
0.0
  9
$WORLDVIEW
 70
     1
  9
$SHADEDGE
 70
     3
  9
$SHADEDIF
 70
    70
  9
$TILEMODE
 70
     1
  9
$MAXACTVP
 70
    16
  9
$PINSBASE
 10
0.0
 20
0.0
 30
0.0
  9
$PLIMCHECK
 70
     0
  9
$PEXTMIN
 10
1.000000000000000E+20
 20
1.000000000000000E+20
 30
1.000000000000000E+20
  9
$PEXTMAX
 10
-1.000000000000000E+20
 20
-1.000000000000000E+20
 30
-1.000000000000000E+20
  9
$PLIMMIN
 10
0.0
 20
0.0
  9
$PLIMMAX
 10
12.0
 20
9.0
  9
$UNITMODE
 70
     0
  9
$VISRETAIN
 70
     0
  9
$PLINEGEN
 70
     0
  9
$PSLTSCALE
 70
     1
  9
$TREEDEPTH
 70
  3020
  9
$PICKSTYLE
 70
     1
  9
$CMLSTYLE
  2
STANDARD
  9
$CMLJUST
 70
     0
  9
$CMLSCALE
 40
1.0
  9
$PROXYGRAPHICS
 70
     1
  9
$MEASUREMENT
 70
     0
  0
ENDSEC
  0
SECTION
  2
CLASSES
  0
CLASS
  1
ACDBDICTIONARYWDFLT
  2
AcDbDictionaryWithDefault
  3
AutoCAD 2000
 90
        0
280
     0
281
     0
  0
CLASS
  1
ACDBPLACEHOLDER
  2
AcDbPlaceHolder
  3
AutoCAD 2000
 90
        0
280
     0
281
     0
  0
CLASS
  1
LAYOUT
  2
AcDbLayout
  3
AutoCAD 2000
 90
        0
280
     0
281
     0
  0
CLASS
  1
LONG_TRANSACTION
  2
AcDbLongTransaction
  3
AutoCAD 2000
 90
        0
280
     0
281
     0
  0
CLASS
  1
LWPOLYLINE
  2
AcDbPolyline
  3
AutoCAD 2000
 90
        0
280
     0
281
     1
  0
CLASS
  1
HATCH
  2
AcDbHatch
  3
AutoCAD 2000
 90
        0
280
     0
281
     1
  0
CLASS
  1
XRECORD
  2
AcDbXrecord
  3
AutoCAD 2000
 90
        0
280
     0
281
     0
  0
CLASS
  1
LONG_TRANSACTION
  2
AcDbLongTransaction
  3
AutoCAD 2000
 90
        0
280
     0
281
     0
  0
CLASS
  1
LWPOLYLINE
  2
AcDbPolyline
  3
AutoCAD 2000
 90
        0
280
     0
281
     1
  0
CLASS
  1
HATCH
  2
AcDbHatch
  3
AutoCAD 2000
 90
        0
280
     0
281
     1
  0
CLASS
  1
XRECORD
  2
AcDbXrecord
  3
AutoCAD 2000
 90
        0
280
     0
281
     0
  0
ENDSEC
  0
SECTION
  2
TABLES
  0
TABLE
  2
VPORT
  5
8
330
0
100
AcDbSymbolTable
 70
     3
  0
VPORT
  5
456
330
8
100
AcDbSymbolTableRecord
100
AcDbViewportTableRecord
  2
*ACTIVE
 70
     0
 10
0.0
 20
0.0
 11
1.0
 21
1.0
 12
286.6460000291037
 22
37.32202864771525
 13
0.0
 23
0.0
 14
1.0
 24
1.0
 15
0.0
 25
0.0
 16
0.0
 26
0.0
 36
1.0
 17
0.0
 27
0.0
 37
0.0
 40
14.95787952667727
 41
1.448317307692307
 42
50.0
 43
0.0
 44
0.0
 50
0.0
 51
0.0
 71
     0
 72
   100
 73
     1
 74
     1
 75
     0
 76
     0
 77
     0
 78
     0
  0
ENDTAB
  0
TABLE
  2
LTYPE
  5
5
330
0
100
AcDbSymbolTable
 70
     1
  0
LTYPE
  5
13
330
5
100
AcDbSymbolTableRecord
100
AcDbLinetypeTableRecord
  2
BYBLOCK
 70
     0
  3

 72
    65
 73
     0
 40
0.0
  0
LTYPE
  5
14
330
5
100
AcDbSymbolTableRecord
100
AcDbLinetypeTableRecord
  2
BYLAYER
 70
     0
  3

 72
    65
 73
     0
 40
0.0
  0
LTYPE
  5
15
330
5
100
AcDbSymbolTableRecord
100
AcDbLinetypeTableRecord
  2
CONTINUOUS
 70
     0
  3
Solid line
 72
    65
 73
     0
 40
0.0
  0
ENDTAB
  0
TABLE
  2
LAYER
  5
2
330
0
100
AcDbSymbolTable
 70
     8
  0
LAYER
  5
10
330
2
100
AcDbSymbolTableRecord
100
AcDbLayerTableRecord
  2
0
 70
     0
 62
     7
  6
CONTINUOUS
  0
LAYER
  5
22
330
2
100
AcDbSymbolTableRecord
100
AcDbLayerTableRecord
  2
1
 70
     0
 62
     7
  6
CONTINUOUS
  0
LAYER
  5
23
330
2
100
AcDbSymbolTableRecord
100
AcDbLayerTableRecord
  2
7
 70
     0
 62
     7
  6
CONTINUOUS
  0
LAYER
  5
24
330
2
100
AcDbSymbolTableRecord
100
AcDbLayerTableRecord
  2
8
 70
     0
 62
     7
  6
CONTINUOUS
  0
LAYER
  5
25
330
2
100
AcDbSymbolTableRecord
100
AcDbLayerTableRecord
  2
9
 70
     0
 62
     7
  6
CONTINUOUS
  0
LAYER
  5
26
330
2
100
AcDbSymbolTableRecord
100
AcDbLayerTableRecord
  2
22
 70
     0
 62
     7
  6
CONTINUOUS
  0
LAYER
  5
27
330
2
100
AcDbSymbolTableRecord
100
AcDbLayerTableRecord
  2
25
 70
     0
 62
     7
  6
CONTINUOUS
  0
LAYER
  5
CD
330
2
100
AcDbSymbolTableRecord
100
AcDbLayerTableRecord
  2
DEFPOINTS
 70
     0
 62
     7
  6
CONTINUOUS
  0
ENDTAB
  0
TABLE
  2
STYLE
  5
3
330
0
100
AcDbSymbolTable
 70
     2
  0
STYLE
  5
11
330
3
100
AcDbSymbolTableRecord
100
AcDbTextStyleTableRecord
  2
STANDARD
 70
     0
 40
0.0
 41
1.0
 50
0.0
 71
     0
 42
0.2
  3
txt
  4

  0
STYLE
  5
28
330
3
100
AcDbSymbolTableRecord
100
AcDbTextStyleTableRecord
  2
ROMANC
 70
     0
 40
0.0
 41
1.0
 50
0.0
 71
     0
 42
0.2
  3
ROMANC
  4

  0
ENDTAB
  0
TABLE
  2
VIEW
  5
6
330
0
100
AcDbSymbolTable
 70
     0
  0
ENDTAB
  0
TABLE
  2
UCS
  5
7
330
0
100
AcDbSymbolTable
 70
     0
  0
ENDTAB
  0
TABLE
  2
APPID
  5
9
330
0
100
AcDbSymbolTable
 70
     1
  0
APPID
  5
12
330
9
100
AcDbSymbolTableRecord
100
AcDbRegAppTableRecord
  2
ACAD
 70
     0
  0
ENDTAB
  0
TABLE
  2
DIMSTYLE
  5
A
330
0
100
AcDbSymbolTable
 70
     2
  0
DIMSTYLE
105
5E
102
{ACAD_REACTORS
330
F8
330
106
330
129
330
E9
330
119
330
DB
330
CC
102
}
330
A
100
AcDbSymbolTableRecord
100
AcDbDimStyleTableRecord
  2
STANDARD
 70
     0
  3

  4

  5

  6

  7

 40
1.0
 41
0.18
 42
0.0625
 43
0.38
 44
0.18
 45
0.0
 46
0.0
 47
0.0
 48
0.0
140
0.18
141
0.09
142
0.0
143
25.4
144
1.0
145
0.0
146
1.0
147
0.09
 71
     0
 72
     0
 73
     1
 74
     1
 75
     0
 76
     0
 77
     0
 78
     0
170
     0
171
     2
172
     0
173
     0
174
     0
175
     0
176
     0
177
     0
178
     0
270
     2
271
     4
272
     4
273
     2
274
     2
340
11
275
     0
280
     0
281
     0
282
     0
283
     1
284
     0
285
     0
286
     0
287
     3
288
     0
  0
DIMSTYLE
105
13D
102
{ACAD_REACTORS
330
2D3
330
1BD
330
2BC
330
188
330
13E
330
30B
330
330
330
33E
330
319
330
39F
102
}
330
A
100
AcDbSymbolTableRecord
100
AcDbDimStyleTableRecord
  2
SECCIONS
 70
     0
  3

  4

  5
OBLIQUE
  6

  7

 40
1.0
 41
0.075
 42
0.01
 43
0.38
 44
0.075
 45
0.0
 46
0.0
 47
0.0
 48
0.0
140
0.075
141
0.09
142
0.0
143
25.4
144
1.0
145
0.0
146
1.0
147
0.1
 71
     0
 72
     0
 73
     1
 74
     1
 75
     0
 76
     0
 77
     0
 78
     0
170
     0
171
     2
172
     0
173
     0
174
     1
175
     0
176
     0
177
     0
178
     0
270
     2
271
     2
272
     2
273
     2
274
     2
340
28
275
     0
280
     0
281
     0
282
     0
283
     1
284
     0
285
     0
286
     0
287
     0
288
     1
  0
ENDTAB
  0
TABLE
  2
BLOCK_RECORD
  5
1
330
0
100
AcDbSymbolTable
 70
    18
  0
BLOCK_RECORD
  5
1E
102
{ACAD_XDICTIONARY
360
B4
102
}
330
1
100
AcDbSymbolTableRecord
100
AcDbBlockTableRecord
  2
*MODEL_SPACE
  0
BLOCK_RECORD
  5
1A
102
{ACAD_XDICTIONARY
360
B2
102
}
330
1
100
AcDbSymbolTableRecord
100
AcDbBlockTableRecord
  2
*PAPER_SPACE
  0
BLOCK_RECORD
  5
CE
330
1
100
AcDbSymbolTableRecord
100
AcDbBlockTableRecord
  2
*D0
  0
BLOCK_RECORD
  5
DC
330
1
100
AcDbSymbolTableRecord
100
AcDbBlockTableRecord
  2
*D1
  0
BLOCK_RECORD
  5
EA
330
1
100
AcDbSymbolTableRecord
100
AcDbBlockTableRecord
  2
*D2
  0
BLOCK_RECORD
  5
F9
330
1
100
AcDbSymbolTableRecord
100
AcDbBlockTableRecord
  2
*D3
  0
BLOCK_RECORD
  5
107
330
1
100
AcDbSymbolTableRecord
100
AcDbBlockTableRecord
  2
*D4
  0
BLOCK_RECORD
  5
11A
330
1
100
AcDbSymbolTableRecord
100
AcDbBlockTableRecord
  2
*D5
  0
BLOCK_RECORD
  5
12A
330
1
100
AcDbSymbolTableRecord
100
AcDbBlockTableRecord
  2
*D6
  0
BLOCK_RECORD
  5
139
330
1
100
AcDbSymbolTableRecord
100
AcDbBlockTableRecord
  2
_OBLIQUE
  0
BLOCK_RECORD
  5
13F
330
1
100
AcDbSymbolTableRecord
100
AcDbBlockTableRecord
  2
*D8
  0
BLOCK_RECORD
  5
189
330
1
100
AcDbSymbolTableRecord
100
AcDbBlockTableRecord
  2
*D9
  0
BLOCK_RECORD
  5
1BE
330
1
100
AcDbSymbolTableRecord
100
AcDbBlockTableRecord
  2
*D10
  0
BLOCK_RECORD
  5
2BD
330
1
100
AcDbSymbolTableRecord
100
AcDbBlockTableRecord
  2
*D11
  0
BLOCK_RECORD
  5
2D4
330
1
100
AcDbSymbolTableRecord
100
AcDbBlockTableRecord
  2
*D12
  0
BLOCK_RECORD
  5
30C
330
1
100
AcDbSymbolTableRecord
100
AcDbBlockTableRecord
  2
*D13
  0
BLOCK_RECORD
  5
31A
330
1
100
AcDbSymbolTableRecord
100
AcDbBlockTableRecord
  2
*D14
  0
BLOCK_RECORD
  5
331
330
1
100
AcDbSymbolTableRecord
100
AcDbBlockTableRecord
  2
*D15
  0
BLOCK_RECORD
  5
33F
330
1
100
AcDbSymbolTableRecord
100
AcDbBlockTableRecord
  2
*D16
  0
BLOCK_RECORD
  5
3A0
330
1
100
AcDbSymbolTableRecord
100
AcDbBlockTableRecord
  2
*D17
  0
ENDTAB
  0
ENDSEC
  0
SECTION
  2
BLOCKS
  0
BLOCK
  5
1F
330
1E
100
AcDbEntity
  8
0
100
AcDbBlockBegin
  2
*MODEL_SPACE
 70
     0
 10
0.0
 20
0.0
 30
0.0
  3
*MODEL_SPACE
  1

  0
ENDBLK
  5
20
330
1E
100
AcDbEntity
  8
0
100
AcDbBlockEnd
  0
BLOCK
  5
1B
330
1A
100
AcDbEntity
 67
     1
  8
0
100
AcDbBlockBegin
  2
*PAPER_SPACE
 70
     0
 10
0.0
 20
0.0
 30
0.0
  3
*PAPER_SPACE
  1

  0
ENDBLK
  5
1C
330
1A
100
AcDbEntity
 67
     1
  8
0
100
AcDbBlockEnd
  0
BLOCK
  5
D9
330
CE
100
AcDbEntity
  8
0
100
AcDbBlockBegin
  2
*D0
 70
     1
 10
0.0
 20
0.0
 30
0.0
  3
*D0
  1

  0
LINE
  5
CF
330
CE
100
AcDbEntity
  8
0
 62
     0
100
AcDbLine
 10
284.9125402733046
 20
34.26324705920048
 30
0.0
 11
284.9125402733046
 21
33.51654483336801
 31
0.0
  0
LINE
  5
D0
330
CE
100
AcDbEntity
  8
0
 62
     0
100
AcDbLine
 10
285.4125402733046
 20
34.26324705920048
 30
0.0
 11
285.4125402733046
 21
33.51654483336801
 31
0.0
  0
LINE
  5
D1
330
CE
100
AcDbEntity
  8
0
 62
     0
100
AcDbLine
 10
284.7325402733046
 20
33.696544833368
 30
0.0
 11
284.5525402733046
 21
33.696544833368
 31
0.0
  0
LINE
  5
D2
330
CE
100
AcDbEntity
  8
0
 62
     0
100
AcDbLine
 10
285.5925402733046
 20
33.696544833368
 30
0.0
 11
285.7725402733046
 21
33.696544833368
 31
0.0
  0
SOLID
  5
D3
330
CE
100
AcDbEntity
  8
0
 62
     0
100
AcDbTrace
 10
284.7325402733046
 20
33.72654483336801
 30
0.0
 11
284.7325402733046
 21
33.666544833368
 31
0.0
 12
284.9125402733046
 22
33.696544833368
 32
0.0
 13
284.9125402733046
 23
33.696544833368
 33
0.0
  0
SOLID
  5
D4
330
CE
100
AcDbEntity
  8
0
 62
     0
100
AcDbTrace
 10
285.5925402733046
 20
33.72654483336801
 30
0.0
 11
285.5925402733046
 21
33.666544833368
 31
0.0
 12
285.4125402733046
 22
33.696544833368
 32
0.0
 13
285.4125402733046
 23
33.696544833368
 33
0.0
  0
MTEXT
  5
D5
330
CE
100
AcDbEntity
  8
0
 62
     0
100
AcDbMText
 10
286.2525402733046
 20
33.696544833368
 30
0.0
 40
0.18
 41
0.0
 71
     5
 72
     1
  1
\A1;0.5000
1001
ACAD
1000
MTEXTBEGIN
1070
    73
1070
     1
1070
    44
1040
1.0
1070
    74
1070
     0
1000
MTEXTEND
  0
POINT
  5
D6
330
CE
100
AcDbEntity
  8
DEFPOINTS
 62
     0
100
AcDbPoint
 10
284.9125402733046
 20
34.32574705920048
 30
0.0
  0
POINT
  5
D7
330
CE
100
AcDbEntity
  8
DEFPOINTS
 62
     0
100
AcDbPoint
 10
285.4125402733046
 20
34.32574705920048
 30
0.0
  0
POINT
  5
D8
330
CE
100
AcDbEntity
  8
DEFPOINTS
 62
     0
100
AcDbPoint
 10
285.4125402733046
 20
33.696544833368
 30
0.0
  0
ENDBLK
  5
DA
330
CE
100
AcDbEntity
  8
0
100
AcDbBlockEnd
  0
BLOCK
  5
E7
330
DC
100
AcDbEntity
  8
0
100
AcDbBlockBegin
  2
*D1
 70
     1
 10
0.0
 20
0.0
 30
0.0
  3
*D1
  1

  0
LINE
  5
DD
330
DC
100
AcDbEntity
  8
0
 62
     0
100
AcDbLine
 10
285.4125402733046
 20
34.26324705920042
 30
0.0
 11
285.4125402733046
 21
33.75458390307201
 31
0.0
  0
LINE
  5
DE
330
DC
100
AcDbEntity
  8
0
 62
     0
100
AcDbLine
 10
285.7125402733046
 20
34.26324705920115
 30
0.0
 11
285.7125402733046
 21
33.75458390307201
 31
0.0
  0
LINE
  5
DF
330
DC
100
AcDbEntity
  8
0
 62
     0
100
AcDbLine
 10
285.2325402733046
 20
33.93458390307201
 30
0.0
 11
285.0525402733046
 21
33.93458390307201
 31
0.0
  0
LINE
  5
E0
330
DC
100
AcDbEntity
  8
0
 62
     0
100
AcDbLine
 10
285.8925402733047
 20
33.93458390307201
 30
0.0
 11
286.0725402733046
 21
33.93458390307201
 31
0.0
  0
SOLID
  5
E1
330
DC
100
AcDbEntity
  8
0
 62
     0
100
AcDbTrace
 10
285.2325402733046
 20
33.96458390307202
 30
0.0
 11
285.2325402733046
 21
33.90458390307201
 31
0.0
 12
285.4125402733046
 22
33.93458390307201
 32
0.0
 13
285.4125402733046
 23
33.93458390307201
 33
0.0
  0
SOLID
  5
E2
330
DC
100
AcDbEntity
  8
0
 62
     0
100
AcDbTrace
 10
285.8925402733047
 20
33.96458390307202
 30
0.0
 11
285.8925402733047
 21
33.90458390307201
 31
0.0
 12
285.7125402733046
 22
33.93458390307201
 32
0.0
 13
285.7125402733046
 23
33.93458390307201
 33
0.0
  0
MTEXT
  5
E3
330
DC
100
AcDbEntity
  8
0
 62
     0
100
AcDbMText
 10
286.5525402733046
 20
33.93458390307201
 30
0.0
 40
0.18
 41
0.0
 71
     5
 72
     1
  1
\A1;0.3000
1001
ACAD
1000
MTEXTBEGIN
1070
    73
1070
     1
1070
    44
1040
1.0
1070
    74
1070
     0
1000
MTEXTEND
  0
POINT
  5
E4
330
DC
100
AcDbEntity
  8
DEFPOINTS
 62
     0
100
AcDbPoint
 10
285.4125402733046
 20
34.32574705920042
 30
0.0
  0
POINT
  5
E5
330
DC
100
AcDbEntity
  8
DEFPOINTS
 62
     0
100
AcDbPoint
 10
285.7125402733046
 20
34.32574705920115
 30
0.0
  0
POINT
  5
E6
330
DC
100
AcDbEntity
  8
DEFPOINTS
 62
     0
100
AcDbPoint
 10
285.7125402733046
 20
33.93458390307201
 30
0.0
  0
ENDBLK
  5
E8
330
DC
100
AcDbEntity
  8
0
100
AcDbBlockEnd
  0
BLOCK
  5
F6
330
EA
100
AcDbEntity
  8
0
100
AcDbBlockBegin
  2
*D2
 70
     1
 10
0.0
 20
0.0
 30
0.0
  3
*D2
  1

  0
LINE
  5
EB
330
EA
100
AcDbEntity
  8
0
 62
     0
100
AcDbLine
 10
285.7750402733046
 20
34.12574705920048
 30
0.0
 11
286.3574180729916
 21
34.12574705920048
 31
0.0
  0
LINE
  5
EC
330
EA
100
AcDbEntity
  8
0
 62
     0
100
AcDbLine
 10
285.7750402733048
 20
34.32574705920053
 30
0.0
 11
286.3574180729916
 21
34.32574705920053
 31
0.0
  0
LINE
  5
ED
330
EA
100
AcDbEntity
  8
0
 62
     0
100
AcDbLine
 10
286.1774180729916
 20
33.94574705920048
 30
0.0
 11
286.1774180729916
 21
33.76574705920048
 31
0.0
  0
LINE
  5
EE
330
EA
100
AcDbEntity
  8
0
 62
     0
100
AcDbLine
 10
286.1774180729916
 20
34.50574705920053
 30
0.0
 11
286.1774180729916
 21
34.68574705920053
 31
0.0
  0
LINE
  5
EF
330
EA
100
AcDbEntity
  8
0
 62
     0
100
AcDbLine
 10
286.1774180729916
 20
34.68574705920053
 30
0.0
 11
286.3574180729916
 21
34.68574705920053
 31
0.0
  0
SOLID
  5
F0
330
EA
100
AcDbEntity
  8
0
 62
     0
100
AcDbTrace
 10
286.1474180729917
 20
33.94574705920048
 30
0.0
 11
286.2074180729916
 21
33.94574705920048
 31
0.0
 12
286.1774180729916
 22
34.12574705920048
 32
0.0
 13
286.1774180729916
 23
34.12574705920048
 33
0.0
  0
SOLID
  5
F1
330
EA
100
AcDbEntity
  8
0
 62
     0
100
AcDbTrace
 10
286.1474180729917
 20
34.50574705920053
 30
0.0
 11
286.2074180729916
 21
34.50574705920053
 31
0.0
 12
286.1774180729916
 22
34.32574705920053
 32
0.0
 13
286.1774180729916
 23
34.32574705920053
 33
0.0
  0
MTEXT
  5
F2
330
EA
100
AcDbEntity
  8
0
 62
     0
100
AcDbMText
 10
286.8374180729917
 20
34.68574705920058
 30
0.0
 40
0.18
 41
0.0
 71
     5
 72
     1
  1
\A1;0.2000
1001
ACAD
1000
MTEXTBEGIN
1070
    73
1070
     1
1070
    44
1040
1.0
1070
    74
1070
     0
1000
MTEXTEND
  0
POINT
  5
F3
330
EA
100
AcDbEntity
  8
DEFPOINTS
 62
     0
100
AcDbPoint
 10
285.7125402733046
 20
34.12574705920048
 30
0.0
  0
POINT
  5
F4
330
EA
100
AcDbEntity
  8
DEFPOINTS
 62
     0
100
AcDbPoint
 10
285.7125402733048
 20
34.32574705920053
 30
0.0
  0
POINT
  5
F5
330
EA
100
AcDbEntity
  8
DEFPOINTS
 62
     0
100
AcDbPoint
 10
286.1774180729916
 20
34.32574705920053
 30
0.0
  0
ENDBLK
  5
F7
330
EA
100
AcDbEntity
  8
0
100
AcDbBlockEnd
  0
BLOCK
  5
104
330
F9
100
AcDbEntity
  8
0
100
AcDbBlockBegin
  2
*D3
 70
     1
 10
0.0
 20
0.0
 30
0.0
  3
*D3
  1

  0
LINE
  5
FA
330
F9
100
AcDbEntity
  8
0
 62
     0
100
AcDbLine
 10
284.8637586798126
 20
35.03108868521453
 30
0.0
 11
284.8637586798126
 21
35.78425806207617
 31
0.0
  0
LINE
  5
FB
330
F9
100
AcDbEntity
  8
0
 62
     0
100
AcDbLine
 10
285.7113218667966
 20
35.03108868521453
 30
0.0
 11
285.7113218667966
 21
35.78425806207617
 31
0.0
  0
LINE
  5
FC
330
F9
100
AcDbEntity
  8
0
 62
     0
100
AcDbLine
 10
285.0437586798126
 20
35.60425806207617
 30
0.0
 11
285.5313218667966
 21
35.60425806207617
 31
0.0
  0
LINE
  5
FD
330
F9
100
AcDbEntity
  8
0
 62
     0
100
AcDbLine
 10
285.7113218667966
 20
35.60425806207617
 30
0.0
 11
285.8913218667966
 21
35.60425806207617
 31
0.0
  0
SOLID
  5
FE
330
F9
100
AcDbEntity
  8
0
 62
     0
100
AcDbTrace
 10
285.0437586798126
 20
35.63425806207617
 30
0.0
 11
285.0437586798126
 21
35.57425806207616
 31
0.0
 12
284.8637586798126
 22
35.60425806207617
 32
0.0
 13
284.8637586798126
 23
35.60425806207617
 33
0.0
  0
SOLID
  5
FF
330
F9
100
AcDbEntity
  8
0
 62
     0
100
AcDbTrace
 10
285.5313218667966
 20
35.63425806207617
 30
0.0
 11
285.5313218667966
 21
35.57425806207616
 31
0.0
 12
285.7113218667966
 22
35.60425806207617
 32
0.0
 13
285.7113218667966
 23
35.60425806207617
 33
0.0
  0
MTEXT
  5
100
330
F9
100
AcDbEntity
  8
0
 62
     0
100
AcDbMText
 10
286.4163218667966
 20
35.60425806207617
 30
0.0
 40
0.18
 41
0.0
 71
     5
 72
     1
  1
\A1;0.8476
1001
ACAD
1000
MTEXTBEGIN
1070
    73
1070
     1
1070
    44
1040
1.0
1070
    74
1070
     0
1000
MTEXTEND
  0
POINT
  5
101
330
F9
100
AcDbEntity
  8
DEFPOINTS
 62
     0
100
AcDbPoint
 10
284.8637586798126
 20
34.96858868521453
 30
0.0
  0
POINT
  5
102
330
F9
100
AcDbEntity
  8
DEFPOINTS
 62
     0
100
AcDbPoint
 10
285.7113218667966
 20
34.96858868521453
 30
0.0
  0
POINT
  5
103
330
F9
100
AcDbEntity
  8
DEFPOINTS
 62
     0
100
AcDbPoint
 10
285.7113218667966
 20
35.60425806207617
 30
0.0
  0
ENDBLK
  5
105
330
F9
100
AcDbEntity
  8
0
100
AcDbBlockEnd
  0
BLOCK
  5
112
330
107
100
AcDbEntity
  8
0
100
AcDbBlockBegin
  2
*D4
 70
     1
 10
0.0
 20
0.0
 30
0.0
  3
*D4
  1

  0
LINE
  5
108
330
107
100
AcDbEntity
  8
0
 62
     0
100
AcDbLine
 10
284.8637586798126
 20
35.03108868521453
 30
0.0
 11
284.8637586798126
 21
35.80126086023214
 31
0.0
  0
LINE
  5
109
330
107
100
AcDbEntity
  8
0
 62
     0
100
AcDbLine
 10
285.7113218667966
 20
35.03108868521453
 30
0.0
 11
285.7113218667966
 21
35.80126086023214
 31
0.0
  0
LINE
  5
10A
330
107
100
AcDbEntity
  8
0
 62
     0
100
AcDbLine
 10
285.0437586798126
 20
35.62126086023214
 30
0.0
 11
285.5313218667966
 21
35.62126086023214
 31
0.0
  0
LINE
  5
10B
330
107
100
AcDbEntity
  8
0
 62
     0
100
AcDbLine
 10
285.7113218667966
 20
35.62126086023214
 30
0.0
 11
285.8913218667966
 21
35.62126086023214
 31
0.0
  0
SOLID
  5
10C
330
107
100
AcDbEntity
  8
0
 62
     0
100
AcDbTrace
 10
285.0437586798126
 20
35.65126086023214
 30
0.0
 11
285.0437586798126
 21
35.59126086023214
 31
0.0
 12
284.8637586798126
 22
35.62126086023214
 32
0.0
 13
284.8637586798126
 23
35.62126086023214
 33
0.0
  0
SOLID
  5
10D
330
107
100
AcDbEntity
  8
0
 62
     0
100
AcDbTrace
 10
285.5313218667966
 20
35.65126086023214
 30
0.0
 11
285.5313218667966
 21
35.59126086023214
 31
0.0
 12
285.7113218667966
 22
35.62126086023214
 32
0.0
 13
285.7113218667966
 23
35.62126086023214
 33
0.0
  0
MTEXT
  5
10E
330
107
100
AcDbEntity
  8
0
 62
     0
100
AcDbMText
 10
286.4163218667966
 20
35.62126086023214
 30
0.0
 40
0.18
 41
0.0
 71
     5
 72
     1
  1
\A1;0.8476
1001
ACAD
1000
MTEXTBEGIN
1070
    73
1070
     1
1070
    44
1040
1.0
1070
    74
1070
     0
1000
MTEXTEND
  0
POINT
  5
10F
330
107
100
AcDbEntity
  8
DEFPOINTS
 62
     0
100
AcDbPoint
 10
284.8637586798126
 20
34.96858868521453
 30
0.0
  0
POINT
  5
110
330
107
100
AcDbEntity
  8
DEFPOINTS
 62
     0
100
AcDbPoint
 10
285.7113218667966
 20
34.96858868521453
 30
0.0
  0
POINT
  5
111
330
107
100
AcDbEntity
  8
DEFPOINTS
 62
     0
100
AcDbPoint
 10
285.7113218667966
 20
35.62126086023214
 30
0.0
  0
ENDBLK
  5
113
330
107
100
AcDbEntity
  8
0
100
AcDbBlockEnd
  0
BLOCK
  5
125
330
11A
100
AcDbEntity
  8
0
100
AcDbBlockBegin
  2
*D5
 70
     1
 10
0.0
 20
0.0
 30
0.0
  3
*D5
  1

  0
LINE
  5
11B
330
11A
100
AcDbEntity
  8
0
 62
     0
100
AcDbLine
 10
285.2250402733046
 20
35.42574705920048
 30
0.0
 11
284.0005482680209
 21
35.42574705920048
 31
0.0
  0
LINE
  5
11C
330
11A
100
AcDbEntity
  8
0
 62
     0
100
AcDbLine
 10
285.5000402733047
 20
34.12574705920044
 30
0.0
 11
284.0005482680209
 21
34.12574705920044
 31
0.0
  0
LINE
  5
11D
330
11A
100
AcDbEntity
  8
0
 62
     0
100
AcDbLine
 10
284.1805482680209
 20
35.24574705920048
 30
0.0
 11
284.1805482680209
 21
34.95574705920046
 31
0.0
  0
LINE
  5
11E
330
11A
100
AcDbEntity
  8
0
 62
     0
100
AcDbLine
 10
284.1805482680209
 20
34.30574705920044
 30
0.0
 11
284.1805482680209
 21
34.59574705920046
 31
0.0
  0
SOLID
  5
11F
330
11A
100
AcDbEntity
  8
0
 62
     0
100
AcDbTrace
 10
284.1505482680209
 20
35.24574705920048
 30
0.0
 11
284.2105482680208
 21
35.24574705920048
 31
0.0
 12
284.1805482680209
 22
35.42574705920048
 32
0.0
 13
284.1805482680209
 23
35.42574705920048
 33
0.0
  0
SOLID
  5
120
330
11A
100
AcDbEntity
  8
0
 62
     0
100
AcDbTrace
 10
284.1505482680209
 20
34.30574705920044
 30
0.0
 11
284.2105482680208
 21
34.30574705920044
 31
0.0
 12
284.1805482680209
 22
34.12574705920044
 32
0.0
 13
284.1805482680209
 23
34.12574705920044
 33
0.0
  0
MTEXT
  5
121
330
11A
100
AcDbEntity
  8
0
 62
     0
100
AcDbMText
 10
284.1805482680209
 20
34.77574705920051
 30
0.0
 40
0.18
 41
0.0
 71
     5
 72
     1
  1
\A1;1.3000
1001
ACAD
1000
MTEXTBEGIN
1070
    73
1070
     1
1070
    44
1040
1.0
1070
    74
1070
     0
1000
MTEXTEND
  0
POINT
  5
122
330
11A
100
AcDbEntity
  8
DEFPOINTS
 62
     0
100
AcDbPoint
 10
285.2875402733046
 20
35.42574705920048
 30
0.0
  0
POINT
  5
123
330
11A
100
AcDbEntity
  8
DEFPOINTS
 62
     0
100
AcDbPoint
 10
285.5625402733047
 20
34.12574705920044
 30
0.0
  0
POINT
  5
124
330
11A
100
AcDbEntity
  8
DEFPOINTS
 62
     0
100
AcDbPoint
 10
284.1805482680209
 20
34.12574705920044
 30
0.0
  0
ENDBLK
  5
126
330
11A
100
AcDbEntity
  8
0
100
AcDbBlockEnd
  0
BLOCK
  5
135
330
12A
100
AcDbEntity
  8
0
100
AcDbBlockBegin
  2
*D6
 70
     1
 10
0.0
 20
0.0
 30
0.0
  3
*D6
  1

  0
LINE
  5
12B
330
12A
100
AcDbEntity
  8
0
 62
     0
100
AcDbLine
 10
284.8625402733046
 20
35.06324705920048
 30
0.0
 11
284.8625402733046
 21
35.95768654057932
 31
0.0
  0
LINE
  5
12C
330
12A
100
AcDbEntity
  8
0
 62
     0
100
AcDbLine
 10
285.7125402733046
 20
35.06324705920048
 30
0.0
 11
285.7125402733046
 21
35.95768654057932
 31
0.0
  0
LINE
  5
12D
330
12A
100
AcDbEntity
  8
0
 62
     0
100
AcDbLine
 10
285.0425402733046
 20
35.77768654057932
 30
0.0
 11
285.5325402733047
 21
35.77768654057932
 31
0.0
  0
LINE
  5
12E
330
12A
100
AcDbEntity
  8
0
 62
     0
100
AcDbLine
 10
285.7125402733046
 20
35.77768654057932
 30
0.0
 11
285.8925402733047
 21
35.77768654057932
 31
0.0
  0
SOLID
  5
12F
330
12A
100
AcDbEntity
  8
0
 62
     0
100
AcDbTrace
 10
285.0425402733046
 20
35.80768654057932
 30
0.0
 11
285.0425402733046
 21
35.74768654057932
 31
0.0
 12
284.8625402733046
 22
35.77768654057932
 32
0.0
 13
284.8625402733046
 23
35.77768654057932
 33
0.0
  0
SOLID
  5
130
330
12A
100
AcDbEntity
  8
0
 62
     0
100
AcDbTrace
 10
285.5325402733047
 20
35.80768654057932
 30
0.0
 11
285.5325402733047
 21
35.74768654057932
 31
0.0
 12
285.7125402733046
 22
35.77768654057932
 32
0.0
 13
285.7125402733046
 23
35.77768654057932
 33
0.0
  0
MTEXT
  5
131
330
12A
100
AcDbEntity
  8
0
 62
     0
100
AcDbMText
 10
286.3875402733047
 20
35.77768654057932
 30
0.0
 40
0.18
 41
0.0
 71
     5
 72
     1
  1
\A1;0.8500
1001
ACAD
1000
MTEXTBEGIN
1070
    73
1070
     1
1070
    44
1040
1.0
1070
    74
1070
     0
1000
MTEXTEND
  0
POINT
  5
132
330
12A
100
AcDbEntity
  8
DEFPOINTS
 62
     0
100
AcDbPoint
 10
284.8625402733046
 20
35.00074705920048
 30
0.0
  0
POINT
  5
133
330
12A
100
AcDbEntity
  8
DEFPOINTS
 62
     0
100
AcDbPoint
 10
285.7125402733046
 20
35.00074705920048
 30
0.0
  0
POINT
  5
134
330
12A
100
AcDbEntity
  8
DEFPOINTS
 62
     0
100
AcDbPoint
 10
285.7125402733046
 20
35.77768654057932
 30
0.0
  0
ENDBLK
  5
136
330
12A
100
AcDbEntity
  8
0
100
AcDbBlockEnd
  0
BLOCK
  5
13B
330
139
100
AcDbEntity
  8
0
100
AcDbBlockBegin
  2
_OBLIQUE
 70
     0
 10
0.0
 20
0.0
 30
0.0
  3
_OBLIQUE
  1

  0
LINE
  5
13A
330
139
100
AcDbEntity
  8
0
  6
BYBLOCK
 62
     0
100
AcDbLine
 10
-0.5
 20
-0.5
 30
0.0
 11
0.5
 21
0.5
 31
0.0
  0
ENDBLK
  5
13C
330
139
100
AcDbEntity
  8
0
100
AcDbBlockEnd
  0
BLOCK
  5
14A
330
13F
100
AcDbEntity
  8
0
100
AcDbBlockBegin
  2
*D8
 70
     1
 10
0.0
 20
0.0
 30
0.0
  3
*D8
  1

  0
LINE
  5
294
330
13F
100
AcDbEntity
  8
0
 62
     0
100
AcDbLine
 10
284.8625402733046
 20
35.44574705920048
 30
0.0
 11
284.8625402733046
 21
35.74628032063336
 31
0.0
  0
LINE
  5
295
330
13F
100
AcDbEntity
  8
0
 62
     0
100
AcDbLine
 10
285.7125402733044
 20
35.43574705920048
 30
0.0
 11
285.7125402733044
 21
35.74628032063336
 31
0.0
  0
LINE
  5
296
330
13F
100
AcDbEntity
  8
0
 62
     0
100
AcDbLine
 10
284.8625402733046
 20
35.67128032063335
 30
0.0
 11
285.0732545590188
 21
35.67128032063335
 31
0.0
  0
LINE
  5
297
330
13F
100
AcDbEntity
  8
0
 62
     0
100
AcDbLine
 10
285.7125402733044
 20
35.67128032063335
 30
0.0
 11
285.5018259875902
 21
35.67128032063335
 31
0.0
  0
INSERT
  5
298
330
13F
100
AcDbEntity
  8
0
 62
     0
100
AcDbBlockReference
  2
_OBLIQUE
 10
284.8625402733046
 20
35.67128032063335
 30
0.0
 41
0.075
 42
0.075
 43
0.075
 50
180.0
  0
INSERT
  5
299
330
13F
100
AcDbEntity
  8
0
 62
     0
100
AcDbBlockReference
  2
_OBLIQUE
 10
285.7125402733044
 20
35.67128032063335
 30
0.0
 41
0.075
 42
0.075
 43
0.075
  0
MTEXT
  5
29A
330
13F
100
AcDbEntity
  8
0
 62
     0
100
AcDbMText
 10
285.2875402733045
 20
35.67128032063335
 30
0.0
 40
0.075
 41
0.0
 71
     5
 72
     1
  1
\A1;0.85
  7
ROMANC
1001
ACAD
1000
MTEXTBEGIN
1070
    73
1070
     1
1070
    44
1040
1.0
1070
    74
1070
     0
1000
MTEXTEND
  0
POINT
  5
29B
330
13F
100
AcDbEntity
  8
DEFPOINTS
 62
     0
100
AcDbPoint
 10
284.8625402733046
 20
35.43574705920048
 30
0.0
  0
POINT
  5
29C
330
13F
100
AcDbEntity
  8
DEFPOINTS
 62
     0
100
AcDbPoint
 10
285.7125402733044
 20
35.42574705920048
 30
0.0
  0
POINT
  5
29D
330
13F
100
AcDbEntity
  8
DEFPOINTS
 62
     0
100
AcDbPoint
 10
285.7125402733044
 20
35.67128032063335
 30
0.0
  0
ENDBLK
  5
14B
330
13F
100
AcDbEntity
  8
0
100
AcDbBlockEnd
  0
BLOCK
  5
194
330
189
100
AcDbEntity
  8
0
100
AcDbBlockBegin
  2
*D9
 70
     1
 10
0.0
 20
0.0
 30
0.0
  3
*D9
  1

  0
LINE
  5
2B2
330
189
100
AcDbEntity
  8
0
 62
     0
100
AcDbLine
 10
284.9125402733045
 20
34.11574705920048
 30
0.0
 11
284.9125402733045
 21
33.8741955815227
 31
0.0
  0
LINE
  5
2B3
330
189
100
AcDbEntity
  8
0
 62
     0
100
AcDbLine
 10
285.4125402733046
 20
34.11574705920048
 30
0.0
 11
285.4125402733046
 21
33.8741955815227
 31
0.0
  0
LINE
  5
2B4
330
189
100
AcDbEntity
  8
0
 62
     0
100
AcDbLine
 10
284.9125402733045
 20
33.9491955815227
 30
0.0
 11
284.9363795844849
 21
33.9491955815227
 31
0.0
  0
LINE
  5
2B5
330
189
100
AcDbEntity
  8
0
 62
     0
100
AcDbLine
 10
285.4125402733046
 20
33.9491955815227
 30
0.0
 11
285.3649510130564
 21
33.9491955815227
 31
0.0
  0
INSERT
  5
2B6
330
189
100
AcDbEntity
  8
0
 62
     0
100
AcDbBlockReference
  2
_OBLIQUE
 10
284.9125402733045
 20
33.9491955815227
 30
0.0
 41
0.075
 42
0.075
 43
0.075
 50
180.0
  0
INSERT
  5
2B7
330
189
100
AcDbEntity
  8
0
 62
     0
100
AcDbBlockReference
  2
_OBLIQUE
 10
285.4125402733046
 20
33.9491955815227
 30
0.0
 41
0.075
 42
0.075
 43
0.075
  0
MTEXT
  5
2B8
330
189
100
AcDbEntity
  8
0
 62
     0
100
AcDbMText
 10
285.1506652987707
 20
33.9491955815227
 30
0.0
 40
0.075
 41
0.0
 71
     5
 72
     1
  1
\A1;0.50
  7
ROMANC
1001
ACAD
1000
MTEXTBEGIN
1070
    73
1070
     1
1070
    44
1040
1.0
1070
    74
1070
     0
1000
MTEXTEND
  0
POINT
  5
2B9
330
189
100
AcDbEntity
  8
DEFPOINTS
 62
     0
100
AcDbPoint
 10
284.9125402733045
 20
34.12574705920048
 30
0.0
  0
POINT
  5
2BA
330
189
100
AcDbEntity
  8
DEFPOINTS
 62
     0
100
AcDbPoint
 10
285.4125402733046
 20
34.12574705920048
 30
0.0
  0
POINT
  5
2BB
330
189
100
AcDbEntity
  8
DEFPOINTS
 62
     0
100
AcDbPoint
 10
285.4125402733046
 20
33.9491955815227
 30
0.0
  0
ENDBLK
  5
195
330
189
100
AcDbEntity
  8
0
100
AcDbBlockEnd
  0
BLOCK
  5
1C9
330
1BE
100
AcDbEntity
  8
0
100
AcDbBlockBegin
  2
*D10
 70
     1
 10
0.0
 20
0.0
 30
0.0
  3
*D10
  1

  0
LINE
  5
2A8
330
1BE
100
AcDbEntity
  8
0
 62
     0
100
AcDbLine
 10
285.8314653225315
 20
34.12574705920048
 30
0.0
 11
286.1564181027592
 21
34.12574705920048
 31
0.0
  0
LINE
  5
2A9
330
1BE
100
AcDbEntity
  8
0
 62
     0
100
AcDbLine
 10
285.8214653225315
 20
35.42574705920048
 30
0.0
 11
286.1564181027592
 21
35.42574705920048
 31
0.0
  0
LINE
  5
2AA
330
1BE
100
AcDbEntity
  8
0
 62
     0
100
AcDbLine
 10
286.0814181027592
 20
34.12574705920048
 30
0.0
 11
286.0814181027592
 21
34.63824705920048
 31
0.0
  0
LINE
  5
2AB
330
1BE
100
AcDbEntity
  8
0
 62
     0
100
AcDbLine
 10
286.0814181027592
 20
35.42574705920048
 30
0.0
 11
286.0814181027592
 21
34.91324705920048
 31
0.0
  0
INSERT
  5
2AC
330
1BE
100
AcDbEntity
  8
0
 62
     0
100
AcDbBlockReference
  2
_OBLIQUE
 10
286.0814181027592
 20
34.12574705920048
 30
0.0
 41
0.075
 42
0.075
 43
0.075
 50
270.0
  0
INSERT
  5
2AD
330
1BE
100
AcDbEntity
  8
0
 62
     0
100
AcDbBlockReference
  2
_OBLIQUE
 10
286.0814181027592
 20
35.42574705920048
 30
0.0
 41
0.075
 42
0.075
 43
0.075
 50
90.0
  0
MTEXT
  5
2AE
330
1BE
100
AcDbEntity
  8
0
 62
     0
100
AcDbMText
 10
286.0814181027592
 20
34.77574705920053
 30
0.0
 40
0.075
 41
0.0
 71
     5
 72
     1
  1
\A1;1.30
  7
ROMANC
1001
ACAD
1000
MTEXTBEGIN
1070
    73
1070
     1
1070
    44
1040
1.0
1070
    74
1070
     0
1000
MTEXTEND
  0
POINT
  5
2AF
330
1BE
100
AcDbEntity
  8
DEFPOINTS
 62
     0
100
AcDbPoint
 10
285.8214653225315
 20
34.12574705920048
 30
0.0
  0
POINT
  5
2B0
330
1BE
100
AcDbEntity
  8
DEFPOINTS
 62
     0
100
AcDbPoint
 10
285.8114653225315
 20
35.42574705920048
 30
0.0
  0
POINT
  5
2B1
330
1BE
100
AcDbEntity
  8
DEFPOINTS
 62
     0
100
AcDbPoint
 10
286.0814181027592
 20
35.42574705920048
 30
0.0
  0
ENDBLK
  5
1CA
330
1BE
100
AcDbEntity
  8
0
100
AcDbBlockEnd
  0
BLOCK
  5
2C8
330
2BD
100
AcDbEntity
  8
0
100
AcDbBlockBegin
  2
*D11
 70
     1
 10
0.0
 20
0.0
 30
0.0
  3
*D11
  1

  0
LINE
  5
2CA
330
2BD
100
AcDbEntity
  8
0
 62
     0
100
AcDbLine
 10
285.4125402733046
 20
34.11574705920048
 30
0.0
 11
285.4125402733046
 21
33.8741955815227
 31
0.0
  0
LINE
  5
2CB
330
2BD
100
AcDbEntity
  8
0
 62
     0
100
AcDbLine
 10
285.7125402733046
 20
34.11574705920048
 30
0.0
 11
285.7125402733046
 21
33.8741955815227
 31
0.0
  0
LINE
  5
2CC
330
2BD
100
AcDbEntity
  8
0
 62
     0
100
AcDbLine
 10
285.4125402733046
 20
33.9491955815227
 30
0.0
 11
285.7125402733046
 21
33.9491955815227
 31
0.0
  0
INSERT
  5
2CD
330
2BD
100
AcDbEntity
  8
0
 62
     0
100
AcDbBlockReference
  2
_OBLIQUE
 10
285.4125402733046
 20
33.9491955815227
 30
0.0
 41
0.075
 42
0.075
 43
0.075
 50
180.0
  0
INSERT
  5
2CE
330
2BD
100
AcDbEntity
  8
0
 62
     0
100
AcDbBlockReference
  2
_OBLIQUE
 10
285.7125402733046
 20
33.9491955815227
 30
0.0
 41
0.075
 42
0.075
 43
0.075
  0
MTEXT
  5
2CF
330
2BD
100
AcDbEntity
  8
0
 62
     0
100
AcDbMText
 10
285.5625402733046
 20
33.9491955815227
 30
0.0
 40
0.075
 41
0.0
 71
     5
 72
     1
  1
\A1;0.30
  7
ROMANC
1001
ACAD
1000
MTEXTBEGIN
1070
    73
1070
     1
1070
    44
1040
1.0
1070
    74
1070
     0
1000
MTEXTEND
  0
POINT
  5
2D0
330
2BD
100
AcDbEntity
  8
DEFPOINTS
 62
     0
100
AcDbPoint
 10
285.4125402733046
 20
34.12574705920048
 30
0.0
  0
POINT
  5
2D1
330
2BD
100
AcDbEntity
  8
DEFPOINTS
 62
     0
100
AcDbPoint
 10
285.7125402733046
 20
34.12574705920048
 30
0.0
  0
POINT
  5
2D2
330
2BD
100
AcDbEntity
  8
DEFPOINTS
 62
     0
100
AcDbPoint
 10
285.7125402733046
 20
33.9491955815227
 30
0.0
  0
ENDBLK
  5
2C9
330
2BD
100
AcDbEntity
  8
0
100
AcDbBlockEnd
  0
BLOCK
  5
2DE
330
2D4
100
AcDbEntity
  8
0
100
AcDbBlockBegin
  2
*D12
 70
     1
 10
0.0
 20
0.0
 30
0.0
  3
*D12
  1

  0
LINE
  5
2E9
330
2D4
100
AcDbEntity
  8
0
 62
     0
100
AcDbLine
 10
284.8108798010364
 20
34.32574705920042
 30
0.0
 11
284.5426894187737
 21
34.32574705920042
 31
0.0
  0
LINE
  5
2EA
330
2D4
100
AcDbEntity
  8
0
 62
     0
100
AcDbLine
 10
284.8208798010364
 20
34.12574705920048
 30
0.0
 11
284.5426894187737
 21
34.12574705920048
 31
0.0
  0
LINE
  5
2EB
330
2D4
100
AcDbEntity
  8
0
 62
     0
100
AcDbLine
 10
284.6176894187737
 20
34.32574705920042
 30
0.0
 11
284.6176894187737
 21
34.40074705920042
 31
0.0
  0
LINE
  5
2EC
330
2D4
100
AcDbEntity
  8
0
 62
     0
100
AcDbLine
 10
284.6176894187737
 20
34.12574705920048
 30
0.0
 11
284.6176894187737
 21
34.05074705920048
 31
0.0
  0
INSERT
  5
2ED
330
2D4
100
AcDbEntity
  8
0
 62
     0
100
AcDbBlockReference
  2
_OBLIQUE
 10
284.6176894187737
 20
34.32574705920042
 30
0.0
 41
0.075
 42
0.075
 43
0.075
 50
270.0
  0
INSERT
  5
2EE
330
2D4
100
AcDbEntity
  8
0
 62
     0
100
AcDbBlockReference
  2
_OBLIQUE
 10
284.6176894187737
 20
34.12574705920048
 30
0.0
 41
0.075
 42
0.075
 43
0.075
 50
90.0
  0
MTEXT
  5
2EF
330
2D4
100
AcDbEntity
  8
0
 62
     0
100
AcDbMText
 10
284.6176894187737
 20
34.2257470592005
 30
0.0
 40
0.075
 41
0.0
 71
     5
 72
     1
  1
\A1;0.20
  7
ROMANC
1001
ACAD
1000
MTEXTBEGIN
1070
    73
1070
     1
1070
    44
1040
1.0
1070
    74
1070
     0
1000
MTEXTEND
  0
POINT
  5
2F0
330
2D4
100
AcDbEntity
  8
DEFPOINTS
 62
     0
100
AcDbPoint
 10
284.8208798010364
 20
34.32574705920042
 30
0.0
  0
POINT
  5
2F1
330
2D4
100
AcDbEntity
  8
DEFPOINTS
 62
     0
100
AcDbPoint
 10
284.8308798010364
 20
34.12574705920048
 30
0.0
  0
POINT
  5
2F2
330
2D4
100
AcDbEntity
  8
DEFPOINTS
 62
     0
100
AcDbPoint
 10
284.6176894187737
 20
34.12574705920048
 30
0.0
  0
ENDBLK
  5
2DF
330
2D4
100
AcDbEntity
  8
0
100
AcDbBlockEnd
  0
BLOCK
  5
317
330
30C
100
AcDbEntity
  8
0
100
AcDbBlockBegin
  2
*D13
 70
     1
 10
0.0
 20
0.0
 30
0.0
  3
*D13
  1

  0
LINE
  5
41E
330
30C
100
AcDbEntity
  8
0
 62
     0
100
AcDbLine
 10
285.8913104036149
 20
36.70669436348218
 30
0.0
 11
285.8913104036149
 21
36.57051818614042
 31
0.0
  0
LINE
  5
41F
330
30C
100
AcDbEntity
  8
0
 62
     0
100
AcDbLine
 10
286.3998890473776
 20
36.71669436348219
 30
0.0
 11
286.3998890473776
 21
36.57051818614042
 31
0.0
  0
LINE
  5
420
330
30C
100
AcDbEntity
  8
0
 62
     0
100
AcDbLine
 10
285.8913104036149
 20
36.64551818614043
 30
0.0
 11
285.934240453414
 21
36.64551818614043
 31
0.0
  0
LINE
  5
421
330
30C
100
AcDbEntity
  8
0
 62
     0
100
AcDbLine
 10
286.3998890473776
 20
36.64551818614043
 30
0.0
 11
286.3628118819854
 21
36.64551818614043
 31
0.0
  0
INSERT
  5
422
330
30C
100
AcDbEntity
  8
0
 62
     0
100
AcDbBlockReference
  2
_OBLIQUE
 10
285.8913104036149
 20
36.64551818614043
 30
0.0
 41
0.075
 42
0.075
 43
0.075
 50
180.0
  0
INSERT
  5
423
330
30C
100
AcDbEntity
  8
0
 62
     0
100
AcDbBlockReference
  2
_OBLIQUE
 10
286.3998890473776
 20
36.64551818614043
 30
0.0
 41
0.075
 42
0.075
 43
0.075
  0
MTEXT
  5
424
330
30C
100
AcDbEntity
  8
0
 62
     0
100
AcDbMText
 10
286.1485261676997
 20
36.64551818614043
 30
0.0
 40
0.075
 41
0.0
 71
     5
 72
     1
  1
\A1;0.50
  7
ROMANC
1001
ACAD
1000
MTEXTBEGIN
1070
    73
1070
     1
1070
    44
1040
1.0
1070
    74
1070
     0
1000
MTEXTEND
  0
POINT
  5
425
330
30C
100
AcDbEntity
  8
DEFPOINTS
 62
     0
100
AcDbPoint
 10
285.8913104036149
 20
36.71669436348218
 30
0.0
  0
POINT
  5
426
330
30C
100
AcDbEntity
  8
DEFPOINTS
 62
     0
100
AcDbPoint
 10
286.3998890473776
 20
36.72669436348218
 30
0.0
  0
POINT
  5
427
330
30C
100
AcDbEntity
  8
DEFPOINTS
 62
     0
100
AcDbPoint
 10
286.3998890473776
 20
36.64551818614043
 30
0.0
  0
ENDBLK
  5
318
330
30C
100
AcDbEntity
  8
0
100
AcDbBlockEnd
  0
BLOCK
  5
325
330
31A
100
AcDbEntity
  8
0
100
AcDbBlockBegin
  2
*D14
 70
     1
 10
0.0
 20
0.0
 30
0.0
  3
*D14
  1

  0
LINE
  5
386
330
31A
100
AcDbEntity
  8
0
 62
     0
100
AcDbLine
 10
285.95080624099
 20
37.28130680227901
 30
0.0
 11
285.95080624099
 21
37.14513062493724
 31
0.0
  0
LINE
  5
387
330
31A
100
AcDbEntity
  8
0
 62
     0
100
AcDbLine
 10
286.2418283898899
 20
37.28130680227901
 30
0.0
 11
286.2418283898899
 21
37.14513062493724
 31
0.0
  0
LINE
  5
388
330
31A
100
AcDbEntity
  8
0
 62
     0
100
AcDbLine
 10
285.95080624099
 20
37.22013062493724
 30
0.0
 11
286.2418283898899
 21
37.22013062493724
 31
0.0
  0
INSERT
  5
389
330
31A
100
AcDbEntity
  8
0
 62
     0
100
AcDbBlockReference
  2
_OBLIQUE
 10
285.95080624099
 20
37.22013062493724
 30
0.0
 41
0.075
 42
0.075
 43
0.075
 50
180.0
  0
INSERT
  5
38A
330
31A
100
AcDbEntity
  8
0
 62
     0
100
AcDbBlockReference
  2
_OBLIQUE
 10
286.2418283898899
 20
37.22013062493724
 30
0.0
 41
0.075
 42
0.075
 43
0.075
  0
MTEXT
  5
38B
330
31A
100
AcDbEntity
  8
0
 62
     0
100
AcDbMText
 10
286.09631731544
 20
37.22013062493724
 30
0.0
 40
0.075
 41
0.0
 71
     5
 72
     1
  1
\A1;0.30
  7
ROMANC
1001
ACAD
1000
MTEXTBEGIN
1070
    73
1070
     1
1070
    44
1040
1.0
1070
    74
1070
     0
1000
MTEXTEND
  0
POINT
  5
38C
330
31A
100
AcDbEntity
  8
DEFPOINTS
 62
     0
100
AcDbPoint
 10
285.95080624099
 20
37.29130680227901
 30
0.0
  0
POINT
  5
38D
330
31A
100
AcDbEntity
  8
DEFPOINTS
 62
     0
100
AcDbPoint
 10
286.2418283898899
 20
37.29130680227901
 30
0.0
  0
POINT
  5
38E
330
31A
100
AcDbEntity
  8
DEFPOINTS
 62
     0
100
AcDbPoint
 10
286.2418283898899
 20
37.22013062493724
 30
0.0
  0
ENDBLK
  5
326
330
31A
100
AcDbEntity
  8
0
100
AcDbBlockEnd
  0
BLOCK
  5
33C
330
331
100
AcDbEntity
  8
0
100
AcDbBlockBegin
  2
*D15
 70
     1
 10
0.0
 20
0.0
 30
0.0
  3
*D15
  1

  0
LINE
  5
40A
330
331
100
AcDbEntity
  8
0
 62
     0
100
AcDbLine
 10
285.8663104036148
 20
37.60807243950986
 30
0.0
 11
285.8663104036148
 21
37.52517328986885
 31
0.0
  0
LINE
  5
40B
330
331
100
AcDbEntity
  8
0
 62
     0
100
AcDbLine
 10
286.7163104036149
 20
37.60807243950986
 30
0.0
 11
286.7163104036149
 21
37.52517328986885
 31
0.0
  0
LINE
  5
40C
330
331
100
AcDbEntity
  8
0
 62
     0
100
AcDbLine
 10
285.8663104036148
 20
37.60017328986885
 30
0.0
 11
286.0684154112618
 21
37.60017328986885
 31
0.0
  0
LINE
  5
40D
330
331
100
AcDbEntity
  8
0
 62
     0
100
AcDbLine
 10
286.7163104036149
 20
37.60017328986885
 30
0.0
 11
286.4969868398332
 21
37.60017328986885
 31
0.0
  0
INSERT
  5
40E
330
331
100
AcDbEntity
  8
0
 62
     0
100
AcDbBlockReference
  2
_OBLIQUE
 10
285.8663104036148
 20
37.60017328986885
 30
0.0
 41
0.075
 42
0.075
 43
0.075
 50
180.0
  0
INSERT
  5
40F
330
331
100
AcDbEntity
  8
0
 62
     0
100
AcDbBlockReference
  2
_OBLIQUE
 10
286.7163104036149
 20
37.60017328986885
 30
0.0
 41
0.075
 42
0.075
 43
0.075
  0
MTEXT
  5
410
330
331
100
AcDbEntity
  8
0
 62
     0
100
AcDbMText
 10
286.2827011255475
 20
37.60017328986885
 30
0.0
 40
0.075
 41
0.0
 71
     5
 72
     1
  1
\A1;0.85
  7
ROMANC
1001
ACAD
1000
MTEXTBEGIN
1070
    73
1070
     1
1070
    44
1040
1.0
1070
    74
1070
     0
1000
MTEXTEND
  0
POINT
  5
411
330
331
100
AcDbEntity
  8
DEFPOINTS
 62
     0
100
AcDbPoint
 10
285.8663104036148
 20
37.61807243950986
 30
0.0
  0
POINT
  5
412
330
331
100
AcDbEntity
  8
DEFPOINTS
 62
     0
100
AcDbPoint
 10
286.7163104036149
 20
37.61807243950986
 30
0.0
  0
POINT
  5
413
330
331
100
AcDbEntity
  8
DEFPOINTS
 62
     0
100
AcDbPoint
 10
286.7163104036149
 20
37.60017328986885
 30
0.0
  0
ENDBLK
  5
33D
330
331
100
AcDbEntity
  8
0
100
AcDbBlockEnd
  0
BLOCK
  5
34A
330
33F
100
AcDbEntity
  8
0
100
AcDbBlockBegin
  2
*D16
 70
     1
 10
0.0
 20
0.0
 30
0.0
  3
*D16
  1

  0
LINE
  5
428
330
33F
100
AcDbEntity
  8
0
 62
     0
100
AcDbLine
 10
286.6899816606356
 20
38.04307243950987
 30
0.0
 11
287.0128080443337
 21
38.04307243950987
 31
0.0
  0
LINE
  5
429
330
33F
100
AcDbEntity
  8
0
 62
     0
100
AcDbLine
 10
286.7478610866211
 20
36.74649598492148
 30
0.0
 11
287.0128080443337
 21
36.74649598492148
 31
0.0
  0
LINE
  5
42A
330
33F
100
AcDbEntity
  8
0
 62
     0
100
AcDbLine
 10
286.9378080443337
 20
38.04307243950987
 30
0.0
 11
286.9378080443337
 21
37.50852082499986
 31
0.0
  0
LINE
  5
42B
330
33F
100
AcDbEntity
  8
0
 62
     0
100
AcDbLine
 10
286.9378080443337
 20
36.74649598492148
 30
0.0
 11
286.9378080443337
 21
37.23352082499985
 31
0.0
  0
INSERT
  5
42C
330
33F
100
AcDbEntity
  8
0
 62
     0
100
AcDbBlockReference
  2
_OBLIQUE
 10
286.9378080443337
 20
38.04307243950987
 30
0.0
 41
0.075
 42
0.075
 43
0.075
 50
90.0
  0
INSERT
  5
42D
330
33F
100
AcDbEntity
  8
0
 62
     0
100
AcDbBlockReference
  2
_OBLIQUE
 10
286.9378080443337
 20
36.74649598492148
 30
0.0
 41
0.075
 42
0.075
 43
0.075
 50
270.0
  0
MTEXT
  5
42E
330
33F
100
AcDbEntity
  8
0
 62
     0
100
AcDbMText
 10
286.9378080443337
 20
37.3710208249999
 30
0.0
 40
0.075
 41
0.0
 71
     5
 72
     1
  1
\A1;1.30
  7
ROMANC
1001
ACAD
1000
MTEXTBEGIN
1070
    73
1070
     1
1070
    44
1040
1.0
1070
    74
1070
     0
1000
MTEXTEND
  0
POINT
  5
42F
330
33F
100
AcDbEntity
  8
DEFPOINTS
 62
     0
100
AcDbPoint
 10
286.6799816606356
 20
38.04307243950987
 30
0.0
  0
POINT
  5
430
330
33F
100
AcDbEntity
  8
DEFPOINTS
 62
     0
100
AcDbPoint
 10
286.7378610866211
 20
36.74649598492148
 30
0.0
  0
POINT
  5
431
330
33F
100
AcDbEntity
  8
DEFPOINTS
 62
     0
100
AcDbPoint
 10
286.9378080443337
 20
36.74649598492148
 30
0.0
  0
ENDBLK
  5
34B
330
33F
100
AcDbEntity
  8
0
100
AcDbBlockEnd
  0
BLOCK
  5
3AB
330
3A0
100
AcDbEntity
  8
0
100
AcDbBlockBegin
  2
*D17
 70
     1
 10
0.0
 20
0.0
 30
0.0
  3
*D17
  1

  0
LINE
  5
414
330
3A0
100
AcDbEntity
  8
0
 62
     0
100
AcDbLine
 10
285.8813104036149
 20
36.94307243950986
 30
0.0
 11
285.621031969752
 21
36.94307243950986
 31
0.0
  0
LINE
  5
415
330
3A0
100
AcDbEntity
  8
0
 62
     0
100
AcDbLine
 10
285.8491466656321
 20
36.74307243950991
 30
0.0
 11
285.621031969752
 21
36.74307243950991
 31
0.0
  0
LINE
  5
416
330
3A0
100
AcDbEntity
  8
0
 62
     0
100
AcDbLine
 10
285.696031969752
 20
36.94307243950986
 30
0.0
 11
285.696031969752
 21
37.01807243950986
 31
0.0
  0
LINE
  5
417
330
3A0
100
AcDbEntity
  8
0
 62
     0
100
AcDbLine
 10
285.696031969752
 20
36.74307243950991
 30
0.0
 11
285.696031969752
 21
36.6680724395099
 31
0.0
  0
INSERT
  5
418
330
3A0
100
AcDbEntity
  8
0
 62
     0
100
AcDbBlockReference
  2
_OBLIQUE
 10
285.696031969752
 20
36.94307243950986
 30
0.0
 41
0.075
 42
0.075
 43
0.075
 50
270.0
  0
INSERT
  5
419
330
3A0
100
AcDbEntity
  8
0
 62
     0
100
AcDbBlockReference
  2
_OBLIQUE
 10
285.696031969752
 20
36.74307243950991
 30
0.0
 41
0.075
 42
0.075
 43
0.075
 50
90.0
  0
MTEXT
  5
41A
330
3A0
100
AcDbEntity
  8
0
 62
     0
100
AcDbMText
 10
285.696031969752
 20
36.84307243950994
 30
0.0
 40
0.075
 41
0.0
 71
     5
 72
     1
  1
\A1;0.20
  7
ROMANC
1001
ACAD
1000
MTEXTBEGIN
1070
    73
1070
     1
1070
    44
1040
1.0
1070
    74
1070
     0
1000
MTEXTEND
  0
POINT
  5
41B
330
3A0
100
AcDbEntity
  8
DEFPOINTS
 62
     0
100
AcDbPoint
 10
285.8913104036149
 20
36.94307243950986
 30
0.0
  0
POINT
  5
41C
330
3A0
100
AcDbEntity
  8
DEFPOINTS
 62
     0
100
AcDbPoint
 10
285.8591466656321
 20
36.74307243950991
 30
0.0
  0
POINT
  5
41D
330
3A0
100
AcDbEntity
  8
DEFPOINTS
 62
     0
100
AcDbPoint
 10
285.696031969752
 20
36.74307243950991
 30
0.0
  0
ENDBLK
  5
3AC
330
3A0
100
AcDbEntity
  8
0
100
AcDbBlockEnd
  0
ENDSEC
  0
SECTION
  2
ENTITIES
  0
TEXT
  5
2C
330
1E
100
AcDbEntity
  8
0
  6
CONTINUOUS
100
AcDbText
 10
287.5556792492107
 20
41.32399999999999
 30
0.0
 40
0.1
  1
2
  7
ROMANC
100
AcDbText
  0
TEXT
  5
2D
330
1E
100
AcDbEntity
  8
0
  6
CONTINUOUS
100
AcDbText
 10
284.5726792492106
 20
41.768
 30
0.0
 40
0.3
  1
ESCALA  1:50
  7
ROMANC
100
AcDbText
  0
LWPOLYLINE
  5
2E
330
1E
100
AcDbEntity
  8
0
  6
CONTINUOUS
100
AcDbPolyline
 90
        4
 70
     1
 43
0.0
 10
281.3959999999999
 20
44.747
 10
291.8959999999999
 20
44.747
 10
291.8959999999999
 20
29.897
 10
281.3959999999999
 20
29.897
  0
TEXT
  5
34
330
1E
100
AcDbEntity
  8
0
  6
CONTINUOUS
100
AcDbText
 10
284.5726792492106
 20
42.381
 30
0.0
 40
0.3
  1
TIPUS   NT89B
  7
ROMANC
100
AcDbText
  0
TEXT
  5
35
330
1E
100
AcDbEntity
  8
0
  6
CONTINUOUS
100
AcDbText
 10
284.5916792492106
 20
41.09899999999998
 30
0.0
 40
0.3
  1
S = 89 dm
  7
ROMANC
100
AcDbText
  0
TEXT
  5
36
330
1E
100
AcDbEntity
  8
0
  6
CONTINUOUS
100
AcDbText
 10
284.5686792492108
 20
40.529
 30
0.0
 40
0.3
  1
P = 37 dm
  7
ROMANC
100
AcDbText
  0
LWPOLYLINE
  5
307
330
1E
100
AcDbEntity
  8
0
100
AcDbPolyline
 90
        6
 70
     0
 43
0.0
 10
285.866608584587
 20
37.60215499893371
 10
285.8913104036149
 20
36.94307243950986
 10
286.3998890473776
 20
36.94307243950987
 42
1.264027454242804
 10
286.6901486505197
 20
36.91170510593985
 10
286.7163104036149
 20
37.61807243950986
 42
1.038605171252166
 10
285.8675288101228
 20
37.58591406552389
  0
DIMENSION
  5
30B
330
1E
100
AcDbEntity
  8
0
100
AcDbDimension
  2
*D13
 10
286.3998890473776
 20
36.64551818614043
 30
0.0
 11
286.1485261676997
 21
36.64551818614043
 31
0.0
 70
   160
  1
0.50
  3
SECCIONS
100
AcDbAlignedDimension
 13
285.8913104036149
 23
36.71669436348218
 33
0.0
 14
286.3998890473776
 24
36.72669436348218
 34
0.0
100
AcDbRotatedDimension
  0
DIMENSION
  5
330
330
1E
100
AcDbEntity
  8
0
100
AcDbDimension
  2
*D15
 10
286.7163104036149
 20
37.60017328986885
 30
0.0
 11
286.2827011255475
 21
37.60017328986885
 31
0.0
 70
   160
  3
SECCIONS
100
AcDbAlignedDimension
 13
285.8663104036148
 23
37.61807243950986
 33
0.0
 14
286.7163104036149
 24
37.61807243950986
 34
0.0
100
AcDbRotatedDimension
  0
DIMENSION
  5
33E
330
1E
100
AcDbEntity
  8
0
100
AcDbDimension
  2
*D16
 10
286.9378080443337
 20
36.74649598492148
 30
0.0
 11
286.9378080443337
 21
37.3710208249999
 31
0.0
 70
   160
  3
SECCIONS
100
AcDbAlignedDimension
 13
286.6799816606356
 23
38.04307243950987
 33
0.0
 14
286.7378610866211
 24
36.74649598492148
 34
0.0
 50
90.0
100
AcDbRotatedDimension
  0
LINE
  5
399
330
1E
100
AcDbEntity
  8
0
100
AcDbLine
 10
286.3998890473776
 20
36.70669436348219
 30
0.0
 11
286.3998890473776
 21
36.57051818614042
 31
0.0
  0
LINE
  5
39A
330
1E
100
AcDbEntity
  8
0
100
AcDbLine
 10
286.6909111962775
 20
36.70669436348219
 30
0.0
 11
286.6909111962775
 21
36.57051818614042
 31
0.0
  0
INSERT
  5
39C
330
1E
100
AcDbEntity
  8
0
100
AcDbBlockReference
  2
_OBLIQUE
 10
286.3998890473776
 20
36.64551818614043
 30
0.0
 41
0.075
 42
0.075
 43
0.075
 50
180.0
  0
INSERT
  5
39D
330
1E
100
AcDbEntity
  8
0
100
AcDbBlockReference
  2
_OBLIQUE
 10
286.6909111962775
 20
36.64551818614043
 30
0.0
 41
0.075
 42
0.075
 43
0.075
  0
MTEXT
  5
39E
330
1E
100
AcDbEntity
  8
0
100
AcDbMText
 10
286.5454001218275
 20
36.64551818614043
 30
0.0
 40
0.075
 41
0.0
 71
     5
 72
     1
  1
\A1;0.30
  7
ROMANC
1001
ACAD
1000
MTEXTBEGIN
1070
    73
1070
     1
1070
    44
1040
1.0
1070
    74
1070
     0
1000
MTEXTEND
  0
DIMENSION
  5
39F
330
1E
100
AcDbEntity
  8
0
100
AcDbDimension
  2
*D17
 10
285.696031969752
 20
36.74307243950991
 30
0.0
 11
285.696031969752
 21
36.84307243950994
 31
0.0
 70
   160
  3
SECCIONS
100
AcDbAlignedDimension
 13
285.8913104036149
 23
36.94307243950986
 33
0.0
 14
285.8591466656321
 24
36.74307243950991
 34
0.0
 50
90.0
100
AcDbRotatedDimension
  0
LWPOLYLINE
  5
3B9
330
1E
100
AcDbEntity
  8
0
100
AcDbPolyline
 90
        5
 70
     1
 43
0.0
 10
285.8566156006099
 20
37.60178047092015
 10
285.8816781736339
 20
36.93307243950986
 10
286.3863910697665
 20
36.93307243950987
 42
1.205774348333553
 10
286.7001712755316
 20
36.91213085953621
 10
286.7263103637648
 20
37.61788624183491
 42
1.019126548112024
  0
ENDSEC
  0
SECTION
  2
OBJECTS
  0
DICTIONARY
  5
C
330
0
100
AcDbDictionary
  3
ACAD_GROUP
350
D
  3
ACAD_PLOTSTYLENAME
350
E
  3
ACAD_MLINESTYLE
350
16
  3
ACAD_PLOTSETTINGS
350
18
  3
ACAD_LAYOUT
350
19
  3
ACDBHEADERROUNDTRIPXREC
350
457
  0
DICTIONARY
  5
B4
330
1E
100
AcDbDictionary
280
     1
  3
ACAD_LAYOUTSELFREF
360
479
  0
DICTIONARY
  5
B2
330
1A
100
AcDbDictionary
280
     1
  3
ACAD_LAYOUTSELFREF
360
478
  0
DICTIONARY
  5
D
102
{ACAD_REACTORS
330
C
102
}
330
C
100
AcDbDictionary
  0
ACDBDICTIONARYWDFLT
  5
E
102
{ACAD_REACTORS
330
C
102
}
330
C
100
AcDbDictionary
281
     1
  3
Normal
350
F
100
AcDbDictionaryWithDefault
340
F
  0
DICTIONARY
  5
16
102
{ACAD_REACTORS
330
C
102
}
330
C
100
AcDbDictionary
  3
STANDARD
350
17
  0
DICTIONARY
  5
18
102
{ACAD_REACTORS
330
C
102
}
330
C
100
AcDbDictionary
  0
DICTIONARY
  5
19
102
{ACAD_REACTORS
330
C
102
}
330
C
100
AcDbDictionary
  0
DICTIONARY
  5
457
102
{ACAD_REACTORS
330
C
102
}
330
C
100
AcDbDictionary
  3
TSTACKALIGN
350
458
  3
TSTACKSIZE
350
459
  3
HYPERLINKBASE
350
45A
  3
STYLESHEET
350
45B
  3
LAYOUTDICT
350
45C
  3
PLOTSETDICT
350
45D
  3
PLOTSTYLNAMDICT
350
45E
  3
LWETCUNION
350
45F
  3
INSUNITS
350
460
  3
CEPSNTYPE
350
461
  3
FINGERPRINTGUID
350
462
  3
VERSIONGUID
350
463
  3
PSVPSCALE
350
464
  3
DIMSTYLEDATA
350
465
  3
PUCSORTHOREF
350
466
  3
PUCSORTHOVIEW
350
467
  3
PUCSBASE
350
468
  3
PUCSORGTOP
350
469
  3
PUCSORGBOTTOM
350
46A
  3
PUCSORGLEFT
350
46B
  3
PUCSORGRIGHT
350
46C
  3
PUCSORGFRONT
350
46D
  3
PUCSORGBACK
350
46E
  3
UCSORTHOREF
350
46F
  3
UCSORTHOVIEW
350
470
  3
UCSBASE
350
471
  3
UCSORGTOP
350
472
  3
UCSORGBOTTOM
350
473
  3
UCSORGLEFT
350
474
  3
UCSORGRIGHT
350
475
  3
UCSORGFRONT
350
476
  3
UCSORGBACK
350
477
  0
XRECORD
  5
479
102
{ACAD_REACTORS
330
B4
102
}
330
B4
100
AcDbXrecord
340
1E
  0
XRECORD
  5
478
102
{ACAD_REACTORS
330
B2
102
}
330
B2
100
AcDbXrecord
340
1A
  0
ACDBPLACEHOLDER
  5
F
102
{ACAD_REACTORS
330
E
102
}
330
E
100
AcDbPlaceHolder
280
     0
  0
MLINESTYLE
  5
17
102
{ACAD_REACTORS
330
16
102
}
330
16
100
AcDbMlineStyle
  2
STANDARD
 70
     0
  3

 62
   256
 51
90.0
 52
90.0
 71
     2
 49
0.5
 62
   256
  6
BYLAYER
 49
-0.5
 62
   256
  6
BYLAYER
  0
XRECORD
  5
458
102
{ACAD_REACTORS
330
457
102
}
330
457
100
AcDbXrecord
 90
        1
  0
XRECORD
  5
459
102
{ACAD_REACTORS
330
457
102
}
330
457
100
AcDbXrecord
 90
       70
  0
XRECORD
  5
45A
102
{ACAD_REACTORS
330
457
102
}
330
457
100
AcDbXrecord
  1

  0
XRECORD
  5
45B
102
{ACAD_REACTORS
330
457
102
}
330
457
100
AcDbXrecord
  1

  0
XRECORD
  5
45C
102
{ACAD_REACTORS
330
457
102
}
330
457
100
AcDbXrecord
340
19
  0
XRECORD
  5
45D
102
{ACAD_REACTORS
330
457
102
}
330
457
100
AcDbXrecord
340
18
  0
XRECORD
  5
45E
102
{ACAD_REACTORS
330
457
102
}
330
457
100
AcDbXrecord
340
E
  0
XRECORD
  5
45F
102
{ACAD_REACTORS
330
457
102
}
330
457
100
AcDbXrecord
 90
    10781
  0
XRECORD
  5
460
102
{ACAD_REACTORS
330
457
102
}
330
457
100
AcDbXrecord
 90
        0
  0
XRECORD
  5
461
102
{ACAD_REACTORS
330
457
102
}
330
457
100
AcDbXrecord
 90
        0
  0
XRECORD
  5
462
102
{ACAD_REACTORS
330
457
102
}
330
457
100
AcDbXrecord
  1
{4C5386ED-30E1-4156-9AB8-B65EDE80205B}
  0
XRECORD
  5
463
102
{ACAD_REACTORS
330
457
102
}
330
457
100
AcDbXrecord
  1
{1E0EAD55-2918-41AC-B870-565DE6B9EA8C}
  0
XRECORD
  5
464
102
{ACAD_REACTORS
330
457
102
}
330
457
100
AcDbXrecord
 40
0.0
  0
XRECORD
  5
465
102
{ACAD_REACTORS
330
457
102
}
330
457
100
AcDbXrecord
1000
DSTYLE
1002
{
1070
   289
 70
     0
1070
   341
340
139
1070
   342
340
139
1002
}
  0
XRECORD
  5
466
102
{ACAD_REACTORS
330
457
102
}
330
457
100
AcDbXrecord
340
0
  0
XRECORD
  5
467
102
{ACAD_REACTORS
330
457
102
}
330
457
100
AcDbXrecord
 70
     0
  0
XRECORD
  5
468
102
{ACAD_REACTORS
330
457
102
}
330
457
100
AcDbXrecord
340
0
  0
XRECORD
  5
469
102
{ACAD_REACTORS
330
457
102
}
330
457
100
AcDbXrecord
 10
0.0
 20
0.0
 30
0.0
  0
XRECORD
  5
46A
102
{ACAD_REACTORS
330
457
102
}
330
457
100
AcDbXrecord
 10
0.0
 20
0.0
 30
0.0
  0
XRECORD
  5
46B
102
{ACAD_REACTORS
330
457
102
}
330
457
100
AcDbXrecord
 10
0.0
 20
0.0
 30
0.0
  0
XRECORD
  5
46C
102
{ACAD_REACTORS
330
457
102
}
330
457
100
AcDbXrecord
 10
0.0
 20
0.0
 30
0.0
  0
XRECORD
  5
46D
102
{ACAD_REACTORS
330
457
102
}
330
457
100
AcDbXrecord
 10
0.0
 20
0.0
 30
0.0
  0
XRECORD
  5
46E
102
{ACAD_REACTORS
330
457
102
}
330
457
100
AcDbXrecord
 10
0.0
 20
0.0
 30
0.0
  0
XRECORD
  5
46F
102
{ACAD_REACTORS
330
457
102
}
330
457
100
AcDbXrecord
340
0
  0
XRECORD
  5
470
102
{ACAD_REACTORS
330
457
102
}
330
457
100
AcDbXrecord
 70
     0
  0
XRECORD
  5
471
102
{ACAD_REACTORS
330
457
102
}
330
457
100
AcDbXrecord
340
0
  0
XRECORD
  5
472
102
{ACAD_REACTORS
330
457
102
}
330
457
100
AcDbXrecord
 10
0.0
 20
0.0
 30
0.0
  0
XRECORD
  5
473
102
{ACAD_REACTORS
330
457
102
}
330
457
100
AcDbXrecord
 10
0.0
 20
0.0
 30
0.0
  0
XRECORD
  5
474
102
{ACAD_REACTORS
330
457
102
}
330
457
100
AcDbXrecord
 10
0.0
 20
0.0
 30
0.0
  0
XRECORD
  5
475
102
{ACAD_REACTORS
330
457
102
}
330
457
100
AcDbXrecord
 10
0.0
 20
0.0
 30
0.0
  0
XRECORD
  5
476
102
{ACAD_REACTORS
330
457
102
}
330
457
100
AcDbXrecord
 10
0.0
 20
0.0
 30
0.0
  0
XRECORD
  5
477
102
{ACAD_REACTORS
330
457
102
}
330
457
100
AcDbXrecord
 10
0.0
 20
0.0
 30
0.0
  0
ENDSEC
  0
EOF
