  0
SECTION
  2
HEADER
  9
$ACADVER
  1
AC1014
  9
$ACADMAINTVER
 70
     9
  9
$DWGCODEPAGE
  3
ANSI_1252
  9
$INSBASE
 10
0.0
 20
0.0
 30
0.0
  9
$EXTMIN
 10
281.395069244134
 20
29.89660406180441
 30
-0.0000000349181948
  9
$EXTMAX
 10
291.8969308140735
 20
44.74796749579872
 30
0.0000000814935746
  9
$LIMMIN
 10
280.3959999999999
 20
28.89699999999999
  9
$LIMMAX
 10
292.8959999999999
 20
43.74699999999999
  9
$ORTHOMODE
 70
     0
  9
$REGENMODE
 70
     1
  9
$FILLMODE
 70
     1
  9
$QTEXTMODE
 70
     0
  9
$MIRRTEXT
 70
     1
  9
$DRAGMODE
 70
     2
  9
$LTSCALE
 40
1.0
  9
$OSMODE
 70
   431
  9
$ATTMODE
 70
     1
  9
$TEXTSIZE
 40
0.2
  9
$TRACEWID
 40
0.05
  9
$TEXTSTYLE
  7
STANDARD
  9
$CLAYER
  8
0
  9
$CELTYPE
  6
BYLAYER
  9
$CECOLOR
 62
   256
  9
$CELTSCALE
 40
1.0
  9
$DELOBJ
 70
     1
  9
$DISPSILH
 70
     0
  9
$DIMSCALE
 40
1.0
  9
$DIMASZ
 40
0.18
  9
$DIMEXO
 40
0.0625
  9
$DIMDLI
 40
0.38
  9
$DIMRND
 40
0.0
  9
$DIMDLE
 40
0.0
  9
$DIMEXE
 40
0.18
  9
$DIMTP
 40
0.0
  9
$DIMTM
 40
0.0
  9
$DIMTXT
 40
0.15
  9
$DIMCEN
 40
0.09
  9
$DIMTSZ
 40
0.0
  9
$DIMTOL
 70
     0
  9
$DIMLIM
 70
     0
  9
$DIMTIH
 70
     1
  9
$DIMTOH
 70
     1
  9
$DIMSE1
 70
     0
  9
$DIMSE2
 70
     0
  9
$DIMTAD
 70
     0
  9
$DIMZIN
 70
     0
  9
$DIMBLK
  1

  9
$DIMASO
 70
     1
  9
$DIMSHO
 70
     1
  9
$DIMPOST
  1

  9
$DIMAPOST
  1

  9
$DIMALT
 70
     0
  9
$DIMALTD
 70
     2
  9
$DIMALTF
 40
25.4
  9
$DIMLFAC
 40
1.0
  9
$DIMTOFL
 70
     0
  9
$DIMTVP
 40
0.0
  9
$DIMTIX
 70
     0
  9
$DIMSOXD
 70
     0
  9
$DIMSAH
 70
     0
  9
$DIMBLK1
  1

  9
$DIMBLK2
  1

  9
$DIMSTYLE
  2
STANDARD
  9
$DIMCLRD
 70
     0
  9
$DIMCLRE
 70
     0
  9
$DIMCLRT
 70
     0
  9
$DIMTFAC
 40
1.0
  9
$DIMGAP
 40
0.09
  9
$DIMJUST
 70
     0
  9
$DIMSD1
 70
     0
  9
$DIMSD2
 70
     0
  9
$DIMTOLJ
 70
     1
  9
$DIMTZIN
 70
     0
  9
$DIMALTZ
 70
     0
  9
$DIMALTTZ
 70
     0
  9
$DIMFIT
 70
     3
  9
$DIMUPT
 70
     0
  9
$DIMUNIT
 70
     2
  9
$DIMDEC
 70
     2
  9
$DIMTDEC
 70
     2
  9
$DIMALTU
 70
     2
  9
$DIMALTTD
 70
     2
  9
$DIMTXSTY
  7
STANDARD
  9
$DIMAUNIT
 70
     0
  9
$LUNITS
 70
     2
  9
$LUPREC
 70
     4
  9
$SKETCHINC
 40
0.1
  9
$FILLETRAD
 40
0.0
  9
$AUNITS
 70
     0
  9
$AUPREC
 70
     0
  9
$MENU
  1
acad
  9
$ELEVATION
 40
0.0
  9
$PELEVATION
 40
0.0
  9
$THICKNESS
 40
0.0
  9
$LIMCHECK
 70
     0
  9
$BLIPMODE
 70
     0
  9
$CHAMFERA
 40
0.0
  9
$CHAMFERB
 40
0.0
  9
$CHAMFERC
 40
0.0
  9
$CHAMFERD
 40
0.0
  9
$SKPOLY
 70
     0
  9
$TDCREATE
 40
2448315.331741435
  9
$TDUPDATE
 40
2453224.525611088
  9
$TDINDWG
 40
0.1880542708
  9
$TDUSRTIMER
 40
0.1880535532
  9
$USRTIMER
 70
     1
  9
$ANGBASE
 50
0.0
  9
$ANGDIR
 70
     0
  9
$PDMODE
 70
     0
  9
$PDSIZE
 40
0.0
  9
$PLINEWID
 40
0.0
  9
$COORDS
 70
     0
  9
$SPLFRAME
 70
     0
  9
$SPLINETYPE
 70
     6
  9
$SPLINESEGS
 70
     8
  9
$ATTDIA
 70
     0
  9
$ATTREQ
 70
     1
  9
$HANDLING
 70
 22529
  9
$HANDSEED
  5
93F
  9
$SURFTAB1
 70
     6
  9
$SURFTAB2
 70
     6
  9
$SURFTYPE
 70
     6
  9
$SURFU
 70
     6
  9
$SURFV
 70
     6
  9
$UCSNAME
  2

  9
$UCSORG
 10
0.0
 20
0.0
 30
0.0
  9
$UCSXDIR
 10
1.0
 20
0.0
 30
0.0
  9
$UCSYDIR
 10
0.0
 20
1.0
 30
0.0
  9
$PUCSNAME
  2

  9
$PUCSORG
 10
0.0
 20
0.0
 30
0.0
  9
$PUCSXDIR
 10
1.0
 20
0.0
 30
0.0
  9
$PUCSYDIR
 10
0.0
 20
1.0
 30
0.0
  9
$USERI1
 70
     0
  9
$USERI2
 70
     0
  9
$USERI3
 70
     0
  9
$USERI4
 70
     0
  9
$USERI5
 70
     0
  9
$USERR1
 40
0.0
  9
$USERR2
 40
0.0
  9
$USERR3
 40
0.0
  9
$USERR4
 40
0.0
  9
$USERR5
 40
0.0
  9
$WORLDVIEW
 70
     1
  9
$SHADEDGE
 70
     3
  9
$SHADEDIF
 70
    70
  9
$TILEMODE
 70
     1
  9
$MAXACTVP
 70
    16
  9
$PINSBASE
 10
0.0
 20
0.0
 30
0.0
  9
$PLIMCHECK
 70
     0
  9
$PEXTMIN
 10
1.000000000000000E+20
 20
1.000000000000000E+20
 30
1.000000000000000E+20
  9
$PEXTMAX
 10
-1.000000000000000E+20
 20
-1.000000000000000E+20
 30
-1.000000000000000E+20
  9
$PLIMMIN
 10
0.0
 20
0.0
  9
$PLIMMAX
 10
12.0
 20
9.0
  9
$UNITMODE
 70
     0
  9
$VISRETAIN
 70
     0
  9
$PLINEGEN
 70
     0
  9
$PSLTSCALE
 70
     1
  9
$TREEDEPTH
 70
  3020
  9
$PICKSTYLE
 70
     1
  9
$CMLSTYLE
  2
STANDARD
  9
$CMLJUST
 70
     0
  9
$CMLSCALE
 40
1.0
  9
$PROXYGRAPHICS
 70
     1
  9
$MEASUREMENT
 70
     0
  0
ENDSEC
  0
SECTION
  2
CLASSES
  0
CLASS
  1
ACDBDICTIONARYWDFLT
  2
AcDbDictionaryWithDefault
  3
AutoCAD 2000
 90
        0
280
     0
281
     0
  0
CLASS
  1
ACDBPLACEHOLDER
  2
AcDbPlaceHolder
  3
AutoCAD 2000
 90
        0
280
     0
281
     0
  0
CLASS
  1
LAYOUT
  2
AcDbLayout
  3
AutoCAD 2000
 90
        0
280
     0
281
     0
  0
CLASS
  1
DICTIONARYVAR
  2
AcDbDictionaryVar
  3
AutoCAD 2000
 90
        0
280
     0
281
     0
  0
CLASS
  1
LONG_TRANSACTION
  2
AcDbLongTransaction
  3
AutoCAD 2000
 90
        0
280
     0
281
     0
  0
CLASS
  1
LWPOLYLINE
  2
AcDbPolyline
  3
AutoCAD 2000
 90
        0
280
     0
281
     1
  0
CLASS
  1
HATCH
  2
AcDbHatch
  3
AutoCAD 2000
 90
        0
280
     0
281
     1
  0
CLASS
  1
XRECORD
  2
AcDbXrecord
  3
AutoCAD 2000
 90
        0
280
     0
281
     0
  0
CLASS
  1
LONG_TRANSACTION
  2
AcDbLongTransaction
  3
AutoCAD 2000
 90
        0
280
     0
281
     0
  0
CLASS
  1
LWPOLYLINE
  2
AcDbPolyline
  3
AutoCAD 2000
 90
        0
280
     0
281
     1
  0
CLASS
  1
HATCH
  2
AcDbHatch
  3
AutoCAD 2000
 90
        0
280
     0
281
     1
  0
CLASS
  1
XRECORD
  2
AcDbXrecord
  3
AutoCAD 2000
 90
        0
280
     0
281
     0
  0
CLASS
  1
LONG_TRANSACTION
  2
AcDbLongTransaction
  3
AutoCAD 2000
 90
        0
280
     0
281
     0
  0
CLASS
  1
LWPOLYLINE
  2
AcDbPolyline
  3
AutoCAD 2000
 90
        0
280
     0
281
     1
  0
CLASS
  1
HATCH
  2
AcDbHatch
  3
AutoCAD 2000
 90
        0
280
     0
281
     1
  0
CLASS
  1
XRECORD
  2
AcDbXrecord
  3
AutoCAD 2000
 90
        0
280
     0
281
     0
  0
ENDSEC
  0
SECTION
  2
TABLES
  0
TABLE
  2
VPORT
  5
8
330
0
100
AcDbSymbolTable
 70
     3
  0
VPORT
  5
91C
330
8
100
AcDbSymbolTableRecord
100
AcDbViewportTableRecord
  2
*ACTIVE
 70
     0
 10
0.0
 20
0.0
 11
1.0
 21
1.0
 12
284.2405989369329
 22
35.3480319431264
 13
0.0
 23
0.0
 14
1.0
 24
1.0
 15
0.0
 25
0.0
 16
0.0
 26
0.0
 36
1.0
 17
0.0
 27
0.0
 37
0.0
 40
36.80713797871441
 41
1.618598382749326
 42
50.0
 43
0.0
 44
0.0
 50
0.0
 51
0.0
 71
     0
 72
   100
 73
     1
 74
     1
 75
     0
 76
     0
 77
     0
 78
     0
  0
ENDTAB
  0
TABLE
  2
LTYPE
  5
5
330
0
100
AcDbSymbolTable
 70
     1
  0
LTYPE
  5
13
330
5
100
AcDbSymbolTableRecord
100
AcDbLinetypeTableRecord
  2
BYBLOCK
 70
     0
  3

 72
    65
 73
     0
 40
0.0
  0
LTYPE
  5
14
330
5
100
AcDbSymbolTableRecord
100
AcDbLinetypeTableRecord
  2
BYLAYER
 70
     0
  3

 72
    65
 73
     0
 40
0.0
  0
LTYPE
  5
15
330
5
100
AcDbSymbolTableRecord
100
AcDbLinetypeTableRecord
  2
CONTINUOUS
 70
     0
  3
Solid line
 72
    65
 73
     0
 40
0.0
  0
ENDTAB
  0
TABLE
  2
LAYER
  5
2
330
0
100
AcDbSymbolTable
 70
     9
  0
LAYER
  5
10
330
2
100
AcDbSymbolTableRecord
100
AcDbLayerTableRecord
  2
0
 70
     0
 62
     7
  6
CONTINUOUS
  0
LAYER
  5
22
330
2
100
AcDbSymbolTableRecord
100
AcDbLayerTableRecord
  2
1
 70
     0
 62
     7
  6
CONTINUOUS
  0
LAYER
  5
23
330
2
100
AcDbSymbolTableRecord
100
AcDbLayerTableRecord
  2
7
 70
     0
 62
     7
  6
CONTINUOUS
  0
LAYER
  5
24
330
2
100
AcDbSymbolTableRecord
100
AcDbLayerTableRecord
  2
8
 70
     0
 62
     7
  6
CONTINUOUS
  0
LAYER
  5
25
330
2
100
AcDbSymbolTableRecord
100
AcDbLayerTableRecord
  2
9
 70
     0
 62
     7
  6
CONTINUOUS
  0
LAYER
  5
26
330
2
100
AcDbSymbolTableRecord
100
AcDbLayerTableRecord
  2
22
 70
     0
 62
     7
  6
CONTINUOUS
  0
LAYER
  5
27
330
2
100
AcDbSymbolTableRecord
100
AcDbLayerTableRecord
  2
25
 70
     0
 62
     7
  6
CONTINUOUS
  0
LAYER
  5
78
330
2
100
AcDbSymbolTableRecord
100
AcDbLayerTableRecord
  2
DEFPOINTS
 70
     0
 62
     7
  6
CONTINUOUS
  0
LAYER
  5
1E7
330
2
100
AcDbSymbolTableRecord
100
AcDbLayerTableRecord
  2
NO_PRINT
 70
     0
 62
     7
  6
CONTINUOUS
  0
ENDTAB
  0
TABLE
  2
STYLE
  5
3
330
0
100
AcDbSymbolTable
 70
     2
  0
STYLE
  5
11
330
3
100
AcDbSymbolTableRecord
100
AcDbTextStyleTableRecord
  2
STANDARD
 70
     0
 40
0.0
 41
1.0
 50
0.0
 71
     0
 42
0.2
  3
txt
  4

  0
STYLE
  5
28
330
3
100
AcDbSymbolTableRecord
100
AcDbTextStyleTableRecord
  2
ROMANC
 70
     0
 40
0.0
 41
1.0
 50
0.0
 71
     0
 42
0.2
  3
ROMANC
  4

  0
ENDTAB
  0
TABLE
  2
VIEW
  5
6
330
0
100
AcDbSymbolTable
 70
     0
  0
ENDTAB
  0
TABLE
  2
UCS
  5
7
330
0
100
AcDbSymbolTable
 70
     0
  0
ENDTAB
  0
TABLE
  2
APPID
  5
9
330
0
100
AcDbSymbolTable
 70
     2
  0
APPID
  5
12
330
9
100
AcDbSymbolTableRecord
100
AcDbRegAppTableRecord
  2
ACAD
 70
     0
  0
APPID
  5
827
330
9
100
AcDbSymbolTableRecord
100
AcDbRegAppTableRecord
  2
DCO15
 70
     0
  0
ENDTAB
  0
TABLE
  2
DIMSTYLE
  5
A
330
0
100
AcDbSymbolTable
 70
     1
  0
DIMSTYLE
105
6B
102
{ACAD_REACTORS
330
8FD
330
90B
102
}
330
A
100
AcDbSymbolTableRecord
100
AcDbDimStyleTableRecord
  2
STANDARD
 70
     0
  3

  4

  5

  6

  7

 40
1.0
 41
0.18
 42
0.0625
 43
0.38
 44
0.18
 45
0.0
 46
0.0
 47
0.0
 48
0.0
140
0.15
141
0.09
142
0.0
143
25.4
144
1.0
145
0.0
146
1.0
147
0.09
 71
     0
 72
     0
 73
     1
 74
     1
 75
     0
 76
     0
 77
     0
 78
     0
170
     0
171
     2
172
     0
173
     0
174
     0
175
     0
176
     0
177
     0
178
     0
270
     2
271
     2
272
     2
273
     2
274
     2
340
11
275
     0
280
     0
281
     0
282
     0
283
     1
284
     0
285
     0
286
     0
287
     3
288
     0
  0
ENDTAB
  0
TABLE
  2
BLOCK_RECORD
  5
1
330
0
100
AcDbSymbolTable
 70
     9
  0
BLOCK_RECORD
  5
1E
102
{ACAD_XDICTIONARY
360
39D
102
}
330
1
100
AcDbSymbolTableRecord
100
AcDbBlockTableRecord
  2
*MODEL_SPACE
  0
BLOCK_RECORD
  5
1A
102
{ACAD_XDICTIONARY
360
39F
102
}
330
1
100
AcDbSymbolTableRecord
100
AcDbBlockTableRecord
  2
*PAPER_SPACE
  0
BLOCK_RECORD
  5
853
330
1
100
AcDbSymbolTableRecord
100
AcDbBlockTableRecord
  2
*D3
  0
BLOCK_RECORD
  5
861
330
1
100
AcDbSymbolTableRecord
100
AcDbBlockTableRecord
  2
*D4
  0
BLOCK_RECORD
  5
870
330
1
100
AcDbSymbolTableRecord
100
AcDbBlockTableRecord
  2
*D5
  0
BLOCK_RECORD
  5
880
330
1
100
AcDbSymbolTableRecord
100
AcDbBlockTableRecord
  2
*D6
  0
BLOCK_RECORD
  5
8FE
330
1
100
AcDbSymbolTableRecord
100
AcDbBlockTableRecord
  2
*D7
  0
BLOCK_RECORD
  5
90C
330
1
100
AcDbSymbolTableRecord
100
AcDbBlockTableRecord
  2
*D8
  0
ENDTAB
  0
ENDSEC
  0
SECTION
  2
BLOCKS
  0
BLOCK
  5
1F
330
1E
100
AcDbEntity
  8
0
100
AcDbBlockBegin
  2
*MODEL_SPACE
 70
     0
 10
0.0
 20
0.0
 30
0.0
  3
*MODEL_SPACE
  1

  0
ENDBLK
  5
20
330
1E
100
AcDbEntity
  8
0
100
AcDbBlockEnd
  0
BLOCK
  5
1B
330
1A
100
AcDbEntity
 67
     1
  8
0
100
AcDbBlockBegin
  2
*PAPER_SPACE
 70
     0
 10
0.0
 20
0.0
 30
0.0
  3
*PAPER_SPACE
  1

  0
ENDBLK
  5
1C
330
1A
100
AcDbEntity
 67
     1
  8
0
100
AcDbBlockEnd
  0
BLOCK
  5
85E
330
853
100
AcDbEntity
  8
0
100
AcDbBlockBegin
  2
*D3
 70
     1
 10
0.0
 20
0.0
 30
0.0
  3
*D3
  1

  0
LINE
  5
897
330
853
100
AcDbEntity
  8
0
 62
     0
100
AcDbLine
 10
285.6951748702364
 20
36.00875078951514
 30
0.0
 11
285.6951748702364
 21
34.94707994514483
 31
0.0
  0
LINE
  5
898
330
853
100
AcDbEntity
  8
0
 62
     0
100
AcDbLine
 10
286.6951748702364
 20
36.00875078951514
 30
0.0
 11
286.6951748702364
 21
34.94707994514483
 31
0.0
  0
LINE
  5
899
330
853
100
AcDbEntity
  8
0
 62
     0
100
AcDbLine
 10
285.5151748702364
 20
35.12707994514483
 30
0.0
 11
285.3351748702364
 21
35.12707994514483
 31
0.0
  0
LINE
  5
89A
330
853
100
AcDbEntity
  8
0
 62
     0
100
AcDbLine
 10
286.8751748702364
 20
35.12707994514483
 30
0.0
 11
287.0551748702364
 21
35.12707994514483
 31
0.0
  0
SOLID
  5
89B
330
853
100
AcDbEntity
  8
0
 62
     0
100
AcDbTrace
 10
285.5151748702364
 20
35.15707994514483
 30
0.0
 11
285.5151748702364
 21
35.09707994514482
 31
0.0
 12
285.6951748702364
 22
35.12707994514483
 32
0.0
 13
285.6951748702364
 23
35.12707994514483
 33
0.0
  0
SOLID
  5
89C
330
853
100
AcDbEntity
  8
0
 62
     0
100
AcDbTrace
 10
286.8751748702364
 20
35.15707994514483
 30
0.0
 11
286.8751748702364
 21
35.09707994514482
 31
0.0
 12
286.6951748702364
 22
35.12707994514483
 32
0.0
 13
286.6951748702364
 23
35.12707994514483
 33
0.0
  0
MTEXT
  5
89D
330
853
100
AcDbEntity
  8
0
 62
     0
100
AcDbMText
 10
286.1254940146574
 20
35.12707994514483
 30
0.0
 40
0.15
 41
0.0
 71
     5
 72
     1
  1
\A1;1.00
1001
ACAD
1000
MTEXTBEGIN
1070
    73
1070
     1
1070
    44
1040
1.0
1070
    74
1070
     0
1000
MTEXTEND
  0
POINT
  5
89E
330
853
100
AcDbEntity
  8
DEFPOINTS
 62
     0
100
AcDbPoint
 10
285.6951748702364
 20
36.07125078951514
 30
0.0
  0
POINT
  5
89F
330
853
100
AcDbEntity
  8
DEFPOINTS
 62
     0
100
AcDbPoint
 10
286.6951748702364
 20
36.07125078951514
 30
0.0
  0
POINT
  5
8A0
330
853
100
AcDbEntity
  8
DEFPOINTS
 62
     0
100
AcDbPoint
 10
286.6951748702364
 20
35.12707994514483
 30
0.0
  0
ENDBLK
  5
85F
330
853
100
AcDbEntity
  8
0
100
AcDbBlockEnd
  0
BLOCK
  5
86D
330
861
100
AcDbEntity
  8
0
100
AcDbBlockBegin
  2
*D4
 70
     1
 10
0.0
 20
0.0
 30
0.0
  3
*D4
  1

  0
LINE
  5
8E8
330
861
100
AcDbEntity
  8
0
 62
     0
100
AcDbLine
 10
286.2576748702364
 20
35.9212507895151
 30
0.0
 11
287.5720249823138
 21
35.9212507895151
 31
0.0
  0
LINE
  5
8E9
330
861
100
AcDbEntity
  8
0
 62
     0
100
AcDbLine
 10
286.4326748702364
 20
36.07125078951514
 30
0.0
 11
287.5720249823138
 21
36.07125078951514
 31
0.0
  0
LINE
  5
8EA
330
861
100
AcDbEntity
  8
0
 62
     0
100
AcDbLine
 10
287.3920249823139
 20
35.7412507895151
 30
0.0
 11
287.3920249823139
 21
35.5612507895151
 31
0.0
  0
LINE
  5
8EB
330
861
100
AcDbEntity
  8
0
 62
     0
100
AcDbLine
 10
287.3920249823139
 20
36.25125078951514
 30
0.0
 11
287.3920249823139
 21
36.43125078951514
 31
0.0
  0
LINE
  5
8EC
330
861
100
AcDbEntity
  8
0
 62
     0
100
AcDbLine
 10
287.3920249823139
 20
36.43125078951514
 30
0.0
 11
287.5720249823138
 21
36.43125078951514
 31
0.0
  0
SOLID
  5
8ED
330
861
100
AcDbEntity
  8
0
 62
     0
100
AcDbTrace
 10
287.3620249823139
 20
35.7412507895151
 30
0.0
 11
287.4220249823138
 21
35.7412507895151
 31
0.0
 12
287.3920249823139
 22
35.9212507895151
 32
0.0
 13
287.3920249823139
 23
35.9212507895151
 33
0.0
  0
SOLID
  5
8EE
330
861
100
AcDbEntity
  8
0
 62
     0
100
AcDbTrace
 10
287.3620249823139
 20
36.25125078951514
 30
0.0
 11
287.4220249823138
 21
36.25125078951514
 31
0.0
 12
287.3920249823139
 22
36.07125078951514
 32
0.0
 13
287.3920249823139
 23
36.07125078951514
 33
0.0
  0
MTEXT
  5
8EF
330
861
100
AcDbEntity
  8
0
 62
     0
100
AcDbMText
 10
287.8495249823138
 20
36.43125078951519
 30
0.0
 40
0.15
 41
0.0
 71
     5
 72
     1
  1
\A1;0.15
1001
ACAD
1000
MTEXTBEGIN
1070
    73
1070
     1
1070
    44
1040
1.0
1070
    74
1070
     0
1000
MTEXTEND
  0
POINT
  5
8F0
330
861
100
AcDbEntity
  8
DEFPOINTS
 62
     0
100
AcDbPoint
 10
286.1951748702364
 20
35.9212507895151
 30
0.0
  0
POINT
  5
8F1
330
861
100
AcDbEntity
  8
DEFPOINTS
 62
     0
100
AcDbPoint
 10
286.3701748702364
 20
36.07125078951514
 30
0.0
  0
POINT
  5
8F2
330
861
100
AcDbEntity
  8
DEFPOINTS
 62
     0
100
AcDbPoint
 10
287.3920249823139
 20
36.07125078951514
 30
0.0
  0
ENDBLK
  5
86E
330
861
100
AcDbEntity
  8
0
100
AcDbBlockEnd
  0
BLOCK
  5
87B
330
870
100
AcDbEntity
  8
0
100
AcDbBlockBegin
  2
*D5
 70
     1
 10
0.0
 20
0.0
 30
0.0
  3
*D5
  1

  0
LINE
  5
8BF
330
870
100
AcDbEntity
  8
0
 62
     0
100
AcDbLine
 10
286.0201748702364
 20
36.00875078951514
 30
0.0
 11
286.0201748702364
 21
35.53823740587635
 31
0.0
  0
LINE
  5
8C0
330
870
100
AcDbEntity
  8
0
 62
     0
100
AcDbLine
 10
286.3701748702364
 20
36.00875078951514
 30
0.0
 11
286.3701748702364
 21
35.53823740587635
 31
0.0
  0
LINE
  5
8C1
330
870
100
AcDbEntity
  8
0
 62
     0
100
AcDbLine
 10
285.8401748702364
 20
35.71823740587635
 30
0.0
 11
285.6601748702363
 21
35.71823740587635
 31
0.0
  0
LINE
  5
8C2
330
870
100
AcDbEntity
  8
0
 62
     0
100
AcDbLine
 10
286.5501748702364
 20
35.71823740587635
 30
0.0
 11
286.7301748702364
 21
35.71823740587635
 31
0.0
  0
SOLID
  5
8C3
330
870
100
AcDbEntity
  8
0
 62
     0
100
AcDbTrace
 10
285.8401748702364
 20
35.74823740587635
 30
0.0
 11
285.8401748702364
 21
35.68823740587635
 31
0.0
 12
286.0201748702364
 22
35.71823740587635
 32
0.0
 13
286.0201748702364
 23
35.71823740587635
 33
0.0
  0
SOLID
  5
8C4
330
870
100
AcDbEntity
  8
0
 62
     0
100
AcDbTrace
 10
286.5501748702364
 20
35.74823740587635
 30
0.0
 11
286.5501748702364
 21
35.68823740587635
 31
0.0
 12
286.3701748702364
 22
35.71823740587635
 32
0.0
 13
286.3701748702364
 23
35.71823740587635
 33
0.0
  0
MTEXT
  5
8C5
330
870
100
AcDbEntity
  8
0
 62
     0
100
AcDbMText
 10
287.0326748702364
 20
35.71823740587635
 30
0.0
 40
0.15
 41
0.0
 71
     5
 72
     1
  1
\A1;0.35
1001
ACAD
1000
MTEXTBEGIN
1070
    73
1070
     1
1070
    44
1040
1.0
1070
    74
1070
     0
1000
MTEXTEND
  0
POINT
  5
8C6
330
870
100
AcDbEntity
  8
DEFPOINTS
 62
     0
100
AcDbPoint
 10
286.0201748702364
 20
36.07125078951515
 30
0.0
  0
POINT
  5
8C7
330
870
100
AcDbEntity
  8
DEFPOINTS
 62
     0
100
AcDbPoint
 10
286.3701748702364
 20
36.07125078951514
 30
0.0
  0
POINT
  5
8C8
330
870
100
AcDbEntity
  8
DEFPOINTS
 62
     0
100
AcDbPoint
 10
286.3701748702364
 20
35.71823740587635
 30
0.0
  0
ENDBLK
  5
87C
330
870
100
AcDbEntity
  8
0
100
AcDbBlockEnd
  0
BLOCK
  5
88B
330
880
100
AcDbEntity
  8
0
100
AcDbBlockBegin
  2
*D6
 70
     1
 10
0.0
 20
0.0
 30
0.0
  3
*D6
  1

  0
LINE
  5
881
330
880
100
AcDbEntity
  8
0
 62
     0
100
AcDbLine
 10
286.1250892215327
 20
35.92194142297131
 30
0.0
 11
284.5713216546032
 21
35.93506790848273
 31
0.0
  0
LINE
  5
882
330
880
100
AcDbEntity
  8
0
 62
     0
100
AcDbLine
 10
286.1402801780851
 20
37.72007814291469
 30
0.0
 11
284.5865126111557
 21
37.73320462842611
 31
0.0
  0
LINE
  5
883
330
880
100
AcDbEntity
  8
0
 62
     0
100
AcDbLine
 10
284.7528358470339
 20
36.11354086986983
 30
0.0
 11
284.7575167624853
 21
36.66761565293269
 31
0.0
  0
LINE
  5
884
330
880
100
AcDbEntity
  8
0
 62
     0
100
AcDbLine
 10
284.7649855725429
 20
37.55169043599554
 30
0.0
 11
284.7603046570914
 21
36.99761565293269
 31
0.0
  0
SOLID
  5
885
330
880
100
AcDbEntity
  8
0
 62
     0
100
AcDbTrace
 10
284.7228369175491
 20
36.11379430579012
 30
0.0
 11
284.7828347765186
 21
36.11328743394954
 31
0.0
 12
284.7513152315121
 22
35.93354729296099
 32
0.0
 13
284.7513152315121
 23
35.93354729296099
 33
0.0
  0
SOLID
  5
886
330
880
100
AcDbEntity
  8
0
 62
     0
100
AcDbTrace
 10
284.734986643058
 20
37.55194387191584
 30
0.0
 11
284.7949845020276
 21
37.55143700007526
 31
0.0
 12
284.7665061880646
 22
37.73168401290438
 32
0.0
 13
284.7665061880646
 23
37.73168401290438
 33
0.0
  0
MTEXT
  5
887
330
880
100
AcDbEntity
  8
0
 62
     0
100
AcDbMText
 10
284.7589107097883
 20
36.83261565293266
 30
0.0
 40
0.15
 41
0.0
 71
     5
 72
     1
  1
\A1;1.80
1001
ACAD
1000
MTEXTBEGIN
1070
    73
1070
     1
1070
    44
1040
1.0
1070
    74
1070
     0
1000
MTEXTEND
  0
POINT
  5
888
330
880
100
AcDbEntity
  8
DEFPOINTS
 62
     0
100
AcDbPoint
 10
286.1875869912926
 20
35.92141343147071
 30
0.0
  0
POINT
  5
889
330
880
100
AcDbEntity
  8
DEFPOINTS
 62
     0
100
AcDbPoint
 10
286.2027779478451
 20
37.7195501514141
 30
0.0
  0
POINT
  5
88A
330
880
100
AcDbEntity
  8
DEFPOINTS
 62
     0
100
AcDbPoint
 10
284.7665061880646
 20
37.73168401290438
 30
0.0
  0
ENDBLK
  5
88C
330
880
100
AcDbEntity
  8
0
100
AcDbBlockEnd
  0
BLOCK
  5
909
330
8FE
100
AcDbEntity
  8
0
100
AcDbBlockBegin
  2
*D7
 70
     1
 10
0.0
 20
0.0
 30
0.0
  3
*D7
  1

  0
LINE
  5
8FF
330
8FE
100
AcDbEntity
  8
0
 62
     0
100
AcDbLine
 10
284.4615632476036
 20
35.07729245111436
 30
0.0
 11
284.4615632476036
 21
34.17838105240241
 31
0.0
  0
LINE
  5
900
330
8FE
100
AcDbEntity
  8
0
 62
     0
100
AcDbLine
 10
287.9615632476037
 20
35.07729245111436
 30
0.0
 11
287.9615632476037
 21
34.17838105240241
 31
0.0
  0
LINE
  5
901
330
8FE
100
AcDbEntity
  8
0
 62
     0
100
AcDbLine
 10
284.6415632476037
 20
34.35838105240241
 30
0.0
 11
285.9090632476037
 21
34.35838105240241
 31
0.0
  0
LINE
  5
902
330
8FE
100
AcDbEntity
  8
0
 62
     0
100
AcDbLine
 10
287.7815632476036
 20
34.35838105240241
 30
0.0
 11
286.5140632476037
 21
34.35838105240241
 31
0.0
  0
SOLID
  5
903
330
8FE
100
AcDbEntity
  8
0
 62
     0
100
AcDbTrace
 10
284.6415632476037
 20
34.38838105240241
 30
0.0
 11
284.6415632476037
 21
34.32838105240241
 31
0.0
 12
284.4615632476036
 22
34.35838105240241
 32
0.0
 13
284.4615632476036
 23
34.35838105240241
 33
0.0
  0
SOLID
  5
904
330
8FE
100
AcDbEntity
  8
0
 62
     0
100
AcDbTrace
 10
287.7815632476036
 20
34.38838105240241
 30
0.0
 11
287.7815632476036
 21
34.32838105240241
 31
0.0
 12
287.9615632476037
 22
34.35838105240241
 32
0.0
 13
287.9615632476037
 23
34.35838105240241
 33
0.0
  0
MTEXT
  5
905
330
8FE
100
AcDbEntity
  8
0
 62
     0
100
AcDbMText
 10
286.2115632476037
 20
34.35838105240241
 30
0.0
 40
0.15
 41
0.0
 71
     5
 72
     1
  1
\A1;3.50
1001
ACAD
1000
MTEXTBEGIN
1070
    73
1070
     1
1070
    44
1040
1.0
1070
    74
1070
     0
1000
MTEXTEND
  0
POINT
  5
906
330
8FE
100
AcDbEntity
  8
DEFPOINTS
 62
     0
100
AcDbPoint
 10
284.4615632476036
 20
35.13979245111436
 30
0.0
  0
POINT
  5
907
330
8FE
100
AcDbEntity
  8
DEFPOINTS
 62
     0
100
AcDbPoint
 10
287.9615632476037
 20
35.13979245111436
 30
0.0
  0
POINT
  5
908
330
8FE
100
AcDbEntity
  8
DEFPOINTS
 62
     0
100
AcDbPoint
 10
287.9615632476037
 20
34.35838105240241
 30
0.0
  0
ENDBLK
  5
90A
330
8FE
100
AcDbEntity
  8
0
100
AcDbBlockEnd
  0
BLOCK
  5
917
330
90C
100
AcDbEntity
  8
0
100
AcDbBlockBegin
  2
*D8
 70
     1
 10
0.0
 20
0.0
 30
0.0
  3
*D8
  1

  0
LINE
  5
90D
330
90C
100
AcDbEntity
  8
0
 62
     0
100
AcDbLine
 10
288.0240632476036
 20
35.13979245111436
 30
0.0
 11
289.0936737516239
 21
35.13979245111436
 31
0.0
  0
LINE
  5
90E
330
90C
100
AcDbEntity
  8
0
 62
     0
100
AcDbLine
 10
288.0240632476036
 20
37.63979245111436
 30
0.0
 11
289.0936737516239
 21
37.63979245111436
 31
0.0
  0
LINE
  5
90F
330
90C
100
AcDbEntity
  8
0
 62
     0
100
AcDbLine
 10
288.9136737516239
 20
35.31979245111436
 30
0.0
 11
288.9136737516239
 21
36.22479245111436
 31
0.0
  0
LINE
  5
910
330
90C
100
AcDbEntity
  8
0
 62
     0
100
AcDbLine
 10
288.9136737516239
 20
37.45979245111436
 30
0.0
 11
288.9136737516239
 21
36.55479245111436
 31
0.0
  0
SOLID
  5
911
330
90C
100
AcDbEntity
  8
0
 62
     0
100
AcDbTrace
 10
288.8836737516239
 20
35.31979245111436
 30
0.0
 11
288.9436737516239
 21
35.31979245111436
 31
0.0
 12
288.9136737516239
 22
35.13979245111436
 32
0.0
 13
288.9136737516239
 23
35.13979245111436
 33
0.0
  0
SOLID
  5
912
330
90C
100
AcDbEntity
  8
0
 62
     0
100
AcDbTrace
 10
288.8836737516239
 20
37.45979245111436
 30
0.0
 11
288.9436737516239
 21
37.45979245111436
 31
0.0
 12
288.9136737516239
 22
37.63979245111436
 32
0.0
 13
288.9136737516239
 23
37.63979245111436
 33
0.0
  0
MTEXT
  5
913
330
90C
100
AcDbEntity
  8
0
 62
     0
100
AcDbMText
 10
288.9136737516239
 20
36.38979245111441
 30
0.0
 40
0.15
 41
0.0
 71
     5
 72
     1
  1
\A1;2.50
1001
ACAD
1000
MTEXTBEGIN
1070
    73
1070
     1
1070
    44
1040
1.0
1070
    74
1070
     0
1000
MTEXTEND
  0
POINT
  5
914
330
90C
100
AcDbEntity
  8
DEFPOINTS
 62
     0
100
AcDbPoint
 10
287.9615632476037
 20
35.13979245111436
 30
0.0
  0
POINT
  5
915
330
90C
100
AcDbEntity
  8
DEFPOINTS
 62
     0
100
AcDbPoint
 10
287.9615632476037
 20
37.63979245111436
 30
0.0
  0
POINT
  5
916
330
90C
100
AcDbEntity
  8
DEFPOINTS
 62
     0
100
AcDbPoint
 10
288.9136737516239
 20
37.63979245111436
 30
0.0
  0
ENDBLK
  5
918
330
90C
100
AcDbEntity
  8
0
100
AcDbBlockEnd
  0
ENDSEC
  0
SECTION
  2
ENTITIES
  0
TEXT
  5
2C
330
1E
100
AcDbEntity
  8
0
  6
CONTINUOUS
100
AcDbText
 10
287.1185593216528
 20
41.32981838511393
 30
0.0
 40
0.15
  1
2
  7
ROMANC
100
AcDbText
  0
TEXT
  5
2D
330
1E
100
AcDbEntity
  8
0
  6
CONTINUOUS
100
AcDbText
 10
283.9259999999999
 20
41.768
 30
0.0
 40
0.3
  1
ESCALA  1:50
  7
ROMANC
100
AcDbText
  0
LWPOLYLINE
  5
2E
330
1E
100
AcDbEntity
  8
NO_PRINT
  6
CONTINUOUS
100
AcDbPolyline
 90
        4
 70
     1
 43
0.0
 10
281.3959999999999
 20
44.747
 10
291.8959999999999
 20
44.747
 10
291.8959999999999
 20
29.897
 10
281.3959999999999
 20
29.897
  0
TEXT
  5
34
330
1E
100
AcDbEntity
  8
0
  6
CONTINUOUS
100
AcDbText
 10
283.9259999999999
 20
42.381
 30
0.0
 40
0.3
  1
TIPUS   NT875A
  7
ROMANC
100
AcDbText
  0
TEXT
  5
36
330
1E
100
AcDbEntity
  8
0
  6
CONTINUOUS
100
AcDbText
 10
283.922
 20
40.529
 30
0.0
 40
0.3
  1
P = 120 dm
  7
ROMANC
100
AcDbText
  0
TEXT
  5
37
330
1E
100
AcDbEntity
  8
0
  6
CONTINUOUS
100
AcDbText
 10
283.9449999999999
 20
41.09899999999998
 30
0.0
 40
0.3
  1
S = 875 dm
  7
ROMANC
100
AcDbText
  0
LWPOLYLINE
  5
8FC
330
1E
100
AcDbEntity
  8
0
100
AcDbPolyline
 90
        4
 70
     1
 43
0.0
 10
284.4615632476036
 20
35.13979245111436
 10
287.9615632476037
 20
35.13979245111436
 10
287.9615632476037
 20
37.63979245111436
 10
284.4615632476036
 20
37.63979245111436
  0
DIMENSION
  5
8FD
330
1E
100
AcDbEntity
  8
0
100
AcDbDimension
  2
*D7
 10
287.9615632476037
 20
34.35838105240241
 30
0.0
 11
286.2115632476037
 21
34.35838105240241
 31
0.0
 70
    32
  3
STANDARD
100
AcDbAlignedDimension
 13
284.4615632476036
 23
35.13979245111436
 33
0.0
 14
287.9615632476037
 24
35.13979245111436
 34
0.0
100
AcDbRotatedDimension
  0
DIMENSION
  5
90B
330
1E
100
AcDbEntity
  8
0
100
AcDbDimension
  2
*D8
 10
288.9136737516239
 20
37.63979245111436
 30
0.0
 11
288.9136737516239
 21
36.38979245111441
 31
0.0
 70
    32
  3
STANDARD
100
AcDbAlignedDimension
 13
287.9615632476037
 23
35.13979245111436
 33
0.0
 14
287.9615632476037
 24
37.63979245111436
 34
0.0
 50
90.0
100
AcDbRotatedDimension
  0
LWPOLYLINE
  5
919
330
1E
100
AcDbEntity
  8
0
100
AcDbPolyline
 90
        4
 70
     1
 43
0.0
 10
284.4515632476037
 20
35.12979245111436
 10
287.9715632476036
 20
35.12979245111436
 10
287.9715632476036
 20
37.64979245111435
 10
284.4515632476037
 20
37.64979245111435
  0
LWPOLYLINE
  5
91A
330
1E
100
AcDbEntity
  8
0
100
AcDbPolyline
 90
        4
 70
     1
 43
0.0
 10
284.4715632476036
 20
35.14979245111435
 10
287.9515632476037
 20
35.14979245111435
 10
287.9515632476037
 20
37.62979245111436
 10
284.4715632476036
 20
37.62979245111436
  0
ENDSEC
  0
SECTION
  2
OBJECTS
  0
DICTIONARY
  5
C
330
0
100
AcDbDictionary
  3
ACAD_GROUP
350
D
  3
ACAD_LAYOUT
350
19
  3
ACAD_MLINESTYLE
350
16
  3
ACAD_PLOTSETTINGS
350
18
  3
ACAD_PLOTSTYLENAME
350
E
  3
ACDBHEADERROUNDTRIPXREC
350
91D
  3
ACDBVARIABLEDICTIONARY
350
6E
  3
ASE_INDEX_DICTIONARY
350
826
  3
DWGPROPS
350
271
  0
DICTIONARY
  5
39D
330
1E
100
AcDbDictionary
280
     1
  3
ACAD_LAYOUTSELFREF
360
93E
  0
DICTIONARY
  5
39F
330
1A
100
AcDbDictionary
280
     1
  3
ACAD_LAYOUTSELFREF
360
93D
  0
DICTIONARY
  5
D
102
{ACAD_REACTORS
330
C
102
}
330
C
100
AcDbDictionary
  0
DICTIONARY
  5
19
102
{ACAD_REACTORS
330
C
102
}
330
C
100
AcDbDictionary
  0
DICTIONARY
  5
16
102
{ACAD_REACTORS
330
C
102
}
330
C
100
AcDbDictionary
  3
STANDARD
350
17
  0
DICTIONARY
  5
18
102
{ACAD_REACTORS
330
C
102
}
330
C
100
AcDbDictionary
  0
ACDBDICTIONARYWDFLT
  5
E
102
{ACAD_REACTORS
330
C
102
}
330
C
100
AcDbDictionary
281
     1
  3
Normal
350
F
100
AcDbDictionaryWithDefault
340
F
  0
DICTIONARY
  5
91D
102
{ACAD_REACTORS
330
C
102
}
330
C
100
AcDbDictionary
  3
CEPSNTYPE
350
927
  3
FINGERPRINTGUID
350
928
  3
HYPERLINKBASE
350
920
  3
INSUNITS
350
926
  3
LAYOUTDICT
350
922
  3
LWETCUNION
350
925
  3
PLOTSETDICT
350
923
  3
PLOTSTYLNAMDICT
350
924
  3
PSVPSCALE
350
92A
  3
PUCSBASE
350
92D
  3
PUCSORGBACK
350
933
  3
PUCSORGBOTTOM
350
92F
  3
PUCSORGFRONT
350
932
  3
PUCSORGLEFT
350
930
  3
PUCSORGRIGHT
350
931
  3
PUCSORGTOP
350
92E
  3
PUCSORTHOREF
350
92B
  3
PUCSORTHOVIEW
350
92C
  3
STYLESHEET
350
921
  3
TSTACKALIGN
350
91E
  3
TSTACKSIZE
350
91F
  3
UCSBASE
350
936
  3
UCSORGBACK
350
93C
  3
UCSORGBOTTOM
350
938
  3
UCSORGFRONT
350
93B
  3
UCSORGLEFT
350
939
  3
UCSORGRIGHT
350
93A
  3
UCSORGTOP
350
937
  3
UCSORTHOREF
350
934
  3
UCSORTHOVIEW
350
935
  3
VERSIONGUID
350
929
  0
DICTIONARY
  5
6E
102
{ACAD_REACTORS
330
C
102
}
330
C
100
AcDbDictionary
  3
DIMASSOC
350
6F
  0
DICTIONARY
  5
826
102
{ACAD_REACTORS
330
C
102
}
330
C
100
AcDbDictionary
  3
ASEBLOCKHIERARCHYINDEXRECORD
350
828
1001
DCO15
1040
1496565024.164
  0
XRECORD
  5
271
102
{ACAD_REACTORS
330
C
102
}
330
C
100
AcDbXrecord
  1
DWGPROPS COOKIE
  2

  3

  4

  6

  7

  8
JaumeTrias
  9

300
=
301
=
302
=
303
=
304
=
305
=
306
=
307
=
308
=
309
=
 40
0.0195228587962963
 41
2448315.331741435
 42
2452943.48254824
  1

 90
        0
  0
XRECORD
  5
93E
102
{ACAD_REACTORS
330
39D
102
}
330
39D
100
AcDbXrecord
340
1E
  0
XRECORD
  5
93D
102
{ACAD_REACTORS
330
39F
102
}
330
39F
100
AcDbXrecord
340
1A
  0
MLINESTYLE
  5
17
102
{ACAD_REACTORS
330
16
102
}
330
16
100
AcDbMlineStyle
  2
STANDARD
 70
     0
  3

 62
   256
 51
90.0
 52
90.0
 71
     2
 49
0.5
 62
   256
  6
BYLAYER
 49
-0.5
 62
   256
  6
BYLAYER
  0
ACDBPLACEHOLDER
  5
F
102
{ACAD_REACTORS
330
E
102
}
330
E
100
AcDbPlaceHolder
280
     0
  0
XRECORD
  5
927
102
{ACAD_REACTORS
330
91D
102
}
330
91D
100
AcDbXrecord
 90
        0
  0
XRECORD
  5
928
102
{ACAD_REACTORS
330
91D
102
}
330
91D
100
AcDbXrecord
  1
{A6FCFFB5-5CE9-42DC-A06F-C5476E26D97B}
  0
XRECORD
  5
920
102
{ACAD_REACTORS
330
91D
102
}
330
91D
100
AcDbXrecord
  1

  0
XRECORD
  5
926
102
{ACAD_REACTORS
330
91D
102
}
330
91D
100
AcDbXrecord
 90
        0
  0
XRECORD
  5
922
102
{ACAD_REACTORS
330
91D
102
}
330
91D
100
AcDbXrecord
340
19
  0
XRECORD
  5
925
102
{ACAD_REACTORS
330
91D
102
}
330
91D
100
AcDbXrecord
 90
    10781
  0
XRECORD
  5
923
102
{ACAD_REACTORS
330
91D
102
}
330
91D
100
AcDbXrecord
340
18
  0
XRECORD
  5
924
102
{ACAD_REACTORS
330
91D
102
}
330
91D
100
AcDbXrecord
340
E
  0
XRECORD
  5
92A
102
{ACAD_REACTORS
330
91D
102
}
330
91D
100
AcDbXrecord
 40
0.0
  0
XRECORD
  5
92D
102
{ACAD_REACTORS
330
91D
102
}
330
91D
100
AcDbXrecord
340
0
  0
XRECORD
  5
933
102
{ACAD_REACTORS
330
91D
102
}
330
91D
100
AcDbXrecord
 10
0.0
 20
0.0
 30
0.0
  0
XRECORD
  5
92F
102
{ACAD_REACTORS
330
91D
102
}
330
91D
100
AcDbXrecord
 10
0.0
 20
0.0
 30
0.0
  0
XRECORD
  5
932
102
{ACAD_REACTORS
330
91D
102
}
330
91D
100
AcDbXrecord
 10
0.0
 20
0.0
 30
0.0
  0
XRECORD
  5
930
102
{ACAD_REACTORS
330
91D
102
}
330
91D
100
AcDbXrecord
 10
0.0
 20
0.0
 30
0.0
  0
XRECORD
  5
931
102
{ACAD_REACTORS
330
91D
102
}
330
91D
100
AcDbXrecord
 10
0.0
 20
0.0
 30
0.0
  0
XRECORD
  5
92E
102
{ACAD_REACTORS
330
91D
102
}
330
91D
100
AcDbXrecord
 10
0.0
 20
0.0
 30
0.0
  0
XRECORD
  5
92B
102
{ACAD_REACTORS
330
91D
102
}
330
91D
100
AcDbXrecord
340
0
  0
XRECORD
  5
92C
102
{ACAD_REACTORS
330
91D
102
}
330
91D
100
AcDbXrecord
 70
     0
  0
XRECORD
  5
921
102
{ACAD_REACTORS
330
91D
102
}
330
91D
100
AcDbXrecord
  1

  0
XRECORD
  5
91E
102
{ACAD_REACTORS
330
91D
102
}
330
91D
100
AcDbXrecord
 90
        1
  0
XRECORD
  5
91F
102
{ACAD_REACTORS
330
91D
102
}
330
91D
100
AcDbXrecord
 90
       70
  0
XRECORD
  5
936
102
{ACAD_REACTORS
330
91D
102
}
330
91D
100
AcDbXrecord
340
0
  0
XRECORD
  5
93C
102
{ACAD_REACTORS
330
91D
102
}
330
91D
100
AcDbXrecord
 10
0.0
 20
0.0
 30
0.0
  0
XRECORD
  5
938
102
{ACAD_REACTORS
330
91D
102
}
330
91D
100
AcDbXrecord
 10
0.0
 20
0.0
 30
0.0
  0
XRECORD
  5
93B
102
{ACAD_REACTORS
330
91D
102
}
330
91D
100
AcDbXrecord
 10
0.0
 20
0.0
 30
0.0
  0
XRECORD
  5
939
102
{ACAD_REACTORS
330
91D
102
}
330
91D
100
AcDbXrecord
 10
0.0
 20
0.0
 30
0.0
  0
XRECORD
  5
93A
102
{ACAD_REACTORS
330
91D
102
}
330
91D
100
AcDbXrecord
 10
0.0
 20
0.0
 30
0.0
  0
XRECORD
  5
937
102
{ACAD_REACTORS
330
91D
102
}
330
91D
100
AcDbXrecord
 10
0.0
 20
0.0
 30
0.0
  0
XRECORD
  5
934
102
{ACAD_REACTORS
330
91D
102
}
330
91D
100
AcDbXrecord
340
0
  0
XRECORD
  5
935
102
{ACAD_REACTORS
330
91D
102
}
330
91D
100
AcDbXrecord
 70
     0
  0
XRECORD
  5
929
102
{ACAD_REACTORS
330
91D
102
}
330
91D
100
AcDbXrecord
  1
{12074270-1AB2-4BFB-B9DC-E0011F36199E}
  0
DICTIONARYVAR
  5
6F
102
{ACAD_REACTORS
330
6E
102
}
330
6E
100
DictionaryVariables
280
     0
  1
1
  0
XRECORD
  5
828
102
{ACAD_REACTORS
330
826
102
}
330
826
100
AcDbXrecord
  0
ENDSEC
  0
EOF
