  0
SECTION
  2
HEADER
  9
$ACADVER
  1
AC1015
  9
$ACADMAINTVER
 70
     6
  9
$DWGCODEPAGE
  3
ANSI_1252
  9
$INSBASE
 10
0.0
 20
0.0
 30
0.0
  9
$EXTMIN
 10
281.3950692441339
 20
29.89657355491301
 30
-0.0015258207003583
  9
$EXTMAX
 10
291.8969308140734
 20
44.7474837405175
 30
0.0000000349246037
  9
$LIMMIN
 10
280.3959999999999
 20
28.89699999999999
  9
$LIMMAX
 10
292.8959999999999
 20
43.74699999999999
  9
$ORTHOMODE
 70
     1
  9
$REGENMODE
 70
     1
  9
$FILLMODE
 70
     1
  9
$QTEXTMODE
 70
     0
  9
$MIRRTEXT
 70
     1
  9
$LTSCALE
 40
1.0
  9
$ATTMODE
 70
     1
  9
$TEXTSIZE
 40
0.2
  9
$TRACEWID
 40
0.05
  9
$TEXTSTYLE
  7
STANDARD
  9
$CLAYER
  8
0
  9
$CELTYPE
  6
BYLAYER
  9
$CECOLOR
 62
   256
  9
$CELTSCALE
 40
1.0
  9
$DISPSILH
 70
     0
  9
$DIMSCALE
 40
1.0
  9
$DIMASZ
 40
0.18
  9
$DIMEXO
 40
0.0625
  9
$DIMDLI
 40
0.38
  9
$DIMRND
 40
0.0
  9
$DIMDLE
 40
0.0
  9
$DIMEXE
 40
0.18
  9
$DIMTP
 40
0.0
  9
$DIMTM
 40
0.0
  9
$DIMTXT
 40
0.18
  9
$DIMCEN
 40
0.09
  9
$DIMTSZ
 40
0.0
  9
$DIMTOL
 70
     0
  9
$DIMLIM
 70
     0
  9
$DIMTIH
 70
     1
  9
$DIMTOH
 70
     1
  9
$DIMSE1
 70
     0
  9
$DIMSE2
 70
     0
  9
$DIMTAD
 70
     0
  9
$DIMZIN
 70
     0
  9
$DIMBLK
  1

  9
$DIMASO
 70
     1
  9
$DIMSHO
 70
     1
  9
$DIMPOST
  1

  9
$DIMAPOST
  1

  9
$DIMALT
 70
     0
  9
$DIMALTD
 70
     2
  9
$DIMALTF
 40
25.4
  9
$DIMLFAC
 40
1.0
  9
$DIMTOFL
 70
     0
  9
$DIMTVP
 40
0.0
  9
$DIMTIX
 70
     0
  9
$DIMSOXD
 70
     0
  9
$DIMSAH
 70
     0
  9
$DIMBLK1
  1

  9
$DIMBLK2
  1

  9
$DIMSTYLE
  2
STANDARD
  9
$DIMCLRD
 70
     0
  9
$DIMCLRE
 70
     0
  9
$DIMCLRT
 70
     0
  9
$DIMTFAC
 40
1.0
  9
$DIMGAP
 40
0.09
  9
$DIMJUST
 70
     0
  9
$DIMSD1
 70
     0
  9
$DIMSD2
 70
     0
  9
$DIMTOLJ
 70
     1
  9
$DIMTZIN
 70
     0
  9
$DIMALTZ
 70
     0
  9
$DIMALTTZ
 70
     0
  9
$DIMUPT
 70
     0
  9
$DIMDEC
 70
     4
  9
$DIMTDEC
 70
     4
  9
$DIMALTU
 70
     2
  9
$DIMALTTD
 70
     2
  9
$DIMTXSTY
  7
STANDARD
  9
$DIMAUNIT
 70
     0
  9
$DIMADEC
 70
     0
  9
$DIMALTRND
 40
0.0
  9
$DIMAZIN
 70
     0
  9
$DIMDSEP
 70
    46
  9
$DIMATFIT
 70
     3
  9
$DIMFRAC
 70
     0
  9
$DIMLDRBLK
  1

  9
$DIMLUNIT
 70
     2
  9
$DIMLWD
 70
    -2
  9
$DIMLWE
 70
    -2
  9
$DIMTMOVE
 70
     0
  9
$LUNITS
 70
     2
  9
$LUPREC
 70
     4
  9
$SKETCHINC
 40
0.1
  9
$FILLETRAD
 40
0.0
  9
$AUNITS
 70
     0
  9
$AUPREC
 70
     0
  9
$MENU
  1
acad
  9
$ELEVATION
 40
0.0
  9
$PELEVATION
 40
0.0
  9
$THICKNESS
 40
0.0
  9
$LIMCHECK
 70
     0
  9
$CHAMFERA
 40
0.0
  9
$CHAMFERB
 40
0.0
  9
$CHAMFERC
 40
0.0
  9
$CHAMFERD
 40
0.0
  9
$SKPOLY
 70
     0
  9
$TDCREATE
 40
2448315.373408102
  9
$TDUCREATE
 40
2448315.290074768
  9
$TDUPDATE
 40
2451806.709190810
  9
$TDUUPDATE
 40
2451806.625857477
  9
$TDINDWG
 40
0.0552097106
  9
$TDUSRTIMER
 40
0.0551790046
  9
$USRTIMER
 70
     1
  9
$ANGBASE
 50
0.0
  9
$ANGDIR
 70
     0
  9
$PDMODE
 70
     0
  9
$PDSIZE
 40
0.0
  9
$PLINEWID
 40
0.0
  9
$SPLFRAME
 70
     0
  9
$SPLINETYPE
 70
     6
  9
$SPLINESEGS
 70
     8
  9
$HANDSEED
  5
406
  9
$SURFTAB1
 70
     6
  9
$SURFTAB2
 70
     6
  9
$SURFTYPE
 70
     6
  9
$SURFU
 70
     6
  9
$SURFV
 70
     6
  9
$UCSBASE
  2

  9
$UCSNAME
  2

  9
$UCSORG
 10
0.0
 20
0.0
 30
0.0
  9
$UCSXDIR
 10
1.0
 20
0.0
 30
0.0
  9
$UCSYDIR
 10
0.0
 20
1.0
 30
0.0
  9
$UCSORTHOREF
  2

  9
$UCSORTHOVIEW
 70
     0
  9
$UCSORGTOP
 10
0.0
 20
0.0
 30
0.0
  9
$UCSORGBOTTOM
 10
0.0
 20
0.0
 30
0.0
  9
$UCSORGLEFT
 10
0.0
 20
0.0
 30
0.0
  9
$UCSORGRIGHT
 10
0.0
 20
0.0
 30
0.0
  9
$UCSORGFRONT
 10
0.0
 20
0.0
 30
0.0
  9
$UCSORGBACK
 10
0.0
 20
0.0
 30
0.0
  9
$PUCSBASE
  2

  9
$PUCSNAME
  2

  9
$PUCSORG
 10
0.0
 20
0.0
 30
0.0
  9
$PUCSXDIR
 10
1.0
 20
0.0
 30
0.0
  9
$PUCSYDIR
 10
0.0
 20
1.0
 30
0.0
  9
$PUCSORTHOREF
  2

  9
$PUCSORTHOVIEW
 70
     0
  9
$PUCSORGTOP
 10
0.0
 20
0.0
 30
0.0
  9
$PUCSORGBOTTOM
 10
0.0
 20
0.0
 30
0.0
  9
$PUCSORGLEFT
 10
0.0
 20
0.0
 30
0.0
  9
$PUCSORGRIGHT
 10
0.0
 20
0.0
 30
0.0
  9
$PUCSORGFRONT
 10
0.0
 20
0.0
 30
0.0
  9
$PUCSORGBACK
 10
0.0
 20
0.0
 30
0.0
  9
$USERI1
 70
     0
  9
$USERI2
 70
     0
  9
$USERI3
 70
     0
  9
$USERI4
 70
     0
  9
$USERI5
 70
     0
  9
$USERR1
 40
0.0
  9
$USERR2
 40
0.0
  9
$USERR3
 40
0.0
  9
$USERR4
 40
0.0
  9
$USERR5
 40
0.0
  9
$WORLDVIEW
 70
     1
  9
$SHADEDGE
 70
     3
  9
$SHADEDIF
 70
    70
  9
$TILEMODE
 70
     1
  9
$MAXACTVP
 70
    16
  9
$PINSBASE
 10
0.0
 20
0.0
 30
0.0
  9
$PLIMCHECK
 70
     0
  9
$PEXTMIN
 10
0.3356100001950608
 20
0.467916977571349
 30
0.0
  9
$PEXTMAX
 10
199.6258939823488
 20
286.3192515252361
 30
0.0
  9
$PLIMMIN
 10
-5.027083396911621
 20
-5.111741065979003
  9
$PLIMMAX
 10
204.9885873794554
 20
291.8989095687866
  9
$UNITMODE
 70
     0
  9
$VISRETAIN
 70
     0
  9
$PLINEGEN
 70
     0
  9
$PSLTSCALE
 70
     1
  9
$TREEDEPTH
 70
  3020
  9
$CMLSTYLE
  2
STANDARD
  9
$CMLJUST
 70
     0
  9
$CMLSCALE
 40
1.0
  9
$PROXYGRAPHICS
 70
     1
  9
$MEASUREMENT
 70
     0
  9
$CELWEIGHT
370
    -1
  9
$ENDCAPS
280
     0
  9
$JOINSTYLE
280
     0
  9
$LWDISPLAY
290
     0
  9
$INSUNITS
 70
     0
  9
$HYPERLINKBASE
  1

  9
$STYLESHEET
  1

  9
$XEDIT
290
     1
  9
$CEPSNTYPE
380
     0
  9
$PSTYLEMODE
290
     1
  9
$FINGERPRINTGUID
  2
{A09CBBB2-476A-11D4-A5CD-0008C769B1B5}
  9
$VERSIONGUID
  2
{7E3D9AD7-8D4A-11D4-A61A-0008C769B1B5}
  9
$EXTNAMES
290
     1
  9
$PSVPSCALE
 40
0.0
  9
$OLESTARTUP
290
     0
  0
ENDSEC
  0
SECTION
  2
CLASSES
  0
CLASS
  1
ACDBDICTIONARYWDFLT
  2
AcDbDictionaryWithDefault
  3
AutoCAD 2000
 90
        0
280
     0
281
     0
  0
CLASS
  1
ACDBPLACEHOLDER
  2
AcDbPlaceHolder
  3
AutoCAD 2000
 90
        0
280
     0
281
     0
  0
CLASS
  1
LAYOUT
  2
AcDbLayout
  3
AutoCAD 2000
 90
        0
280
     0
281
     0
  0
CLASS
  1
LONG_TRANSACTION
  2
AcDbLongTransaction
  3
AutoCAD 2000
 90
    32768
280
     0
281
     0
  0
CLASS
  1
LWPOLYLINE
  2
AcDbPolyline
  3
AutoCAD 2000
 90
    32768
280
     0
281
     1
  0
CLASS
  1
HATCH
  2
AcDbHatch
  3
AutoCAD 2000
 90
    32768
280
     0
281
     1
  0
CLASS
  1
XRECORD
  2
AcDbXrecord
  3
AutoCAD 2000
 90
    32768
280
     0
281
     0
  0
CLASS
  1
LONG_TRANSACTION
  2
AcDbLongTransaction
  3
AutoCAD 2000
 90
    32768
280
     0
281
     0
  0
CLASS
  1
LWPOLYLINE
  2
AcDbPolyline
  3
AutoCAD 2000
 90
    32768
280
     0
281
     1
  0
CLASS
  1
HATCH
  2
AcDbHatch
  3
AutoCAD 2000
 90
    32768
280
     0
281
     1
  0
CLASS
  1
XRECORD
  2
AcDbXrecord
  3
AutoCAD 2000
 90
    32768
280
     0
281
     0
  0
ENDSEC
  0
SECTION
  2
TABLES
  0
TABLE
  2
VPORT
  5
8
330
0
100
AcDbSymbolTable
 70
    13
  0
VPORT
  5
405
330
8
100
AcDbSymbolTableRecord
100
AcDbViewportTableRecord
  2
*Active
 70
     0
 10
0.0
 20
0.0
 11
1.0
 21
1.0
 12
286.6460000291037
 22
37.32202864771525
 13
0.0
 23
0.0
 14
1.0
 24
1.0
 15
0.0
 25
0.0
 16
0.0
 26
0.0
 36
1.0
 17
0.0
 27
0.0
 37
0.0
 40
14.99212327770216
 41
1.271428571428571
 42
50.0
 43
0.0
 44
0.0
 50
0.0
 51
0.0
 71
     0
 72
   100
 73
     1
 74
     1
 75
     0
 76
     0
 77
     0
 78
     0
281
     0
 65
     1
110
0.0
120
0.0
130
0.0
111
1.0
121
0.0
131
0.0
112
0.0
122
1.0
132
0.0
 79
     0
146
0.0
  0
ENDTAB
  0
TABLE
  2
LTYPE
  5
5
330
0
100
AcDbSymbolTable
 70
     1
  0
LTYPE
  5
13
330
5
100
AcDbSymbolTableRecord
100
AcDbLinetypeTableRecord
  2
BYBLOCK
 70
     0
  3

 72
    65
 73
     0
 40
0.0
  0
LTYPE
  5
14
330
5
100
AcDbSymbolTableRecord
100
AcDbLinetypeTableRecord
  2
BYLAYER
 70
     0
  3

 72
    65
 73
     0
 40
0.0
  0
LTYPE
  5
15
330
5
100
AcDbSymbolTableRecord
100
AcDbLinetypeTableRecord
  2
CONTINUOUS
 70
     0
  3
Solid line
 72
    65
 73
     0
 40
0.0
  0
ENDTAB
  0
TABLE
  2
LAYER
  5
2
330
0
100
AcDbSymbolTable
 70
     8
  0
LAYER
  5
10
330
2
100
AcDbSymbolTableRecord
100
AcDbLayerTableRecord
  2
0
 70
     0
 62
     7
  6
CONTINUOUS
370
    -3
390
F
  0
LAYER
  5
22
330
2
100
AcDbSymbolTableRecord
100
AcDbLayerTableRecord
  2
1
 70
     0
 62
     7
  6
CONTINUOUS
370
    -3
390
F
  0
LAYER
  5
23
330
2
100
AcDbSymbolTableRecord
100
AcDbLayerTableRecord
  2
7
 70
     0
 62
     7
  6
CONTINUOUS
370
    -3
390
F
  0
LAYER
  5
24
330
2
100
AcDbSymbolTableRecord
100
AcDbLayerTableRecord
  2
8
 70
     0
 62
     7
  6
CONTINUOUS
370
    -3
390
F
  0
LAYER
  5
25
330
2
100
AcDbSymbolTableRecord
100
AcDbLayerTableRecord
  2
9
 70
     0
 62
     7
  6
CONTINUOUS
370
    -3
390
F
  0
LAYER
  5
26
330
2
100
AcDbSymbolTableRecord
100
AcDbLayerTableRecord
  2
22
 70
     0
 62
     7
  6
CONTINUOUS
370
    -3
390
F
  0
LAYER
  5
27
330
2
100
AcDbSymbolTableRecord
100
AcDbLayerTableRecord
  2
25
 70
     0
 62
     7
  6
CONTINUOUS
370
    -3
390
F
  0
LAYER
  5
7F
330
2
100
AcDbSymbolTableRecord
100
AcDbLayerTableRecord
  2
DEFPOINTS
 70
     0
 62
     7
  6
CONTINUOUS
290
     0
370
    -3
390
F
  0
ENDTAB
  0
TABLE
  2
STYLE
  5
3
330
0
100
AcDbSymbolTable
 70
     2
  0
STYLE
  5
11
330
3
100
AcDbSymbolTableRecord
100
AcDbTextStyleTableRecord
  2
STANDARD
 70
     0
 40
0.0
 41
1.0
 50
0.0
 71
     0
 42
0.2
  3
txt
  4

  0
STYLE
  5
28
330
3
100
AcDbSymbolTableRecord
100
AcDbTextStyleTableRecord
  2
ROMANC
 70
     0
 40
0.0
 41
1.0
 50
0.0
 71
     0
 42
0.2
  3
ROMANC
  4

  0
ENDTAB
  0
TABLE
  2
VIEW
  5
6
330
0
100
AcDbSymbolTable
 70
     0
  0
ENDTAB
  0
TABLE
  2
UCS
  5
7
330
0
100
AcDbSymbolTable
 70
     0
  0
ENDTAB
  0
TABLE
  2
APPID
  5
9
330
0
100
AcDbSymbolTable
 70
     1
  0
APPID
  5
12
330
9
100
AcDbSymbolTableRecord
100
AcDbRegAppTableRecord
  2
ACAD
 70
     0
  0
ENDTAB
  0
TABLE
  2
DIMSTYLE
  5
A
330
0
100
AcDbSymbolTable
 70
     1
100
AcDbDimStyleTable
 71
     1
340
7A
  0
DIMSTYLE
105
7A
102
{ACAD_REACTORS
330
27A
330
26C
330
223
330
215
330
253
330
29B
330
28D
330
30B
330
2BA
330
2F3
330
2E5
330
2D7
330
2C8
330
36F
330
345
330
361
330
328
330
353
330
336
330
37D
330
39D
330
3AB
330
3B9
330
3C8
330
3D7
330
3E5
330
3F3
102
}
330
A
100
AcDbSymbolTableRecord
100
AcDbDimStyleTableRecord
  2
STANDARD
 70
     0
340
11
  0
ENDTAB
  0
TABLE
  2
BLOCK_RECORD
  5
1
330
0
100
AcDbSymbolTable
 70
    36
  0
BLOCK_RECORD
  5
1E
102
{ACAD_XDICTIONARY
360
1AC
102
}
330
1
100
AcDbSymbolTableRecord
100
AcDbBlockTableRecord
  2
*MODEL_SPACE
340
205
  0
BLOCK_RECORD
  5
1A
102
{ACAD_XDICTIONARY
360
1AA
102
}
330
1
100
AcDbSymbolTableRecord
100
AcDbBlockTableRecord
  2
*PAPER_SPACE
340
206
  0
BLOCK_RECORD
  5
C8
330
1
100
AcDbSymbolTableRecord
100
AcDbBlockTableRecord
  2
*D0
340
0
  0
BLOCK_RECORD
  5
D6
330
1
100
AcDbSymbolTableRecord
100
AcDbBlockTableRecord
  2
*D1
340
0
  0
BLOCK_RECORD
  5
E5
330
1
100
AcDbSymbolTableRecord
100
AcDbBlockTableRecord
  2
*D2
340
0
  0
BLOCK_RECORD
  5
F3
330
1
100
AcDbSymbolTableRecord
100
AcDbBlockTableRecord
  2
*D3
340
0
  0
BLOCK_RECORD
  5
102
330
1
100
AcDbSymbolTableRecord
100
AcDbBlockTableRecord
  2
*D4
340
0
  0
BLOCK_RECORD
  5
150
330
1
100
AcDbSymbolTableRecord
100
AcDbBlockTableRecord
  2
*D5
340
0
  0
BLOCK_RECORD
  5
15E
330
1
100
AcDbSymbolTableRecord
100
AcDbBlockTableRecord
  2
*D6
340
0
  0
BLOCK_RECORD
  5
1B8
330
1
100
AcDbSymbolTableRecord
100
AcDbBlockTableRecord
  2
*D7
340
0
  0
BLOCK_RECORD
  5
1C6
330
1
100
AcDbSymbolTableRecord
100
AcDbBlockTableRecord
  2
*D8
340
0
  0
BLOCK_RECORD
  5
216
330
1
100
AcDbSymbolTableRecord
100
AcDbBlockTableRecord
  2
*D9
340
0
  0
BLOCK_RECORD
  5
224
330
1
100
AcDbSymbolTableRecord
100
AcDbBlockTableRecord
  2
*D10
340
0
  0
BLOCK_RECORD
  5
254
330
1
100
AcDbSymbolTableRecord
100
AcDbBlockTableRecord
  2
*D11
340
0
  0
BLOCK_RECORD
  5
26D
330
1
100
AcDbSymbolTableRecord
100
AcDbBlockTableRecord
  2
*D12
340
0
  0
BLOCK_RECORD
  5
27B
330
1
100
AcDbSymbolTableRecord
100
AcDbBlockTableRecord
  2
*D13
340
0
  0
BLOCK_RECORD
  5
28E
330
1
100
AcDbSymbolTableRecord
100
AcDbBlockTableRecord
  2
*D14
340
0
  0
BLOCK_RECORD
  5
29C
330
1
100
AcDbSymbolTableRecord
100
AcDbBlockTableRecord
  2
*D15
340
0
  0
BLOCK_RECORD
  5
2BB
330
1
100
AcDbSymbolTableRecord
100
AcDbBlockTableRecord
  2
*D16
340
0
  0
BLOCK_RECORD
  5
2C9
330
1
100
AcDbSymbolTableRecord
100
AcDbBlockTableRecord
  2
*D17
340
0
  0
BLOCK_RECORD
  5
2D8
330
1
100
AcDbSymbolTableRecord
100
AcDbBlockTableRecord
  2
*D18
340
0
  0
BLOCK_RECORD
  5
2E6
330
1
100
AcDbSymbolTableRecord
100
AcDbBlockTableRecord
  2
*D19
340
0
  0
BLOCK_RECORD
  5
2F4
330
1
100
AcDbSymbolTableRecord
100
AcDbBlockTableRecord
  2
*D20
340
0
  0
BLOCK_RECORD
  5
30C
330
1
100
AcDbSymbolTableRecord
100
AcDbBlockTableRecord
  2
*D21
340
0
  0
BLOCK_RECORD
  5
329
330
1
100
AcDbSymbolTableRecord
100
AcDbBlockTableRecord
  2
*D22
340
0
  0
BLOCK_RECORD
  5
337
330
1
100
AcDbSymbolTableRecord
100
AcDbBlockTableRecord
  2
*D23
340
0
  0
BLOCK_RECORD
  5
346
330
1
100
AcDbSymbolTableRecord
100
AcDbBlockTableRecord
  2
*D24
340
0
  0
BLOCK_RECORD
  5
354
330
1
100
AcDbSymbolTableRecord
100
AcDbBlockTableRecord
  2
*D25
340
0
  0
BLOCK_RECORD
  5
362
330
1
100
AcDbSymbolTableRecord
100
AcDbBlockTableRecord
  2
*D26
340
0
  0
BLOCK_RECORD
  5
370
330
1
100
AcDbSymbolTableRecord
100
AcDbBlockTableRecord
  2
*D27
340
0
  0
BLOCK_RECORD
  5
37E
330
1
100
AcDbSymbolTableRecord
100
AcDbBlockTableRecord
  2
*D28
340
0
  0
BLOCK_RECORD
  5
39E
330
1
100
AcDbSymbolTableRecord
100
AcDbBlockTableRecord
  2
*D29
340
0
  0
BLOCK_RECORD
  5
3AC
330
1
100
AcDbSymbolTableRecord
100
AcDbBlockTableRecord
  2
*D30
340
0
  0
BLOCK_RECORD
  5
3BA
330
1
100
AcDbSymbolTableRecord
100
AcDbBlockTableRecord
  2
*D31
340
0
  0
BLOCK_RECORD
  5
3C9
330
1
100
AcDbSymbolTableRecord
100
AcDbBlockTableRecord
  2
*D32
340
0
  0
BLOCK_RECORD
  5
3D8
330
1
100
AcDbSymbolTableRecord
100
AcDbBlockTableRecord
  2
*D33
340
0
  0
BLOCK_RECORD
  5
3E6
330
1
100
AcDbSymbolTableRecord
100
AcDbBlockTableRecord
  2
*D34
340
0
  0
BLOCK_RECORD
  5
3F4
330
1
100
AcDbSymbolTableRecord
100
AcDbBlockTableRecord
  2
*D35
340
0
  0
ENDTAB
  0
ENDSEC
  0
SECTION
  2
BLOCKS
  0
BLOCK
  5
1F
330
1E
100
AcDbEntity
  8
0
100
AcDbBlockBegin
  2
*MODEL_SPACE
 70
     0
 10
0.0
 20
0.0
 30
0.0
  3
*MODEL_SPACE
  1

  0
ENDBLK
  5
20
330
1E
100
AcDbEntity
  8
0
100
AcDbBlockEnd
  0
BLOCK
  5
1B
330
1A
100
AcDbEntity
 67
     1
  8
0
100
AcDbBlockBegin
  2
*PAPER_SPACE
 70
     0
 10
0.0
 20
0.0
 30
0.0
  3
*PAPER_SPACE
  1

  0
ENDBLK
  5
1C
330
1A
100
AcDbEntity
 67
     1
  8
0
100
AcDbBlockEnd
  0
BLOCK
  5
D3
330
C8
100
AcDbEntity
  8
0
100
AcDbBlockBegin
  2
*D0
 70
     1
 10
0.0
 20
0.0
 30
0.0
  3
*D0
  1

  0
LINE
  5
17F
330
C8
100
AcDbEntity
  8
0
 62
     0
100
AcDbLine
 10
286.1242114476576
 20
36.24736563458589
 30
0.0
 11
288.1582790844173
 21
36.24736563458589
 31
0.0
  0
LINE
  5
180
330
C8
100
AcDbEntity
  8
0
 62
     0
100
AcDbLine
 10
286.1242114476576
 20
34.62736563458587
 30
0.0
 11
288.1582790844173
 21
34.62736563458587
 31
0.0
  0
LINE
  5
181
330
C8
100
AcDbEntity
  8
0
 62
     0
100
AcDbLine
 10
287.9782790844175
 20
36.06736563458589
 30
0.0
 11
287.9782790844175
 21
35.612166902036
 31
0.0
  0
LINE
  5
182
330
C8
100
AcDbEntity
  8
0
 62
     0
100
AcDbLine
 10
287.9782790844175
 20
34.80736563458587
 30
0.0
 11
287.9782790844175
 21
35.25216690203601
 31
0.0
  0
SOLID
  5
183
330
C8
100
AcDbEntity
  8
0
 62
     0
100
AcDbTrace
 10
287.9482790844173
 20
36.06736563458589
 30
0.0
 11
288.0082790844173
 21
36.06736563458589
 31
0.0
 12
287.9782790844175
 22
36.24736563458589
 32
0.0
 13
287.9782790844175
 23
36.24736563458589
 33
0.0
  0
SOLID
  5
184
330
C8
100
AcDbEntity
  8
0
 62
     0
100
AcDbTrace
 10
287.9482790844173
 20
34.80736563458587
 30
0.0
 11
288.0082790844173
 21
34.80736563458587
 31
0.0
 12
287.9782790844175
 22
34.62736563458587
 32
0.0
 13
287.9782790844175
 23
34.62736563458587
 33
0.0
  0
MTEXT
  5
185
330
C8
100
AcDbEntity
  8
0
 62
     0
100
AcDbMText
 10
287.9782790844175
 20
35.43216690203603
 30
0.0
 40
0.18
 41
0.0
 71
     5
 72
     1
  1
\A1;1.6200
 73
     1
 44
1.0
1001
ACAD
1000
MTEXTBEGIN
1070
    73
1070
     1
1070
    44
1040
1.0
1070
    74
1070
     0
1000
MTEXTEND
1000
MTEXTBEGIN
1070
    73
1070
     1
1070
    44
1040
1.0
1070
    74
1070
     0
1000
MTEXTEND
  0
POINT
  5
186
330
C8
100
AcDbEntity
  8
DEFPOINTS
 62
     0
100
AcDbPoint
 10
286.0617114476576
 20
36.24736563458589
 30
0.0
  0
POINT
  5
187
330
C8
100
AcDbEntity
  8
DEFPOINTS
 62
     0
100
AcDbPoint
 10
286.0617114476576
 20
34.62736563458587
 30
0.0
  0
POINT
  5
188
330
C8
100
AcDbEntity
  8
DEFPOINTS
 62
     0
100
AcDbPoint
 10
287.9782790844175
 20
34.62736563458587
 30
0.0
  0
ENDBLK
  5
D4
330
C8
100
AcDbEntity
  8
0
100
AcDbBlockEnd
  0
BLOCK
  5
E2
330
D6
100
AcDbEntity
  8
0
100
AcDbBlockBegin
  2
*D1
 70
     1
 10
0.0
 20
0.0
 30
0.0
  3
*D1
  1

  0
LINE
  5
144
330
D6
100
AcDbEntity
  8
0
 62
     0
100
AcDbLine
 10
286.5742114476576
 20
34.77736563458589
 30
0.0
 11
287.8483853356226
 21
34.77736563458589
 31
0.0
  0
LINE
  5
145
330
D6
100
AcDbEntity
  8
0
 62
     0
100
AcDbLine
 10
286.1867114476576
 20
34.62736563458587
 30
0.0
 11
287.8483853356226
 21
34.62736563458587
 31
0.0
  0
LINE
  5
146
330
D6
100
AcDbEntity
  8
0
 62
     0
100
AcDbLine
 10
287.6683853356226
 20
34.95736563458589
 30
0.0
 11
287.6683853356226
 21
35.13736563458589
 31
0.0
  0
LINE
  5
147
330
D6
100
AcDbEntity
  8
0
 62
     0
100
AcDbLine
 10
287.6683853356226
 20
34.44736563458587
 30
0.0
 11
287.6683853356226
 21
34.26736563458582
 31
0.0
  0
LINE
  5
148
330
D6
100
AcDbEntity
  8
0
 62
     0
100
AcDbLine
 10
287.6683853356226
 20
34.26736563458582
 30
0.0
 11
287.4883853356226
 21
34.26736563458582
 31
0.0
  0
SOLID
  5
149
330
D6
100
AcDbEntity
  8
0
 62
     0
100
AcDbTrace
 10
287.6383853356226
 20
34.95736563458589
 30
0.0
 11
287.6983853356226
 21
34.95736563458589
 31
0.0
 12
287.6683853356226
 22
34.77736563458589
 32
0.0
 13
287.6683853356226
 23
34.77736563458589
 33
0.0
  0
SOLID
  5
14A
330
D6
100
AcDbEntity
  8
0
 62
     0
100
AcDbTrace
 10
287.6383853356226
 20
34.44736563458587
 30
0.0
 11
287.6983853356226
 21
34.44736563458587
 31
0.0
 12
287.6683853356226
 22
34.62736563458587
 32
0.0
 13
287.6683853356226
 23
34.62736563458587
 33
0.0
  0
MTEXT
  5
14B
330
D6
100
AcDbEntity
  8
0
 62
     0
100
AcDbMText
 10
287.0233853356226
 20
34.26736563458587
 30
0.0
 40
0.18
 41
0.0
 71
     5
 72
     1
  1
\A1;0.1500
 73
     1
 44
1.0
1001
ACAD
1000
MTEXTBEGIN
1070
    73
1070
     1
1070
    44
1040
1.0
1070
    74
1070
     0
1000
MTEXTEND
1000
MTEXTBEGIN
1070
    73
1070
     1
1070
    44
1040
1.0
1070
    74
1070
     0
1000
MTEXTEND
  0
POINT
  5
14C
330
D6
100
AcDbEntity
  8
DEFPOINTS
 62
     0
100
AcDbPoint
 10
286.5117114476575
 20
34.77736563458589
 30
0.0
  0
POINT
  5
14D
330
D6
100
AcDbEntity
  8
DEFPOINTS
 62
     0
100
AcDbPoint
 10
286.1242114476576
 20
34.62736563458587
 30
0.0
  0
POINT
  5
14E
330
D6
100
AcDbEntity
  8
DEFPOINTS
 62
     0
100
AcDbPoint
 10
287.6683853356226
 20
34.62736563458587
 30
0.0
  0
ENDBLK
  5
E3
330
D6
100
AcDbEntity
  8
0
100
AcDbBlockEnd
  0
BLOCK
  5
F0
330
E5
100
AcDbEntity
  8
0
100
AcDbBlockBegin
  2
*D2
 70
     1
 10
0.0
 20
0.0
 30
0.0
  3
*D2
  1

  0
LINE
  5
110
330
E5
100
AcDbEntity
  8
0
 62
     0
100
AcDbLine
 10
285.5617114476576
 20
35.73986563458588
 30
0.0
 11
285.5617114476576
 21
36.95556457024231
 31
0.0
  0
LINE
  5
111
330
E5
100
AcDbEntity
  8
0
 62
     0
100
AcDbLine
 10
286.5617114476576
 20
35.73986563458642
 30
0.0
 11
286.5617114476576
 21
36.95556457024231
 31
0.0
  0
LINE
  5
112
330
E5
100
AcDbEntity
  8
0
 62
     0
100
AcDbLine
 10
285.3817114476576
 20
36.77556457024229
 30
0.0
 11
285.2017114476576
 21
36.77556457024229
 31
0.0
  0
LINE
  5
113
330
E5
100
AcDbEntity
  8
0
 62
     0
100
AcDbLine
 10
286.7417114476576
 20
36.77556457024229
 30
0.0
 11
286.9217114476576
 21
36.77556457024229
 31
0.0
  0
SOLID
  5
114
330
E5
100
AcDbEntity
  8
0
 62
     0
100
AcDbTrace
 10
285.3817114476576
 20
36.80556457024231
 30
0.0
 11
285.3817114476576
 21
36.74556457024229
 31
0.0
 12
285.5617114476576
 22
36.77556457024229
 32
0.0
 13
285.5617114476576
 23
36.77556457024229
 33
0.0
  0
SOLID
  5
115
330
E5
100
AcDbEntity
  8
0
 62
     0
100
AcDbTrace
 10
286.7417114476576
 20
36.80556457024231
 30
0.0
 11
286.7417114476576
 21
36.74556457024229
 31
0.0
 12
286.5617114476576
 22
36.77556457024229
 32
0.0
 13
286.5617114476576
 23
36.77556457024229
 33
0.0
  0
MTEXT
  5
116
330
E5
100
AcDbEntity
  8
0
 62
     0
100
AcDbMText
 10
286.0617114476576
 20
36.77556457024229
 30
0.0
 40
0.18
 41
0.0
 71
     5
 72
     1
  1
\A1;1.0000
 73
     1
 44
1.0
1001
ACAD
1000
MTEXTBEGIN
1070
    73
1070
     1
1070
    44
1040
1.0
1070
    74
1070
     0
1000
MTEXTEND
1000
MTEXTBEGIN
1070
    73
1070
     1
1070
    44
1040
1.0
1070
    74
1070
     0
1000
MTEXTEND
  0
POINT
  5
117
330
E5
100
AcDbEntity
  8
DEFPOINTS
 62
     0
100
AcDbPoint
 10
285.5617114476576
 20
35.67736563458588
 30
0.0
  0
POINT
  5
118
330
E5
100
AcDbEntity
  8
DEFPOINTS
 62
     0
100
AcDbPoint
 10
286.5617114476576
 20
35.67736563458643
 30
0.0
  0
POINT
  5
119
330
E5
100
AcDbEntity
  8
DEFPOINTS
 62
     0
100
AcDbPoint
 10
286.5617114476576
 20
36.77556457024229
 30
0.0
  0
ENDBLK
  5
F1
330
E5
100
AcDbEntity
  8
0
100
AcDbBlockEnd
  0
BLOCK
  5
FF
330
F3
100
AcDbEntity
  8
0
100
AcDbBlockBegin
  2
*D3
 70
     1
 10
0.0
 20
0.0
 30
0.0
  3
*D3
  1

  0
LINE
  5
F4
330
F3
100
AcDbEntity
  8
0
 62
     0
100
AcDbLine
 10
285.8105925973381
 20
34.3259387771153
 30
0.0
 11
285.0996894655242
 21
34.3259387771153
 31
0.0
  0
LINE
  5
F5
330
F3
100
AcDbEntity
  8
0
 62
     0
100
AcDbLine
 10
285.7605925973383
 20
35.22593877711502
 30
0.0
 11
285.0996894655242
 21
35.22593877711502
 31
0.0
  0
LINE
  5
F6
330
F3
100
AcDbEntity
  8
0
 62
     0
100
AcDbLine
 10
285.2796894655241
 20
34.5059387771153
 30
0.0
 11
285.2796894655241
 21
35.04593877711501
 31
0.0
  0
LINE
  5
F7
330
F3
100
AcDbEntity
  8
0
 62
     0
100
AcDbLine
 10
285.2796894655241
 20
35.22593877711502
 30
0.0
 11
285.2796894655241
 21
35.40593877711502
 31
0.0
  0
LINE
  5
F8
330
F3
100
AcDbEntity
  8
0
 62
     0
100
AcDbLine
 10
285.2796894655241
 20
35.40593877711502
 30
0.0
 11
285.4596894655241
 21
35.40593877711502
 31
0.0
  0
SOLID
  5
F9
330
F3
100
AcDbEntity
  8
0
 62
     0
100
AcDbTrace
 10
285.2496894655241
 20
34.5059387771153
 30
0.0
 11
285.3096894655241
 21
34.5059387771153
 31
0.0
 12
285.2796894655241
 22
34.3259387771153
 32
0.0
 13
285.2796894655241
 23
34.3259387771153
 33
0.0
  0
SOLID
  5
FA
330
F3
100
AcDbEntity
  8
0
 62
     0
100
AcDbTrace
 10
285.2496894655241
 20
35.04593877711501
 30
0.0
 11
285.3096894655241
 21
35.04593877711501
 31
0.0
 12
285.2796894655241
 22
35.22593877711502
 32
0.0
 13
285.2796894655241
 23
35.22593877711502
 33
0.0
  0
MTEXT
  5
FB
330
F3
100
AcDbEntity
  8
0
 62
     0
100
AcDbMText
 10
285.9396894655241
 20
35.40593877711506
 30
0.0
 40
0.18
 41
0.0
 71
     5
 72
     1
  1
\A1;0.9000
 73
     1
 44
1.0
1001
ACAD
1000
MTEXTBEGIN
1070
    73
1070
     1
1070
    44
1040
1.0
1070
    74
1070
     0
1000
MTEXTEND
1000
MTEXTBEGIN
1070
    73
1070
     1
1070
    44
1040
1.0
1070
    74
1070
     0
1000
MTEXTEND
  0
POINT
  5
FC
330
F3
100
AcDbEntity
  8
DEFPOINTS
 62
     0
100
AcDbPoint
 10
285.8730925973381
 20
34.3259387771153
 30
0.0
  0
POINT
  5
FD
330
F3
100
AcDbEntity
  8
DEFPOINTS
 62
     0
100
AcDbPoint
 10
285.8230925973383
 20
35.22593877711502
 30
0.0
  0
POINT
  5
FE
330
F3
100
AcDbEntity
  8
DEFPOINTS
 62
     0
100
AcDbPoint
 10
285.2796894655241
 20
35.22593877711502
 30
0.0
  0
ENDBLK
  5
100
330
F3
100
AcDbEntity
  8
0
100
AcDbBlockEnd
  0
BLOCK
  5
10E
330
102
100
AcDbEntity
  8
0
100
AcDbBlockBegin
  2
*D4
 70
     1
 10
0.0
 20
0.0
 30
0.0
  3
*D4
  1

  0
LINE
  5
12F
330
102
100
AcDbEntity
  8
0
 62
     0
100
AcDbLine
 10
285.4992114476576
 20
35.67736563458588
 30
0.0
 11
284.8683083158433
 21
35.67736563458588
 31
0.0
  0
LINE
  5
130
330
102
100
AcDbEntity
  8
0
 62
     0
100
AcDbLine
 10
285.5492114476577
 20
34.77736563458589
 30
0.0
 11
284.8683083158433
 21
34.77736563458589
 31
0.0
  0
LINE
  5
131
330
102
100
AcDbEntity
  8
0
 62
     0
100
AcDbLine
 10
285.0483083158436
 20
35.49736563458588
 30
0.0
 11
285.0483083158436
 21
34.95736563458589
 31
0.0
  0
LINE
  5
132
330
102
100
AcDbEntity
  8
0
 62
     0
100
AcDbLine
 10
285.0483083158436
 20
34.77736563458589
 30
0.0
 11
285.0483083158436
 21
34.59736563458589
 31
0.0
  0
LINE
  5
133
330
102
100
AcDbEntity
  8
0
 62
     0
100
AcDbLine
 10
285.0483083158436
 20
34.59736563458589
 30
0.0
 11
284.8683083158433
 21
34.59736563458589
 31
0.0
  0
SOLID
  5
134
330
102
100
AcDbEntity
  8
0
 62
     0
100
AcDbTrace
 10
285.0183083158436
 20
35.49736563458588
 30
0.0
 11
285.0783083158436
 21
35.49736563458588
 31
0.0
 12
285.0483083158436
 22
35.67736563458588
 32
0.0
 13
285.0483083158436
 23
35.67736563458588
 33
0.0
  0
SOLID
  5
135
330
102
100
AcDbEntity
  8
0
 62
     0
100
AcDbTrace
 10
285.0183083158436
 20
34.95736563458589
 30
0.0
 11
285.0783083158436
 21
34.95736563458589
 31
0.0
 12
285.0483083158436
 22
34.77736563458589
 32
0.0
 13
285.0483083158436
 23
34.77736563458589
 33
0.0
  0
MTEXT
  5
136
330
102
100
AcDbEntity
  8
0
 62
     0
100
AcDbMText
 10
284.3883083158436
 20
34.59736563458594
 30
0.0
 40
0.18
 41
0.0
 71
     5
 72
     1
  1
\A1;0.9000
 73
     1
 44
1.0
1001
ACAD
1000
MTEXTBEGIN
1070
    73
1070
     1
1070
    44
1040
1.0
1070
    74
1070
     0
1000
MTEXTEND
1000
MTEXTBEGIN
1070
    73
1070
     1
1070
    44
1040
1.0
1070
    74
1070
     0
1000
MTEXTEND
  0
POINT
  5
137
330
102
100
AcDbEntity
  8
DEFPOINTS
 62
     0
100
AcDbPoint
 10
285.5617114476576
 20
35.67736563458588
 30
0.0
  0
POINT
  5
138
330
102
100
AcDbEntity
  8
DEFPOINTS
 62
     0
100
AcDbPoint
 10
285.6117114476576
 20
34.77736563458589
 30
0.0
  0
POINT
  5
139
330
102
100
AcDbEntity
  8
DEFPOINTS
 62
     0
100
AcDbPoint
 10
285.0483083158436
 20
34.77736563458589
 30
0.0
  0
ENDBLK
  5
10F
330
102
100
AcDbEntity
  8
0
100
AcDbBlockEnd
  0
BLOCK
  5
15B
330
150
100
AcDbEntity
  8
0
100
AcDbBlockBegin
  2
*D5
 70
     1
 10
0.0
 20
0.0
 30
0.0
  3
*D5
  1

  0
LINE
  5
151
330
150
100
AcDbEntity
  8
0
 62
     0
100
AcDbLine
 10
286.5117114476575
 20
34.71486563458589
 30
0.0
 11
286.5117114476575
 21
33.55990820404632
 31
0.0
  0
LINE
  5
152
330
150
100
AcDbEntity
  8
0
 62
     0
100
AcDbLine
 10
285.6117114476576
 20
34.71486563458589
 30
0.0
 11
285.6117114476576
 21
33.55990820404632
 31
0.0
  0
LINE
  5
153
330
150
100
AcDbEntity
  8
0
 62
     0
100
AcDbLine
 10
286.3317114476576
 20
33.73990820404632
 30
0.0
 11
285.7917114476576
 21
33.73990820404632
 31
0.0
  0
LINE
  5
154
330
150
100
AcDbEntity
  8
0
 62
     0
100
AcDbLine
 10
285.6117114476576
 20
33.73990820404632
 30
0.0
 11
285.4317114476576
 21
33.73990820404632
 31
0.0
  0
SOLID
  5
155
330
150
100
AcDbEntity
  8
0
 62
     0
100
AcDbTrace
 10
286.3317114476576
 20
33.76990820404632
 30
0.0
 11
286.3317114476576
 21
33.70990820404632
 31
0.0
 12
286.5117114476575
 22
33.73990820404632
 32
0.0
 13
286.5117114476575
 23
33.73990820404632
 33
0.0
  0
SOLID
  5
156
330
150
100
AcDbEntity
  8
0
 62
     0
100
AcDbTrace
 10
285.7917114476576
 20
33.76990820404632
 30
0.0
 11
285.7917114476576
 21
33.70990820404632
 31
0.0
 12
285.6117114476576
 22
33.73990820404632
 32
0.0
 13
285.6117114476576
 23
33.73990820404632
 33
0.0
  0
MTEXT
  5
157
330
150
100
AcDbEntity
  8
0
 62
     0
100
AcDbMText
 10
284.9517114476573
 20
33.73990820404632
 30
0.0
 40
0.18
 41
0.0
 71
     5
 72
     1
  1
\A1;0.9000
 73
     1
 44
1.0
1001
ACAD
1000
MTEXTBEGIN
1070
    73
1070
     1
1070
    44
1040
1.0
1070
    74
1070
     0
1000
MTEXTEND
1000
MTEXTBEGIN
1070
    73
1070
     1
1070
    44
1040
1.0
1070
    74
1070
     0
1000
MTEXTEND
  0
POINT
  5
158
330
150
100
AcDbEntity
  8
DEFPOINTS
 62
     0
100
AcDbPoint
 10
286.5117114476575
 20
34.77736563458589
 30
0.0
  0
POINT
  5
159
330
150
100
AcDbEntity
  8
DEFPOINTS
 62
     0
100
AcDbPoint
 10
285.6117114476576
 20
34.77736563458589
 30
0.0
  0
POINT
  5
15A
330
150
100
AcDbEntity
  8
DEFPOINTS
 62
     0
100
AcDbPoint
 10
285.6117114476576
 20
33.73990820404632
 30
0.0
  0
ENDBLK
  5
15C
330
150
100
AcDbEntity
  8
0
100
AcDbBlockEnd
  0
BLOCK
  5
169
330
15E
100
AcDbEntity
  8
0
100
AcDbBlockBegin
  2
*D6
 70
     1
 10
0.0
 20
0.0
 30
0.0
  3
*D6
  1

  0
LINE
  5
16B
330
15E
100
AcDbEntity
  8
0
 62
     0
100
AcDbLine
 10
286.2270677236876
 20
34.69872330784411
 30
0.0
 11
286.2270677236876
 21
33.84122994766753
 31
0.0
  0
LINE
  5
16C
330
15E
100
AcDbEntity
  8
0
 62
     0
100
AcDbLine
 10
285.8963551716275
 20
34.69872330784411
 30
0.0
 11
285.8963551716275
 21
33.84122994766753
 31
0.0
  0
LINE
  5
16D
330
15E
100
AcDbEntity
  8
0
 62
     0
100
AcDbLine
 10
286.4070677236876
 20
34.02122994766753
 30
0.0
 11
286.5870677236876
 21
34.02122994766753
 31
0.0
  0
LINE
  5
16E
330
15E
100
AcDbEntity
  8
0
 62
     0
100
AcDbLine
 10
285.7163551716275
 20
34.02122994766753
 30
0.0
 11
285.5363551716276
 21
34.02122994766753
 31
0.0
  0
SOLID
  5
16F
330
15E
100
AcDbEntity
  8
0
 62
     0
100
AcDbTrace
 10
286.4070677236876
 20
34.05122994766751
 30
0.0
 11
286.4070677236876
 21
33.99122994766753
 31
0.0
 12
286.2270677236876
 22
34.02122994766753
 32
0.0
 13
286.2270677236876
 23
34.02122994766753
 33
0.0
  0
SOLID
  5
170
330
15E
100
AcDbEntity
  8
0
 62
     0
100
AcDbTrace
 10
285.7163551716275
 20
34.05122994766751
 30
0.0
 11
285.7163551716275
 21
33.99122994766753
 31
0.0
 12
285.8963551716275
 22
34.02122994766753
 32
0.0
 13
285.8963551716275
 23
34.02122994766753
 33
0.0
  0
MTEXT
  5
171
330
15E
100
AcDbEntity
  8
0
 62
     0
100
AcDbMText
 10
285.0563551716276
 20
34.02122994766753
 30
0.0
 40
0.18
 41
0.0
 71
     5
 72
     1
  1
\A1;0.3000
 73
     1
 44
1.0
1001
ACAD
1000
MTEXTBEGIN
1070
    73
1070
     1
1070
    44
1040
1.0
1070
    74
1070
     0
1000
MTEXTEND
1000
MTEXTBEGIN
1070
    73
1070
     1
1070
    44
1040
1.0
1070
    74
1070
     0
1000
MTEXTEND
  0
POINT
  5
172
330
15E
100
AcDbEntity
  8
DEFPOINTS
 62
     0
100
AcDbPoint
 10
286.2270677236876
 20
34.76122330784411
 30
0.0
  0
POINT
  5
173
330
15E
100
AcDbEntity
  8
DEFPOINTS
 62
     0
100
AcDbPoint
 10
285.8963551716275
 20
34.76122330784411
 30
0.0
  0
POINT
  5
174
330
15E
100
AcDbEntity
  8
DEFPOINTS
 62
     0
100
AcDbPoint
 10
285.8963551716275
 20
34.02122994766753
 30
0.0
  0
ENDBLK
  5
16A
330
15E
100
AcDbEntity
  8
0
100
AcDbBlockEnd
  0
BLOCK
  5
1C3
330
1B8
100
AcDbEntity
  8
0
100
AcDbBlockBegin
  2
*D7
 70
     1
 10
0.0
 20
0.0
 30
0.0
  3
*D7
  1

  0
LINE
  5
1B9
330
1B8
100
AcDbEntity
  8
0
 62
     0
100
AcDbLine
 10
286.1367417659177
 20
35.23981668125815
 30
0.0
 11
286.1367417659177
 21
34.38562200535305
 31
0.0
  0
LINE
  5
1BA
330
1B8
100
AcDbEntity
  8
0
 62
     0
100
AcDbLine
 10
286.7367417659178
 20
35.23981668125815
 30
0.0
 11
286.7367417659178
 21
34.38562200535305
 31
0.0
  0
LINE
  5
1BB
330
1B8
100
AcDbEntity
  8
0
 62
     0
100
AcDbLine
 10
286.3167417659178
 20
34.56562200535306
 30
0.0
 11
286.5567417659178
 21
34.56562200535306
 31
0.0
  0
LINE
  5
1BC
330
1B8
100
AcDbEntity
  8
0
 62
     0
100
AcDbLine
 10
286.7367417659178
 20
34.56562200535306
 30
0.0
 11
286.9167417659178
 21
34.56562200535306
 31
0.0
  0
SOLID
  5
1BD
330
1B8
100
AcDbEntity
  8
0
 62
     0
100
AcDbTrace
 10
286.3167417659178
 20
34.59562200535305
 30
0.0
 11
286.3167417659178
 21
34.53562200535306
 31
0.0
 12
286.1367417659177
 22
34.56562200535306
 32
0.0
 13
286.1367417659177
 23
34.56562200535306
 33
0.0
  0
SOLID
  5
1BE
330
1B8
100
AcDbEntity
  8
0
 62
     0
100
AcDbTrace
 10
286.5567417659178
 20
34.59562200535305
 30
0.0
 11
286.5567417659178
 21
34.53562200535306
 31
0.0
 12
286.7367417659178
 22
34.56562200535306
 32
0.0
 13
286.7367417659178
 23
34.56562200535306
 33
0.0
  0
MTEXT
  5
1BF
330
1B8
100
AcDbEntity
  8
0
 62
     0
100
AcDbMText
 10
287.3967417659177
 20
34.56562200535306
 30
0.0
 40
0.18
 41
0.0
 71
     5
 72
     1
  1
\A1;0.6000
 73
     1
 44
1.0
1001
ACAD
1000
MTEXTBEGIN
1070
    73
1070
     1
1070
    44
1040
1.0
1070
    74
1070
     0
1000
MTEXTEND
  0
POINT
  5
1C0
330
1B8
100
AcDbEntity
  8
DEFPOINTS
 62
     0
100
AcDbPoint
 10
286.1367417659177
 20
35.30231668125817
 30
0.0
  0
POINT
  5
1C1
330
1B8
100
AcDbEntity
  8
DEFPOINTS
 62
     0
100
AcDbPoint
 10
286.7367417659178
 20
35.30231668125817
 30
0.0
  0
POINT
  5
1C2
330
1B8
100
AcDbEntity
  8
DEFPOINTS
 62
     0
100
AcDbPoint
 10
286.7367417659178
 20
34.56562200535306
 30
0.0
  0
ENDBLK
  5
1C4
330
1B8
100
AcDbEntity
  8
0
100
AcDbBlockEnd
  0
BLOCK
  5
1D2
330
1C6
100
AcDbEntity
  8
0
100
AcDbBlockBegin
  2
*D8
 70
     1
 10
0.0
 20
0.0
 30
0.0
  3
*D8
  1

  0
LINE
  5
1C7
330
1C6
100
AcDbEntity
  8
0
 62
     0
100
AcDbLine
 10
286.7992417659178
 20
35.30231668125817
 30
0.0
 11
287.5292753889696
 21
35.30231668125817
 31
0.0
  0
LINE
  5
1C8
330
1C6
100
AcDbEntity
  8
0
 62
     0
100
AcDbLine
 10
286.7992417659178
 20
36.05231668125817
 30
0.0
 11
287.5292753889696
 21
36.05231668125817
 31
0.0
  0
LINE
  5
1C9
330
1C6
100
AcDbEntity
  8
0
 62
     0
100
AcDbLine
 10
287.3492753889697
 20
35.48231668125817
 30
0.0
 11
287.3492753889697
 21
35.87231668125815
 31
0.0
  0
LINE
  5
1CA
330
1C6
100
AcDbEntity
  8
0
 62
     0
100
AcDbLine
 10
287.3492753889697
 20
36.05231668125817
 30
0.0
 11
287.3492753889697
 21
36.23231668125815
 31
0.0
  0
LINE
  5
1CB
330
1C6
100
AcDbEntity
  8
0
 62
     0
100
AcDbLine
 10
287.3492753889697
 20
36.23231668125815
 30
0.0
 11
287.5292753889696
 21
36.23231668125815
 31
0.0
  0
SOLID
  5
1CC
330
1C6
100
AcDbEntity
  8
0
 62
     0
100
AcDbTrace
 10
287.3192753889696
 20
35.48231668125817
 30
0.0
 11
287.3792753889696
 21
35.48231668125817
 31
0.0
 12
287.3492753889697
 22
35.30231668125817
 32
0.0
 13
287.3492753889697
 23
35.30231668125817
 33
0.0
  0
SOLID
  5
1CD
330
1C6
100
AcDbEntity
  8
0
 62
     0
100
AcDbTrace
 10
287.3192753889696
 20
35.87231668125815
 30
0.0
 11
287.3792753889696
 21
35.87231668125815
 31
0.0
 12
287.3492753889697
 22
36.05231668125817
 32
0.0
 13
287.3492753889697
 23
36.05231668125817
 33
0.0
  0
MTEXT
  5
1CE
330
1C6
100
AcDbEntity
  8
0
 62
     0
100
AcDbMText
 10
288.0242753889696
 20
36.23231668125821
 30
0.0
 40
0.18
 41
0.0
 71
     5
 72
     1
  1
\A1;0.7500
 73
     1
 44
1.0
1001
ACAD
1000
MTEXTBEGIN
1070
    73
1070
     1
1070
    44
1040
1.0
1070
    74
1070
     0
1000
MTEXTEND
  0
POINT
  5
1CF
330
1C6
100
AcDbEntity
  8
DEFPOINTS
 62
     0
100
AcDbPoint
 10
286.7367417659178
 20
35.30231668125817
 30
0.0
  0
POINT
  5
1D0
330
1C6
100
AcDbEntity
  8
DEFPOINTS
 62
     0
100
AcDbPoint
 10
286.7367417659178
 20
36.05231668125817
 30
0.0
  0
POINT
  5
1D1
330
1C6
100
AcDbEntity
  8
DEFPOINTS
 62
     0
100
AcDbPoint
 10
287.3492753889697
 20
36.05231668125817
 30
0.0
  0
ENDBLK
  5
1D3
330
1C6
100
AcDbEntity
  8
0
100
AcDbBlockEnd
  0
BLOCK
  5
221
330
216
100
AcDbEntity
  8
0
100
AcDbBlockBegin
  2
*D9
 70
     1
 10
0.0
 20
0.0
 30
0.0
  3
*D9
  1

  0
LINE
  5
217
330
216
100
AcDbEntity
  8
0
 62
     0
370
    -2
100
AcDbLine
 10
286.7013237267823
 20
36.0557705075541
 30
0.0
 11
289.2252816104054
 21
36.0557705075541
 31
0.0
  0
LINE
  5
218
330
216
100
AcDbEntity
  8
0
 62
     0
370
    -2
100
AcDbLine
 10
286.7013237267823
 20
34.25577050755413
 30
0.0
 11
289.2252816104054
 21
34.25577050755413
 31
0.0
  0
LINE
  5
219
330
216
100
AcDbEntity
  8
0
 62
     0
370
    -2
100
AcDbLine
 10
289.0452816104054
 20
35.87577050755411
 30
0.0
 11
289.0452816104054
 21
35.33577050755411
 31
0.0
  0
LINE
  5
21A
330
216
100
AcDbEntity
  8
0
 62
     0
370
    -2
100
AcDbLine
 10
289.0452816104054
 20
34.43577050755413
 30
0.0
 11
289.0452816104054
 21
34.97577050755412
 31
0.0
  0
SOLID
  5
21B
330
216
100
AcDbEntity
  8
0
 62
     0
100
AcDbTrace
 10
289.0152816104054
 20
35.87577050755411
 30
0.0
 11
289.0752816104054
 21
35.87577050755411
 31
0.0
 12
289.0452816104054
 22
36.0557705075541
 32
0.0
 13
289.0452816104054
 23
36.0557705075541
 33
0.0
  0
SOLID
  5
21C
330
216
100
AcDbEntity
  8
0
 62
     0
100
AcDbTrace
 10
289.0152816104054
 20
34.43577050755413
 30
0.0
 11
289.0752816104054
 21
34.43577050755413
 31
0.0
 12
289.0452816104054
 22
34.25577050755413
 32
0.0
 13
289.0452816104054
 23
34.25577050755413
 33
0.0
  0
MTEXT
  5
21D
330
216
100
AcDbEntity
  8
0
 62
     0
100
AcDbMText
 10
289.0452816104054
 20
35.15577050755416
 30
0.0
 40
0.18
 41
0.0
 71
     5
 72
     1
  1
\A1;1.8000
 73
     1
 44
1.0
  0
POINT
  5
21E
330
216
100
AcDbEntity
  8
DEFPOINTS
 62
     0
100
AcDbPoint
 10
286.6388237267823
 20
36.0557705075541
 30
0.0
  0
POINT
  5
21F
330
216
100
AcDbEntity
  8
DEFPOINTS
 62
     0
100
AcDbPoint
 10
286.6388237267823
 20
34.25577050755413
 30
0.0
  0
POINT
  5
220
330
216
100
AcDbEntity
  8
DEFPOINTS
 62
     0
100
AcDbPoint
 10
289.0452816104054
 20
34.25577050755413
 30
0.0
  0
ENDBLK
  5
222
330
216
100
AcDbEntity
  8
0
100
AcDbBlockEnd
  0
BLOCK
  5
230
330
224
100
AcDbEntity
  8
0
100
AcDbBlockBegin
  2
*D10
 70
     1
 10
0.0
 20
0.0
 30
0.0
  3
*D10
  1

  0
LINE
  5
248
330
224
100
AcDbEntity
  8
0
 62
     0
370
    -2
100
AcDbLine
 10
287.7013237267823
 20
34.47577050755413
 30
0.0
 11
288.9957775930855
 21
34.47577050755413
 31
0.0
  0
LINE
  5
249
330
224
100
AcDbEntity
  8
0
 62
     0
370
    -2
100
AcDbLine
 10
286.7013237267823
 20
34.25577050755413
 30
0.0
 11
288.9957775930855
 21
34.25577050755413
 31
0.0
  0
LINE
  5
24A
330
224
100
AcDbEntity
  8
0
 62
     0
370
    -2
100
AcDbLine
 10
288.8157775930855
 20
34.65577050755413
 30
0.0
 11
288.8157775930855
 21
34.83577050755413
 31
0.0
  0
LINE
  5
24B
330
224
100
AcDbEntity
  8
0
 62
     0
370
    -2
100
AcDbLine
 10
288.8157775930855
 20
34.07577050755413
 30
0.0
 11
288.8157775930855
 21
33.89577050755413
 31
0.0
  0
LINE
  5
24C
330
224
100
AcDbEntity
  8
0
 62
     0
370
    -2
100
AcDbLine
 10
288.8157775930855
 20
33.89577050755413
 30
0.0
 11
288.6357775930855
 21
33.89577050755413
 31
0.0
  0
SOLID
  5
24D
330
224
100
AcDbEntity
  8
0
 62
     0
100
AcDbTrace
 10
288.7857775930855
 20
34.65577050755413
 30
0.0
 11
288.8457775930855
 21
34.65577050755413
 31
0.0
 12
288.8157775930855
 22
34.47577050755413
 32
0.0
 13
288.8157775930855
 23
34.47577050755413
 33
0.0
  0
SOLID
  5
24E
330
224
100
AcDbEntity
  8
0
 62
     0
100
AcDbTrace
 10
288.7857775930855
 20
34.07577050755413
 30
0.0
 11
288.8457775930855
 21
34.07577050755413
 31
0.0
 12
288.8157775930855
 22
34.25577050755413
 32
0.0
 13
288.8157775930855
 23
34.25577050755413
 33
0.0
  0
MTEXT
  5
24F
330
224
100
AcDbEntity
  8
0
 62
     0
100
AcDbMText
 10
288.1407775930855
 20
33.89577050755418
 30
0.0
 40
0.18
 41
0.0
 71
     5
 72
     1
  1
\A1;0.2200
 73
     1
 44
1.0
  0
POINT
  5
250
330
224
100
AcDbEntity
  8
DEFPOINTS
 62
     0
100
AcDbPoint
 10
287.6388237267823
 20
34.47577050755413
 30
0.0
  0
POINT
  5
251
330
224
100
AcDbEntity
  8
DEFPOINTS
 62
     0
100
AcDbPoint
 10
286.6388237267823
 20
34.25577050755413
 30
0.0
  0
POINT
  5
252
330
224
100
AcDbEntity
  8
DEFPOINTS
 62
     0
100
AcDbPoint
 10
288.8157775930855
 20
34.25577050755413
 30
0.0
  0
ENDBLK
  5
231
330
224
100
AcDbEntity
  8
0
100
AcDbBlockEnd
  0
BLOCK
  5
260
330
254
100
AcDbEntity
  8
0
100
AcDbBlockBegin
  2
*D11
 70
     1
 10
0.0
 20
0.0
 30
0.0
  3
*D11
  1

  0
LINE
  5
262
330
254
100
AcDbEntity
  8
0
 62
     0
370
    -2
100
AcDbLine
 10
285.5763237267823
 20
35.05577050755412
 30
0.0
 11
284.7265589244219
 21
35.05577050755412
 31
0.0
  0
LINE
  5
263
330
254
100
AcDbEntity
  8
0
 62
     0
370
    -2
100
AcDbLine
 10
285.5763237267824
 20
34.25577050755412
 30
0.0
 11
284.7265589244219
 21
34.25577050755412
 31
0.0
  0
LINE
  5
264
330
254
100
AcDbEntity
  8
0
 62
     0
370
    -2
100
AcDbLine
 10
284.9065589244219
 20
34.87577050755412
 30
0.0
 11
284.9065589244219
 21
34.81933452144988
 31
0.0
  0
LINE
  5
265
330
254
100
AcDbEntity
  8
0
 62
     0
370
    -2
100
AcDbLine
 10
284.9065589244219
 20
34.43577050755412
 30
0.0
 11
284.9065589244219
 21
34.45933452144988
 31
0.0
  0
SOLID
  5
266
330
254
100
AcDbEntity
  8
0
 62
     0
100
AcDbTrace
 10
284.8765589244219
 20
34.87577050755412
 30
0.0
 11
284.9365589244219
 21
34.87577050755412
 31
0.0
 12
284.9065589244219
 22
35.05577050755412
 32
0.0
 13
284.9065589244219
 23
35.05577050755412
 33
0.0
  0
SOLID
  5
267
330
254
100
AcDbEntity
  8
0
 62
     0
100
AcDbTrace
 10
284.8765589244219
 20
34.43577050755412
 30
0.0
 11
284.9365589244219
 21
34.43577050755412
 31
0.0
 12
284.9065589244219
 22
34.25577050755412
 32
0.0
 13
284.9065589244219
 23
34.25577050755412
 33
0.0
  0
MTEXT
  5
268
330
254
100
AcDbEntity
  8
0
 62
     0
100
AcDbMText
 10
284.9065589244219
 20
34.63933452144993
 30
0.0
 40
0.18
 41
0.0
 71
     5
 72
     1
  1
\A1;0.8000
 73
     1
 44
1.0
  0
POINT
  5
269
330
254
100
AcDbEntity
  8
DEFPOINTS
 62
     0
100
AcDbPoint
 10
285.6388237267823
 20
35.05577050755412
 30
0.0
  0
POINT
  5
26A
330
254
100
AcDbEntity
  8
DEFPOINTS
 62
     0
100
AcDbPoint
 10
285.6388237267823
 20
34.25577050755412
 30
0.0
  0
POINT
  5
26B
330
254
100
AcDbEntity
  8
DEFPOINTS
 62
     0
100
AcDbPoint
 10
284.9065589244219
 20
34.25577050755412
 30
0.0
  0
ENDBLK
  5
261
330
254
100
AcDbEntity
  8
0
100
AcDbBlockEnd
  0
BLOCK
  5
278
330
26D
100
AcDbEntity
  8
0
100
AcDbBlockBegin
  2
*D12
 70
     1
 10
0.0
 20
0.0
 30
0.0
  3
*D12
  1

  0
LINE
  5
26E
330
26D
100
AcDbEntity
  8
0
 62
     0
370
    -2
100
AcDbLine
 10
285.6388237267823
 20
34.19327050755412
 30
0.0
 11
285.6388237267823
 21
33.15160410462886
 31
0.0
  0
LINE
  5
26F
330
26D
100
AcDbEntity
  8
0
 62
     0
370
    -2
100
AcDbLine
 10
287.6388237267823
 20
34.41327050755413
 30
0.0
 11
287.6388237267823
 21
33.15160410462886
 31
0.0
  0
LINE
  5
270
330
26D
100
AcDbEntity
  8
0
 62
     0
370
    -2
100
AcDbLine
 10
285.8188237267824
 20
33.33160410462886
 30
0.0
 11
286.1588237267823
 21
33.33160410462886
 31
0.0
  0
LINE
  5
271
330
26D
100
AcDbEntity
  8
0
 62
     0
370
    -2
100
AcDbLine
 10
287.4588237267823
 20
33.33160410462886
 30
0.0
 11
287.1188237267824
 21
33.33160410462886
 31
0.0
  0
SOLID
  5
272
330
26D
100
AcDbEntity
  8
0
 62
     0
100
AcDbTrace
 10
285.8188237267824
 20
33.36160410462886
 30
0.0
 11
285.8188237267824
 21
33.30160410462886
 31
0.0
 12
285.6388237267823
 22
33.33160410462886
 32
0.0
 13
285.6388237267823
 23
33.33160410462886
 33
0.0
  0
SOLID
  5
273
330
26D
100
AcDbEntity
  8
0
 62
     0
100
AcDbTrace
 10
287.4588237267823
 20
33.36160410462886
 30
0.0
 11
287.4588237267823
 21
33.30160410462886
 31
0.0
 12
287.6388237267823
 22
33.33160410462886
 32
0.0
 13
287.6388237267823
 23
33.33160410462886
 33
0.0
  0
MTEXT
  5
274
330
26D
100
AcDbEntity
  8
0
 62
     0
100
AcDbMText
 10
286.6388237267823
 20
33.33160410462886
 30
0.0
 40
0.18
 41
0.0
 71
     5
 72
     1
  1
\A1;2.0000
 73
     1
 44
1.0
  0
POINT
  5
275
330
26D
100
AcDbEntity
  8
DEFPOINTS
 62
     0
100
AcDbPoint
 10
285.6388237267823
 20
34.25577050755412
 30
0.0
  0
POINT
  5
276
330
26D
100
AcDbEntity
  8
DEFPOINTS
 62
     0
100
AcDbPoint
 10
287.6388237267823
 20
34.47577050755413
 30
0.0
  0
POINT
  5
277
330
26D
100
AcDbEntity
  8
DEFPOINTS
 62
     0
100
AcDbPoint
 10
287.6388237267823
 20
33.33160410462886
 30
0.0
  0
ENDBLK
  5
279
330
26D
100
AcDbEntity
  8
0
100
AcDbBlockEnd
  0
BLOCK
  5
286
330
27B
100
AcDbEntity
  8
0
100
AcDbBlockBegin
  2
*D13
 70
     1
 10
0.0
 20
0.0
 30
0.0
  3
*D13
  1

  0
LINE
  5
27C
330
27B
100
AcDbEntity
  8
0
 62
     0
370
    -2
100
AcDbLine
 10
286.6388237267823
 20
34.19327050755413
 30
0.0
 11
286.6388237267823
 21
33.47280105578366
 31
0.0
  0
LINE
  5
27D
330
27B
100
AcDbEntity
  8
0
 62
     0
370
    -2
100
AcDbLine
 10
287.6388237267823
 20
34.41327050755413
 30
0.0
 11
287.6388237267823
 21
33.47280105578366
 31
0.0
  0
LINE
  5
27E
330
27B
100
AcDbEntity
  8
0
 62
     0
370
    -2
100
AcDbLine
 10
286.4588237267823
 20
33.65280105578366
 30
0.0
 11
286.2788237267823
 21
33.65280105578366
 31
0.0
  0
LINE
  5
27F
330
27B
100
AcDbEntity
  8
0
 62
     0
370
    -2
100
AcDbLine
 10
287.8188237267824
 20
33.65280105578366
 30
0.0
 11
287.9988237267824
 21
33.65280105578366
 31
0.0
  0
SOLID
  5
280
330
27B
100
AcDbEntity
  8
0
 62
     0
100
AcDbTrace
 10
286.4588237267823
 20
33.68280105578366
 30
0.0
 11
286.4588237267823
 21
33.62280105578366
 31
0.0
 12
286.6388237267823
 22
33.65280105578366
 32
0.0
 13
286.6388237267823
 23
33.65280105578366
 33
0.0
  0
SOLID
  5
281
330
27B
100
AcDbEntity
  8
0
 62
     0
100
AcDbTrace
 10
287.8188237267824
 20
33.68280105578366
 30
0.0
 11
287.8188237267824
 21
33.62280105578366
 31
0.0
 12
287.6388237267823
 22
33.65280105578366
 32
0.0
 13
287.6388237267823
 23
33.65280105578366
 33
0.0
  0
MTEXT
  5
282
330
27B
100
AcDbEntity
  8
0
 62
     0
100
AcDbMText
 10
287.1388237267823
 20
33.65280105578366
 30
0.0
 40
0.18
 41
0.0
 71
     5
 72
     1
  1
\A1;1.0000
 73
     1
 44
1.0
  0
POINT
  5
283
330
27B
100
AcDbEntity
  8
DEFPOINTS
 62
     0
100
AcDbPoint
 10
286.6388237267823
 20
34.25577050755413
 30
0.0
  0
POINT
  5
284
330
27B
100
AcDbEntity
  8
DEFPOINTS
 62
     0
100
AcDbPoint
 10
287.6388237267823
 20
34.47577050755413
 30
0.0
  0
POINT
  5
285
330
27B
100
AcDbEntity
  8
DEFPOINTS
 62
     0
100
AcDbPoint
 10
287.6388237267823
 20
33.65280105578366
 30
0.0
  0
ENDBLK
  5
287
330
27B
100
AcDbEntity
  8
0
100
AcDbBlockEnd
  0
BLOCK
  5
299
330
28E
100
AcDbEntity
  8
0
100
AcDbBlockBegin
  2
*D14
 70
     1
 10
0.0
 20
0.0
 30
0.0
  3
*D14
  1

  0
LINE
  5
28F
330
28E
100
AcDbEntity
  8
0
 62
     0
370
    -2
100
AcDbLine
 10
287.1517387214479
 20
37.44926146419508
 30
0.0
 11
287.9549491251736
 21
37.44926146419508
 31
0.0
  0
LINE
  5
290
330
28E
100
AcDbEntity
  8
0
 62
     0
370
    -2
100
AcDbLine
 10
287.1517387214479
 20
33.44926146419508
 30
0.0
 11
287.9549491251736
 21
33.44926146419508
 31
0.0
  0
LINE
  5
291
330
28E
100
AcDbEntity
  8
0
 62
     0
370
    -2
100
AcDbLine
 10
287.7749491251736
 20
37.26926146419508
 30
0.0
 11
287.7749491251736
 21
35.62926146419508
 31
0.0
  0
LINE
  5
292
330
28E
100
AcDbEntity
  8
0
 62
     0
370
    -2
100
AcDbLine
 10
287.7749491251736
 20
33.62926146419508
 30
0.0
 11
287.7749491251736
 21
35.26926146419508
 31
0.0
  0
SOLID
  5
293
330
28E
100
AcDbEntity
  8
0
 62
     0
100
AcDbTrace
 10
287.7449491251736
 20
37.26926146419508
 30
0.0
 11
287.8049491251736
 21
37.26926146419508
 31
0.0
 12
287.7749491251736
 22
37.44926146419508
 32
0.0
 13
287.7749491251736
 23
37.44926146419508
 33
0.0
  0
SOLID
  5
294
330
28E
100
AcDbEntity
  8
0
 62
     0
100
AcDbTrace
 10
287.7449491251736
 20
33.62926146419508
 30
0.0
 11
287.8049491251736
 21
33.62926146419508
 31
0.0
 12
287.7749491251736
 22
33.44926146419508
 32
0.0
 13
287.7749491251736
 23
33.44926146419508
 33
0.0
  0
MTEXT
  5
295
330
28E
100
AcDbEntity
  8
0
 62
     0
100
AcDbMText
 10
287.7749491251736
 20
35.44926146419513
 30
0.0
 40
0.18
 41
0.0
 71
     5
 72
     1
  1
\A1;4.0000
 73
     1
 44
1.0
  0
POINT
  5
296
330
28E
100
AcDbEntity
  8
DEFPOINTS
 62
     0
100
AcDbPoint
 10
287.0892387214479
 20
37.44926146419508
 30
0.0
  0
POINT
  5
297
330
28E
100
AcDbEntity
  8
DEFPOINTS
 62
     0
100
AcDbPoint
 10
287.0892387214479
 20
33.44926146419508
 30
0.0
  0
POINT
  5
298
330
28E
100
AcDbEntity
  8
DEFPOINTS
 62
     0
100
AcDbPoint
 10
287.7749491251736
 20
33.44926146419508
 30
0.0
  0
ENDBLK
  5
29A
330
28E
100
AcDbEntity
  8
0
100
AcDbBlockEnd
  0
BLOCK
  5
2A7
330
29C
100
AcDbEntity
  8
0
100
AcDbBlockBegin
  2
*D15
 70
     1
 10
0.0
 20
0.0
 30
0.0
  3
*D15
  1

  0
LINE
  5
29D
330
29C
100
AcDbEntity
  8
0
 62
     0
370
    -2
100
AcDbLine
 10
287.0892387214479
 20
33.38676146419508
 30
0.0
 11
287.0892387214479
 21
32.67527875767904
 31
0.0
  0
LINE
  5
29E
330
29C
100
AcDbEntity
  8
0
 62
     0
370
    -2
100
AcDbLine
 10
285.0892387214479
 20
33.38676146419508
 30
0.0
 11
285.0892387214479
 21
32.67527875767904
 31
0.0
  0
LINE
  5
29F
330
29C
100
AcDbEntity
  8
0
 62
     0
370
    -2
100
AcDbLine
 10
286.9092387214479
 20
32.85527875767904
 30
0.0
 11
286.5692387214479
 21
32.85527875767904
 31
0.0
  0
LINE
  5
2A0
330
29C
100
AcDbEntity
  8
0
 62
     0
370
    -2
100
AcDbLine
 10
285.2692387214479
 20
32.85527875767904
 30
0.0
 11
285.6092387214479
 21
32.85527875767904
 31
0.0
  0
SOLID
  5
2A1
330
29C
100
AcDbEntity
  8
0
 62
     0
100
AcDbTrace
 10
286.9092387214479
 20
32.88527875767904
 30
0.0
 11
286.9092387214479
 21
32.82527875767904
 31
0.0
 12
287.0892387214479
 22
32.85527875767904
 32
0.0
 13
287.0892387214479
 23
32.85527875767904
 33
0.0
  0
SOLID
  5
2A2
330
29C
100
AcDbEntity
  8
0
 62
     0
100
AcDbTrace
 10
285.2692387214479
 20
32.88527875767904
 30
0.0
 11
285.2692387214479
 21
32.82527875767904
 31
0.0
 12
285.0892387214479
 22
32.85527875767904
 32
0.0
 13
285.0892387214479
 23
32.85527875767904
 33
0.0
  0
MTEXT
  5
2A3
330
29C
100
AcDbEntity
  8
0
 62
     0
100
AcDbMText
 10
286.0892387214479
 20
32.85527875767904
 30
0.0
 40
0.18
 41
0.0
 71
     5
 72
     1
  1
\A1;2.0000
 73
     1
 44
1.0
  0
POINT
  5
2A4
330
29C
100
AcDbEntity
  8
DEFPOINTS
 62
     0
100
AcDbPoint
 10
287.0892387214479
 20
33.44926146419508
 30
0.0
  0
POINT
  5
2A5
330
29C
100
AcDbEntity
  8
DEFPOINTS
 62
     0
100
AcDbPoint
 10
285.0892387214479
 20
33.44926146419508
 30
0.0
  0
POINT
  5
2A6
330
29C
100
AcDbEntity
  8
DEFPOINTS
 62
     0
100
AcDbPoint
 10
285.0892387214479
 20
32.85527875767904
 30
0.0
  0
ENDBLK
  5
2A8
330
29C
100
AcDbEntity
  8
0
100
AcDbBlockEnd
  0
BLOCK
  5
2C6
330
2BB
100
AcDbEntity
  8
0
100
AcDbBlockBegin
  2
*D16
 70
     1
 10
0.0
 20
0.0
 30
0.0
  3
*D16
  1

  0
LINE
  5
2BC
330
2BB
100
AcDbEntity
  8
0
 62
     0
370
    -2
100
AcDbLine
 10
286.3675714235231
 20
36.13046491597678
 30
0.0
 11
289.6684394394456
 21
36.13046491597678
 31
0.0
  0
LINE
  5
2BD
330
2BB
100
AcDbEntity
  8
0
 62
     0
370
    -2
100
AcDbLine
 10
286.7925714235232
 20
33.3304649159768
 30
0.0
 11
289.6684394394456
 21
33.3304649159768
 31
0.0
  0
LINE
  5
2BE
330
2BB
100
AcDbEntity
  8
0
 62
     0
370
    -2
100
AcDbLine
 10
289.4884394394456
 20
35.95046491597678
 30
0.0
 11
289.4884394394456
 21
34.91046491597679
 31
0.0
  0
LINE
  5
2BF
330
2BB
100
AcDbEntity
  8
0
 62
     0
370
    -2
100
AcDbLine
 10
289.4884394394456
 20
33.5104649159768
 30
0.0
 11
289.4884394394456
 21
34.55046491597679
 31
0.0
  0
SOLID
  5
2C0
330
2BB
100
AcDbEntity
  8
0
 62
     0
100
AcDbTrace
 10
289.4584394394456
 20
35.95046491597678
 30
0.0
 11
289.5184394394456
 21
35.95046491597678
 31
0.0
 12
289.4884394394456
 22
36.13046491597678
 32
0.0
 13
289.4884394394456
 23
36.13046491597678
 33
0.0
  0
SOLID
  5
2C1
330
2BB
100
AcDbEntity
  8
0
 62
     0
100
AcDbTrace
 10
289.4584394394456
 20
33.5104649159768
 30
0.0
 11
289.5184394394456
 21
33.5104649159768
 31
0.0
 12
289.4884394394456
 22
33.3304649159768
 32
0.0
 13
289.4884394394456
 23
33.3304649159768
 33
0.0
  0
MTEXT
  5
2C2
330
2BB
100
AcDbEntity
  8
0
 62
     0
100
AcDbMText
 10
289.4884394394456
 20
34.73046491597684
 30
0.0
 40
0.18
 41
0.0
 71
     5
 72
     1
  1
\A1;2.8000
 73
     1
 44
1.0
  0
POINT
  5
2C3
330
2BB
100
AcDbEntity
  8
DEFPOINTS
 62
     0
100
AcDbPoint
 10
286.3050714235232
 20
36.13046491597678
 30
0.0
  0
POINT
  5
2C4
330
2BB
100
AcDbEntity
  8
DEFPOINTS
 62
     0
100
AcDbPoint
 10
286.7300714235232
 20
33.3304649159768
 30
0.0
  0
POINT
  5
2C5
330
2BB
100
AcDbEntity
  8
DEFPOINTS
 62
     0
100
AcDbPoint
 10
289.4884394394456
 20
33.3304649159768
 30
0.0
  0
ENDBLK
  5
2C7
330
2BB
100
AcDbEntity
  8
0
100
AcDbBlockEnd
  0
BLOCK
  5
2D5
330
2C9
100
AcDbEntity
  8
0
100
AcDbBlockBegin
  2
*D17
 70
     1
 10
0.0
 20
0.0
 30
0.0
  3
*D17
  1

  0
LINE
  5
2CA
330
2C9
100
AcDbEntity
  8
0
 62
     0
370
    -2
100
AcDbLine
 10
287.7425714235231
 20
33.6004649159768
 30
0.0
 11
289.2950923852082
 21
33.6004649159768
 31
0.0
  0
LINE
  5
2CB
330
2C9
100
AcDbEntity
  8
0
 62
     0
370
    -2
100
AcDbLine
 10
286.7925714235232
 20
33.3304649159768
 30
0.0
 11
289.2950923852082
 21
33.3304649159768
 31
0.0
  0
LINE
  5
2CC
330
2C9
100
AcDbEntity
  8
0
 62
     0
370
    -2
100
AcDbLine
 10
289.1150923852082
 20
33.78046491597681
 30
0.0
 11
289.1150923852082
 21
33.9604649159768
 31
0.0
  0
LINE
  5
2CD
330
2C9
100
AcDbEntity
  8
0
 62
     0
370
    -2
100
AcDbLine
 10
289.1150923852082
 20
33.1504649159768
 30
0.0
 11
289.1150923852082
 21
32.9704649159768
 31
0.0
  0
LINE
  5
2CE
330
2C9
100
AcDbEntity
  8
0
 62
     0
370
    -2
100
AcDbLine
 10
289.1150923852082
 20
32.9704649159768
 30
0.0
 11
288.9350923852082
 21
32.9704649159768
 31
0.0
  0
SOLID
  5
2CF
330
2C9
100
AcDbEntity
  8
0
 62
     0
100
AcDbTrace
 10
289.0850923852082
 20
33.78046491597681
 30
0.0
 11
289.1450923852082
 21
33.78046491597681
 31
0.0
 12
289.1150923852082
 22
33.6004649159768
 32
0.0
 13
289.1150923852082
 23
33.6004649159768
 33
0.0
  0
SOLID
  5
2D0
330
2C9
100
AcDbEntity
  8
0
 62
     0
100
AcDbTrace
 10
289.0850923852082
 20
33.1504649159768
 30
0.0
 11
289.1450923852082
 21
33.1504649159768
 31
0.0
 12
289.1150923852082
 22
33.3304649159768
 32
0.0
 13
289.1150923852082
 23
33.3304649159768
 33
0.0
  0
MTEXT
  5
2D1
330
2C9
100
AcDbEntity
  8
0
 62
     0
100
AcDbMText
 10
288.4400923852082
 20
32.97046491597685
 30
0.0
 40
0.18
 41
0.0
 71
     5
 72
     1
  1
\A1;0.2700
 73
     1
 44
1.0
  0
POINT
  5
2D2
330
2C9
100
AcDbEntity
  8
DEFPOINTS
 62
     0
100
AcDbPoint
 10
287.6800714235232
 20
33.6004649159768
 30
0.0
  0
POINT
  5
2D3
330
2C9
100
AcDbEntity
  8
DEFPOINTS
 62
     0
100
AcDbPoint
 10
286.7300714235232
 20
33.3304649159768
 30
0.0
  0
POINT
  5
2D4
330
2C9
100
AcDbEntity
  8
DEFPOINTS
 62
     0
100
AcDbPoint
 10
289.1150923852082
 20
33.3304649159768
 30
0.0
  0
ENDBLK
  5
2D6
330
2C9
100
AcDbEntity
  8
0
100
AcDbBlockEnd
  0
BLOCK
  5
2E3
330
2D8
100
AcDbEntity
  8
0
100
AcDbBlockBegin
  2
*D18
 70
     1
 10
0.0
 20
0.0
 30
0.0
  3
*D18
  1

  0
LINE
  5
2D9
330
2D8
100
AcDbEntity
  8
0
 62
     0
370
    -2
100
AcDbLine
 10
287.7425714235231
 20
35.1004649159768
 30
0.0
 11
288.9217453749308
 21
35.1004649159768
 31
0.0
  0
LINE
  5
2DA
330
2D8
100
AcDbEntity
  8
0
 62
     0
370
    -2
100
AcDbLine
 10
287.7425714235231
 20
33.6004649159768
 30
0.0
 11
288.9217453749308
 21
33.6004649159768
 31
0.0
  0
LINE
  5
2DB
330
2D8
100
AcDbEntity
  8
0
 62
     0
370
    -2
100
AcDbLine
 10
288.7417453749309
 20
34.9204649159768
 30
0.0
 11
288.7417453749309
 21
34.5304649159768
 31
0.0
  0
LINE
  5
2DC
330
2D8
100
AcDbEntity
  8
0
 62
     0
370
    -2
100
AcDbLine
 10
288.7417453749309
 20
33.78046491597681
 30
0.0
 11
288.7417453749309
 21
34.1704649159768
 31
0.0
  0
SOLID
  5
2DD
330
2D8
100
AcDbEntity
  8
0
 62
     0
100
AcDbTrace
 10
288.7117453749309
 20
34.9204649159768
 30
0.0
 11
288.7717453749308
 21
34.9204649159768
 31
0.0
 12
288.7417453749309
 22
35.1004649159768
 32
0.0
 13
288.7417453749309
 23
35.1004649159768
 33
0.0
  0
SOLID
  5
2DE
330
2D8
100
AcDbEntity
  8
0
 62
     0
100
AcDbTrace
 10
288.7117453749309
 20
33.78046491597681
 30
0.0
 11
288.7717453749308
 21
33.78046491597681
 31
0.0
 12
288.7417453749309
 22
33.6004649159768
 32
0.0
 13
288.7417453749309
 23
33.6004649159768
 33
0.0
  0
MTEXT
  5
2DF
330
2D8
100
AcDbEntity
  8
0
 62
     0
100
AcDbMText
 10
288.7417453749309
 20
34.35046491597685
 30
0.0
 40
0.18
 41
0.0
 71
     5
 72
     1
  1
\A1;1.5000
 73
     1
 44
1.0
  0
POINT
  5
2E0
330
2D8
100
AcDbEntity
  8
DEFPOINTS
 62
     0
100
AcDbPoint
 10
287.6800714235232
 20
35.1004649159768
 30
0.0
  0
POINT
  5
2E1
330
2D8
100
AcDbEntity
  8
DEFPOINTS
 62
     0
100
AcDbPoint
 10
287.6800714235232
 20
33.6004649159768
 30
0.0
  0
POINT
  5
2E2
330
2D8
100
AcDbEntity
  8
DEFPOINTS
 62
     0
100
AcDbPoint
 10
288.7417453749309
 20
33.6004649159768
 30
0.0
  0
ENDBLK
  5
2E4
330
2D8
100
AcDbEntity
  8
0
100
AcDbBlockEnd
  0
BLOCK
  5
2F1
330
2E6
100
AcDbEntity
  8
0
100
AcDbBlockBegin
  2
*D19
 70
     1
 10
0.0
 20
0.0
 30
0.0
  3
*D19
  1

  0
LINE
  5
2E7
330
2E6
100
AcDbEntity
  8
0
 62
     0
370
    -2
100
AcDbLine
 10
286.7300714235232
 20
33.53796491597681
 30
0.0
 11
286.7300714235232
 21
32.45184336836013
 31
0.0
  0
LINE
  5
2E8
330
2E6
100
AcDbEntity
  8
0
 62
     0
370
    -2
100
AcDbLine
 10
287.6800714235232
 20
33.5379649159768
 30
0.0
 11
287.6800714235232
 21
32.45184336836013
 31
0.0
  0
LINE
  5
2E9
330
2E6
100
AcDbEntity
  8
0
 62
     0
370
    -2
100
AcDbLine
 10
286.9100714235232
 20
32.63184336836013
 30
0.0
 11
287.5000714235231
 21
32.63184336836013
 31
0.0
  0
LINE
  5
2EA
330
2E6
100
AcDbEntity
  8
0
 62
     0
370
    -2
100
AcDbLine
 10
287.6800714235232
 20
32.63184336836013
 30
0.0
 11
287.8600714235232
 21
32.63184336836013
 31
0.0
  0
SOLID
  5
2EB
330
2E6
100
AcDbEntity
  8
0
 62
     0
100
AcDbTrace
 10
286.9100714235232
 20
32.66184336836013
 30
0.0
 11
286.9100714235232
 21
32.60184336836013
 31
0.0
 12
286.7300714235232
 22
32.63184336836013
 32
0.0
 13
286.7300714235232
 23
32.63184336836013
 33
0.0
  0
SOLID
  5
2EC
330
2E6
100
AcDbEntity
  8
0
 62
     0
100
AcDbTrace
 10
287.5000714235231
 20
32.66184336836013
 30
0.0
 11
287.5000714235231
 21
32.60184336836013
 31
0.0
 12
287.6800714235232
 22
32.63184336836013
 32
0.0
 13
287.6800714235232
 23
32.63184336836013
 33
0.0
  0
MTEXT
  5
2ED
330
2E6
100
AcDbEntity
  8
0
 62
     0
100
AcDbMText
 10
288.3550714235232
 20
32.63184336836013
 30
0.0
 40
0.18
 41
0.0
 71
     5
 72
     1
  1
\A1;0.9500
 73
     1
 44
1.0
  0
POINT
  5
2EE
330
2E6
100
AcDbEntity
  8
DEFPOINTS
 62
     0
100
AcDbPoint
 10
286.7300714235232
 20
33.60046491597681
 30
0.0
  0
POINT
  5
2EF
330
2E6
100
AcDbEntity
  8
DEFPOINTS
 62
     0
100
AcDbPoint
 10
287.6800714235232
 20
33.6004649159768
 30
0.0
  0
POINT
  5
2F0
330
2E6
100
AcDbEntity
  8
DEFPOINTS
 62
     0
100
AcDbPoint
 10
287.6800714235232
 20
32.63184336836013
 30
0.0
  0
ENDBLK
  5
2F2
330
2E6
100
AcDbEntity
  8
0
100
AcDbBlockEnd
  0
BLOCK
  5
2FF
330
2F4
100
AcDbEntity
  8
0
100
AcDbBlockBegin
  2
*D20
 70
     1
 10
0.0
 20
0.0
 30
0.0
  3
*D20
  1

  0
LINE
  5
301
330
2F4
100
AcDbEntity
  8
0
 62
     0
370
    -2
100
AcDbLine
 10
284.9300714235232
 20
33.53796491597684
 30
0.0
 11
284.9300714235232
 21
32.43407094663711
 31
0.0
  0
LINE
  5
302
330
2F4
100
AcDbEntity
  8
0
 62
     0
370
    -2
100
AcDbLine
 10
285.730071423523
 20
33.53796491597683
 30
0.0
 11
285.730071423523
 21
32.43407094663711
 31
0.0
  0
LINE
  5
303
330
2F4
100
AcDbEntity
  8
0
 62
     0
370
    -2
100
AcDbLine
 10
285.5500714235231
 20
32.61407094663711
 30
0.0
 11
285.1100714235231
 21
32.61407094663711
 31
0.0
  0
LINE
  5
304
330
2F4
100
AcDbEntity
  8
0
 62
     0
370
    -2
100
AcDbLine
 10
284.9300714235232
 20
32.61407094663711
 30
0.0
 11
284.7500714235231
 21
32.61407094663711
 31
0.0
  0
SOLID
  5
305
330
2F4
100
AcDbEntity
  8
0
 62
     0
100
AcDbTrace
 10
285.5500714235231
 20
32.64407094663711
 30
0.0
 11
285.5500714235231
 21
32.58407094663711
 31
0.0
 12
285.730071423523
 22
32.61407094663711
 32
0.0
 13
285.730071423523
 23
32.61407094663711
 33
0.0
  0
SOLID
  5
306
330
2F4
100
AcDbEntity
  8
0
 62
     0
100
AcDbTrace
 10
285.1100714235231
 20
32.64407094663711
 30
0.0
 11
285.1100714235231
 21
32.58407094663711
 31
0.0
 12
284.9300714235232
 22
32.61407094663711
 32
0.0
 13
284.9300714235232
 23
32.61407094663711
 33
0.0
  0
MTEXT
  5
307
330
2F4
100
AcDbEntity
  8
0
 62
     0
100
AcDbMText
 10
284.2700714235231
 20
32.61407094663711
 30
0.0
 40
0.18
 41
0.0
 71
     5
 72
     1
  1
\A1;0.8000
 73
     1
 44
1.0
  0
POINT
  5
308
330
2F4
100
AcDbEntity
  8
DEFPOINTS
 62
     0
100
AcDbPoint
 10
284.9300714235232
 20
33.60046491597684
 30
0.0
  0
POINT
  5
309
330
2F4
100
AcDbEntity
  8
DEFPOINTS
 62
     0
100
AcDbPoint
 10
285.730071423523
 20
33.60046491597683
 30
0.0
  0
POINT
  5
30A
330
2F4
100
AcDbEntity
  8
DEFPOINTS
 62
     0
100
AcDbPoint
 10
285.730071423523
 20
32.61407094663711
 30
0.0
  0
ENDBLK
  5
300
330
2F4
100
AcDbEntity
  8
0
100
AcDbBlockEnd
  0
BLOCK
  5
317
330
30C
100
AcDbEntity
  8
0
100
AcDbBlockBegin
  2
*D21
 70
     1
 10
0.0
 20
0.0
 30
0.0
  3
*D21
  1

  0
LINE
  5
30D
330
30C
100
AcDbEntity
  8
0
 62
     0
370
    -2
100
AcDbLine
 10
285.7300714235231
 20
33.2679649159768
 30
0.0
 11
285.7300714235231
 21
32.73620197762705
 31
0.0
  0
LINE
  5
30E
330
30C
100
AcDbEntity
  8
0
 62
     0
370
    -2
100
AcDbLine
 10
286.7300714235232
 20
33.2679649159768
 30
0.0
 11
286.7300714235232
 21
32.73620197762705
 31
0.0
  0
LINE
  5
30F
330
30C
100
AcDbEntity
  8
0
 62
     0
370
    -2
100
AcDbLine
 10
285.5500714235231
 20
32.91620197762704
 30
0.0
 11
285.3700714235231
 21
32.91620197762704
 31
0.0
  0
LINE
  5
310
330
30C
100
AcDbEntity
  8
0
 62
     0
370
    -2
100
AcDbLine
 10
286.9100714235232
 20
32.91620197762704
 30
0.0
 11
287.0900714235232
 21
32.91620197762704
 31
0.0
  0
SOLID
  5
311
330
30C
100
AcDbEntity
  8
0
 62
     0
100
AcDbTrace
 10
285.5500714235231
 20
32.94620197762704
 30
0.0
 11
285.5500714235231
 21
32.88620197762704
 31
0.0
 12
285.7300714235231
 22
32.91620197762704
 32
0.0
 13
285.7300714235231
 23
32.91620197762704
 33
0.0
  0
SOLID
  5
312
330
30C
100
AcDbEntity
  8
0
 62
     0
100
AcDbTrace
 10
286.9100714235232
 20
32.94620197762704
 30
0.0
 11
286.9100714235232
 21
32.88620197762704
 31
0.0
 12
286.7300714235232
 22
32.91620197762704
 32
0.0
 13
286.7300714235232
 23
32.91620197762704
 33
0.0
  0
MTEXT
  5
313
330
30C
100
AcDbEntity
  8
0
 62
     0
100
AcDbMText
 10
286.2300714235232
 20
32.91620197762704
 30
0.0
 40
0.18
 41
0.0
 71
     5
 72
     1
  1
\A1;1.0000
 73
     1
 44
1.0
  0
POINT
  5
314
330
30C
100
AcDbEntity
  8
DEFPOINTS
 62
     0
100
AcDbPoint
 10
285.7300714235231
 20
33.3304649159768
 30
0.0
  0
POINT
  5
315
330
30C
100
AcDbEntity
  8
DEFPOINTS
 62
     0
100
AcDbPoint
 10
286.7300714235232
 20
33.3304649159768
 30
0.0
  0
POINT
  5
316
330
30C
100
AcDbEntity
  8
DEFPOINTS
 62
     0
100
AcDbPoint
 10
286.7300714235232
 20
32.91620197762704
 30
0.0
  0
ENDBLK
  5
318
330
30C
100
AcDbEntity
  8
0
100
AcDbBlockEnd
  0
BLOCK
  5
334
330
329
100
AcDbEntity
  8
0
100
AcDbBlockBegin
  2
*D22
 70
     1
 10
0.0
 20
0.0
 30
0.0
  3
*D22
  1

  0
LINE
  5
32A
330
329
100
AcDbEntity
  8
0
 62
     0
370
    -2
100
AcDbLine
 10
287.2679184120279
 20
32.85527875767904
 30
0.0
 11
290.4980554631198
 21
32.85527875767904
 31
0.0
  0
LINE
  5
32B
330
329
100
AcDbEntity
  8
0
 62
     0
370
    -2
100
AcDbLine
 10
286.7979184120279
 20
35.85527875767902
 30
0.0
 11
290.4980554631198
 21
35.85527875767902
 31
0.0
  0
LINE
  5
32C
330
329
100
AcDbEntity
  8
0
 62
     0
370
    -2
100
AcDbLine
 10
290.3180554631198
 20
33.03527875767904
 30
0.0
 11
290.3180554631198
 21
34.17527875767904
 31
0.0
  0
LINE
  5
32D
330
329
100
AcDbEntity
  8
0
 62
     0
370
    -2
100
AcDbLine
 10
290.3180554631198
 20
35.67527875767902
 30
0.0
 11
290.3180554631198
 21
34.53527875767903
 31
0.0
  0
SOLID
  5
32E
330
329
100
AcDbEntity
  8
0
 62
     0
100
AcDbTrace
 10
290.2880554631199
 20
33.03527875767904
 30
0.0
 11
290.3480554631198
 21
33.03527875767904
 31
0.0
 12
290.3180554631198
 22
32.85527875767904
 32
0.0
 13
290.3180554631198
 23
32.85527875767904
 33
0.0
  0
SOLID
  5
32F
330
329
100
AcDbEntity
  8
0
 62
     0
100
AcDbTrace
 10
290.2880554631199
 20
35.67527875767902
 30
0.0
 11
290.3480554631198
 21
35.67527875767902
 31
0.0
 12
290.3180554631198
 22
35.85527875767902
 32
0.0
 13
290.3180554631198
 23
35.85527875767902
 33
0.0
  0
MTEXT
  5
330
330
329
100
AcDbEntity
  8
0
 62
     0
100
AcDbMText
 10
290.3180554631198
 20
34.35527875767908
 30
0.0
 40
0.18
 41
0.0
 71
     5
 72
     1
  1
\A1;3.0000
 73
     1
 44
1.0
  0
POINT
  5
331
330
329
100
AcDbEntity
  8
DEFPOINTS
 62
     0
100
AcDbPoint
 10
287.2054184120279
 20
32.85527875767904
 30
0.0
  0
POINT
  5
332
330
329
100
AcDbEntity
  8
DEFPOINTS
 62
     0
100
AcDbPoint
 10
286.7354184120279
 20
35.85527875767902
 30
0.0
  0
POINT
  5
333
330
329
100
AcDbEntity
  8
DEFPOINTS
 62
     0
100
AcDbPoint
 10
290.3180554631198
 20
35.85527875767902
 30
0.0
  0
ENDBLK
  5
335
330
329
100
AcDbEntity
  8
0
100
AcDbBlockEnd
  0
BLOCK
  5
343
330
337
100
AcDbEntity
  8
0
100
AcDbBlockBegin
  2
*D23
 70
     1
 10
0.0
 20
0.0
 30
0.0
  3
*D23
  1

  0
LINE
  5
338
330
337
100
AcDbEntity
  8
0
 62
     0
370
    -2
100
AcDbLine
 10
288.7979184120279
 20
33.10527875767904
 30
0.0
 11
290.2603819908475
 21
33.10527875767904
 31
0.0
  0
LINE
  5
339
330
337
100
AcDbEntity
  8
0
 62
     0
370
    -2
100
AcDbLine
 10
287.2679184120279
 20
32.85527875767904
 30
0.0
 11
290.2603819908475
 21
32.85527875767904
 31
0.0
  0
LINE
  5
33A
330
337
100
AcDbEntity
  8
0
 62
     0
370
    -2
100
AcDbLine
 10
290.0803819908475
 20
33.28527875767904
 30
0.0
 11
290.0803819908475
 21
33.46527875767904
 31
0.0
  0
LINE
  5
33B
330
337
100
AcDbEntity
  8
0
 62
     0
370
    -2
100
AcDbLine
 10
290.0803819908475
 20
32.67527875767904
 30
0.0
 11
290.0803819908475
 21
32.49527875767904
 31
0.0
  0
LINE
  5
33C
330
337
100
AcDbEntity
  8
0
 62
     0
370
    -2
100
AcDbLine
 10
290.0803819908475
 20
32.49527875767904
 30
0.0
 11
289.9003819908475
 21
32.49527875767904
 31
0.0
  0
SOLID
  5
33D
330
337
100
AcDbEntity
  8
0
 62
     0
100
AcDbTrace
 10
290.0503819908475
 20
33.28527875767904
 30
0.0
 11
290.1103819908475
 21
33.28527875767904
 31
0.0
 12
290.0803819908475
 22
33.10527875767904
 32
0.0
 13
290.0803819908475
 23
33.10527875767904
 33
0.0
  0
SOLID
  5
33E
330
337
100
AcDbEntity
  8
0
 62
     0
100
AcDbTrace
 10
290.0503819908475
 20
32.67527875767904
 30
0.0
 11
290.1103819908475
 21
32.67527875767904
 31
0.0
 12
290.0803819908475
 22
32.85527875767904
 32
0.0
 13
290.0803819908475
 23
32.85527875767904
 33
0.0
  0
MTEXT
  5
33F
330
337
100
AcDbEntity
  8
0
 62
     0
100
AcDbMText
 10
289.4053819908475
 20
32.49527875767909
 30
0.0
 40
0.18
 41
0.0
 71
     5
 72
     1
  1
\A1;0.2500
 73
     1
 44
1.0
  0
POINT
  5
340
330
337
100
AcDbEntity
  8
DEFPOINTS
 62
     0
100
AcDbPoint
 10
288.7354184120279
 20
33.10527875767904
 30
0.0
  0
POINT
  5
341
330
337
100
AcDbEntity
  8
DEFPOINTS
 62
     0
100
AcDbPoint
 10
287.2054184120279
 20
32.85527875767904
 30
0.0
  0
POINT
  5
342
330
337
100
AcDbEntity
  8
DEFPOINTS
 62
     0
100
AcDbPoint
 10
290.0803819908475
 20
32.85527875767904
 30
0.0
  0
ENDBLK
  5
344
330
337
100
AcDbEntity
  8
0
100
AcDbBlockEnd
  0
BLOCK
  5
351
330
346
100
AcDbEntity
  8
0
100
AcDbBlockBegin
  2
*D24
 70
     1
 10
0.0
 20
0.0
 30
0.0
  3
*D24
  1

  0
LINE
  5
347
330
346
100
AcDbEntity
  8
0
 62
     0
370
    -2
100
AcDbLine
 10
288.7354184120279
 20
33.04277875767904
 30
0.0
 11
288.7354184120279
 21
31.39227614756276
 31
0.0
  0
LINE
  5
348
330
346
100
AcDbEntity
  8
0
 62
     0
370
    -2
100
AcDbLine
 10
284.7354184120279
 20
33.04277875767904
 30
0.0
 11
284.7354184120279
 21
31.39227614756276
 31
0.0
  0
LINE
  5
349
330
346
100
AcDbEntity
  8
0
 62
     0
370
    -2
100
AcDbLine
 10
288.5554184120278
 20
31.57227614756276
 30
0.0
 11
287.2154184120279
 21
31.57227614756276
 31
0.0
  0
LINE
  5
34A
330
346
100
AcDbEntity
  8
0
 62
     0
370
    -2
100
AcDbLine
 10
284.9154184120279
 20
31.57227614756276
 30
0.0
 11
286.2554184120278
 21
31.57227614756276
 31
0.0
  0
SOLID
  5
34B
330
346
100
AcDbEntity
  8
0
 62
     0
100
AcDbTrace
 10
288.5554184120278
 20
31.60227614756276
 30
0.0
 11
288.5554184120278
 21
31.54227614756276
 31
0.0
 12
288.7354184120279
 22
31.57227614756276
 32
0.0
 13
288.7354184120279
 23
31.57227614756276
 33
0.0
  0
SOLID
  5
34C
330
346
100
AcDbEntity
  8
0
 62
     0
100
AcDbTrace
 10
284.9154184120279
 20
31.60227614756276
 30
0.0
 11
284.9154184120279
 21
31.54227614756276
 31
0.0
 12
284.7354184120279
 22
31.57227614756276
 32
0.0
 13
284.7354184120279
 23
31.57227614756276
 33
0.0
  0
MTEXT
  5
34D
330
346
100
AcDbEntity
  8
0
 62
     0
100
AcDbMText
 10
286.7354184120279
 20
31.57227614756276
 30
0.0
 40
0.18
 41
0.0
 71
     5
 72
     1
  1
\A1;4.0000
 73
     1
 44
1.0
  0
POINT
  5
34E
330
346
100
AcDbEntity
  8
DEFPOINTS
 62
     0
100
AcDbPoint
 10
288.7354184120279
 20
33.10527875767904
 30
0.0
  0
POINT
  5
34F
330
346
100
AcDbEntity
  8
DEFPOINTS
 62
     0
100
AcDbPoint
 10
284.7354184120279
 20
33.10527875767904
 30
0.0
  0
POINT
  5
350
330
346
100
AcDbEntity
  8
DEFPOINTS
 62
     0
100
AcDbPoint
 10
284.7354184120279
 20
31.57227614756276
 30
0.0
  0
ENDBLK
  5
352
330
346
100
AcDbEntity
  8
0
100
AcDbBlockEnd
  0
BLOCK
  5
35F
330
354
100
AcDbEntity
  8
0
100
AcDbBlockBegin
  2
*D25
 70
     1
 10
0.0
 20
0.0
 30
0.0
  3
*D25
  1

  0
LINE
  5
355
330
354
100
AcDbEntity
  8
0
 62
     0
370
    -2
100
AcDbLine
 10
287.2054184120279
 20
33.04277875767903
 30
0.0
 11
287.2054184120279
 21
31.8437029893018
 31
0.0
  0
LINE
  5
356
330
354
100
AcDbEntity
  8
0
 62
     0
370
    -2
100
AcDbLine
 10
288.7354184120279
 20
33.04277875767904
 30
0.0
 11
288.7354184120279
 21
31.8437029893018
 31
0.0
  0
LINE
  5
357
330
354
100
AcDbEntity
  8
0
 62
     0
370
    -2
100
AcDbLine
 10
287.3854184120279
 20
32.0237029893018
 30
0.0
 11
287.4904184120278
 21
32.0237029893018
 31
0.0
  0
LINE
  5
358
330
354
100
AcDbEntity
  8
0
 62
     0
370
    -2
100
AcDbLine
 10
288.5554184120278
 20
32.0237029893018
 30
0.0
 11
288.4504184120279
 21
32.0237029893018
 31
0.0
  0
SOLID
  5
359
330
354
100
AcDbEntity
  8
0
 62
     0
100
AcDbTrace
 10
287.3854184120279
 20
32.0537029893018
 30
0.0
 11
287.3854184120279
 21
31.9937029893018
 31
0.0
 12
287.2054184120279
 22
32.0237029893018
 32
0.0
 13
287.2054184120279
 23
32.0237029893018
 33
0.0
  0
SOLID
  5
35A
330
354
100
AcDbEntity
  8
0
 62
     0
100
AcDbTrace
 10
288.5554184120278
 20
32.0537029893018
 30
0.0
 11
288.5554184120278
 21
31.9937029893018
 31
0.0
 12
288.7354184120279
 22
32.0237029893018
 32
0.0
 13
288.7354184120279
 23
32.0237029893018
 33
0.0
  0
MTEXT
  5
35B
330
354
100
AcDbEntity
  8
0
 62
     0
100
AcDbMText
 10
287.9704184120279
 20
32.0237029893018
 30
0.0
 40
0.18
 41
0.0
 71
     5
 72
     1
  1
\A1;1.5300
 73
     1
 44
1.0
  0
POINT
  5
35C
330
354
100
AcDbEntity
  8
DEFPOINTS
 62
     0
100
AcDbPoint
 10
287.2054184120279
 20
33.10527875767903
 30
0.0
  0
POINT
  5
35D
330
354
100
AcDbEntity
  8
DEFPOINTS
 62
     0
100
AcDbPoint
 10
288.7354184120279
 20
33.10527875767904
 30
0.0
  0
POINT
  5
35E
330
354
100
AcDbEntity
  8
DEFPOINTS
 62
     0
100
AcDbPoint
 10
288.7354184120279
 20
32.0237029893018
 30
0.0
  0
ENDBLK
  5
360
330
354
100
AcDbEntity
  8
0
100
AcDbBlockEnd
  0
BLOCK
  5
36D
330
362
100
AcDbEntity
  8
0
100
AcDbBlockBegin
  2
*D26
 70
     1
 10
0.0
 20
0.0
 30
0.0
  3
*D26
  1

  0
LINE
  5
363
330
362
100
AcDbEntity
  8
0
 62
     0
370
    -2
100
AcDbLine
 10
284.7354184120279
 20
33.04277875767904
 30
0.0
 11
284.7354184120279
 21
31.8437029893018
 31
0.0
  0
LINE
  5
364
330
362
100
AcDbEntity
  8
0
 62
     0
370
    -2
100
AcDbLine
 10
286.205418412028
 20
33.04277875767903
 30
0.0
 11
286.205418412028
 21
31.8437029893018
 31
0.0
  0
LINE
  5
365
330
362
100
AcDbEntity
  8
0
 62
     0
370
    -2
100
AcDbLine
 10
284.5554184120279
 20
32.0237029893018
 30
0.0
 11
284.3754184120279
 21
32.0237029893018
 31
0.0
  0
LINE
  5
366
330
362
100
AcDbEntity
  8
0
 62
     0
370
    -2
100
AcDbLine
 10
286.385418412028
 20
32.0237029893018
 30
0.0
 11
286.565418412028
 21
32.0237029893018
 31
0.0
  0
SOLID
  5
367
330
362
100
AcDbEntity
  8
0
 62
     0
100
AcDbTrace
 10
284.5554184120279
 20
32.0537029893018
 30
0.0
 11
284.5554184120279
 21
31.9937029893018
 31
0.0
 12
284.7354184120279
 22
32.0237029893018
 32
0.0
 13
284.7354184120279
 23
32.0237029893018
 33
0.0
  0
SOLID
  5
368
330
362
100
AcDbEntity
  8
0
 62
     0
100
AcDbTrace
 10
286.385418412028
 20
32.0537029893018
 30
0.0
 11
286.385418412028
 21
31.9937029893018
 31
0.0
 12
286.205418412028
 22
32.0237029893018
 32
0.0
 13
286.205418412028
 23
32.0237029893018
 33
0.0
  0
MTEXT
  5
369
330
362
100
AcDbEntity
  8
0
 62
     0
100
AcDbMText
 10
285.4704184120279
 20
32.0237029893018
 30
0.0
 40
0.18
 41
0.0
 71
     5
 72
     1
  1
\A1;1.4700
 73
     1
 44
1.0
  0
POINT
  5
36A
330
362
100
AcDbEntity
  8
DEFPOINTS
 62
     0
100
AcDbPoint
 10
284.7354184120279
 20
33.10527875767904
 30
0.0
  0
POINT
  5
36B
330
362
100
AcDbEntity
  8
DEFPOINTS
 62
     0
100
AcDbPoint
 10
286.205418412028
 20
33.10527875767903
 30
0.0
  0
POINT
  5
36C
330
362
100
AcDbEntity
  8
DEFPOINTS
 62
     0
100
AcDbPoint
 10
286.205418412028
 20
32.0237029893018
 30
0.0
  0
ENDBLK
  5
36E
330
362
100
AcDbEntity
  8
0
100
AcDbBlockEnd
  0
BLOCK
  5
37B
330
370
100
AcDbEntity
  8
0
100
AcDbBlockBegin
  2
*D27
 70
     1
 10
0.0
 20
0.0
 30
0.0
  3
*D27
  1

  0
LINE
  5
371
330
370
100
AcDbEntity
  8
0
 62
     0
370
    -2
100
AcDbLine
 10
286.205418412028
 20
32.79277875767904
 30
0.0
 11
286.205418412028
 21
32.29512983104083
 31
0.0
  0
LINE
  5
372
330
370
100
AcDbEntity
  8
0
 62
     0
370
    -2
100
AcDbLine
 10
287.2054184120279
 20
32.79277875767904
 30
0.0
 11
287.2054184120279
 21
32.29512983104083
 31
0.0
  0
LINE
  5
373
330
370
100
AcDbEntity
  8
0
 62
     0
370
    -2
100
AcDbLine
 10
286.0254184120279
 20
32.47512983104083
 30
0.0
 11
285.8454184120279
 21
32.47512983104083
 31
0.0
  0
LINE
  5
374
330
370
100
AcDbEntity
  8
0
 62
     0
370
    -2
100
AcDbLine
 10
287.3854184120279
 20
32.47512983104083
 30
0.0
 11
287.5654184120279
 21
32.47512983104083
 31
0.0
  0
SOLID
  5
375
330
370
100
AcDbEntity
  8
0
 62
     0
100
AcDbTrace
 10
286.0254184120279
 20
32.50512983104083
 30
0.0
 11
286.0254184120279
 21
32.44512983104083
 31
0.0
 12
286.205418412028
 22
32.47512983104083
 32
0.0
 13
286.205418412028
 23
32.47512983104083
 33
0.0
  0
SOLID
  5
376
330
370
100
AcDbEntity
  8
0
 62
     0
100
AcDbTrace
 10
287.3854184120279
 20
32.50512983104083
 30
0.0
 11
287.3854184120279
 21
32.44512983104083
 31
0.0
 12
287.2054184120279
 22
32.47512983104083
 32
0.0
 13
287.2054184120279
 23
32.47512983104083
 33
0.0
  0
MTEXT
  5
377
330
370
100
AcDbEntity
  8
0
 62
     0
100
AcDbMText
 10
286.7054184120279
 20
32.47512983104083
 30
0.0
 40
0.18
 41
0.0
 71
     5
 72
     1
  1
\A1;1.0000
 73
     1
 44
1.0
  0
POINT
  5
378
330
370
100
AcDbEntity
  8
DEFPOINTS
 62
     0
100
AcDbPoint
 10
286.205418412028
 20
32.85527875767904
 30
0.0
  0
POINT
  5
379
330
370
100
AcDbEntity
  8
DEFPOINTS
 62
     0
100
AcDbPoint
 10
287.2054184120279
 20
32.85527875767904
 30
0.0
  0
POINT
  5
37A
330
370
100
AcDbEntity
  8
DEFPOINTS
 62
     0
100
AcDbPoint
 10
287.2054184120279
 20
32.47512983104083
 30
0.0
  0
ENDBLK
  5
37C
330
370
100
AcDbEntity
  8
0
100
AcDbBlockEnd
  0
BLOCK
  5
389
330
37E
100
AcDbEntity
  8
0
100
AcDbBlockBegin
  2
*D28
 70
     1
 10
0.0
 20
0.0
 30
0.0
  3
*D28
  1

  0
LINE
  5
37F
330
37E
100
AcDbEntity
  8
0
 62
     0
370
    -2
100
AcDbLine
 10
288.7979184120279
 20
34.70527875767905
 30
0.0
 11
289.5473615300705
 21
34.70527875767905
 31
0.0
  0
LINE
  5
380
330
37E
100
AcDbEntity
  8
0
 62
     0
370
    -2
100
AcDbLine
 10
288.7979184120279
 20
33.10527875767904
 30
0.0
 11
289.5473615300705
 21
33.10527875767904
 31
0.0
  0
LINE
  5
381
330
37E
100
AcDbEntity
  8
0
 62
     0
370
    -2
100
AcDbLine
 10
289.3673615300705
 20
34.52527875767904
 30
0.0
 11
289.3673615300705
 21
34.08527875767905
 31
0.0
  0
LINE
  5
382
330
37E
100
AcDbEntity
  8
0
 62
     0
370
    -2
100
AcDbLine
 10
289.3673615300705
 20
33.28527875767904
 30
0.0
 11
289.3673615300705
 21
33.72527875767905
 31
0.0
  0
SOLID
  5
383
330
37E
100
AcDbEntity
  8
0
 62
     0
100
AcDbTrace
 10
289.3373615300705
 20
34.52527875767904
 30
0.0
 11
289.3973615300705
 21
34.52527875767904
 31
0.0
 12
289.3673615300705
 22
34.70527875767905
 32
0.0
 13
289.3673615300705
 23
34.70527875767905
 33
0.0
  0
SOLID
  5
384
330
37E
100
AcDbEntity
  8
0
 62
     0
100
AcDbTrace
 10
289.3373615300705
 20
33.28527875767904
 30
0.0
 11
289.3973615300705
 21
33.28527875767904
 31
0.0
 12
289.3673615300705
 22
33.10527875767904
 32
0.0
 13
289.3673615300705
 23
33.10527875767904
 33
0.0
  0
MTEXT
  5
385
330
37E
100
AcDbEntity
  8
0
 62
     0
100
AcDbMText
 10
289.3673615300705
 20
33.9052787576791
 30
0.0
 40
0.18
 41
0.0
 71
     5
 72
     1
  1
\A1;1.6000
 73
     1
 44
1.0
  0
POINT
  5
386
330
37E
100
AcDbEntity
  8
DEFPOINTS
 62
     0
100
AcDbPoint
 10
288.7354184120279
 20
34.70527875767905
 30
0.0
  0
POINT
  5
387
330
37E
100
AcDbEntity
  8
DEFPOINTS
 62
     0
100
AcDbPoint
 10
288.7354184120279
 20
33.10527875767904
 30
0.0
  0
POINT
  5
388
330
37E
100
AcDbEntity
  8
DEFPOINTS
 62
     0
100
AcDbPoint
 10
289.3673615300705
 20
33.10527875767904
 30
0.0
  0
ENDBLK
  5
38A
330
37E
100
AcDbEntity
  8
0
100
AcDbBlockEnd
  0
BLOCK
  5
3A9
330
39E
100
AcDbEntity
  8
0
100
AcDbBlockBegin
  2
*D29
 70
     1
 10
0.0
 20
0.0
 30
0.0
  3
*D29
  1

  0
LINE
  5
39F
330
39E
100
AcDbEntity
  8
0
 62
     0
370
    -2
100
AcDbLine
 10
288.6485794476849
 20
35.47302078075381
 30
0.0
 11
291.211075923897
 21
35.47302078075381
 31
0.0
  0
LINE
  5
3A0
330
39E
100
AcDbEntity
  8
0
 62
     0
370
    -2
100
AcDbLine
 10
287.1985794476849
 20
33.4730207807538
 30
0.0
 11
291.211075923897
 21
33.4730207807538
 31
0.0
  0
LINE
  5
3A1
330
39E
100
AcDbEntity
  8
0
 62
     0
370
    -2
100
AcDbLine
 10
291.0310759238969
 20
35.2930207807538
 30
0.0
 11
291.0310759238969
 21
34.6530207807538
 31
0.0
  0
LINE
  5
3A2
330
39E
100
AcDbEntity
  8
0
 62
     0
370
    -2
100
AcDbLine
 10
291.0310759238969
 20
33.6530207807538
 30
0.0
 11
291.0310759238969
 21
34.2930207807538
 31
0.0
  0
SOLID
  5
3A3
330
39E
100
AcDbEntity
  8
0
 62
     0
100
AcDbTrace
 10
291.001075923897
 20
35.2930207807538
 30
0.0
 11
291.0610759238969
 21
35.2930207807538
 31
0.0
 12
291.0310759238969
 22
35.47302078075381
 32
0.0
 13
291.0310759238969
 23
35.47302078075381
 33
0.0
  0
SOLID
  5
3A4
330
39E
100
AcDbEntity
  8
0
 62
     0
100
AcDbTrace
 10
291.001075923897
 20
33.6530207807538
 30
0.0
 11
291.0610759238969
 21
33.6530207807538
 31
0.0
 12
291.0310759238969
 22
33.4730207807538
 32
0.0
 13
291.0310759238969
 23
33.4730207807538
 33
0.0
  0
MTEXT
  5
3A5
330
39E
100
AcDbEntity
  8
0
 62
     0
100
AcDbMText
 10
291.0310759238969
 20
34.47302078075384
 30
0.0
 40
0.18
 41
0.0
 71
     5
 72
     1
  1
\A1;2.0000
 73
     1
 44
1.0
  0
POINT
  5
3A6
330
39E
100
AcDbEntity
  8
DEFPOINTS
 62
     0
100
AcDbPoint
 10
288.5860794476849
 20
35.47302078075381
 30
0.0
  0
POINT
  5
3A7
330
39E
100
AcDbEntity
  8
DEFPOINTS
 62
     0
100
AcDbPoint
 10
287.1360794476849
 20
33.4730207807538
 30
0.0
  0
POINT
  5
3A8
330
39E
100
AcDbEntity
  8
DEFPOINTS
 62
     0
100
AcDbPoint
 10
291.0310759238969
 20
33.4730207807538
 30
0.0
  0
ENDBLK
  5
3AA
330
39E
100
AcDbEntity
  8
0
100
AcDbBlockEnd
  0
BLOCK
  5
3B7
330
3AC
100
AcDbEntity
  8
0
100
AcDbBlockBegin
  2
*D30
 70
     1
 10
0.0
 20
0.0
 30
0.0
  3
*D30
  1

  0
LINE
  5
3AD
330
3AC
100
AcDbEntity
  8
0
 62
     0
370
    -2
100
AcDbLine
 10
289.0860794476849
 20
35.23552078075381
 30
0.0
 11
289.0860794476849
 21
36.00519225568388
 31
0.0
  0
LINE
  5
3AE
330
3AC
100
AcDbEntity
  8
0
 62
     0
370
    -2
100
AcDbLine
 10
288.5860794476849
 20
35.5355207807538
 30
0.0
 11
288.5860794476849
 21
36.00519225568388
 31
0.0
  0
LINE
  5
3AF
330
3AC
100
AcDbEntity
  8
0
 62
     0
370
    -2
100
AcDbLine
 10
289.2660794476849
 20
35.82519225568388
 30
0.0
 11
289.4460794476849
 21
35.82519225568388
 31
0.0
  0
LINE
  5
3B0
330
3AC
100
AcDbEntity
  8
0
 62
     0
370
    -2
100
AcDbLine
 10
288.4060794476849
 20
35.82519225568388
 30
0.0
 11
288.2260794476849
 21
35.82519225568388
 31
0.0
  0
SOLID
  5
3B1
330
3AC
100
AcDbEntity
  8
0
 62
     0
100
AcDbTrace
 10
289.2660794476849
 20
35.85519225568388
 30
0.0
 11
289.2660794476849
 21
35.79519225568388
 31
0.0
 12
289.0860794476849
 22
35.82519225568388
 32
0.0
 13
289.0860794476849
 23
35.82519225568388
 33
0.0
  0
SOLID
  5
3B2
330
3AC
100
AcDbEntity
  8
0
 62
     0
100
AcDbTrace
 10
288.4060794476849
 20
35.85519225568388
 30
0.0
 11
288.4060794476849
 21
35.79519225568388
 31
0.0
 12
288.5860794476849
 22
35.82519225568388
 32
0.0
 13
288.5860794476849
 23
35.82519225568388
 33
0.0
  0
MTEXT
  5
3B3
330
3AC
100
AcDbEntity
  8
0
 62
     0
100
AcDbMText
 10
287.7460794476849
 20
35.82519225568388
 30
0.0
 40
0.18
 41
0.0
 71
     5
 72
     1
  1
\A1;0.5000
 73
     1
 44
1.0
  0
POINT
  5
3B4
330
3AC
100
AcDbEntity
  8
DEFPOINTS
 62
     0
100
AcDbPoint
 10
289.0860794476849
 20
35.17302078075381
 30
0.0
  0
POINT
  5
3B5
330
3AC
100
AcDbEntity
  8
DEFPOINTS
 62
     0
100
AcDbPoint
 10
288.5860794476849
 20
35.47302078075381
 30
0.0
  0
POINT
  5
3B6
330
3AC
100
AcDbEntity
  8
DEFPOINTS
 62
     0
100
AcDbPoint
 10
288.5860794476849
 20
35.82519225568388
 30
0.0
  0
ENDBLK
  5
3B8
330
3AC
100
AcDbEntity
  8
0
100
AcDbBlockEnd
  0
BLOCK
  5
3C6
330
3BA
100
AcDbEntity
  8
0
100
AcDbBlockBegin
  2
*D31
 70
     1
 10
0.0
 20
0.0
 30
0.0
  3
*D31
  1

  0
LINE
  5
3BB
330
3BA
100
AcDbEntity
  8
0
 62
     0
370
    -2
100
AcDbLine
 10
289.1485794476849
 20
35.17302078075381
 30
0.0
 11
290.0940105514649
 21
35.17302078075381
 31
0.0
  0
LINE
  5
3BC
330
3BA
100
AcDbEntity
  8
0
 62
     0
370
    -2
100
AcDbLine
 10
288.6485794476849
 20
35.47302078075381
 30
0.0
 11
290.0940105514649
 21
35.47302078075381
 31
0.0
  0
LINE
  5
3BD
330
3BA
100
AcDbEntity
  8
0
 62
     0
370
    -2
100
AcDbLine
 10
289.9140105514648
 20
34.9930207807538
 30
0.0
 11
289.9140105514648
 21
34.81302078075381
 31
0.0
  0
LINE
  5
3BE
330
3BA
100
AcDbEntity
  8
0
 62
     0
370
    -2
100
AcDbLine
 10
289.9140105514648
 20
35.6530207807538
 30
0.0
 11
289.9140105514648
 21
35.8330207807538
 31
0.0
  0
LINE
  5
3BF
330
3BA
100
AcDbEntity
  8
0
 62
     0
370
    -2
100
AcDbLine
 10
289.9140105514648
 20
35.8330207807538
 30
0.0
 11
290.0940105514649
 21
35.8330207807538
 31
0.0
  0
SOLID
  5
3C0
330
3BA
100
AcDbEntity
  8
0
 62
     0
100
AcDbTrace
 10
289.8840105514649
 20
34.9930207807538
 30
0.0
 11
289.9440105514648
 21
34.9930207807538
 31
0.0
 12
289.9140105514648
 22
35.17302078075381
 32
0.0
 13
289.9140105514648
 23
35.17302078075381
 33
0.0
  0
SOLID
  5
3C1
330
3BA
100
AcDbEntity
  8
0
 62
     0
100
AcDbTrace
 10
289.8840105514649
 20
35.6530207807538
 30
0.0
 11
289.9440105514648
 21
35.6530207807538
 31
0.0
 12
289.9140105514648
 22
35.47302078075381
 32
0.0
 13
289.9140105514648
 23
35.47302078075381
 33
0.0
  0
MTEXT
  5
3C2
330
3BA
100
AcDbEntity
  8
0
 62
     0
100
AcDbMText
 10
290.5740105514649
 20
35.83302078075385
 30
0.0
 40
0.18
 41
0.0
 71
     5
 72
     1
  1
\A1;0.3000
 73
     1
 44
1.0
  0
POINT
  5
3C3
330
3BA
100
AcDbEntity
  8
DEFPOINTS
 62
     0
100
AcDbPoint
 10
289.0860794476849
 20
35.17302078075381
 30
0.0
  0
POINT
  5
3C4
330
3BA
100
AcDbEntity
  8
DEFPOINTS
 62
     0
100
AcDbPoint
 10
288.5860794476849
 20
35.47302078075381
 30
0.0
  0
POINT
  5
3C5
330
3BA
100
AcDbEntity
  8
DEFPOINTS
 62
     0
100
AcDbPoint
 10
289.9140105514648
 20
35.47302078075381
 30
0.0
  0
ENDBLK
  5
3C7
330
3BA
100
AcDbEntity
  8
0
100
AcDbBlockEnd
  0
BLOCK
  5
3D5
330
3C9
100
AcDbEntity
  8
0
100
AcDbBlockBegin
  2
*D32
 70
     1
 10
0.0
 20
0.0
 30
0.0
  3
*D32
  1

  0
LINE
  5
3CA
330
3C9
100
AcDbEntity
  8
0
 62
     0
370
    -2
100
AcDbLine
 10
289.1485794476849
 20
33.77302078075381
 30
0.0
 11
290.0940105514649
 21
33.77302078075381
 31
0.0
  0
LINE
  5
3CB
330
3C9
100
AcDbEntity
  8
0
 62
     0
370
    -2
100
AcDbLine
 10
287.1985794476849
 20
33.4730207807538
 30
0.0
 11
290.0940105514649
 21
33.4730207807538
 31
0.0
  0
LINE
  5
3CC
330
3C9
100
AcDbEntity
  8
0
 62
     0
370
    -2
100
AcDbLine
 10
289.9140105514648
 20
33.95302078075381
 30
0.0
 11
289.9140105514648
 21
34.13302078075381
 31
0.0
  0
LINE
  5
3CD
330
3C9
100
AcDbEntity
  8
0
 62
     0
370
    -2
100
AcDbLine
 10
289.9140105514648
 20
33.29302078075381
 30
0.0
 11
289.9140105514648
 21
33.1130207807538
 31
0.0
  0
LINE
  5
3CE
330
3C9
100
AcDbEntity
  8
0
 62
     0
370
    -2
100
AcDbLine
 10
289.9140105514648
 20
33.1130207807538
 30
0.0
 11
289.7340105514649
 21
33.1130207807538
 31
0.0
  0
SOLID
  5
3CF
330
3C9
100
AcDbEntity
  8
0
 62
     0
100
AcDbTrace
 10
289.8840105514649
 20
33.95302078075381
 30
0.0
 11
289.9440105514648
 21
33.95302078075381
 31
0.0
 12
289.9140105514648
 22
33.77302078075381
 32
0.0
 13
289.9140105514648
 23
33.77302078075381
 33
0.0
  0
SOLID
  5
3D0
330
3C9
100
AcDbEntity
  8
0
 62
     0
100
AcDbTrace
 10
289.8840105514649
 20
33.29302078075381
 30
0.0
 11
289.9440105514648
 21
33.29302078075381
 31
0.0
 12
289.9140105514648
 22
33.4730207807538
 32
0.0
 13
289.9140105514648
 23
33.4730207807538
 33
0.0
  0
MTEXT
  5
3D1
330
3C9
100
AcDbEntity
  8
0
 62
     0
100
AcDbMText
 10
289.2540105514648
 20
33.11302078075385
 30
0.0
 40
0.18
 41
0.0
 71
     5
 72
     1
  1
\A1;0.3000
 73
     1
 44
1.0
  0
POINT
  5
3D2
330
3C9
100
AcDbEntity
  8
DEFPOINTS
 62
     0
100
AcDbPoint
 10
289.0860794476849
 20
33.77302078075381
 30
0.0
  0
POINT
  5
3D3
330
3C9
100
AcDbEntity
  8
DEFPOINTS
 62
     0
100
AcDbPoint
 10
287.1360794476849
 20
33.4730207807538
 30
0.0
  0
POINT
  5
3D4
330
3C9
100
AcDbEntity
  8
DEFPOINTS
 62
     0
100
AcDbPoint
 10
289.9140105514648
 20
33.4730207807538
 30
0.0
  0
ENDBLK
  5
3D6
330
3C9
100
AcDbEntity
  8
0
100
AcDbBlockEnd
  0
BLOCK
  5
3E3
330
3D8
100
AcDbEntity
  8
0
100
AcDbBlockBegin
  2
*D33
 70
     1
 10
0.0
 20
0.0
 30
0.0
  3
*D33
  1

  0
LINE
  5
3D9
330
3D8
100
AcDbEntity
  8
0
 62
     0
370
    -2
100
AcDbLine
 10
289.0860794476849
 20
35.23552078075381
 30
0.0
 11
289.0860794476849
 21
36.67045287730074
 31
0.0
  0
LINE
  5
3DA
330
3D8
100
AcDbEntity
  8
0
 62
     0
370
    -2
100
AcDbLine
 10
284.1860794476849
 20
35.23552078075381
 30
0.0
 11
284.1860794476849
 21
36.67045287730074
 31
0.0
  0
LINE
  5
3DB
330
3D8
100
AcDbEntity
  8
0
 62
     0
370
    -2
100
AcDbLine
 10
288.9060794476849
 20
36.49045287730074
 30
0.0
 11
287.1310794476849
 21
36.49045287730074
 31
0.0
  0
LINE
  5
3DC
330
3D8
100
AcDbEntity
  8
0
 62
     0
370
    -2
100
AcDbLine
 10
284.366079447685
 20
36.49045287730074
 30
0.0
 11
286.1410794476849
 21
36.49045287730074
 31
0.0
  0
SOLID
  5
3DD
330
3D8
100
AcDbEntity
  8
0
 62
     0
100
AcDbTrace
 10
288.9060794476849
 20
36.52045287730075
 30
0.0
 11
288.9060794476849
 21
36.46045287730074
 31
0.0
 12
289.0860794476849
 22
36.49045287730074
 32
0.0
 13
289.0860794476849
 23
36.49045287730074
 33
0.0
  0
SOLID
  5
3DE
330
3D8
100
AcDbEntity
  8
0
 62
     0
100
AcDbTrace
 10
284.366079447685
 20
36.52045287730075
 30
0.0
 11
284.366079447685
 21
36.46045287730074
 31
0.0
 12
284.1860794476849
 22
36.49045287730074
 32
0.0
 13
284.1860794476849
 23
36.49045287730074
 33
0.0
  0
MTEXT
  5
3DF
330
3D8
100
AcDbEntity
  8
0
 62
     0
100
AcDbMText
 10
286.6360794476849
 20
36.49045287730074
 30
0.0
 40
0.18
 41
0.0
 71
     5
 72
     1
  1
\A1;4.9000
 73
     1
 44
1.0
  0
POINT
  5
3E0
330
3D8
100
AcDbEntity
  8
DEFPOINTS
 62
     0
100
AcDbPoint
 10
289.0860794476849
 20
35.17302078075381
 30
0.0
  0
POINT
  5
3E1
330
3D8
100
AcDbEntity
  8
DEFPOINTS
 62
     0
100
AcDbPoint
 10
284.1860794476849
 20
35.17302078075381
 30
0.0
  0
POINT
  5
3E2
330
3D8
100
AcDbEntity
  8
DEFPOINTS
 62
     0
100
AcDbPoint
 10
284.1860794476849
 20
36.49045287730074
 30
0.0
  0
ENDBLK
  5
3E4
330
3D8
100
AcDbEntity
  8
0
100
AcDbBlockEnd
  0
BLOCK
  5
3F1
330
3E6
100
AcDbEntity
  8
0
100
AcDbBlockBegin
  2
*D34
 70
     1
 10
0.0
 20
0.0
 30
0.0
  3
*D34
  1

  0
LINE
  5
3E7
330
3E6
100
AcDbEntity
  8
0
 62
     0
370
    -2
100
AcDbLine
 10
286.1360794476849
 20
33.71052078075381
 30
0.0
 11
286.1360794476849
 21
32.79407530589732
 31
0.0
  0
LINE
  5
3E8
330
3E6
100
AcDbEntity
  8
0
 62
     0
370
    -2
100
AcDbLine
 10
284.1860794476849
 20
33.71052078075381
 30
0.0
 11
284.1860794476849
 21
32.79407530589732
 31
0.0
  0
LINE
  5
3E9
330
3E6
100
AcDbEntity
  8
0
 62
     0
370
    -2
100
AcDbLine
 10
285.9560794476849
 20
32.97407530589732
 30
0.0
 11
285.6410794476849
 21
32.97407530589732
 31
0.0
  0
LINE
  5
3EA
330
3E6
100
AcDbEntity
  8
0
 62
     0
370
    -2
100
AcDbLine
 10
284.366079447685
 20
32.97407530589732
 30
0.0
 11
284.6810794476849
 21
32.97407530589732
 31
0.0
  0
SOLID
  5
3EB
330
3E6
100
AcDbEntity
  8
0
 62
     0
100
AcDbTrace
 10
285.9560794476849
 20
33.00407530589732
 30
0.0
 11
285.9560794476849
 21
32.94407530589732
 31
0.0
 12
286.1360794476849
 22
32.97407530589732
 32
0.0
 13
286.1360794476849
 23
32.97407530589732
 33
0.0
  0
SOLID
  5
3EC
330
3E6
100
AcDbEntity
  8
0
 62
     0
100
AcDbTrace
 10
284.366079447685
 20
33.00407530589732
 30
0.0
 11
284.366079447685
 21
32.94407530589732
 31
0.0
 12
284.1860794476849
 22
32.97407530589732
 32
0.0
 13
284.1860794476849
 23
32.97407530589732
 33
0.0
  0
MTEXT
  5
3ED
330
3E6
100
AcDbEntity
  8
0
 62
     0
100
AcDbMText
 10
285.1610794476849
 20
32.97407530589732
 30
0.0
 40
0.18
 41
0.0
 71
     5
 72
     1
  1
\A1;1.9500
 73
     1
 44
1.0
  0
POINT
  5
3EE
330
3E6
100
AcDbEntity
  8
DEFPOINTS
 62
     0
100
AcDbPoint
 10
286.1360794476849
 20
33.77302078075381
 30
0.0
  0
POINT
  5
3EF
330
3E6
100
AcDbEntity
  8
DEFPOINTS
 62
     0
100
AcDbPoint
 10
284.1860794476849
 20
33.77302078075381
 30
0.0
  0
POINT
  5
3F0
330
3E6
100
AcDbEntity
  8
DEFPOINTS
 62
     0
100
AcDbPoint
 10
284.1860794476849
 20
32.97407530589732
 30
0.0
  0
ENDBLK
  5
3F2
330
3E6
100
AcDbEntity
  8
0
100
AcDbBlockEnd
  0
BLOCK
  5
3FF
330
3F4
100
AcDbEntity
  8
0
100
AcDbBlockBegin
  2
*D35
 70
     1
 10
0.0
 20
0.0
 30
0.0
  3
*D35
  1

  0
LINE
  5
3F5
330
3F4
100
AcDbEntity
  8
0
 62
     0
370
    -2
100
AcDbLine
 10
286.1360794476849
 20
33.4105207807538
 30
0.0
 11
286.1360794476849
 21
32.79407530589732
 31
0.0
  0
LINE
  5
3F6
330
3F4
100
AcDbEntity
  8
0
 62
     0
370
    -2
100
AcDbLine
 10
287.1360794476849
 20
33.4105207807538
 30
0.0
 11
287.1360794476849
 21
32.79407530589732
 31
0.0
  0
LINE
  5
3F7
330
3F4
100
AcDbEntity
  8
0
 62
     0
370
    -2
100
AcDbLine
 10
285.9560794476849
 20
32.97407530589732
 30
0.0
 11
285.7760794476849
 21
32.97407530589732
 31
0.0
  0
LINE
  5
3F8
330
3F4
100
AcDbEntity
  8
0
 62
     0
370
    -2
100
AcDbLine
 10
287.3160794476849
 20
32.97407530589732
 30
0.0
 11
287.4960794476849
 21
32.97407530589732
 31
0.0
  0
SOLID
  5
3F9
330
3F4
100
AcDbEntity
  8
0
 62
     0
100
AcDbTrace
 10
285.9560794476849
 20
33.00407530589732
 30
0.0
 11
285.9560794476849
 21
32.94407530589732
 31
0.0
 12
286.1360794476849
 22
32.97407530589732
 32
0.0
 13
286.1360794476849
 23
32.97407530589732
 33
0.0
  0
SOLID
  5
3FA
330
3F4
100
AcDbEntity
  8
0
 62
     0
100
AcDbTrace
 10
287.3160794476849
 20
33.00407530589732
 30
0.0
 11
287.3160794476849
 21
32.94407530589732
 31
0.0
 12
287.1360794476849
 22
32.97407530589732
 32
0.0
 13
287.1360794476849
 23
32.97407530589732
 33
0.0
  0
MTEXT
  5
3FB
330
3F4
100
AcDbEntity
  8
0
 62
     0
100
AcDbMText
 10
286.6360794476849
 20
32.97407530589732
 30
0.0
 40
0.18
 41
0.0
 71
     5
 72
     1
  1
\A1;1.0000
 73
     1
 44
1.0
  0
POINT
  5
3FC
330
3F4
100
AcDbEntity
  8
DEFPOINTS
 62
     0
100
AcDbPoint
 10
286.1360794476849
 20
33.4730207807538
 30
0.0
  0
POINT
  5
3FD
330
3F4
100
AcDbEntity
  8
DEFPOINTS
 62
     0
100
AcDbPoint
 10
287.1360794476849
 20
33.4730207807538
 30
0.0
  0
POINT
  5
3FE
330
3F4
100
AcDbEntity
  8
DEFPOINTS
 62
     0
100
AcDbPoint
 10
287.1360794476849
 20
32.97407530589732
 30
0.0
  0
ENDBLK
  5
400
330
3F4
100
AcDbEntity
  8
0
100
AcDbBlockEnd
  0
ENDSEC
  0
SECTION
  2
ENTITIES
  0
TEXT
  5
2C
330
1E
100
AcDbEntity
  8
0
  6
Continuous
100
AcDbText
 10
287.2805487186718
 20
41.39364127471099
 30
0.0
 40
0.1
  1
2
  7
ROMANC
100
AcDbText
  0
TEXT
  5
2D
330
1E
100
AcDbEntity
  8
0
  6
Continuous
100
AcDbText
 10
283.9259999999999
 20
41.768
 30
0.0
 40
0.3
  1
ESCALA  1:50
  7
ROMANC
100
AcDbText
  0
LWPOLYLINE
  5
2E
330
1E
100
AcDbEntity
  8
0
  6
Continuous
100
AcDbPolyline
 90
        4
 70
     1
 43
0.0
 10
281.3959999999998
 20
44.747
 10
291.8959999999998
 20
44.747
 10
291.8959999999998
 20
29.897
 10
281.3959999999998
 20
29.897
  0
TEXT
  5
34
330
1E
100
AcDbEntity
  8
0
  6
Continuous
100
AcDbText
 10
283.9259999999999
 20
42.381
 30
0.0
 40
0.3
  1
TIPUS   NT848A
  7
ROMANC
100
AcDbText
  0
TEXT
  5
3C
330
1E
100
AcDbEntity
  8
0
  6
Continuous
100
AcDbText
 10
283.9449999999999
 20
41.09899999999997
 30
0.0
 40
0.3
  1
S = 848 dm
  7
ROMANC
100
AcDbText
  0
TEXT
  5
3D
330
1E
100
AcDbEntity
  8
0
  6
Continuous
100
AcDbText
 10
283.922
 20
40.529
 30
0.0
 40
0.3
  1
P = 134 dm
  7
ROMANC
100
AcDbText
  0
LWPOLYLINE
  5
39C
330
1E
100
AcDbEntity
  8
0
100
AcDbPolyline
 90
       10
 70
     1
 43
0.0
 10
286.1360794476849
 20
33.4730207807538
 10
287.1360794476849
 20
33.4730207807538
 10
287.1360794476849
 20
33.77302078075381
 10
289.0860794476849
 20
33.77302078075381
 10
289.0860794476849
 20
35.17302078075381
 10
288.5860794476849
 20
35.47302078075381
 10
284.6860794476849
 20
35.47302078075381
 10
284.1860794476849
 20
35.17302078075381
 10
284.1860794476849
 20
33.77302078075381
 10
286.1360794476849
 20
33.77302078075381
  0
DIMENSION
  5
39D
330
1E
100
AcDbEntity
  8
0
100
AcDbDimension
  2
*D29
 10
291.0310759238969
 20
33.4730207807538
 30
0.0
 11
291.0310759238969
 21
34.47302078075384
 31
0.0
 70
    32
 71
     5
 42
2.0
  3
STANDARD
100
AcDbAlignedDimension
 13
288.5860794476849
 23
35.47302078075381
 33
0.0
 14
287.1360794476849
 24
33.4730207807538
 34
0.0
 50
90.0
100
AcDbRotatedDimension
  0
DIMENSION
  5
3AB
330
1E
100
AcDbEntity
  8
0
100
AcDbDimension
  2
*D30
 10
288.5860794476849
 20
35.82519225568388
 30
0.0
 11
287.7460794476849
 21
35.82519225568388
 31
0.0
 70
    32
 71
     5
 42
0.5
  3
STANDARD
100
AcDbAlignedDimension
 13
289.0860794476849
 23
35.17302078075381
 33
0.0
 14
288.5860794476849
 24
35.47302078075381
 34
0.0
100
AcDbRotatedDimension
  0
DIMENSION
  5
3B9
330
1E
100
AcDbEntity
  8
0
100
AcDbDimension
  2
*D31
 10
289.9140105514648
 20
35.47302078075381
 30
0.0
 11
290.5740105514649
 21
35.83302078075385
 31
0.0
 70
    32
 71
     5
 42
0.2999999999999971
  3
STANDARD
100
AcDbAlignedDimension
 13
289.0860794476849
 23
35.17302078075381
 33
0.0
 14
288.5860794476849
 24
35.47302078075381
 34
0.0
 50
90.0
100
AcDbRotatedDimension
  0
DIMENSION
  5
3C8
330
1E
100
AcDbEntity
  8
0
100
AcDbDimension
  2
*D32
 10
289.9140105514648
 20
33.4730207807538
 30
0.0
 11
289.2540105514648
 21
33.11302078075385
 31
0.0
 70
    32
 71
     5
 42
0.3000000000000043
  3
STANDARD
100
AcDbAlignedDimension
 13
289.0860794476849
 23
33.77302078075381
 33
0.0
 14
287.1360794476849
 24
33.4730207807538
 34
0.0
 50
90.0
100
AcDbRotatedDimension
  0
DIMENSION
  5
3D7
330
1E
100
AcDbEntity
  8
0
100
AcDbDimension
  2
*D33
 10
284.1860794476849
 20
36.49045287730074
 30
0.0
 11
286.6360794476849
 21
36.49045287730074
 31
0.0
 70
    32
 71
     5
 42
4.899999999999977
  3
STANDARD
100
AcDbAlignedDimension
 13
289.0860794476849
 23
35.17302078075381
 33
0.0
 14
284.1860794476849
 24
35.17302078075381
 34
0.0
100
AcDbRotatedDimension
  0
DIMENSION
  5
3E5
330
1E
100
AcDbEntity
  8
0
100
AcDbDimension
  2
*D34
 10
284.1860794476849
 20
32.97407530589732
 30
0.0
 11
285.1610794476849
 21
32.97407530589732
 31
0.0
 70
    32
 71
     5
 42
1.949999999999988
  3
STANDARD
100
AcDbAlignedDimension
 13
286.1360794476849
 23
33.77302078075381
 33
0.0
 14
284.1860794476849
 24
33.77302078075381
 34
0.0
100
AcDbRotatedDimension
  0
DIMENSION
  5
3F3
330
1E
100
AcDbEntity
  8
0
100
AcDbDimension
  2
*D35
 10
287.1360794476849
 20
32.97407530589732
 30
0.0
 11
286.6360794476849
 21
32.97407530589732
 31
0.0
 70
    32
 71
     5
  3
STANDARD
100
AcDbAlignedDimension
 13
286.1360794476849
 23
33.4730207807538
 33
0.0
 14
287.1360794476849
 24
33.4730207807538
 34
0.0
100
AcDbRotatedDimension
  0
LWPOLYLINE
  5
402
330
1E
100
AcDbEntity
  8
0
100
AcDbPolyline
 90
       10
 70
     1
 43
0.0
 10
286.1260794476849
 20
33.4630207807538
 10
287.1460794476849
 20
33.4630207807538
 10
287.1460794476849
 20
33.76302078075381
 10
289.0960794476849
 20
33.76302078075381
 10
289.0960794476849
 20
35.17868268454348
 10
288.5888492873343
 20
35.48302078075382
 10
284.6833096080355
 20
35.4830207807538
 10
284.1760794476849
 20
35.17868268454348
 10
284.1760794476849
 20
33.76302078075381
 10
286.1260794476849
 20
33.76302078075381
  0
LWPOLYLINE
  5
403
330
1E
100
AcDbEntity
  8
0
100
AcDbPolyline
 90
       10
 70
     1
 43
0.0
 10
286.1460794476849
 20
33.4830207807538
 10
287.1260794476849
 20
33.4830207807538
 10
287.1260794476849
 20
33.7830207807538
 10
289.0760794476849
 20
33.7830207807538
 10
289.0760794476849
 20
35.16735887696412
 10
288.5833096080355
 20
35.46302078075379
 10
284.6888492873343
 20
35.46302078075381
 10
284.1960794476849
 20
35.16735887696412
 10
284.1960794476849
 20
33.7830207807538
 10
286.1460794476849
 20
33.7830207807538
  0
VIEWPORT
  5
1D9
330
1A
100
AcDbEntity
 67
     1
  8
0
100
AcDbViewport
 10
99.980751991272
 20
143.3935842514038
 30
0.0
 40
440.9297543499659
 41
314.2372683715819
 68
     1
 69
     1
 12
99.980751991272
 22
143.3935842514038
 13
0.0
 23
0.0
 14
10.0
 24
10.0
 15
10.0
 25
10.0
 16
0.0
 26
0.0
 36
1.0
 17
0.0
 27
0.0
 37
0.0
 42
50.0
 43
0.0
 44
0.0
 45
314.2372683715819
 50
0.0
 51
0.0
 72
   100
 90
    32800
  1

281
     0
 71
     1
 74
     0
110
0.0
120
0.0
130
0.0
111
1.0
121
0.0
131
0.0
112
0.0
122
1.0
132
0.0
 79
     0
146
0.0
  0
VIEWPORT
  5
1DB
330
1A
100
AcDbEntity
 67
     1
  8
0
100
AcDbViewport
 10
99.980751991272
 20
143.3935842514036
 30
0.0
 40
199.2902839821538
 41
285.8513345476648
 68
     2
 69
     2
 12
286.6488322780007
 22
37.31916769001135
 13
0.0
 23
0.0
 14
1.0
 24
1.0
 15
0.0
 25
0.0
 16
0.0
 26
0.0
 36
1.0
 17
0.0
 27
0.0
 37
0.0
 42
50.0
 43
0.0
 44
0.0
 45
15.39450171875231
 50
0.0
 51
0.0
 72
   100
 90
    32800
  1

281
     0
 71
     1
 74
     0
110
0.0
120
0.0
130
0.0
111
1.0
121
0.0
131
0.0
112
0.0
122
1.0
132
0.0
 79
     0
146
0.0
  0
ENDSEC
  0
SECTION
  2
OBJECTS
  0
DICTIONARY
  5
C
330
0
100
AcDbDictionary
281
     1
  3
ACAD_GROUP
350
D
  3
ACAD_LAYOUT
350
19
  3
ACAD_MLINESTYLE
350
16
  3
ACAD_PLOTSETTINGS
350
18
  3
ACAD_PLOTSTYLENAME
350
E
  0
DICTIONARY
  5
1AC
330
1E
100
AcDbDictionary
280
     1
281
     1
  3
ACAD_LAYOUTSELFREF
360
1FE
  0
DICTIONARY
  5
1AA
330
1A
100
AcDbDictionary
280
     1
281
     1
  3
ACAD_LAYOUTSELFREF
360
1FD
  0
DICTIONARY
  5
D
102
{ACAD_REACTORS
330
C
102
}
330
C
100
AcDbDictionary
281
     1
  0
DICTIONARY
  5
19
102
{ACAD_REACTORS
330
C
102
}
330
C
100
AcDbDictionary
281
     1
  3
Model
350
205
  3
Presentación1
350
206
  0
DICTIONARY
  5
16
102
{ACAD_REACTORS
330
C
102
}
330
C
100
AcDbDictionary
281
     1
  3
STANDARD
350
17
  0
DICTIONARY
  5
18
102
{ACAD_REACTORS
330
C
102
}
330
C
100
AcDbDictionary
281
     1
  0
ACDBDICTIONARYWDFLT
  5
E
102
{ACAD_REACTORS
330
C
102
}
330
C
100
AcDbDictionary
281
     1
  3
Normal
350
F
100
AcDbDictionaryWithDefault
340
F
  0
XRECORD
  5
1FE
102
{ACAD_REACTORS
330
1AC
102
}
330
1AC
100
AcDbXrecord
280
     1
340
1E
  0
XRECORD
  5
1FD
102
{ACAD_REACTORS
330
1AA
102
}
330
1AA
100
AcDbXrecord
280
     1
340
1A
  0
LAYOUT
  5
205
102
{ACAD_REACTORS
330
19
102
}
330
19
100
AcDbPlotSettings
  1

  2
HP DesignJet 750C/PS FILE
  4

  6

 40
0.0
 41
0.0
 42
0.0
 43
0.0
 44
0.0
 45
0.0
 46
0.0
 47
0.0
 48
0.0
 49
0.0
140
0.0
141
0.0
142
1.0
143
1.0
 70
 11952
 72
     0
 73
     1
 74
     0
  7

 75
     0
147
1.0
148
-7090.408435112419
149
-757.57956202515
100
AcDbLayout
  1
Model
 70
     1
 71
     0
 10
0.0
 20
0.0
 11
12.0
 21
9.0
 12
0.0
 22
0.0
 32
0.0
 14
0.0
 24
0.0
 34
0.0
 15
0.0
 25
0.0
 35
0.0
146
0.0
 13
0.0
 23
0.0
 33
0.0
 16
1.0
 26
0.0
 36
0.0
 17
0.0
 27
1.0
 37
0.0
 76
     0
330
1E
  0
LAYOUT
  5
206
102
{ACAD_REACTORS
330
19
102
}
330
19
100
AcDbPlotSettings
  1

  2
HP DesignJet 750C/PS FILE
  4

  6

 40
0.0
 41
0.0
 42
0.0
 43
0.0
 44
0.0
 45
0.0
 46
0.0
 47
0.0
 48
0.0
 49
0.0
140
0.0
141
0.0
142
1.0
143
1.0
 70
   688
 72
     0
 73
     0
 74
     5
  7

 75
    16
147
1.0
148
0.0
149
0.0
100
AcDbLayout
  1
Presentación1
 70
     1
 71
     1
 10
-5.027083396911621
 20
-5.111741065979003
 11
204.9885873794554
 21
291.8989095687866
 12
0.0
 22
0.0
 32
0.0
 14
0.3356100001950608
 24
0.467916977571349
 34
0.0
 15
199.6258939823488
 25
286.3192515252361
 35
0.0
146
0.0
 13
0.0
 23
0.0
 33
0.0
 16
1.0
 26
0.0
 36
0.0
 17
0.0
 27
1.0
 37
0.0
 76
     0
330
1A
331
1D9
  0
MLINESTYLE
  5
17
102
{ACAD_REACTORS
330
16
102
}
330
16
100
AcDbMlineStyle
  2
STANDARD
 70
     0
  3

 62
   256
 51
90.0
 52
90.0
 71
     2
 49
0.5
 62
   256
  6
BYLAYER
 49
-0.5
 62
   256
  6
BYLAYER
  0
ACDBPLACEHOLDER
  5
F
102
{ACAD_REACTORS
330
E
102
}
330
E
  0
ENDSEC
  0
EOF
