  0
SECTION
  2
HEADER
  9
$ACADVER
  1
AC1015
  9
$ACADMAINTVER
 70
     6
  9
$DWGCODEPAGE
  3
ANSI_1252
  9
$INSBASE
 10
105.4640269999999
 20
-4.528761
 30
0.0
  9
$EXTMIN
 10
281.3870252079646
 20
29.87977670398516
 30
-0.0000000349181948
  9
$EXTMAX
 10
291.8972786491472
 20
44.76930275439428
 30
0.0000000814935746
  9
$LIMMIN
 10
0.0
 20
0.0
  9
$LIMMAX
 10
410.0
 20
287.0
  9
$ORTHOMODE
 70
     0
  9
$REGENMODE
 70
     1
  9
$FILLMODE
 70
     1
  9
$QTEXTMODE
 70
     0
  9
$MIRRTEXT
 70
     1
  9
$LTSCALE
 40
25.0
  9
$ATTMODE
 70
     1
  9
$TEXTSIZE
 40
0.1
  9
$TRACEWID
 40
1.0
  9
$TEXTSTYLE
  7
ROMANC
  9
$CLAYER
  8
0
  9
$CELTYPE
  6
ByLayer
  9
$CECOLOR
 62
   256
  9
$CELTSCALE
 40
1.0
  9
$DISPSILH
 70
     0
  9
$DIMSCALE
 40
1.5
  9
$DIMASZ
 40
0.1
  9
$DIMEXO
 40
0.01
  9
$DIMDLI
 40
7.0
  9
$DIMRND
 40
0.0
  9
$DIMDLE
 40
0.0
  9
$DIMEXE
 40
0.01
  9
$DIMTP
 40
0.0
  9
$DIMTM
 40
0.0
  9
$DIMTXT
 40
0.05
  9
$DIMCEN
 40
0.1
  9
$DIMTSZ
 40
0.0
  9
$DIMTOL
 70
     0
  9
$DIMLIM
 70
     0
  9
$DIMTIH
 70
     0
  9
$DIMTOH
 70
     0
  9
$DIMSE1
 70
     0
  9
$DIMSE2
 70
     0
  9
$DIMTAD
 70
     1
  9
$DIMZIN
 70
     0
  9
$DIMBLK
  1

  9
$DIMASO
 70
     1
  9
$DIMSHO
 70
     0
  9
$DIMPOST
  1

  9
$DIMAPOST
  1

  9
$DIMALT
 70
     0
  9
$DIMALTD
 70
     2
  9
$DIMALTF
 40
25.4
  9
$DIMLFAC
 40
1.0
  9
$DIMTOFL
 70
     1
  9
$DIMTVP
 40
0.0
  9
$DIMTIX
 70
     1
  9
$DIMSOXD
 70
     0
  9
$DIMSAH
 70
     0
  9
$DIMBLK1
  1

  9
$DIMBLK2
  1

  9
$DIMSTYLE
  2
SILVIA
  9
$DIMCLRD
 70
     0
  9
$DIMCLRE
 70
     0
  9
$DIMCLRT
 70
     0
  9
$DIMTFAC
 40
70.0
  9
$DIMGAP
 40
0.09
  9
$DIMJUST
 70
     0
  9
$DIMSD1
 70
     0
  9
$DIMSD2
 70
     0
  9
$DIMTOLJ
 70
     1
  9
$DIMTZIN
 70
     0
  9
$DIMALTZ
 70
     0
  9
$DIMALTTZ
 70
     0
  9
$DIMUPT
 70
     0
  9
$DIMDEC
 70
     4
  9
$DIMTDEC
 70
     4
  9
$DIMALTU
 70
     2
  9
$DIMALTTD
 70
     2
  9
$DIMTXSTY
  7
STANDARD
  9
$DIMAUNIT
 70
     0
  9
$DIMADEC
 70
     0
  9
$DIMALTRND
 40
0.0
  9
$DIMAZIN
 70
     0
  9
$DIMDSEP
 70
    46
  9
$DIMATFIT
 70
     3
  9
$DIMFRAC
 70
     0
  9
$DIMLDRBLK
  1

  9
$DIMLUNIT
 70
     2
  9
$DIMLWD
 70
    -2
  9
$DIMLWE
 70
    -2
  9
$DIMTMOVE
 70
     0
  9
$LUNITS
 70
     2
  9
$LUPREC
 70
     2
  9
$SKETCHINC
 40
1.0
  9
$FILLETRAD
 40
0.0
  9
$AUNITS
 70
     0
  9
$AUPREC
 70
     0
  9
$MENU
  1
acad
  9
$ELEVATION
 40
0.0
  9
$PELEVATION
 40
0.0
  9
$THICKNESS
 40
0.0
  9
$LIMCHECK
 70
     0
  9
$CHAMFERA
 40
0.0
  9
$CHAMFERB
 40
0.0
  9
$CHAMFERC
 40
0.0
  9
$CHAMFERD
 40
0.0
  9
$SKPOLY
 70
     0
  9
$TDCREATE
 40
2450305.554557986
  9
$TDUCREATE
 40
2450305.471224652
  9
$TDUPDATE
 40
2451698.457266493
  9
$TDUUPDATE
 40
2451698.373933159
  9
$TDINDWG
 40
0.0213206019
  9
$TDUSRTIMER
 40
0.0213189815
  9
$USRTIMER
 70
     1
  9
$ANGBASE
 50
0.0
  9
$ANGDIR
 70
     0
  9
$PDMODE
 70
     0
  9
$PDSIZE
 40
0.0
  9
$PLINEWID
 40
0.0
  9
$SPLFRAME
 70
     0
  9
$SPLINETYPE
 70
     6
  9
$SPLINESEGS
 70
     8
  9
$HANDSEED
  5
150
  9
$SURFTAB1
 70
     6
  9
$SURFTAB2
 70
     6
  9
$SURFTYPE
 70
     6
  9
$SURFU
 70
     6
  9
$SURFV
 70
     6
  9
$UCSBASE
  2

  9
$UCSNAME
  2

  9
$UCSORG
 10
0.0
 20
0.0
 30
0.0
  9
$UCSXDIR
 10
1.0
 20
0.0
 30
0.0
  9
$UCSYDIR
 10
0.0
 20
1.0
 30
0.0
  9
$UCSORTHOREF
  2

  9
$UCSORTHOVIEW
 70
     0
  9
$UCSORGTOP
 10
0.0
 20
0.0
 30
0.0
  9
$UCSORGBOTTOM
 10
0.0
 20
0.0
 30
0.0
  9
$UCSORGLEFT
 10
0.0
 20
0.0
 30
0.0
  9
$UCSORGRIGHT
 10
0.0
 20
0.0
 30
0.0
  9
$UCSORGFRONT
 10
0.0
 20
0.0
 30
0.0
  9
$UCSORGBACK
 10
0.0
 20
0.0
 30
0.0
  9
$PUCSBASE
  2

  9
$PUCSNAME
  2

  9
$PUCSORG
 10
0.0
 20
0.0
 30
0.0
  9
$PUCSXDIR
 10
1.0
 20
0.0
 30
0.0
  9
$PUCSYDIR
 10
0.0
 20
1.0
 30
0.0
  9
$PUCSORTHOREF
  2

  9
$PUCSORTHOVIEW
 70
     0
  9
$PUCSORGTOP
 10
0.0
 20
0.0
 30
0.0
  9
$PUCSORGBOTTOM
 10
0.0
 20
0.0
 30
0.0
  9
$PUCSORGLEFT
 10
0.0
 20
0.0
 30
0.0
  9
$PUCSORGRIGHT
 10
0.0
 20
0.0
 30
0.0
  9
$PUCSORGFRONT
 10
0.0
 20
0.0
 30
0.0
  9
$PUCSORGBACK
 10
0.0
 20
0.0
 30
0.0
  9
$USERI1
 70
     0
  9
$USERI2
 70
     0
  9
$USERI3
 70
     0
  9
$USERI4
 70
     0
  9
$USERI5
 70
     0
  9
$USERR1
 40
0.0
  9
$USERR2
 40
0.0
  9
$USERR3
 40
0.0
  9
$USERR4
 40
0.0
  9
$USERR5
 40
0.0
  9
$WORLDVIEW
 70
     1
  9
$SHADEDGE
 70
     3
  9
$SHADEDIF
 70
    70
  9
$TILEMODE
 70
     1
  9
$MAXACTVP
 70
    16
  9
$PINSBASE
 10
0.0
 20
0.0
 30
0.0
  9
$PLIMCHECK
 70
     0
  9
$PEXTMIN
 10
1.000000000000000E+20
 20
1.000000000000000E+20
 30
1.000000000000000E+20
  9
$PEXTMAX
 10
-1.000000000000000E+20
 20
-1.000000000000000E+20
 30
-1.000000000000000E+20
  9
$PLIMMIN
 10
0.0
 20
0.0
  9
$PLIMMAX
 10
12.0
 20
9.0
  9
$UNITMODE
 70
     0
  9
$VISRETAIN
 70
     0
  9
$PLINEGEN
 70
     0
  9
$PSLTSCALE
 70
     0
  9
$TREEDEPTH
 70
  3020
  9
$CMLSTYLE
  2
Standard
  9
$CMLJUST
 70
     0
  9
$CMLSCALE
 40
1.0
  9
$PROXYGRAPHICS
 70
     1
  9
$MEASUREMENT
 70
     0
  9
$CELWEIGHT
370
    -1
  9
$ENDCAPS
280
     0
  9
$JOINSTYLE
280
     0
  9
$LWDISPLAY
290
     0
  9
$INSUNITS
 70
     0
  9
$HYPERLINKBASE
  1

  9
$STYLESHEET
  1

  9
$XEDIT
290
     1
  9
$CEPSNTYPE
380
     0
  9
$PSTYLEMODE
290
     1
  9
$FINGERPRINTGUID
  2
{3A9A1BF3-37C0-11D4-A5B7-0008C769B1B5}
  9
$VERSIONGUID
  2
{B57F78CA-3859-11D4-A5B9-0008C769B1B5}
  9
$EXTNAMES
290
     1
  9
$PSVPSCALE
 40
0.0
  9
$OLESTARTUP
290
     0
  0
ENDSEC
  0
SECTION
  2
CLASSES
  0
CLASS
  1
ACDBDICTIONARYWDFLT
  2
AcDbDictionaryWithDefault
  3
AutoCAD 2000
 90
        0
280
     0
281
     0
  0
CLASS
  1
ACDBPLACEHOLDER
  2
AcDbPlaceHolder
  3
AutoCAD 2000
 90
        0
280
     0
281
     0
  0
CLASS
  1
LAYOUT
  2
AcDbLayout
  3
AutoCAD 2000
 90
        0
280
     0
281
     0
  0
ENDSEC
  0
SECTION
  2
TABLES
  0
TABLE
  2
VPORT
  5
8
330
0
100
AcDbSymbolTable
 70
     5
  0
VPORT
  5
14F
330
8
100
AcDbSymbolTableRecord
100
AcDbViewportTableRecord
  2
*Active
 70
     0
 10
0.0
 20
0.0
 11
1.0
 21
1.0
 12
286.6421519285559
 22
37.32453972918972
 13
0.0
 23
0.0
 14
1.0
 24
1.0
 15
10.0
 25
10.0
 16
0.0
 26
0.0
 36
1.0
 17
0.0
 27
0.0
 37
0.0
 40
15.02781886202284
 41
1.21860465116279
 42
50.0
 43
0.0
 44
0.0
 50
0.0
 51
0.0
 71
     0
 72
   100
 73
     1
 74
     0
 75
     0
 76
     0
 77
     0
 78
     1
281
     0
 65
     0
110
0.0
120
0.0
130
0.0
111
1.0
121
0.0
131
0.0
112
0.0
122
1.0
132
0.0
 79
     0
146
0.0
  0
ENDTAB
  0
TABLE
  2
LTYPE
  5
5
330
0
100
AcDbSymbolTable
 70
     1
  0
LTYPE
  5
13
330
5
100
AcDbSymbolTableRecord
100
AcDbLinetypeTableRecord
  2
ByBlock
 70
     0
  3

 72
    65
 73
     0
 40
0.0
  0
LTYPE
  5
14
330
5
100
AcDbSymbolTableRecord
100
AcDbLinetypeTableRecord
  2
ByLayer
 70
     0
  3

 72
    65
 73
     0
 40
0.0
  0
LTYPE
  5
15
330
5
100
AcDbSymbolTableRecord
100
AcDbLinetypeTableRecord
  2
CONTINUOUS
 70
     0
  3
Solid line
 72
    65
 73
     0
 40
0.0
  0
ENDTAB
  0
TABLE
  2
LAYER
  5
2
330
0
100
AcDbSymbolTable
 70
     3
  0
LAYER
  5
10
330
2
100
AcDbSymbolTableRecord
100
AcDbLayerTableRecord
  2
0
 70
     0
 62
     7
  6
CONTINUOUS
370
    -3
390
F
  0
LAYER
  5
24
330
2
100
AcDbSymbolTableRecord
100
AcDbLayerTableRecord
  2
MESURA
 70
     0
 62
     7
  6
CONTINUOUS
370
    -3
390
F
  0
LAYER
  5
25
330
2
100
AcDbSymbolTableRecord
100
AcDbLayerTableRecord
  2
DEFPOINTS
 70
     0
 62
     7
  6
CONTINUOUS
290
     0
370
    -3
390
F
  0
ENDTAB
  0
TABLE
  2
STYLE
  5
3
330
0
100
AcDbSymbolTable
 70
     2
  0
STYLE
  5
11
330
3
100
AcDbSymbolTableRecord
100
AcDbTextStyleTableRecord
  2
STANDARD
 70
     0
 40
0.0
 41
1.0
 50
0.0
 71
     0
 42
0.1
  3
txt
  4

  0
STYLE
  5
22
330
3
100
AcDbSymbolTableRecord
100
AcDbTextStyleTableRecord
  2
ROMANC
 70
     0
 40
0.0
 41
1.0
 50
0.0
 71
     0
 42
0.1
  3
romanc
  4

  0
ENDTAB
  0
TABLE
  2
VIEW
  5
6
330
0
100
AcDbSymbolTable
 70
     0
  0
ENDTAB
  0
TABLE
  2
UCS
  5
7
330
0
100
AcDbSymbolTable
 70
     0
  0
ENDTAB
  0
TABLE
  2
APPID
  5
9
330
0
100
AcDbSymbolTable
 70
     1
  0
APPID
  5
12
330
9
100
AcDbSymbolTableRecord
100
AcDbRegAppTableRecord
  2
ACAD
 70
     0
  0
ENDTAB
  0
TABLE
  2
DIMSTYLE
  5
A
330
0
100
AcDbSymbolTable
 70
     1
100
AcDbDimStyleTable
 71
     1
340
26
  0
DIMSTYLE
105
26
102
{ACAD_REACTORS
330
CB
330
D8
330
EE
330
FB
330
10A
330
122
102
}
330
A
100
AcDbSymbolTableRecord
100
AcDbDimStyleTableRecord
  2
SILVIA
 70
     0
 40
1.5
 41
0.1
 42
0.01
 43
7.0
 44
0.01
 73
     0
 74
     0
 77
     1
140
0.05
141
0.1
146
70.0
172
     1
174
     1
271
     2
272
     2
279
     2
340
22
  0
ENDTAB
  0
TABLE
  2
BLOCK_RECORD
  5
1
330
0
100
AcDbSymbolTable
 70
     6
  0
BLOCK_RECORD
  5
1E
330
1
100
AcDbSymbolTableRecord
100
AcDbBlockTableRecord
  2
*Model_Space
340
21
  0
BLOCK_RECORD
  5
1A
330
1
100
AcDbSymbolTableRecord
100
AcDbBlockTableRecord
  2
*Paper_Space
340
1D
  0
BLOCK_RECORD
  5
CC
330
1
100
AcDbSymbolTableRecord
100
AcDbBlockTableRecord
  2
*D0
340
0
  0
BLOCK_RECORD
  5
D9
330
1
100
AcDbSymbolTableRecord
100
AcDbBlockTableRecord
  2
*D1
340
0
  0
BLOCK_RECORD
  5
EF
330
1
100
AcDbSymbolTableRecord
100
AcDbBlockTableRecord
  2
*D2
340
0
  0
BLOCK_RECORD
  5
FC
330
1
100
AcDbSymbolTableRecord
100
AcDbBlockTableRecord
  2
*D3
340
0
  0
BLOCK_RECORD
  5
10B
330
1
100
AcDbSymbolTableRecord
100
AcDbBlockTableRecord
  2
*D4
340
0
  0
BLOCK_RECORD
  5
123
330
1
100
AcDbSymbolTableRecord
100
AcDbBlockTableRecord
  2
*D5
340
0
  0
ENDTAB
  0
ENDSEC
  0
SECTION
  2
BLOCKS
  0
BLOCK
  5
1F
330
1E
100
AcDbEntity
  8
0
100
AcDbBlockBegin
  2
*Model_Space
 70
     0
 10
0.0
 20
0.0
 30
0.0
  3
*Model_Space
  1

  0
ENDBLK
  5
20
330
1E
100
AcDbEntity
  8
0
100
AcDbBlockEnd
  0
BLOCK
  5
1B
330
1A
100
AcDbEntity
 67
     1
  8
0
100
AcDbBlockBegin
  2
*Paper_Space
 70
     0
 10
0.0
 20
0.0
 30
0.0
  3
*Paper_Space
  1

  0
ENDBLK
  5
1C
330
1A
100
AcDbEntity
 67
     1
  8
0
100
AcDbBlockEnd
  0
BLOCK
  5
D6
330
CC
100
AcDbEntity
  8
0
100
AcDbBlockBegin
  2
*D0
 70
     1
 10
0.0
 20
0.0
 30
0.0
  3
*D0
  1

  0
LINE
  5
E5
330
CC
100
AcDbEntity
  8
0
 62
     0
370
    -2
100
AcDbLine
 10
287.9642902835423
 20
35.05126699217402
 30
0.0
 11
287.9642902835423
 21
34.33928059003907
 31
0.0
  0
LINE
  5
E6
330
CC
100
AcDbEntity
  8
0
 62
     0
370
    -2
100
AcDbLine
 10
284.0142902835423
 20
35.05126699217402
 30
0.0
 11
284.0142902835423
 21
34.33928059003907
 31
0.0
  0
LINE
  5
E7
330
CC
100
AcDbEntity
  8
0
 62
     0
370
    -2
100
AcDbLine
 10
287.8142902835423
 20
34.35428059003907
 30
0.0
 11
284.1642902835423
 21
34.35428059003907
 31
0.0
  0
SOLID
  5
E8
330
CC
100
AcDbEntity
  8
0
 62
     0
100
AcDbTrace
 10
287.8142902835423
 20
34.37928059003907
 30
0.0
 11
287.8142902835423
 21
34.32928059003907
 31
0.0
 12
287.9642902835423
 22
34.35428059003907
 32
0.0
 13
287.9642902835423
 23
34.35428059003907
 33
0.0
  0
SOLID
  5
E9
330
CC
100
AcDbEntity
  8
0
 62
     0
100
AcDbTrace
 10
284.1642902835423
 20
34.37928059003907
 30
0.0
 11
284.1642902835423
 21
34.32928059003907
 31
0.0
 12
284.0142902835423
 22
34.35428059003907
 32
0.0
 13
284.0142902835423
 23
34.35428059003907
 33
0.0
  0
MTEXT
  5
EA
330
CC
100
AcDbEntity
  8
0
 62
     0
100
AcDbMText
 10
285.9929689786596
 20
34.52678059003907
 30
0.0
 40
0.075
 41
0.0
 71
     5
 72
     1
  1
\A1;3.9500
 73
     1
 44
1.0
  0
POINT
  5
EB
330
CC
100
AcDbEntity
  8
DEFPOINTS
 62
     0
100
AcDbPoint
 10
287.9642902835423
 20
35.06626699217402
 30
0.0
  0
POINT
  5
EC
330
CC
100
AcDbEntity
  8
DEFPOINTS
 62
     0
100
AcDbPoint
 10
284.0142902835423
 20
35.06626699217402
 30
0.0
  0
POINT
  5
ED
330
CC
100
AcDbEntity
  8
DEFPOINTS
 62
     0
100
AcDbPoint
 10
284.0142902835423
 20
34.35428059003907
 30
0.0
  0
ENDBLK
  5
D7
330
CC
100
AcDbEntity
  8
0
100
AcDbBlockEnd
  0
BLOCK
  5
E3
330
D9
100
AcDbEntity
  8
0
100
AcDbBlockBegin
  2
*D1
 70
     1
 10
0.0
 20
0.0
 30
0.0
  3
*D1
  1

  0
LINE
  5
DA
330
D9
100
AcDbEntity
  8
0
 62
     0
370
    -2
100
AcDbLine
 10
286.9642902835423
 20
34.85126699217401
 30
0.0
 11
286.9642902835423
 21
34.61854587802607
 31
0.0
  0
LINE
  5
DB
330
D9
100
AcDbEntity
  8
0
 62
     0
370
    -2
100
AcDbLine
 10
287.9642902835423
 20
35.05126699217402
 30
0.0
 11
287.9642902835423
 21
34.61854587802607
 31
0.0
  0
LINE
  5
DC
330
D9
100
AcDbEntity
  8
0
 62
     0
370
    -2
100
AcDbLine
 10
287.1142902835422
 20
34.63354587802607
 30
0.0
 11
287.8142902835423
 21
34.63354587802607
 31
0.0
  0
SOLID
  5
DD
330
D9
100
AcDbEntity
  8
0
 62
     0
100
AcDbTrace
 10
287.1142902835422
 20
34.65854587802607
 30
0.0
 11
287.1142902835422
 21
34.60854587802607
 31
0.0
 12
286.9642902835423
 22
34.63354587802607
 32
0.0
 13
286.9642902835423
 23
34.63354587802607
 33
0.0
  0
SOLID
  5
DE
330
D9
100
AcDbEntity
  8
0
 62
     0
100
AcDbTrace
 10
287.8142902835423
 20
34.65854587802607
 30
0.0
 11
287.8142902835423
 21
34.60854587802607
 31
0.0
 12
287.9642902835423
 22
34.63354587802607
 32
0.0
 13
287.9642902835423
 23
34.63354587802607
 33
0.0
  0
MTEXT
  5
DF
330
D9
100
AcDbEntity
  8
0
 62
     0
100
AcDbMText
 10
287.4642902835423
 20
34.80604587802607
 30
0.0
 40
0.075
 41
0.0
 71
     5
 72
     1
  1
\A1;1.0000
 73
     1
 44
1.0
  0
POINT
  5
E0
330
D9
100
AcDbEntity
  8
DEFPOINTS
 62
     0
100
AcDbPoint
 10
286.9642902835423
 20
34.86626699217401
 30
0.0
  0
POINT
  5
E1
330
D9
100
AcDbEntity
  8
DEFPOINTS
 62
     0
100
AcDbPoint
 10
287.9642902835423
 20
35.06626699217402
 30
0.0
  0
POINT
  5
E2
330
D9
100
AcDbEntity
  8
DEFPOINTS
 62
     0
100
AcDbPoint
 10
287.9642902835423
 20
34.63354587802607
 30
0.0
  0
ENDBLK
  5
E4
330
D9
100
AcDbEntity
  8
0
100
AcDbBlockEnd
  0
BLOCK
  5
F9
330
EF
100
AcDbEntity
  8
0
100
AcDbBlockBegin
  2
*D2
 70
     1
 10
0.0
 20
0.0
 30
0.0
  3
*D2
  1

  0
LINE
  5
145
330
EF
100
AcDbEntity
  8
0
 62
     0
370
    -2
100
AcDbLine
 10
287.2792902835422
 20
37.14626699217403
 30
0.0
 11
288.764281798848
 21
37.14626699217403
 31
0.0
  0
LINE
  5
146
330
EF
100
AcDbEntity
  8
0
 62
     0
370
    -2
100
AcDbLine
 10
287.9792902835422
 20
35.06626699217402
 30
0.0
 11
288.764281798848
 21
35.06626699217402
 31
0.0
  0
LINE
  5
147
330
EF
100
AcDbEntity
  8
0
 62
     0
370
    -2
100
AcDbLine
 10
288.749281798848
 20
36.99626699217402
 30
0.0
 11
288.749281798848
 21
35.21626699217403
 31
0.0
  0
SOLID
  5
148
330
EF
100
AcDbEntity
  8
0
 62
     0
100
AcDbTrace
 10
288.7242817988481
 20
36.99626699217402
 30
0.0
 11
288.774281798848
 21
36.99626699217402
 31
0.0
 12
288.749281798848
 22
37.14626699217403
 32
0.0
 13
288.749281798848
 23
37.14626699217403
 33
0.0
  0
SOLID
  5
149
330
EF
100
AcDbEntity
  8
0
 62
     0
100
AcDbTrace
 10
288.7242817988481
 20
35.21626699217403
 30
0.0
 11
288.774281798848
 21
35.21626699217403
 31
0.0
 12
288.749281798848
 22
35.06626699217402
 32
0.0
 13
288.749281798848
 23
35.06626699217402
 33
0.0
  0
MTEXT
  5
14A
330
EF
100
AcDbEntity
  8
0
 62
     0
100
AcDbMText
 10
288.576781798848
 20
36.1493671330855
 30
0.0
 40
0.075
 41
0.0
 71
     5
 72
     1
  1
\A1;2.0800
 11
0.0000000000000001
 21
1.0
 31
0.0
 73
     1
 44
1.0
  0
POINT
  5
14B
330
EF
100
AcDbEntity
  8
DEFPOINTS
 62
     0
100
AcDbPoint
 10
287.2642902835422
 20
37.14626699217403
 30
0.0
  0
POINT
  5
14C
330
EF
100
AcDbEntity
  8
DEFPOINTS
 62
     0
100
AcDbPoint
 10
287.9642902835423
 20
35.06626699217402
 30
0.0
  0
POINT
  5
14D
330
EF
100
AcDbEntity
  8
DEFPOINTS
 62
     0
100
AcDbPoint
 10
288.749281798848
 20
35.06626699217402
 30
0.0
  0
ENDBLK
  5
FA
330
EF
100
AcDbEntity
  8
0
100
AcDbBlockEnd
  0
BLOCK
  5
108
330
FC
100
AcDbEntity
  8
0
100
AcDbBlockBegin
  2
*D3
 70
     1
 10
0.0
 20
0.0
 30
0.0
  3
*D3
  1

  0
LINE
  5
12F
330
FC
100
AcDbEntity
  8
0
 62
     0
370
    -2
100
AcDbLine
 10
287.9792902835422
 20
36.94626699217402
 30
0.0
 11
288.3823834568105
 21
36.94626699217402
 31
0.0
  0
LINE
  5
130
330
FC
100
AcDbEntity
  8
0
 62
     0
370
    -2
100
AcDbLine
 10
287.2792902835422
 20
37.14626699217403
 30
0.0
 11
288.3823834568105
 21
37.14626699217403
 31
0.0
  0
LINE
  5
131
330
FC
100
AcDbEntity
  8
0
 62
     0
370
    -2
100
AcDbLine
 10
288.3673834568105
 20
37.29626699217402
 30
0.0
 11
288.3673834568105
 21
37.44626699217402
 31
0.0
  0
LINE
  5
132
330
FC
100
AcDbEntity
  8
0
 62
     0
370
    -2
100
AcDbLine
 10
288.3673834568105
 20
36.79626699217402
 30
0.0
 11
288.3673834568105
 21
36.05126699217402
 31
0.0
  0
LINE
  5
133
330
FC
100
AcDbEntity
  8
0
 62
     0
370
    -2
100
AcDbLine
 10
288.3673834568105
 20
37.14626699217403
 30
0.0
 11
288.3673834568105
 21
36.94626699217402
 31
0.0
  0
SOLID
  5
134
330
FC
100
AcDbEntity
  8
0
 62
     0
100
AcDbTrace
 10
288.3423834568105
 20
37.29626699217402
 30
0.0
 11
288.3923834568105
 21
37.29626699217402
 31
0.0
 12
288.3673834568105
 22
37.14626699217403
 32
0.0
 13
288.3673834568105
 23
37.14626699217403
 33
0.0
  0
SOLID
  5
135
330
FC
100
AcDbEntity
  8
0
 62
     0
100
AcDbTrace
 10
288.3423834568105
 20
36.79626699217402
 30
0.0
 11
288.3923834568105
 21
36.79626699217402
 31
0.0
 12
288.3673834568105
 22
36.94626699217402
 32
0.0
 13
288.3673834568105
 23
36.94626699217402
 33
0.0
  0
MTEXT
  5
136
330
FC
100
AcDbEntity
  8
0
 62
     0
100
AcDbMText
 10
288.1948834568105
 20
36.34876699217407
 30
0.0
 40
0.075
 41
0.0
 71
     5
 72
     1
  1
\A1;0.2000
 11
0.0000000000000001
 21
1.0
 31
0.0
 73
     1
 44
1.0
  0
POINT
  5
137
330
FC
100
AcDbEntity
  8
DEFPOINTS
 62
     0
100
AcDbPoint
 10
287.9642902835423
 20
36.94626699217402
 30
0.0
  0
POINT
  5
138
330
FC
100
AcDbEntity
  8
DEFPOINTS
 62
     0
100
AcDbPoint
 10
287.2642902835422
 20
37.14626699217403
 30
0.0
  0
POINT
  5
139
330
FC
100
AcDbEntity
  8
DEFPOINTS
 62
     0
100
AcDbPoint
 10
288.3673834568105
 20
37.14626699217403
 30
0.0
  0
ENDBLK
  5
109
330
FC
100
AcDbEntity
  8
0
100
AcDbBlockEnd
  0
BLOCK
  5
117
330
10B
100
AcDbEntity
  8
0
100
AcDbBlockBegin
  2
*D4
 70
     1
 10
0.0
 20
0.0
 30
0.0
  3
*D4
  1

  0
LINE
  5
13A
330
10B
100
AcDbEntity
  8
0
 62
     0
370
    -2
100
AcDbLine
 10
287.9792902835422
 20
35.06626699217402
 30
0.0
 11
288.3823834568105
 21
35.06626699217402
 31
0.0
  0
LINE
  5
13B
330
10B
100
AcDbEntity
  8
0
 62
     0
370
    -2
100
AcDbLine
 10
286.9792902835422
 20
34.86626699217401
 30
0.0
 11
288.3823834568105
 21
34.86626699217401
 31
0.0
  0
LINE
  5
13C
330
10B
100
AcDbEntity
  8
0
 62
     0
370
    -2
100
AcDbLine
 10
288.3673834568105
 20
34.71626699217402
 30
0.0
 11
288.3673834568105
 21
34.56626699217402
 31
0.0
  0
LINE
  5
13D
330
10B
100
AcDbEntity
  8
0
 62
     0
370
    -2
100
AcDbLine
 10
288.3673834568105
 20
35.21626699217403
 30
0.0
 11
288.3673834568105
 21
35.96126699217402
 31
0.0
  0
LINE
  5
13E
330
10B
100
AcDbEntity
  8
0
 62
     0
370
    -2
100
AcDbLine
 10
288.3673834568105
 20
34.86626699217401
 30
0.0
 11
288.3673834568105
 21
35.06626699217402
 31
0.0
  0
SOLID
  5
13F
330
10B
100
AcDbEntity
  8
0
 62
     0
100
AcDbTrace
 10
288.3423834568105
 20
34.71626699217402
 30
0.0
 11
288.3923834568105
 21
34.71626699217402
 31
0.0
 12
288.3673834568105
 22
34.86626699217401
 32
0.0
 13
288.3673834568105
 23
34.86626699217401
 33
0.0
  0
SOLID
  5
140
330
10B
100
AcDbEntity
  8
0
 62
     0
100
AcDbTrace
 10
288.3423834568105
 20
35.21626699217403
 30
0.0
 11
288.3923834568105
 21
35.21626699217403
 31
0.0
 12
288.3673834568105
 22
35.06626699217402
 32
0.0
 13
288.3673834568105
 23
35.06626699217402
 33
0.0
  0
MTEXT
  5
141
330
10B
100
AcDbEntity
  8
0
 62
     0
100
AcDbMText
 10
288.1948834568105
 20
35.66376699217407
 30
0.0
 40
0.075
 41
0.0
 71
     5
 72
     1
  1
\A1;0.2000
 11
0.0000000000000001
 21
1.0
 31
0.0
 73
     1
 44
1.0
  0
POINT
  5
142
330
10B
100
AcDbEntity
  8
DEFPOINTS
 62
     0
100
AcDbPoint
 10
287.9642902835423
 20
35.06626699217402
 30
0.0
  0
POINT
  5
143
330
10B
100
AcDbEntity
  8
DEFPOINTS
 62
     0
100
AcDbPoint
 10
286.9642902835422
 20
34.86626699217401
 30
0.0
  0
POINT
  5
144
330
10B
100
AcDbEntity
  8
DEFPOINTS
 62
     0
100
AcDbPoint
 10
288.3673834568105
 20
34.86626699217401
 30
0.0
  0
ENDBLK
  5
118
330
10B
100
AcDbEntity
  8
0
100
AcDbBlockEnd
  0
BLOCK
  5
12D
330
123
100
AcDbEntity
  8
0
100
AcDbBlockBegin
  2
*D5
 70
     1
 10
0.0
 20
0.0
 30
0.0
  3
*D5
  1

  0
LINE
  5
124
330
123
100
AcDbEntity
  8
0
 62
     0
370
    -2
100
AcDbLine
 10
287.2642902835422
 20
37.16126699217403
 30
0.0
 11
287.2642902835422
 21
37.46447105477509
 31
0.0
  0
LINE
  5
125
330
123
100
AcDbEntity
  8
0
 62
     0
370
    -2
100
AcDbLine
 10
287.9642902835423
 20
36.96126699217402
 30
0.0
 11
287.9642902835423
 21
37.46447105477509
 31
0.0
  0
LINE
  5
126
330
123
100
AcDbEntity
  8
0
 62
     0
370
    -2
100
AcDbLine
 10
287.4142902835422
 20
37.44947105477509
 30
0.0
 11
287.8142902835423
 21
37.44947105477509
 31
0.0
  0
SOLID
  5
127
330
123
100
AcDbEntity
  8
0
 62
     0
100
AcDbTrace
 10
287.4142902835422
 20
37.47447105477509
 30
0.0
 11
287.4142902835422
 21
37.42447105477509
 31
0.0
 12
287.2642902835422
 22
37.44947105477509
 32
0.0
 13
287.2642902835422
 23
37.44947105477509
 33
0.0
  0
SOLID
  5
128
330
123
100
AcDbEntity
  8
0
 62
     0
100
AcDbTrace
 10
287.8142902835423
 20
37.47447105477509
 30
0.0
 11
287.8142902835423
 21
37.42447105477509
 31
0.0
 12
287.9642902835423
 22
37.44947105477509
 32
0.0
 13
287.9642902835423
 23
37.44947105477509
 33
0.0
  0
MTEXT
  5
129
330
123
100
AcDbEntity
  8
0
 62
     0
100
AcDbMText
 10
287.6142902835423
 20
37.62197105477509
 30
0.0
 40
0.075
 41
0.0
 71
     5
 72
     1
  1
\A1;0.7000
 73
     1
 44
1.0
  0
POINT
  5
12A
330
123
100
AcDbEntity
  8
DEFPOINTS
 62
     0
100
AcDbPoint
 10
287.2642902835422
 20
37.14626699217403
 30
0.0
  0
POINT
  5
12B
330
123
100
AcDbEntity
  8
DEFPOINTS
 62
     0
100
AcDbPoint
 10
287.9642902835423
 20
36.94626699217402
 30
0.0
  0
POINT
  5
12C
330
123
100
AcDbEntity
  8
DEFPOINTS
 62
     0
100
AcDbPoint
 10
287.9642902835423
 20
37.44947105477509
 30
0.0
  0
ENDBLK
  5
12E
330
123
100
AcDbEntity
  8
0
100
AcDbBlockEnd
  0
ENDSEC
  0
SECTION
  2
ENTITIES
  0
LINE
  5
81
330
1E
100
AcDbEntity
  8
0
100
AcDbLine
 10
291.895795
 20
29.897444
 30
0.0
 11
291.895795
 21
44.747444
 31
0.0
  0
TEXT
  5
82
330
1E
100
AcDbEntity
  8
0
100
AcDbText
 10
283.887846
 20
40.56142
 30
0.0
 40
0.3
  1
P = 120 dm
  7
ROMANC
100
AcDbText
  0
LINE
  5
83
330
1E
100
AcDbEntity
  8
0
100
AcDbLine
 10
281.395795
 20
44.747444
 30
0.0
 11
281.395795
 21
29.897444
 31
0.0
  0
LINE
  5
84
330
1E
100
AcDbEntity
  8
0
100
AcDbLine
 10
281.395795
 20
29.897444
 30
0.0
 11
291.895795
 21
29.897444
 31
0.0
  0
LINE
  5
85
330
1E
100
AcDbEntity
  8
0
100
AcDbLine
 10
291.895795
 20
44.747444
 30
0.0
 11
281.395795
 21
44.747444
 31
0.0
  0
TEXT
  5
86
330
1E
100
AcDbEntity
  8
0
100
AcDbText
 10
287.1222709999999
 20
41.564915
 30
0.0
 40
0.1
  1
2
  7
ROMANC
100
AcDbText
  0
TEXT
  5
87
330
1E
100
AcDbEntity
  8
0
100
AcDbText
 10
283.925768
 20
41.857589
 30
0.0
 40
0.3
  1
ESCALA  1:50
  7
ROMANC
100
AcDbText
  0
TEXT
  5
88
330
1E
100
AcDbEntity
  8
0
100
AcDbText
 10
283.925768
 20
42.343303
 30
0.0
 40
0.3
  1
TIPUS   NT836
  7
ROMANC
100
AcDbText
  0
TEXT
  5
89
330
1E
100
AcDbEntity
  8
0
100
AcDbText
 10
283.938862
 20
41.25899899999999
 30
0.0
 40
0.3
  1
S= 836 dm
  7
ROMANC
100
AcDbText
  0
LINE
  5
BD
330
1E
100
AcDbEntity
  8
0
100
AcDbLine
 10
284.9642902835423
 20
34.86626699217402
 30
0.0
 11
286.9642902835422
 21
34.86626699217401
 31
0.0
  0
LINE
  5
BE
330
1E
100
AcDbEntity
  8
0
100
AcDbLine
 10
287.9642902835423
 20
35.06626699217402
 30
0.0
 11
287.9642902835423
 21
36.94626699217402
 31
0.0
  0
LINE
  5
BF
330
1E
100
AcDbEntity
  8
0
100
AcDbLine
 10
287.2642902835422
 20
37.14626699217403
 30
0.0
 11
284.7142902835423
 21
37.14626699217403
 31
0.0
  0
LINE
  5
C0
330
1E
100
AcDbEntity
  8
0
100
AcDbLine
 10
284.0142902835424
 20
36.94626699217403
 30
0.0
 11
284.0142902835423
 21
35.06626699217402
 31
0.0
  0
LINE
  5
C1
330
1E
100
AcDbEntity
  8
0
100
AcDbLine
 10
284.0142902835423
 20
35.06626699217402
 30
0.0
 11
284.9642902835423
 21
35.06626699217402
 31
0.0
  0
LINE
  5
C2
330
1E
100
AcDbEntity
  8
0
100
AcDbLine
 10
286.9642902835423
 20
34.86626699217402
 30
0.0
 11
286.9642902835422
 21
35.06626699217402
 31
0.0
  0
LINE
  5
C3
330
1E
100
AcDbEntity
  8
0
100
AcDbLine
 10
284.9642902835423
 20
35.06626699217402
 30
0.0
 11
284.9642902835423
 21
34.86626699217402
 31
0.0
  0
LINE
  5
C4
330
1E
100
AcDbEntity
  8
0
100
AcDbLine
 10
286.9642902835422
 20
35.06626699217402
 30
0.0
 11
287.9642902835423
 21
35.06626699217402
 31
0.0
  0
LINE
  5
C8
330
1E
100
AcDbEntity
  8
0
100
AcDbLine
 10
284.0142902835423
 20
36.94626699217402
 30
0.0
 11
284.7142902835423
 21
37.14626699217403
 31
0.0
  0
LINE
  5
C9
330
1E
100
AcDbEntity
  8
0
100
AcDbLine
 10
287.2642902835423
 20
37.14626699217403
 30
0.0
 11
287.9642902835423
 21
36.94626699217402
 31
0.0
  0
DIMENSION
  5
CB
330
1E
100
AcDbEntity
  8
0
100
AcDbDimension
  2
*D0
 10
284.0142902835423
 20
34.35428059003907
 30
0.0
 11
285.9929689786596
 21
34.35428059003907
 31
0.0
 70
   160
 71
     5
 42
3.949999999999988
  3
SILVIA
100
AcDbAlignedDimension
 13
287.9642902835423
 23
35.06626699217402
 33
0.0
 14
284.0142902835423
 24
35.06626699217402
 34
0.0
100
AcDbRotatedDimension
1001
ACAD
1000
DSTYLE
1002
{
1070
   271
1070
     4
1070
   272
1070
     4
1070
   279
1070
     0
1070
   340
1005
11
1002
}
  0
DIMENSION
  5
D8
330
1E
100
AcDbEntity
  8
0
100
AcDbDimension
  2
*D1
 10
287.9642902835423
 20
34.63354587802607
 30
0.0
 11
287.4642902835423
 21
34.80604587802607
 31
0.0
 70
    32
 71
     5
  3
SILVIA
100
AcDbAlignedDimension
 13
286.9642902835423
 23
34.86626699217401
 33
0.0
 14
287.9642902835423
 24
35.06626699217402
 34
0.0
100
AcDbRotatedDimension
1001
ACAD
1000
DSTYLE
1002
{
1070
   271
1070
     4
1070
   272
1070
     4
1070
   279
1070
     0
1070
   340
1005
11
1002
}
  0
DIMENSION
  5
EE
330
1E
100
AcDbEntity
  8
0
100
AcDbDimension
  2
*D2
 10
288.749281798848
 20
35.06626699217402
 30
0.0
 11
288.749281798848
 21
36.1493671330855
 31
0.0
 70
   160
 71
     5
 42
2.079999999999998
  3
SILVIA
100
AcDbAlignedDimension
 13
287.2642902835422
 23
37.14626699217403
 33
0.0
 14
287.9642902835423
 24
35.06626699217402
 34
0.0
 50
90.0
100
AcDbRotatedDimension
1001
ACAD
1000
DSTYLE
1002
{
1070
   271
1070
     4
1070
   272
1070
     4
1070
   279
1070
     0
1070
   340
1005
11
1002
}
  0
DIMENSION
  5
FB
330
1E
100
AcDbEntity
  8
0
100
AcDbDimension
  2
*D3
 10
288.3673834568105
 20
37.14626699217403
 30
0.0
 11
288.3673834568105
 21
36.34876699217407
 31
0.0
 70
   160
 71
     5
 42
0.2000000000000028
  3
SILVIA
100
AcDbAlignedDimension
 13
287.9642902835423
 23
36.94626699217402
 33
0.0
 14
287.2642902835422
 24
37.14626699217403
 34
0.0
 50
90.0
100
AcDbRotatedDimension
1001
ACAD
1000
DSTYLE
1002
{
1070
   271
1070
     4
1070
   272
1070
     4
1070
   279
1070
     0
1070
   340
1005
11
1002
}
  0
DIMENSION
  5
10A
330
1E
100
AcDbEntity
  8
0
100
AcDbDimension
  2
*D4
 10
288.3673834568105
 20
34.86626699217401
 30
0.0
 11
288.3673834568105
 21
35.66376699217407
 31
0.0
 70
   160
 71
     5
 42
0.2000000000000099
  3
SILVIA
100
AcDbAlignedDimension
 13
287.9642902835423
 23
35.06626699217402
 33
0.0
 14
286.9642902835422
 24
34.86626699217401
 34
0.0
 50
90.0
100
AcDbRotatedDimension
1001
ACAD
1000
DSTYLE
1002
{
1070
   271
1070
     4
1070
   272
1070
     4
1070
   279
1070
     0
1070
   340
1005
11
1002
}
  0
DIMENSION
  5
122
330
1E
100
AcDbEntity
  8
0
100
AcDbDimension
  2
*D5
 10
287.9642902835423
 20
37.44947105477509
 30
0.0
 11
287.6142902835423
 21
37.62197105477509
 31
0.0
 70
    32
 71
     5
 42
0.7000000000000455
  3
SILVIA
100
AcDbAlignedDimension
 13
287.2642902835422
 23
37.14626699217403
 33
0.0
 14
287.9642902835423
 24
36.94626699217402
 34
0.0
100
AcDbRotatedDimension
1001
ACAD
1000
DSTYLE
1002
{
1070
   271
1070
     4
1070
   272
1070
     4
1070
   279
1070
     0
1070
   340
1005
11
1002
}
  0
ENDSEC
  0
SECTION
  2
OBJECTS
  0
DICTIONARY
  5
C
330
0
100
AcDbDictionary
281
     1
  3
ACAD_GROUP
350
D
  3
ACAD_LAYOUT
350
19
  3
ACAD_MLINESTYLE
350
16
  3
ACAD_PLOTSETTINGS
350
18
  3
ACAD_PLOTSTYLENAME
350
E
  0
DICTIONARY
  5
D
102
{ACAD_REACTORS
330
C
102
}
330
C
100
AcDbDictionary
281
     1
  0
DICTIONARY
  5
19
102
{ACAD_REACTORS
330
C
102
}
330
C
100
AcDbDictionary
281
     1
  3
Model
350
21
  3
Presentación1
350
1D
  0
DICTIONARY
  5
16
102
{ACAD_REACTORS
330
C
102
}
330
C
100
AcDbDictionary
281
     1
  3
Standard
350
17
  0
DICTIONARY
  5
18
102
{ACAD_REACTORS
330
C
102
}
330
C
100
AcDbDictionary
281
     1
  0
ACDBDICTIONARYWDFLT
  5
E
102
{ACAD_REACTORS
330
C
102
}
330
C
100
AcDbDictionary
281
     1
  3
Normal
350
F
100
AcDbDictionaryWithDefault
340
F
  0
LAYOUT
  5
21
102
{ACAD_REACTORS
330
19
102
}
330
19
100
AcDbPlotSettings
  1

  2
HP DesignJet 750C/PS FILE
  4
A4
  6

 40
7.482416629791259
 41
18.48907089233398
 42
7.228408813476562
 43
17.9810791015625
 44
209.9733276367187
 45
296.9259948730469
 46
0.0
 47
0.0
 48
0.0
 49
0.0
140
0.0
141
0.0
142
1.0
143
1.0
 70
 11952
 72
     0
 73
     1
 74
     0
  7

 75
     0
147
1.0
148
-7089.857359437631
149
-757.1900095737288
100
AcDbLayout
  1
Model
 70
     1
 71
     0
 10
0.0
 20
0.0
 11
12.0
 21
9.0
 12
0.0
 22
0.0
 32
0.0
 14
0.0
 24
0.0
 34
0.0
 15
0.0
 25
0.0
 35
0.0
146
0.0
 13
0.0
 23
0.0
 33
0.0
 16
1.0
 26
0.0
 36
0.0
 17
0.0
 27
1.0
 37
0.0
 76
     0
330
1E
  0
LAYOUT
  5
1D
102
{ACAD_REACTORS
330
19
102
}
330
19
100
AcDbPlotSettings
  1

  2
HP DesignJet 750C/PS FILE
  4

  6

 40
0.0
 41
0.0
 42
0.0
 43
0.0
 44
0.0
 45
0.0
 46
0.0
 47
0.0
 48
0.0
 49
0.0
140
0.0
141
0.0
142
1.0
143
1.0
 70
   688
 72
     0
 73
     0
 74
     5
  7

 75
    16
147
1.0
148
0.0
149
0.0
100
AcDbLayout
  1
Presentación1
 70
     0
 71
     1
 10
0.0
 20
0.0
 11
12.0
 21
9.0
 12
0.0
 22
0.0
 32
0.0
 14
1.000000000000000E+20
 24
1.000000000000000E+20
 34
1.000000000000000E+20
 15
-1.000000000000000E+20
 25
-1.000000000000000E+20
 35
-1.000000000000000E+20
146
0.0
 13
0.0
 23
0.0
 33
0.0
 16
1.0
 26
0.0
 36
0.0
 17
0.0
 27
1.0
 37
0.0
 76
     0
330
1A
  0
MLINESTYLE
  5
17
102
{ACAD_REACTORS
330
16
102
}
330
16
100
AcDbMlineStyle
  2
STANDARD
 70
     0
  3

 62
   256
 51
90.0
 52
90.0
 71
     2
 49
0.5
 62
   256
  6
BYLAYER
 49
-0.5
 62
   256
  6
BYLAYER
  0
ACDBPLACEHOLDER
  5
F
102
{ACAD_REACTORS
330
E
102
}
330
E
  0
ENDSEC
  0
EOF
