  0
SECTION
  2
HEADER
  9
$ACADVER
  1
AC1014
  9
$ACADMAINTVER
 70
     9
  9
$DWGCODEPAGE
  3
ANSI_1252
  9
$INSBASE
 10
105.4640269999999
 20
-4.528761
 30
0.0
  9
$EXTMIN
 10
281.3870252079646
 20
29.87588502942992
 30
-0.0015258207003583
  9
$EXTMAX
 10
291.8972786491472
 20
44.76706391404604
 30
0.0000000349246037
  9
$LIMMIN
 10
0.0
 20
0.0
  9
$LIMMAX
 10
410.0
 20
287.0
  9
$ORTHOMODE
 70
     0
  9
$REGENMODE
 70
     1
  9
$FILLMODE
 70
     1
  9
$QTEXTMODE
 70
     0
  9
$MIRRTEXT
 70
     1
  9
$DRAGMODE
 70
     2
  9
$LTSCALE
 40
25.0
  9
$OSMODE
 70
    37
  9
$ATTMODE
 70
     1
  9
$TEXTSIZE
 40
0.1
  9
$TRACEWID
 40
1.0
  9
$TEXTSTYLE
  7
ROMANC
  9
$CLAYER
  8
0
  9
$CELTYPE
  6
BYLAYER
  9
$CECOLOR
 62
   256
  9
$CELTSCALE
 40
1.0
  9
$DELOBJ
 70
     1
  9
$DISPSILH
 70
     0
  9
$DIMSCALE
 40
1.5
  9
$DIMASZ
 40
0.1
  9
$DIMEXO
 40
0.01
  9
$DIMDLI
 40
7.0
  9
$DIMRND
 40
0.0
  9
$DIMDLE
 40
0.0
  9
$DIMEXE
 40
0.01
  9
$DIMTP
 40
0.0
  9
$DIMTM
 40
0.0
  9
$DIMTXT
 40
0.05
  9
$DIMCEN
 40
0.1
  9
$DIMTSZ
 40
0.0
  9
$DIMTOL
 70
     0
  9
$DIMLIM
 70
     0
  9
$DIMTIH
 70
     0
  9
$DIMTOH
 70
     0
  9
$DIMSE1
 70
     0
  9
$DIMSE2
 70
     0
  9
$DIMTAD
 70
     1
  9
$DIMZIN
 70
     0
  9
$DIMBLK
  1

  9
$DIMASO
 70
     1
  9
$DIMSHO
 70
     0
  9
$DIMPOST
  1

  9
$DIMAPOST
  1

  9
$DIMALT
 70
     0
  9
$DIMALTD
 70
     2
  9
$DIMALTF
 40
25.4
  9
$DIMLFAC
 40
1.0
  9
$DIMTOFL
 70
     1
  9
$DIMTVP
 40
0.0
  9
$DIMTIX
 70
     1
  9
$DIMSOXD
 70
     0
  9
$DIMSAH
 70
     0
  9
$DIMBLK1
  1

  9
$DIMBLK2
  1

  9
$DIMSTYLE
  2
SILVIA
  9
$DIMCLRD
 70
     0
  9
$DIMCLRE
 70
     0
  9
$DIMCLRT
 70
     0
  9
$DIMTFAC
 40
70.0
  9
$DIMGAP
 40
0.05
  9
$DIMJUST
 70
     0
  9
$DIMSD1
 70
     0
  9
$DIMSD2
 70
     0
  9
$DIMTOLJ
 70
     1
  9
$DIMTZIN
 70
     0
  9
$DIMALTZ
 70
     0
  9
$DIMALTTZ
 70
     0
  9
$DIMFIT
 70
     3
  9
$DIMUPT
 70
     0
  9
$DIMUNIT
 70
     2
  9
$DIMDEC
 70
     4
  9
$DIMTDEC
 70
     4
  9
$DIMALTU
 70
     2
  9
$DIMALTTD
 70
     2
  9
$DIMTXSTY
  7
STANDARD
  9
$DIMAUNIT
 70
     0
  9
$LUNITS
 70
     2
  9
$LUPREC
 70
     2
  9
$SKETCHINC
 40
1.0
  9
$FILLETRAD
 40
0.0
  9
$AUNITS
 70
     0
  9
$AUPREC
 70
     0
  9
$MENU
  1
acad
  9
$ELEVATION
 40
0.0
  9
$PELEVATION
 40
0.0
  9
$THICKNESS
 40
0.0
  9
$LIMCHECK
 70
     0
  9
$BLIPMODE
 70
     0
  9
$CHAMFERA
 40
0.0
  9
$CHAMFERB
 40
0.0
  9
$CHAMFERC
 40
0.0
  9
$CHAMFERD
 40
0.0
  9
$SKPOLY
 70
     0
  9
$TDCREATE
 40
2450305.554557986
  9
$TDUPDATE
 40
2452468.487980150
  9
$TDINDWG
 40
0.0075670602
  9
$TDUSRTIMER
 40
0.0075670602
  9
$USRTIMER
 70
     1
  9
$ANGBASE
 50
0.0
  9
$ANGDIR
 70
     0
  9
$PDMODE
 70
     0
  9
$PDSIZE
 40
0.0
  9
$PLINEWID
 40
0.0
  9
$COORDS
 70
     1
  9
$SPLFRAME
 70
     0
  9
$SPLINETYPE
 70
     6
  9
$SPLINESEGS
 70
     8
  9
$ATTDIA
 70
     0
  9
$ATTREQ
 70
     1
  9
$HANDLING
 70
 10241
  9
$HANDSEED
  5
1E3
  9
$SURFTAB1
 70
     6
  9
$SURFTAB2
 70
     6
  9
$SURFTYPE
 70
     6
  9
$SURFU
 70
     6
  9
$SURFV
 70
     6
  9
$UCSNAME
  2

  9
$UCSORG
 10
0.0
 20
0.0
 30
0.0
  9
$UCSXDIR
 10
1.0
 20
0.0
 30
0.0
  9
$UCSYDIR
 10
0.0
 20
1.0
 30
0.0
  9
$PUCSNAME
  2

  9
$PUCSORG
 10
0.0
 20
0.0
 30
0.0
  9
$PUCSXDIR
 10
1.0
 20
0.0
 30
0.0
  9
$PUCSYDIR
 10
0.0
 20
1.0
 30
0.0
  9
$USERI1
 70
     0
  9
$USERI2
 70
     0
  9
$USERI3
 70
     0
  9
$USERI4
 70
     0
  9
$USERI5
 70
     0
  9
$USERR1
 40
0.0
  9
$USERR2
 40
0.0
  9
$USERR3
 40
0.0
  9
$USERR4
 40
0.0
  9
$USERR5
 40
0.0
  9
$WORLDVIEW
 70
     1
  9
$SHADEDGE
 70
     3
  9
$SHADEDIF
 70
    70
  9
$TILEMODE
 70
     1
  9
$MAXACTVP
 70
    16
  9
$PINSBASE
 10
0.0
 20
0.0
 30
0.0
  9
$PLIMCHECK
 70
     0
  9
$PEXTMIN
 10
1.000000000000000E+20
 20
1.000000000000000E+20
 30
1.000000000000000E+20
  9
$PEXTMAX
 10
-1.000000000000000E+20
 20
-1.000000000000000E+20
 30
-1.000000000000000E+20
  9
$PLIMMIN
 10
0.0
 20
0.0
  9
$PLIMMAX
 10
12.0
 20
9.0
  9
$UNITMODE
 70
     0
  9
$VISRETAIN
 70
     0
  9
$PLINEGEN
 70
     0
  9
$PSLTSCALE
 70
     0
  9
$TREEDEPTH
 70
  3020
  9
$PICKSTYLE
 70
     1
  9
$CMLSTYLE
  2
STANDARD
  9
$CMLJUST
 70
     0
  9
$CMLSCALE
 40
1.0
  9
$PROXYGRAPHICS
 70
     1
  9
$MEASUREMENT
 70
     0
  0
ENDSEC
  0
SECTION
  2
CLASSES
  0
CLASS
  1
ACDBDICTIONARYWDFLT
  2
AcDbDictionaryWithDefault
  3
AutoCAD 2000
 90
        0
280
     0
281
     0
  0
CLASS
  1
ACDBPLACEHOLDER
  2
AcDbPlaceHolder
  3
AutoCAD 2000
 90
        0
280
     0
281
     0
  0
CLASS
  1
LAYOUT
  2
AcDbLayout
  3
AutoCAD 2000
 90
        0
280
     0
281
     0
  0
CLASS
  1
LONG_TRANSACTION
  2
AcDbLongTransaction
  3
AutoCAD 2000
 90
        0
280
     0
281
     0
  0
CLASS
  1
LWPOLYLINE
  2
AcDbPolyline
  3
AutoCAD 2000
 90
        0
280
     0
281
     1
  0
CLASS
  1
HATCH
  2
AcDbHatch
  3
AutoCAD 2000
 90
        0
280
     0
281
     1
  0
CLASS
  1
XRECORD
  2
AcDbXrecord
  3
AutoCAD 2000
 90
        0
280
     0
281
     0
  0
ENDSEC
  0
SECTION
  2
TABLES
  0
TABLE
  2
VPORT
  5
8
330
0
100
AcDbSymbolTable
 70
     3
  0
VPORT
  5
1BE
330
8
100
AcDbSymbolTableRecord
100
AcDbViewportTableRecord
  2
*ACTIVE
 70
     0
 10
0.0
 20
0.0
 11
1.0
 21
1.0
 12
286.6421519285558
 22
37.32147447173798
 13
0.0
 23
0.0
 14
1.0
 24
1.0
 15
10.0
 25
10.0
 16
0.0
 26
0.0
 36
1.0
 17
0.0
 27
0.0
 37
0.0
 40
15.0017569456405
 41
1.421313506815365
 42
50.0
 43
0.0
 44
0.0
 50
0.0
 51
0.0
 71
     0
 72
   100
 73
     1
 74
     0
 75
     0
 76
     0
 77
     0
 78
     1
  0
ENDTAB
  0
TABLE
  2
LTYPE
  5
5
330
0
100
AcDbSymbolTable
 70
     1
  0
LTYPE
  5
13
330
5
100
AcDbSymbolTableRecord
100
AcDbLinetypeTableRecord
  2
BYBLOCK
 70
     0
  3

 72
    65
 73
     0
 40
0.0
  0
LTYPE
  5
14
330
5
100
AcDbSymbolTableRecord
100
AcDbLinetypeTableRecord
  2
BYLAYER
 70
     0
  3

 72
    65
 73
     0
 40
0.0
  0
LTYPE
  5
15
330
5
100
AcDbSymbolTableRecord
100
AcDbLinetypeTableRecord
  2
CONTINUOUS
 70
     0
  3
Solid line
 72
    65
 73
     0
 40
0.0
  0
ENDTAB
  0
TABLE
  2
LAYER
  5
2
330
0
100
AcDbSymbolTable
 70
     3
  0
LAYER
  5
10
330
2
100
AcDbSymbolTableRecord
100
AcDbLayerTableRecord
  2
0
 70
     0
 62
     7
  6
CONTINUOUS
  0
LAYER
  5
24
330
2
100
AcDbSymbolTableRecord
100
AcDbLayerTableRecord
  2
MESURA
 70
     0
 62
     7
  6
CONTINUOUS
  0
LAYER
  5
25
330
2
100
AcDbSymbolTableRecord
100
AcDbLayerTableRecord
  2
DEFPOINTS
 70
     0
 62
     7
  6
CONTINUOUS
  0
ENDTAB
  0
TABLE
  2
STYLE
  5
3
330
0
100
AcDbSymbolTable
 70
     2
  0
STYLE
  5
11
330
3
100
AcDbSymbolTableRecord
100
AcDbTextStyleTableRecord
  2
STANDARD
 70
     0
 40
0.0
 41
1.0
 50
0.0
 71
     0
 42
0.1
  3
txt
  4

  0
STYLE
  5
22
330
3
100
AcDbSymbolTableRecord
100
AcDbTextStyleTableRecord
  2
ROMANC
 70
     0
 40
0.0
 41
1.0
 50
0.0
 71
     0
 42
0.1
  3
romanc
  4

  0
ENDTAB
  0
TABLE
  2
VIEW
  5
6
330
0
100
AcDbSymbolTable
 70
     0
  0
ENDTAB
  0
TABLE
  2
UCS
  5
7
330
0
100
AcDbSymbolTable
 70
     0
  0
ENDTAB
  0
TABLE
  2
APPID
  5
9
330
0
100
AcDbSymbolTable
 70
     1
  0
APPID
  5
12
330
9
100
AcDbSymbolTableRecord
100
AcDbRegAppTableRecord
  2
ACAD
 70
     0
  0
ENDTAB
  0
TABLE
  2
DIMSTYLE
  5
A
330
0
100
AcDbSymbolTable
 70
     1
  0
DIMSTYLE
105
26
102
{ACAD_REACTORS
330
D4
330
E1
330
EE
330
FB
330
108
330
117
330
126
102
}
330
A
100
AcDbSymbolTableRecord
100
AcDbDimStyleTableRecord
  2
SILVIA
 70
     0
  3

  4

  5

  6

  7

 40
1.5
 41
0.1
 42
0.01
 43
7.0
 44
0.01
 45
0.0
 46
0.0
 47
0.0
 48
0.0
140
0.05
141
0.1
142
0.0
143
25.4
144
1.0
145
0.0
146
70.0
147
0.04
 71
     0
 72
     0
 73
     0
 74
     0
 75
     0
 76
     0
 77
     1
 78
     0
170
     0
171
     2
172
     1
173
     0
174
     1
175
     0
176
     0
177
     0
178
     0
270
     2
271
     2
272
     2
273
     2
274
     2
340
22
275
     0
280
     0
281
     0
282
     0
283
     1
284
     0
285
     0
286
     0
287
     5
288
     0
  0
ENDTAB
  0
TABLE
  2
BLOCK_RECORD
  5
1
330
0
100
AcDbSymbolTable
 70
    14
  0
BLOCK_RECORD
  5
1E
102
{ACAD_XDICTIONARY
360
1E1
102
}
330
1
100
AcDbSymbolTableRecord
100
AcDbBlockTableRecord
  2
*MODEL_SPACE
  0
BLOCK_RECORD
  5
1A
102
{ACAD_XDICTIONARY
360
1DF
102
}
330
1
100
AcDbSymbolTableRecord
100
AcDbBlockTableRecord
  2
*PAPER_SPACE
  0
BLOCK_RECORD
  5
29
330
1
100
AcDbSymbolTableRecord
100
AcDbBlockTableRecord
  2
*D0
  0
BLOCK_RECORD
  5
35
330
1
100
AcDbSymbolTableRecord
100
AcDbBlockTableRecord
  2
*D1
  0
BLOCK_RECORD
  5
41
330
1
100
AcDbSymbolTableRecord
100
AcDbBlockTableRecord
  2
*D2
  0
BLOCK_RECORD
  5
4D
330
1
100
AcDbSymbolTableRecord
100
AcDbBlockTableRecord
  2
*D3
  0
BLOCK_RECORD
  5
59
330
1
100
AcDbSymbolTableRecord
100
AcDbBlockTableRecord
  2
*D4
  0
BLOCK_RECORD
  5
67
330
1
100
AcDbSymbolTableRecord
100
AcDbBlockTableRecord
  2
*D5
  0
BLOCK_RECORD
  5
75
330
1
100
AcDbSymbolTableRecord
100
AcDbBlockTableRecord
  2
*D6
  0
BLOCK_RECORD
  5
D5
330
1
100
AcDbSymbolTableRecord
100
AcDbBlockTableRecord
  2
*D7
  0
BLOCK_RECORD
  5
E2
330
1
100
AcDbSymbolTableRecord
100
AcDbBlockTableRecord
  2
*D8
  0
BLOCK_RECORD
  5
EF
330
1
100
AcDbSymbolTableRecord
100
AcDbBlockTableRecord
  2
*D9
  0
BLOCK_RECORD
  5
FC
330
1
100
AcDbSymbolTableRecord
100
AcDbBlockTableRecord
  2
*D10
  0
BLOCK_RECORD
  5
109
330
1
100
AcDbSymbolTableRecord
100
AcDbBlockTableRecord
  2
*D11
  0
BLOCK_RECORD
  5
118
330
1
100
AcDbSymbolTableRecord
100
AcDbBlockTableRecord
  2
*D12
  0
BLOCK_RECORD
  5
127
330
1
100
AcDbSymbolTableRecord
100
AcDbBlockTableRecord
  2
*D13
  0
ENDTAB
  0
ENDSEC
  0
SECTION
  2
BLOCKS
  0
BLOCK
  5
1F
330
1E
100
AcDbEntity
  8
0
100
AcDbBlockBegin
  2
*MODEL_SPACE
 70
     0
 10
0.0
 20
0.0
 30
0.0
  3
*MODEL_SPACE
  1

  0
ENDBLK
  5
20
330
1E
100
AcDbEntity
  8
0
100
AcDbBlockEnd
  0
BLOCK
  5
1B
330
1A
100
AcDbEntity
 67
     1
  8
0
100
AcDbBlockBegin
  2
*PAPER_SPACE
 70
     0
 10
0.0
 20
0.0
 30
0.0
  3
*PAPER_SPACE
  1

  0
ENDBLK
  5
1C
330
1A
100
AcDbEntity
 67
     1
  8
0
100
AcDbBlockEnd
  0
BLOCK
  5
2A
330
29
100
AcDbEntity
  8
0
100
AcDbBlockBegin
  2
*D0
 70
     1
 10
0.0
 20
0.0
 30
0.0
  3
*D0
  1

  0
LINE
  5
2B
330
29
100
AcDbEntity
  8
0
  6
BYBLOCK
 62
     0
100
AcDbLine
 10
283.662733
 20
34.886696
 30
0.0
 11
283.662733
 21
33.178319
 31
0.0
  0
LINE
  5
2C
330
29
100
AcDbEntity
  8
0
  6
BYBLOCK
 62
     0
100
AcDbLine
 10
288.162733
 20
34.486696
 30
0.0
 11
288.162733
 21
33.178319
 31
0.0
  0
LINE
  5
2D
330
29
100
AcDbEntity
  8
0
  6
BYBLOCK
 62
     0
100
AcDbLine
 10
283.8127329999999
 20
33.193319
 30
0.0
 11
288.012733
 21
33.193319
 31
0.0
  0
SOLID
  5
2E
330
29
100
AcDbEntity
  8
0
  6
BYBLOCK
 62
     0
100
AcDbTrace
 10
283.8127329999999
 20
33.218319
 30
0.0
 11
283.8127329999999
 21
33.16831899999999
 31
0.0
 12
283.662733
 22
33.193319
 32
0.0
 13
283.662733
 23
33.193319
 33
0.0
  0
SOLID
  5
2F
330
29
100
AcDbEntity
  8
0
  6
BYBLOCK
 62
     0
100
AcDbTrace
 10
288.012733
 20
33.218319
 30
0.0
 11
288.012733
 21
33.16831899999999
 31
0.0
 12
288.162733
 22
33.193319
 32
0.0
 13
288.162733
 23
33.193319
 33
0.0
  0
TEXT
  5
30
330
29
100
AcDbEntity
  8
0
  6
BYBLOCK
 62
     0
100
AcDbText
 10
285.7895187142856
 20
33.230819
 30
0.0
 40
0.075
  1
4.50
  7
ROMANC
 72
     1
 11
285.912733
 21
33.268319
 31
0.0
100
AcDbText
 73
     2
  0
POINT
  5
31
330
29
100
AcDbEntity
  8
DEFPOINTS
  6
BYBLOCK
 62
     0
100
AcDbPoint
 10
283.662733
 20
34.901696
 30
0.0
  0
POINT
  5
32
330
29
100
AcDbEntity
  8
DEFPOINTS
  6
BYBLOCK
 62
     0
100
AcDbPoint
 10
288.162733
 20
34.501696
 30
0.0
  0
POINT
  5
33
330
29
100
AcDbEntity
  8
DEFPOINTS
  6
BYBLOCK
 62
     0
100
AcDbPoint
 10
288.162733
 20
33.193319
 30
0.0
  0
ENDBLK
  5
34
330
29
100
AcDbEntity
  8
0
100
AcDbBlockEnd
  0
BLOCK
  5
36
330
35
100
AcDbEntity
  8
0
100
AcDbBlockBegin
  2
*D1
 70
     1
 10
0.0
 20
0.0
 30
0.0
  3
*D1
  1

  0
LINE
  5
37
330
35
100
AcDbEntity
  8
0
  6
BYBLOCK
 62
     0
100
AcDbLine
 10
283.662733
 20
34.886696
 30
0.0
 11
283.662733
 21
33.901294
 31
0.0
  0
LINE
  5
38
330
35
100
AcDbEntity
  8
0
  6
BYBLOCK
 62
     0
100
AcDbLine
 10
284.5627329999999
 20
34.486696
 30
0.0
 11
284.5627329999999
 21
33.901294
 31
0.0
  0
LINE
  5
39
330
35
100
AcDbEntity
  8
0
  6
BYBLOCK
 62
     0
100
AcDbLine
 10
283.8127329999999
 20
33.916294
 30
0.0
 11
284.412733
 21
33.916294
 31
0.0
  0
SOLID
  5
3A
330
35
100
AcDbEntity
  8
0
  6
BYBLOCK
 62
     0
100
AcDbTrace
 10
283.8127329999999
 20
33.941294
 30
0.0
 11
283.8127329999999
 21
33.891294
 31
0.0
 12
283.662733
 22
33.916294
 32
0.0
 13
283.662733
 23
33.916294
 33
0.0
  0
SOLID
  5
3B
330
35
100
AcDbEntity
  8
0
  6
BYBLOCK
 62
     0
100
AcDbTrace
 10
284.412733
 20
33.941294
 30
0.0
 11
284.412733
 21
33.891294
 31
0.0
 12
284.5627329999999
 22
33.916294
 32
0.0
 13
284.5627329999999
 23
33.916294
 33
0.0
  0
TEXT
  5
3C
330
35
100
AcDbEntity
  8
0
  6
BYBLOCK
 62
     0
100
AcDbText
 10
283.9877329999999
 20
33.953794
 30
0.0
 40
0.075
  1
0.90
  7
ROMANC
 72
     1
 11
284.1127329999999
 21
33.991294
 31
0.0
100
AcDbText
 73
     2
  0
POINT
  5
3D
330
35
100
AcDbEntity
  8
DEFPOINTS
  6
BYBLOCK
 62
     0
100
AcDbPoint
 10
283.662733
 20
34.901696
 30
0.0
  0
POINT
  5
3E
330
35
100
AcDbEntity
  8
DEFPOINTS
  6
BYBLOCK
 62
     0
100
AcDbPoint
 10
284.5627329999999
 20
34.501696
 30
0.0
  0
POINT
  5
3F
330
35
100
AcDbEntity
  8
DEFPOINTS
  6
BYBLOCK
 62
     0
100
AcDbPoint
 10
284.5627329999999
 20
33.916294
 30
0.0
  0
ENDBLK
  5
40
330
35
100
AcDbEntity
  8
0
100
AcDbBlockEnd
  0
BLOCK
  5
42
330
41
100
AcDbEntity
  8
0
100
AcDbBlockBegin
  2
*D2
 70
     1
 10
0.0
 20
0.0
 30
0.0
  3
*D2
  1

  0
LINE
  5
43
330
41
100
AcDbEntity
  8
0
  6
BYBLOCK
 62
     0
100
AcDbLine
 10
284.5627329999999
 20
34.486696
 30
0.0
 11
284.5627329999999
 21
33.901294
 31
0.0
  0
LINE
  5
44
330
41
100
AcDbEntity
  8
0
  6
BYBLOCK
 62
     0
100
AcDbLine
 10
288.162733
 20
34.486696
 30
0.0
 11
288.162733
 21
33.901294
 31
0.0
  0
LINE
  5
45
330
41
100
AcDbEntity
  8
0
  6
BYBLOCK
 62
     0
100
AcDbLine
 10
284.712733
 20
33.916294
 30
0.0
 11
288.012733
 21
33.916294
 31
0.0
  0
SOLID
  5
46
330
41
100
AcDbEntity
  8
0
  6
BYBLOCK
 62
     0
100
AcDbTrace
 10
284.712733
 20
33.941294
 30
0.0
 11
284.712733
 21
33.891294
 31
0.0
 12
284.5627329999999
 22
33.916294
 32
0.0
 13
284.5627329999999
 23
33.916294
 33
0.0
  0
SOLID
  5
47
330
41
100
AcDbEntity
  8
0
  6
BYBLOCK
 62
     0
100
AcDbTrace
 10
288.012733
 20
33.941294
 30
0.0
 11
288.012733
 21
33.891294
 31
0.0
 12
288.162733
 22
33.916294
 32
0.0
 13
288.162733
 23
33.916294
 33
0.0
  0
TEXT
  5
48
330
41
100
AcDbEntity
  8
0
  6
BYBLOCK
 62
     0
100
AcDbText
 10
286.237733
 20
33.953794
 30
0.0
 40
0.075
  1
3.60
  7
ROMANC
 72
     1
 11
286.3627329999999
 21
33.991294
 31
0.0
100
AcDbText
 73
     2
  0
POINT
  5
49
330
41
100
AcDbEntity
  8
DEFPOINTS
  6
BYBLOCK
 62
     0
100
AcDbPoint
 10
284.5627329999999
 20
34.501696
 30
0.0
  0
POINT
  5
4A
330
41
100
AcDbEntity
  8
DEFPOINTS
  6
BYBLOCK
 62
     0
100
AcDbPoint
 10
288.162733
 20
34.501696
 30
0.0
  0
POINT
  5
4B
330
41
100
AcDbEntity
  8
DEFPOINTS
  6
BYBLOCK
 62
     0
100
AcDbPoint
 10
288.162733
 20
33.916294
 30
0.0
  0
ENDBLK
  5
4C
330
41
100
AcDbEntity
  8
0
100
AcDbBlockEnd
  0
BLOCK
  5
4E
330
4D
100
AcDbEntity
  8
0
100
AcDbBlockBegin
  2
*D3
 70
     1
 10
0.0
 20
0.0
 30
0.0
  3
*D3
  1

  0
LINE
  5
4F
330
4D
100
AcDbEntity
  8
0
  6
BYBLOCK
 62
     0
100
AcDbLine
 10
288.1777329999999
 20
34.501696
 30
0.0
 11
289.2865279999999
 21
34.501696
 31
0.0
  0
LINE
  5
50
330
4D
100
AcDbEntity
  8
0
  6
BYBLOCK
 62
     0
100
AcDbLine
 10
287.777733
 20
36.301696
 30
0.0
 11
289.2865279999999
 21
36.301696
 31
0.0
  0
LINE
  5
51
330
4D
100
AcDbEntity
  8
0
  6
BYBLOCK
 62
     0
100
AcDbLine
 10
289.2715279999999
 20
34.651696
 30
0.0
 11
289.2715279999999
 21
36.151696
 31
0.0
  0
SOLID
  5
52
330
4D
100
AcDbEntity
  8
0
  6
BYBLOCK
 62
     0
100
AcDbTrace
 10
289.2465279999999
 20
34.651696
 30
0.0
 11
289.2965279999999
 21
34.651696
 31
0.0
 12
289.2715279999999
 22
34.501696
 32
0.0
 13
289.2715279999999
 23
34.501696
 33
0.0
  0
SOLID
  5
53
330
4D
100
AcDbEntity
  8
0
  6
BYBLOCK
 62
     0
100
AcDbTrace
 10
289.2465279999999
 20
36.151696
 30
0.0
 11
289.2965279999999
 21
36.151696
 31
0.0
 12
289.2715279999999
 22
36.301696
 32
0.0
 13
289.2715279999999
 23
36.301696
 33
0.0
  0
TEXT
  5
54
330
4D
100
AcDbEntity
  8
0
  6
BYBLOCK
 62
     0
100
AcDbText
 10
289.234028
 20
35.28205314285714
 30
0.0
 40
0.075
  1
1.80
 50
90.0
  7
ROMANC
 72
     1
 11
289.1965279999999
 21
35.401696
 31
0.0
100
AcDbText
 73
     2
  0
POINT
  5
55
330
4D
100
AcDbEntity
  8
DEFPOINTS
  6
BYBLOCK
 62
     0
100
AcDbPoint
 10
288.162733
 20
34.501696
 30
0.0
  0
POINT
  5
56
330
4D
100
AcDbEntity
  8
DEFPOINTS
  6
BYBLOCK
 62
     0
100
AcDbPoint
 10
287.762733
 20
36.301696
 30
0.0
  0
POINT
  5
57
330
4D
100
AcDbEntity
  8
DEFPOINTS
  6
BYBLOCK
 62
     0
100
AcDbPoint
 10
289.2715279999999
 20
36.301696
 30
0.0
  0
ENDBLK
  5
58
330
4D
100
AcDbEntity
  8
0
100
AcDbBlockEnd
  0
BLOCK
  5
5A
330
59
100
AcDbEntity
  8
0
100
AcDbBlockBegin
  2
*D4
 70
     1
 10
0.0
 20
0.0
 30
0.0
  3
*D4
  1

  0
LINE
  5
5B
330
59
100
AcDbEntity
  8
0
  6
BYBLOCK
 62
     0
100
AcDbLine
 10
283.662733
 20
36.116696
 30
0.0
 11
283.662733
 21
36.96779
 31
0.0
  0
LINE
  5
5C
330
59
100
AcDbEntity
  8
0
  6
BYBLOCK
 62
     0
100
AcDbLine
 10
284.0627329999999
 20
36.316696
 30
0.0
 11
284.0627329999999
 21
36.96779
 31
0.0
  0
LINE
  5
5D
330
59
100
AcDbEntity
  8
0
  6
BYBLOCK
 62
     0
100
AcDbLine
 10
283.512733
 20
36.95279
 30
0.0
 11
283.362733
 21
36.95279
 31
0.0
  0
LINE
  5
5E
330
59
100
AcDbEntity
  8
0
  6
BYBLOCK
 62
     0
100
AcDbLine
 10
284.212733
 20
36.95279
 30
0.0
 11
284.3627329999999
 21
36.95279
 31
0.0
  0
SOLID
  5
5F
330
59
100
AcDbEntity
  8
0
  6
BYBLOCK
 62
     0
100
AcDbTrace
 10
283.512733
 20
36.97779
 30
0.0
 11
283.512733
 21
36.92779
 31
0.0
 12
283.662733
 22
36.95279
 32
0.0
 13
283.662733
 23
36.95279
 33
0.0
  0
SOLID
  5
60
330
59
100
AcDbEntity
  8
0
  6
BYBLOCK
 62
     0
100
AcDbTrace
 10
284.212733
 20
36.97779
 30
0.0
 11
284.212733
 21
36.92779
 31
0.0
 12
284.0627329999999
 22
36.95279
 32
0.0
 13
284.0627329999999
 23
36.95279
 33
0.0
  0
LINE
  5
61
330
59
100
AcDbEntity
  8
0
  6
BYBLOCK
 62
     0
100
AcDbLine
 10
283.662733
 20
36.95279
 30
0.0
 11
284.0627329999999
 21
36.95279
 31
0.0
  0
TEXT
  5
62
330
59
100
AcDbEntity
  8
0
  6
BYBLOCK
 62
     0
100
AcDbText
 10
283.7377329999999
 20
36.99029
 30
0.0
 40
0.075
  1
0.40
  7
ROMANC
 72
     1
 11
283.8627329999999
 21
37.02779
 31
0.0
100
AcDbText
 73
     2
  0
POINT
  5
63
330
59
100
AcDbEntity
  8
DEFPOINTS
  6
BYBLOCK
 62
     0
100
AcDbPoint
 10
283.662733
 20
36.101696
 30
0.0
  0
POINT
  5
64
330
59
100
AcDbEntity
  8
DEFPOINTS
  6
BYBLOCK
 62
     0
100
AcDbPoint
 10
284.0627329999999
 20
36.301696
 30
0.0
  0
POINT
  5
65
330
59
100
AcDbEntity
  8
DEFPOINTS
  6
BYBLOCK
 62
     0
100
AcDbPoint
 10
284.0627329999999
 20
36.95279
 30
0.0
  0
ENDBLK
  5
66
330
59
100
AcDbEntity
  8
0
100
AcDbBlockEnd
  0
BLOCK
  5
68
330
67
100
AcDbEntity
  8
0
100
AcDbBlockBegin
  2
*D5
 70
     1
 10
0.0
 20
0.0
 30
0.0
  3
*D5
  1

  0
LINE
  5
69
330
67
100
AcDbEntity
  8
0
  6
BYBLOCK
 62
     0
100
AcDbLine
 10
283.647733
 20
36.101696
 30
0.0
 11
282.948099
 21
36.101696
 31
0.0
  0
LINE
  5
6A
330
67
100
AcDbEntity
  8
0
  6
BYBLOCK
 62
     0
100
AcDbLine
 10
284.047733
 20
36.301696
 30
0.0
 11
282.948099
 21
36.301696
 31
0.0
  0
LINE
  5
6B
330
67
100
AcDbEntity
  8
0
  6
BYBLOCK
 62
     0
100
AcDbLine
 10
282.963099
 20
35.951696
 30
0.0
 11
282.963099
 21
35.801696
 31
0.0
  0
LINE
  5
6C
330
67
100
AcDbEntity
  8
0
  6
BYBLOCK
 62
     0
100
AcDbLine
 10
282.963099
 20
36.451696
 30
0.0
 11
282.963099
 21
36.601696
 31
0.0
  0
SOLID
  5
6D
330
67
100
AcDbEntity
  8
0
  6
BYBLOCK
 62
     0
100
AcDbTrace
 10
282.938099
 20
35.951696
 30
0.0
 11
282.988099
 21
35.951696
 31
0.0
 12
282.963099
 22
36.101696
 32
0.0
 13
282.963099
 23
36.101696
 33
0.0
  0
SOLID
  5
6E
330
67
100
AcDbEntity
  8
0
  6
BYBLOCK
 62
     0
100
AcDbTrace
 10
282.938099
 20
36.451696
 30
0.0
 11
282.988099
 21
36.451696
 31
0.0
 12
282.963099
 22
36.301696
 32
0.0
 13
282.963099
 23
36.301696
 33
0.0
  0
LINE
  5
6F
330
67
100
AcDbEntity
  8
0
  6
BYBLOCK
 62
     0
100
AcDbLine
 10
282.963099
 20
36.101696
 30
0.0
 11
282.963099
 21
36.301696
 31
0.0
  0
TEXT
  5
70
330
67
100
AcDbEntity
  8
0
  6
BYBLOCK
 62
     0
100
AcDbText
 10
282.925599
 20
36.076696
 30
0.0
 40
0.075
  1
0.20
 50
90.0
  7
ROMANC
 72
     1
 11
282.888099
 21
36.201696
 31
0.0
100
AcDbText
 73
     2
  0
POINT
  5
71
330
67
100
AcDbEntity
  8
DEFPOINTS
  6
BYBLOCK
 62
     0
100
AcDbPoint
 10
283.662733
 20
36.101696
 30
0.0
  0
POINT
  5
72
330
67
100
AcDbEntity
  8
DEFPOINTS
  6
BYBLOCK
 62
     0
100
AcDbPoint
 10
284.0627329999999
 20
36.301696
 30
0.0
  0
POINT
  5
73
330
67
100
AcDbEntity
  8
DEFPOINTS
  6
BYBLOCK
 62
     0
100
AcDbPoint
 10
282.963099
 20
36.301696
 30
0.0
  0
ENDBLK
  5
74
330
67
100
AcDbEntity
  8
0
100
AcDbBlockEnd
  0
BLOCK
  5
76
330
75
100
AcDbEntity
  8
0
100
AcDbBlockBegin
  2
*D6
 70
     1
 10
0.0
 20
0.0
 30
0.0
  3
*D6
  1

  0
LINE
  5
77
330
75
100
AcDbEntity
  8
0
  6
BYBLOCK
 62
     0
100
AcDbLine
 10
283.647733
 20
34.901696
 30
0.0
 11
283.3115669999999
 21
34.901696
 31
0.0
  0
LINE
  5
78
330
75
100
AcDbEntity
  8
0
  6
BYBLOCK
 62
     0
100
AcDbLine
 10
284.5477329999999
 20
34.501696
 30
0.0
 11
283.3115669999999
 21
34.501696
 31
0.0
  0
LINE
  5
79
330
75
100
AcDbEntity
  8
0
  6
BYBLOCK
 62
     0
100
AcDbLine
 10
283.326567
 20
35.051696
 30
0.0
 11
283.326567
 21
35.201696
 31
0.0
  0
LINE
  5
7A
330
75
100
AcDbEntity
  8
0
  6
BYBLOCK
 62
     0
100
AcDbLine
 10
283.326567
 20
34.351696
 30
0.0
 11
283.326567
 21
34.201696
 31
0.0
  0
SOLID
  5
7B
330
75
100
AcDbEntity
  8
0
  6
BYBLOCK
 62
     0
100
AcDbTrace
 10
283.3015669999999
 20
35.051696
 30
0.0
 11
283.351567
 21
35.051696
 31
0.0
 12
283.326567
 22
34.901696
 32
0.0
 13
283.326567
 23
34.901696
 33
0.0
  0
SOLID
  5
7C
330
75
100
AcDbEntity
  8
0
  6
BYBLOCK
 62
     0
100
AcDbTrace
 10
283.3015669999999
 20
34.351696
 30
0.0
 11
283.351567
 21
34.351696
 31
0.0
 12
283.326567
 22
34.501696
 32
0.0
 13
283.326567
 23
34.501696
 33
0.0
  0
LINE
  5
7D
330
75
100
AcDbEntity
  8
0
  6
BYBLOCK
 62
     0
100
AcDbLine
 10
283.326567
 20
34.901696
 30
0.0
 11
283.326567
 21
34.501696
 31
0.0
  0
TEXT
  5
7E
330
75
100
AcDbEntity
  8
0
  6
BYBLOCK
 62
     0
100
AcDbText
 10
283.2890669999999
 20
34.576696
 30
0.0
 40
0.075
  1
0.40
 50
90.0
  7
ROMANC
 72
     1
 11
283.2515669999999
 21
34.701696
 31
0.0
100
AcDbText
 73
     2
  0
POINT
  5
7F
330
75
100
AcDbEntity
  8
DEFPOINTS
  6
BYBLOCK
 62
     0
100
AcDbPoint
 10
283.662733
 20
34.901696
 30
0.0
  0
POINT
  5
80
330
75
100
AcDbEntity
  8
DEFPOINTS
  6
BYBLOCK
 62
     0
100
AcDbPoint
 10
284.5627329999999
 20
34.501696
 30
0.0
  0
POINT
  5
81
330
75
100
AcDbEntity
  8
DEFPOINTS
  6
BYBLOCK
 62
     0
100
AcDbPoint
 10
283.326567
 20
34.501696
 30
0.0
  0
ENDBLK
  5
82
330
75
100
AcDbEntity
  8
0
100
AcDbBlockEnd
  0
BLOCK
  5
DF
330
D5
100
AcDbEntity
  8
0
100
AcDbBlockBegin
  2
*D7
 70
     1
 10
0.0
 20
0.0
 30
0.0
  3
*D7
  1

  0
LINE
  5
154
330
D5
100
AcDbEntity
  8
0
 62
     0
100
AcDbLine
 10
283.662733
 20
34.886696
 30
0.0
 11
283.662733
 21
33.178319
 31
0.0
  0
LINE
  5
155
330
D5
100
AcDbEntity
  8
0
 62
     0
100
AcDbLine
 10
288.162733
 20
34.486696
 30
0.0
 11
288.162733
 21
33.178319
 31
0.0
  0
LINE
  5
156
330
D5
100
AcDbEntity
  8
0
 62
     0
100
AcDbLine
 10
283.8127329999999
 20
33.193319
 30
0.0
 11
288.012733
 21
33.193319
 31
0.0
  0
SOLID
  5
157
330
D5
100
AcDbEntity
  8
0
 62
     0
100
AcDbTrace
 10
283.8127329999999
 20
33.218319
 30
0.0
 11
283.8127329999999
 21
33.168319
 31
0.0
 12
283.662733
 22
33.193319
 32
0.0
 13
283.662733
 23
33.193319
 33
0.0
  0
SOLID
  5
158
330
D5
100
AcDbEntity
  8
0
 62
     0
100
AcDbTrace
 10
288.012733
 20
33.218319
 30
0.0
 11
288.012733
 21
33.168319
 31
0.0
 12
288.162733
 22
33.193319
 32
0.0
 13
288.162733
 23
33.193319
 33
0.0
  0
MTEXT
  5
159
330
D5
100
AcDbEntity
  8
0
 62
     0
100
AcDbMText
 10
285.912733
 20
33.290819
 30
0.0
 40
0.075
 41
0.0
 71
     5
 72
     1
  1
\A1;4.50
  7
ROMANC
1001
ACAD
1000
MTEXTBEGIN
1070
    73
1070
     1
1070
    44
1040
1.0
1070
    74
1070
     0
1000
MTEXTEND
  0
POINT
  5
15A
330
D5
100
AcDbEntity
  8
DEFPOINTS
 62
     0
100
AcDbPoint
 10
283.662733
 20
34.901696
 30
0.0
  0
POINT
  5
15B
330
D5
100
AcDbEntity
  8
DEFPOINTS
 62
     0
100
AcDbPoint
 10
288.162733
 20
34.501696
 30
0.0
  0
POINT
  5
15C
330
D5
100
AcDbEntity
  8
DEFPOINTS
 62
     0
100
AcDbPoint
 10
288.162733
 20
33.193319
 30
0.0
  0
ENDBLK
  5
E0
330
D5
100
AcDbEntity
  8
0
100
AcDbBlockEnd
  0
BLOCK
  5
EC
330
E2
100
AcDbEntity
  8
0
100
AcDbBlockBegin
  2
*D8
 70
     1
 10
0.0
 20
0.0
 30
0.0
  3
*D8
  1

  0
LINE
  5
15D
330
E2
100
AcDbEntity
  8
0
 62
     0
100
AcDbLine
 10
283.662733
 20
34.886696
 30
0.0
 11
283.662733
 21
33.901294
 31
0.0
  0
LINE
  5
15E
330
E2
100
AcDbEntity
  8
0
 62
     0
100
AcDbLine
 10
284.5627329999999
 20
34.486696
 30
0.0
 11
284.5627329999999
 21
33.901294
 31
0.0
  0
LINE
  5
15F
330
E2
100
AcDbEntity
  8
0
 62
     0
100
AcDbLine
 10
283.8127329999999
 20
33.916294
 30
0.0
 11
284.412733
 21
33.916294
 31
0.0
  0
SOLID
  5
160
330
E2
100
AcDbEntity
  8
0
 62
     0
100
AcDbTrace
 10
283.8127329999999
 20
33.941294
 30
0.0
 11
283.8127329999999
 21
33.891294
 31
0.0
 12
283.662733
 22
33.916294
 32
0.0
 13
283.662733
 23
33.916294
 33
0.0
  0
SOLID
  5
161
330
E2
100
AcDbEntity
  8
0
 62
     0
100
AcDbTrace
 10
284.412733
 20
33.941294
 30
0.0
 11
284.412733
 21
33.891294
 31
0.0
 12
284.5627329999999
 22
33.916294
 32
0.0
 13
284.5627329999999
 23
33.916294
 33
0.0
  0
MTEXT
  5
162
330
E2
100
AcDbEntity
  8
0
 62
     0
100
AcDbMText
 10
284.1127329999999
 20
34.01379399999999
 30
0.0
 40
0.075
 41
0.0
 71
     5
 72
     1
  1
\A1;0.90
  7
ROMANC
1001
ACAD
1000
MTEXTBEGIN
1070
    73
1070
     1
1070
    44
1040
1.0
1070
    74
1070
     0
1000
MTEXTEND
  0
POINT
  5
163
330
E2
100
AcDbEntity
  8
DEFPOINTS
 62
     0
100
AcDbPoint
 10
283.662733
 20
34.901696
 30
0.0
  0
POINT
  5
164
330
E2
100
AcDbEntity
  8
DEFPOINTS
 62
     0
100
AcDbPoint
 10
284.5627329999999
 20
34.501696
 30
0.0
  0
POINT
  5
165
330
E2
100
AcDbEntity
  8
DEFPOINTS
 62
     0
100
AcDbPoint
 10
284.5627329999999
 20
33.916294
 30
0.0
  0
ENDBLK
  5
ED
330
E2
100
AcDbEntity
  8
0
100
AcDbBlockEnd
  0
BLOCK
  5
F9
330
EF
100
AcDbEntity
  8
0
100
AcDbBlockBegin
  2
*D9
 70
     1
 10
0.0
 20
0.0
 30
0.0
  3
*D9
  1

  0
LINE
  5
166
330
EF
100
AcDbEntity
  8
0
 62
     0
100
AcDbLine
 10
284.5627329999999
 20
34.486696
 30
0.0
 11
284.5627329999999
 21
33.901294
 31
0.0
  0
LINE
  5
167
330
EF
100
AcDbEntity
  8
0
 62
     0
100
AcDbLine
 10
288.162733
 20
34.486696
 30
0.0
 11
288.162733
 21
33.901294
 31
0.0
  0
LINE
  5
168
330
EF
100
AcDbEntity
  8
0
 62
     0
100
AcDbLine
 10
284.7127329999999
 20
33.916294
 30
0.0
 11
288.012733
 21
33.916294
 31
0.0
  0
SOLID
  5
169
330
EF
100
AcDbEntity
  8
0
 62
     0
100
AcDbTrace
 10
284.7127329999999
 20
33.941294
 30
0.0
 11
284.7127329999999
 21
33.891294
 31
0.0
 12
284.5627329999999
 22
33.916294
 32
0.0
 13
284.5627329999999
 23
33.916294
 33
0.0
  0
SOLID
  5
16A
330
EF
100
AcDbEntity
  8
0
 62
     0
100
AcDbTrace
 10
288.012733
 20
33.941294
 30
0.0
 11
288.012733
 21
33.891294
 31
0.0
 12
288.162733
 22
33.916294
 32
0.0
 13
288.162733
 23
33.916294
 33
0.0
  0
MTEXT
  5
16B
330
EF
100
AcDbEntity
  8
0
 62
     0
100
AcDbMText
 10
286.3627329999999
 20
34.01379399999999
 30
0.0
 40
0.075
 41
0.0
 71
     5
 72
     1
  1
\A1;3.60
  7
ROMANC
1001
ACAD
1000
MTEXTBEGIN
1070
    73
1070
     1
1070
    44
1040
1.0
1070
    74
1070
     0
1000
MTEXTEND
  0
POINT
  5
16C
330
EF
100
AcDbEntity
  8
DEFPOINTS
 62
     0
100
AcDbPoint
 10
284.5627329999999
 20
34.501696
 30
0.0
  0
POINT
  5
16D
330
EF
100
AcDbEntity
  8
DEFPOINTS
 62
     0
100
AcDbPoint
 10
288.162733
 20
34.501696
 30
0.0
  0
POINT
  5
16E
330
EF
100
AcDbEntity
  8
DEFPOINTS
 62
     0
100
AcDbPoint
 10
288.162733
 20
33.916294
 30
0.0
  0
ENDBLK
  5
FA
330
EF
100
AcDbEntity
  8
0
100
AcDbBlockEnd
  0
BLOCK
  5
106
330
FC
100
AcDbEntity
  8
0
100
AcDbBlockBegin
  2
*D10
 70
     1
 10
0.0
 20
0.0
 30
0.0
  3
*D10
  1

  0
LINE
  5
16F
330
FC
100
AcDbEntity
  8
0
 62
     0
100
AcDbLine
 10
288.1777329999999
 20
34.501696
 30
0.0
 11
289.2865279999999
 21
34.501696
 31
0.0
  0
LINE
  5
170
330
FC
100
AcDbEntity
  8
0
 62
     0
100
AcDbLine
 10
287.777733
 20
36.301696
 30
0.0
 11
289.2865279999999
 21
36.301696
 31
0.0
  0
LINE
  5
171
330
FC
100
AcDbEntity
  8
0
 62
     0
100
AcDbLine
 10
289.2715279999999
 20
34.651696
 30
0.0
 11
289.2715279999999
 21
36.151696
 31
0.0
  0
SOLID
  5
172
330
FC
100
AcDbEntity
  8
0
 62
     0
100
AcDbTrace
 10
289.246528
 20
34.651696
 30
0.0
 11
289.2965279999999
 21
34.651696
 31
0.0
 12
289.2715279999999
 22
34.501696
 32
0.0
 13
289.2715279999999
 23
34.501696
 33
0.0
  0
SOLID
  5
173
330
FC
100
AcDbEntity
  8
0
 62
     0
100
AcDbTrace
 10
289.246528
 20
36.151696
 30
0.0
 11
289.2965279999999
 21
36.151696
 31
0.0
 12
289.2715279999999
 22
36.301696
 32
0.0
 13
289.2715279999999
 23
36.301696
 33
0.0
  0
MTEXT
  5
174
330
FC
100
AcDbEntity
  8
0
 62
     0
100
AcDbMText
 10
289.1740279999999
 20
35.40169600000005
 30
0.0
 40
0.075
 41
0.0
 71
     5
 72
     1
  1
\A1;1.80
  7
ROMANC
 11
0.0000000000000001
 21
1.0
 31
0.0
1001
ACAD
1000
MTEXTBEGIN
1070
    73
1070
     1
1070
    44
1040
1.0
1070
    74
1070
     0
1000
MTEXTEND
  0
POINT
  5
175
330
FC
100
AcDbEntity
  8
DEFPOINTS
 62
     0
100
AcDbPoint
 10
288.162733
 20
34.501696
 30
0.0
  0
POINT
  5
176
330
FC
100
AcDbEntity
  8
DEFPOINTS
 62
     0
100
AcDbPoint
 10
287.762733
 20
36.301696
 30
0.0
  0
POINT
  5
177
330
FC
100
AcDbEntity
  8
DEFPOINTS
 62
     0
100
AcDbPoint
 10
289.2715279999999
 20
36.301696
 30
0.0
  0
ENDBLK
  5
107
330
FC
100
AcDbEntity
  8
0
100
AcDbBlockEnd
  0
BLOCK
  5
115
330
109
100
AcDbEntity
  8
0
100
AcDbBlockBegin
  2
*D11
 70
     1
 10
0.0
 20
0.0
 30
0.0
  3
*D11
  1

  0
LINE
  5
178
330
109
100
AcDbEntity
  8
0
 62
     0
100
AcDbLine
 10
283.662733
 20
36.116696
 30
0.0
 11
283.662733
 21
36.96779
 31
0.0
  0
LINE
  5
179
330
109
100
AcDbEntity
  8
0
 62
     0
100
AcDbLine
 10
284.0627329999999
 20
36.316696
 30
0.0
 11
284.0627329999999
 21
36.96779
 31
0.0
  0
LINE
  5
17A
330
109
100
AcDbEntity
  8
0
 62
     0
100
AcDbLine
 10
283.512733
 20
36.95279
 30
0.0
 11
283.362733
 21
36.95279
 31
0.0
  0
LINE
  5
17B
330
109
100
AcDbEntity
  8
0
 62
     0
100
AcDbLine
 10
284.2127329999999
 20
36.95279
 30
0.0
 11
284.3627329999999
 21
36.95279
 31
0.0
  0
LINE
  5
17C
330
109
100
AcDbEntity
  8
0
 62
     0
100
AcDbLine
 10
283.662733
 20
36.95279
 30
0.0
 11
284.0627329999999
 21
36.95279
 31
0.0
  0
SOLID
  5
17D
330
109
100
AcDbEntity
  8
0
 62
     0
100
AcDbTrace
 10
283.512733
 20
36.97779
 30
0.0
 11
283.512733
 21
36.92779
 31
0.0
 12
283.662733
 22
36.95279
 32
0.0
 13
283.662733
 23
36.95279
 33
0.0
  0
SOLID
  5
17E
330
109
100
AcDbEntity
  8
0
 62
     0
100
AcDbTrace
 10
284.2127329999999
 20
36.97779
 30
0.0
 11
284.2127329999999
 21
36.92779
 31
0.0
 12
284.0627329999999
 22
36.95279
 32
0.0
 13
284.0627329999999
 23
36.95279
 33
0.0
  0
MTEXT
  5
17F
330
109
100
AcDbEntity
  8
0
 62
     0
100
AcDbMText
 10
283.8627329999999
 20
37.05028999999999
 30
0.0
 40
0.075
 41
0.0
 71
     5
 72
     1
  1
\A1;0.40
  7
ROMANC
1001
ACAD
1000
MTEXTBEGIN
1070
    73
1070
     1
1070
    44
1040
1.0
1070
    74
1070
     0
1000
MTEXTEND
  0
POINT
  5
180
330
109
100
AcDbEntity
  8
DEFPOINTS
 62
     0
100
AcDbPoint
 10
283.662733
 20
36.101696
 30
0.0
  0
POINT
  5
181
330
109
100
AcDbEntity
  8
DEFPOINTS
 62
     0
100
AcDbPoint
 10
284.0627329999999
 20
36.301696
 30
0.0
  0
POINT
  5
182
330
109
100
AcDbEntity
  8
DEFPOINTS
 62
     0
100
AcDbPoint
 10
284.0627329999999
 20
36.95279
 30
0.0
  0
ENDBLK
  5
116
330
109
100
AcDbEntity
  8
0
100
AcDbBlockEnd
  0
BLOCK
  5
124
330
118
100
AcDbEntity
  8
0
100
AcDbBlockBegin
  2
*D12
 70
     1
 10
0.0
 20
0.0
 30
0.0
  3
*D12
  1

  0
LINE
  5
183
330
118
100
AcDbEntity
  8
0
 62
     0
100
AcDbLine
 10
283.647733
 20
36.101696
 30
0.0
 11
282.948099
 21
36.101696
 31
0.0
  0
LINE
  5
184
330
118
100
AcDbEntity
  8
0
 62
     0
100
AcDbLine
 10
284.047733
 20
36.301696
 30
0.0
 11
282.948099
 21
36.301696
 31
0.0
  0
LINE
  5
185
330
118
100
AcDbEntity
  8
0
 62
     0
100
AcDbLine
 10
282.963099
 20
35.951696
 30
0.0
 11
282.963099
 21
35.801696
 31
0.0
  0
LINE
  5
186
330
118
100
AcDbEntity
  8
0
 62
     0
100
AcDbLine
 10
282.963099
 20
36.451696
 30
0.0
 11
282.963099
 21
36.60169599999999
 31
0.0
  0
LINE
  5
187
330
118
100
AcDbEntity
  8
0
 62
     0
100
AcDbLine
 10
282.963099
 20
36.101696
 30
0.0
 11
282.963099
 21
36.301696
 31
0.0
  0
SOLID
  5
188
330
118
100
AcDbEntity
  8
0
 62
     0
100
AcDbTrace
 10
282.938099
 20
35.951696
 30
0.0
 11
282.9880989999999
 21
35.951696
 31
0.0
 12
282.963099
 22
36.101696
 32
0.0
 13
282.963099
 23
36.101696
 33
0.0
  0
SOLID
  5
189
330
118
100
AcDbEntity
  8
0
 62
     0
100
AcDbTrace
 10
282.938099
 20
36.451696
 30
0.0
 11
282.9880989999999
 21
36.451696
 31
0.0
 12
282.963099
 22
36.301696
 32
0.0
 13
282.963099
 23
36.301696
 33
0.0
  0
MTEXT
  5
18A
330
118
100
AcDbEntity
  8
0
 62
     0
100
AcDbMText
 10
282.8655989999999
 20
36.20169600000005
 30
0.0
 40
0.075
 41
0.0
 71
     5
 72
     1
  1
\A1;0.20
  7
ROMANC
 11
0.0000000000000001
 21
1.0
 31
0.0
1001
ACAD
1000
MTEXTBEGIN
1070
    73
1070
     1
1070
    44
1040
1.0
1070
    74
1070
     0
1000
MTEXTEND
  0
POINT
  5
18B
330
118
100
AcDbEntity
  8
DEFPOINTS
 62
     0
100
AcDbPoint
 10
283.662733
 20
36.101696
 30
0.0
  0
POINT
  5
18C
330
118
100
AcDbEntity
  8
DEFPOINTS
 62
     0
100
AcDbPoint
 10
284.0627329999999
 20
36.301696
 30
0.0
  0
POINT
  5
18D
330
118
100
AcDbEntity
  8
DEFPOINTS
 62
     0
100
AcDbPoint
 10
282.963099
 20
36.301696
 30
0.0
  0
ENDBLK
  5
125
330
118
100
AcDbEntity
  8
0
100
AcDbBlockEnd
  0
BLOCK
  5
133
330
127
100
AcDbEntity
  8
0
100
AcDbBlockBegin
  2
*D13
 70
     1
 10
0.0
 20
0.0
 30
0.0
  3
*D13
  1

  0
LINE
  5
18E
330
127
100
AcDbEntity
  8
0
 62
     0
100
AcDbLine
 10
283.647733
 20
34.901696
 30
0.0
 11
283.311567
 21
34.901696
 31
0.0
  0
LINE
  5
18F
330
127
100
AcDbEntity
  8
0
 62
     0
100
AcDbLine
 10
284.5477329999999
 20
34.501696
 30
0.0
 11
283.311567
 21
34.501696
 31
0.0
  0
LINE
  5
190
330
127
100
AcDbEntity
  8
0
 62
     0
100
AcDbLine
 10
283.326567
 20
35.051696
 30
0.0
 11
283.326567
 21
35.201696
 31
0.0
  0
LINE
  5
191
330
127
100
AcDbEntity
  8
0
 62
     0
100
AcDbLine
 10
283.326567
 20
34.351696
 30
0.0
 11
283.326567
 21
34.201696
 31
0.0
  0
LINE
  5
192
330
127
100
AcDbEntity
  8
0
 62
     0
100
AcDbLine
 10
283.326567
 20
34.901696
 30
0.0
 11
283.326567
 21
34.501696
 31
0.0
  0
SOLID
  5
193
330
127
100
AcDbEntity
  8
0
 62
     0
100
AcDbTrace
 10
283.301567
 20
35.051696
 30
0.0
 11
283.351567
 21
35.051696
 31
0.0
 12
283.326567
 22
34.901696
 32
0.0
 13
283.326567
 23
34.901696
 33
0.0
  0
SOLID
  5
194
330
127
100
AcDbEntity
  8
0
 62
     0
100
AcDbTrace
 10
283.301567
 20
34.351696
 30
0.0
 11
283.351567
 21
34.351696
 31
0.0
 12
283.326567
 22
34.501696
 32
0.0
 13
283.326567
 23
34.501696
 33
0.0
  0
MTEXT
  5
195
330
127
100
AcDbEntity
  8
0
 62
     0
100
AcDbMText
 10
283.2290669999999
 20
34.70169600000005
 30
0.0
 40
0.075
 41
0.0
 71
     5
 72
     1
  1
\A1;0.40
  7
ROMANC
 11
0.0000000000000001
 21
1.0
 31
0.0
1001
ACAD
1000
MTEXTBEGIN
1070
    73
1070
     1
1070
    44
1040
1.0
1070
    74
1070
     0
1000
MTEXTEND
  0
POINT
  5
196
330
127
100
AcDbEntity
  8
DEFPOINTS
 62
     0
100
AcDbPoint
 10
283.662733
 20
34.901696
 30
0.0
  0
POINT
  5
197
330
127
100
AcDbEntity
  8
DEFPOINTS
 62
     0
100
AcDbPoint
 10
284.5627329999999
 20
34.501696
 30
0.0
  0
POINT
  5
198
330
127
100
AcDbEntity
  8
DEFPOINTS
 62
     0
100
AcDbPoint
 10
283.326567
 20
34.501696
 30
0.0
  0
ENDBLK
  5
134
330
127
100
AcDbEntity
  8
0
100
AcDbBlockEnd
  0
ENDSEC
  0
SECTION
  2
ENTITIES
  0
LINE
  5
C3
330
1E
100
AcDbEntity
  8
0
100
AcDbLine
 10
291.895795
 20
29.897444
 30
0.0
 11
291.895795
 21
44.747444
 31
0.0
  0
TEXT
  5
C4
330
1E
100
AcDbEntity
  8
0
100
AcDbText
 10
283.887846
 20
40.56142
 30
0.0
 40
0.3
  1
P = 122.9 dm
  7
ROMANC
100
AcDbText
  0
LINE
  5
C5
330
1E
100
AcDbEntity
  8
0
100
AcDbLine
 10
281.395795
 20
44.747444
 30
0.0
 11
281.395795
 21
29.897444
 31
0.0
  0
LINE
  5
C6
330
1E
100
AcDbEntity
  8
0
100
AcDbLine
 10
281.395795
 20
29.897444
 30
0.0
 11
291.895795
 21
29.897444
 31
0.0
  0
LINE
  5
C7
330
1E
100
AcDbEntity
  8
0
100
AcDbLine
 10
291.895795
 20
44.747444
 30
0.0
 11
281.395795
 21
44.747444
 31
0.0
  0
TEXT
  5
C8
330
1E
100
AcDbEntity
  8
0
100
AcDbText
 10
287.1222709999999
 20
41.564915
 30
0.0
 40
0.1
  1
2
  7
ROMANC
100
AcDbText
  0
TEXT
  5
C9
330
1E
100
AcDbEntity
  8
0
100
AcDbText
 10
283.925768
 20
41.857589
 30
0.0
 40
0.3
  1
ESCALA  1:50
  7
ROMANC
100
AcDbText
  0
TEXT
  5
CA
330
1E
100
AcDbEntity
  8
0
100
AcDbText
 10
283.925768
 20
42.343303
 30
0.0
 40
0.3
  1
TIPUS   NT766A
  7
ROMANC
100
AcDbText
  0
TEXT
  5
CB
330
1E
100
AcDbEntity
  8
0
100
AcDbText
 10
283.938862
 20
41.25899899999999
 30
0.0
 40
0.3
  1
S= 766  dm
  7
ROMANC
100
AcDbText
  0
LWPOLYLINE
  5
CC
330
1E
100
AcDbEntity
  8
0
100
AcDbPolyline
 90
        2
 70
     0
 43
0.0
 10
285.5620019999999
 20
36.153868
 42
0.113017
 10
285.5620019999999
 20
36.153868
  0
LWPOLYLINE
  5
D0
330
1E
100
AcDbEntity
  8
0
100
AcDbPolyline
 90
        2
 70
     0
 43
0.0
 10
285.5620019999999
 20
36.153868
 42
0.098491
 10
285.5620019999999
 20
36.153868
  0
DIMENSION
  5
D4
330
1E
100
AcDbEntity
  8
0
100
AcDbDimension
  2
*D7
 10
288.162733
 20
33.193319
 30
0.0
 11
285.912733
 21
33.290819
 31
0.0
 70
    32
  3
SILVIA
100
AcDbAlignedDimension
 13
283.662733
 23
34.901696
 33
0.0
 14
288.162733
 24
34.501696
 34
0.0
100
AcDbRotatedDimension
  0
DIMENSION
  5
E1
330
1E
100
AcDbEntity
  8
0
100
AcDbDimension
  2
*D8
 10
284.5627329999999
 20
33.916294
 30
0.0
 11
284.1127329999999
 21
34.01379399999999
 31
0.0
 70
    32
  3
SILVIA
100
AcDbAlignedDimension
 13
283.662733
 23
34.901696
 33
0.0
 14
284.5627329999999
 24
34.501696
 34
0.0
100
AcDbRotatedDimension
  0
DIMENSION
  5
EE
330
1E
100
AcDbEntity
  8
0
100
AcDbDimension
  2
*D9
 10
288.162733
 20
33.916294
 30
0.0
 11
286.3627329999999
 21
34.01379399999999
 31
0.0
 70
    32
  3
SILVIA
100
AcDbAlignedDimension
 13
284.5627329999999
 23
34.501696
 33
0.0
 14
288.162733
 24
34.501696
 34
0.0
100
AcDbRotatedDimension
  0
DIMENSION
  5
FB
330
1E
100
AcDbEntity
  8
0
100
AcDbDimension
  2
*D10
 10
289.2715279999999
 20
36.301696
 30
0.0
 11
289.1740279999999
 21
35.40169600000005
 31
0.0
 70
    32
  3
SILVIA
100
AcDbAlignedDimension
 13
288.162733
 23
34.501696
 33
0.0
 14
287.762733
 24
36.301696
 34
0.0
 50
90.0
100
AcDbRotatedDimension
  0
DIMENSION
  5
108
330
1E
100
AcDbEntity
  8
0
100
AcDbDimension
  2
*D11
 10
284.0627329999999
 20
36.95279
 30
0.0
 11
283.8627329999999
 21
37.05028999999999
 31
0.0
 70
    32
  3
SILVIA
100
AcDbAlignedDimension
 13
283.662733
 23
36.101696
 33
0.0
 14
284.0627329999999
 24
36.301696
 34
0.0
100
AcDbRotatedDimension
  0
DIMENSION
  5
117
330
1E
100
AcDbEntity
  8
0
100
AcDbDimension
  2
*D12
 10
282.963099
 20
36.301696
 30
0.0
 11
282.8655989999999
 21
36.20169600000005
 31
0.0
 70
    32
  3
SILVIA
100
AcDbAlignedDimension
 13
283.662733
 23
36.101696
 33
0.0
 14
284.0627329999999
 24
36.301696
 34
0.0
 50
90.0
100
AcDbRotatedDimension
  0
DIMENSION
  5
126
330
1E
100
AcDbEntity
  8
0
100
AcDbDimension
  2
*D13
 10
283.326567
 20
34.501696
 30
0.0
 11
283.2290669999999
 21
34.70169600000005
 31
0.0
 70
    32
  3
SILVIA
100
AcDbAlignedDimension
 13
283.662733
 23
34.901696
 33
0.0
 14
284.5627329999999
 24
34.501696
 34
0.0
 50
90.0
100
AcDbRotatedDimension
  0
LWPOLYLINE
  5
135
330
1E
100
AcDbEntity
  8
0
100
AcDbPolyline
 90
        8
 70
     1
 43
0.0
 10
283.662733
 20
36.101696
 10
283.662733
 20
34.901696
 10
284.5627329999999
 20
34.901696
 10
284.5627329999999
 20
34.501696
 10
288.162733
 20
34.501696
 10
288.162733
 20
36.101696
 10
287.762733
 20
36.301696
 10
284.0627329999999
 20
36.301696
  0
LWPOLYLINE
  5
13F
330
1E
100
AcDbEntity
  8
0
100
AcDbPolyline
 90
        8
 70
     1
 43
0.0
 10
283.652733
 20
36.107876
 10
283.652733
 20
34.891696
 10
284.5527329999999
 20
34.891696
 10
284.5527329999999
 20
34.491696
 10
288.172733
 20
34.491696
 10
288.172733
 20
36.107876
 10
287.7650939999999
 20
36.311696
 10
284.0603729999999
 20
36.311696
  0
LWPOLYLINE
  5
149
330
1E
100
AcDbEntity
  8
0
100
AcDbPolyline
 90
        8
 70
     1
 43
0.0
 10
283.672733
 20
36.09551599999999
 10
283.672733
 20
34.911696
 10
284.572733
 20
34.911696
 10
284.572733
 20
34.511696
 10
288.152733
 20
34.511696
 10
288.152733
 20
36.09551599999999
 10
287.760373
 20
36.291696
 10
284.0650939999999
 20
36.291696
  0
ENDSEC
  0
SECTION
  2
OBJECTS
  0
DICTIONARY
  5
C
330
0
100
AcDbDictionary
  3
ACAD_GROUP
350
D
  3
ACAD_PLOTSTYLENAME
350
E
  3
ACAD_MLINESTYLE
350
16
  3
ACAD_PLOTSETTINGS
350
18
  3
ACAD_LAYOUT
350
19
  3
ACDBHEADERROUNDTRIPXREC
350
1BF
  0
DICTIONARY
  5
1E1
330
1E
100
AcDbDictionary
280
     1
  3
ACAD_LAYOUTSELFREF
360
1E2
  0
DICTIONARY
  5
1DF
330
1A
100
AcDbDictionary
280
     1
  3
ACAD_LAYOUTSELFREF
360
1E0
  0
DICTIONARY
  5
D
102
{ACAD_REACTORS
330
C
102
}
330
C
100
AcDbDictionary
  0
ACDBDICTIONARYWDFLT
  5
E
102
{ACAD_REACTORS
330
C
102
}
330
C
100
AcDbDictionary
281
     1
  3
Normal
350
F
100
AcDbDictionaryWithDefault
340
F
  0
DICTIONARY
  5
16
102
{ACAD_REACTORS
330
C
102
}
330
C
100
AcDbDictionary
  3
STANDARD
350
17
  0
DICTIONARY
  5
18
102
{ACAD_REACTORS
330
C
102
}
330
C
100
AcDbDictionary
  0
DICTIONARY
  5
19
102
{ACAD_REACTORS
330
C
102
}
330
C
100
AcDbDictionary
  0
DICTIONARY
  5
1BF
102
{ACAD_REACTORS
330
C
102
}
330
C
100
AcDbDictionary
  3
TSTACKALIGN
350
1C0
  3
TSTACKSIZE
350
1C1
  3
HYPERLINKBASE
350
1C2
  3
STYLESHEET
350
1C3
  3
LAYOUTDICT
350
1C4
  3
PLOTSETDICT
350
1C5
  3
PLOTSTYLNAMDICT
350
1C6
  3
LWETCUNION
350
1C7
  3
INSUNITS
350
1C8
  3
CEPSNTYPE
350
1C9
  3
FINGERPRINTGUID
350
1CA
  3
VERSIONGUID
350
1CB
  3
PSVPSCALE
350
1CC
  3
PUCSORTHOREF
350
1CD
  3
PUCSORTHOVIEW
350
1CE
  3
PUCSBASE
350
1CF
  3
PUCSORGTOP
350
1D0
  3
PUCSORGBOTTOM
350
1D1
  3
PUCSORGLEFT
350
1D2
  3
PUCSORGRIGHT
350
1D3
  3
PUCSORGFRONT
350
1D4
  3
PUCSORGBACK
350
1D5
  3
UCSORTHOREF
350
1D6
  3
UCSORTHOVIEW
350
1D7
  3
UCSBASE
350
1D8
  3
UCSORGTOP
350
1D9
  3
UCSORGBOTTOM
350
1DA
  3
UCSORGLEFT
350
1DB
  3
UCSORGRIGHT
350
1DC
  3
UCSORGFRONT
350
1DD
  3
UCSORGBACK
350
1DE
  0
XRECORD
  5
1E2
102
{ACAD_REACTORS
330
1E1
102
}
330
1E1
100
AcDbXrecord
340
1E
  0
XRECORD
  5
1E0
102
{ACAD_REACTORS
330
1DF
102
}
330
1DF
100
AcDbXrecord
340
1A
  0
ACDBPLACEHOLDER
  5
F
102
{ACAD_REACTORS
330
E
102
}
330
E
100
AcDbPlaceHolder
280
     0
  0
MLINESTYLE
  5
17
102
{ACAD_REACTORS
330
16
102
}
330
16
100
AcDbMlineStyle
  2
STANDARD
 70
     0
  3

 62
   256
 51
90.0
 52
90.0
 71
     2
 49
0.5
 62
   256
  6
BYLAYER
 49
-0.5
 62
   256
  6
BYLAYER
  0
XRECORD
  5
1C0
102
{ACAD_REACTORS
330
1BF
102
}
330
1BF
100
AcDbXrecord
 90
        1
  0
XRECORD
  5
1C1
102
{ACAD_REACTORS
330
1BF
102
}
330
1BF
100
AcDbXrecord
 90
       70
  0
XRECORD
  5
1C2
102
{ACAD_REACTORS
330
1BF
102
}
330
1BF
100
AcDbXrecord
  1

  0
XRECORD
  5
1C3
102
{ACAD_REACTORS
330
1BF
102
}
330
1BF
100
AcDbXrecord
  1

  0
XRECORD
  5
1C4
102
{ACAD_REACTORS
330
1BF
102
}
330
1BF
100
AcDbXrecord
340
19
  0
XRECORD
  5
1C5
102
{ACAD_REACTORS
330
1BF
102
}
330
1BF
100
AcDbXrecord
340
18
  0
XRECORD
  5
1C6
102
{ACAD_REACTORS
330
1BF
102
}
330
1BF
100
AcDbXrecord
340
E
  0
XRECORD
  5
1C7
102
{ACAD_REACTORS
330
1BF
102
}
330
1BF
100
AcDbXrecord
 90
    10781
  0
XRECORD
  5
1C8
102
{ACAD_REACTORS
330
1BF
102
}
330
1BF
100
AcDbXrecord
 90
        0
  0
XRECORD
  5
1C9
102
{ACAD_REACTORS
330
1BF
102
}
330
1BF
100
AcDbXrecord
 90
        0
  0
XRECORD
  5
1CA
102
{ACAD_REACTORS
330
1BF
102
}
330
1BF
100
AcDbXrecord
  1
{971BD06F-D445-4868-A58F-F7F3E1A40507}
  0
XRECORD
  5
1CB
102
{ACAD_REACTORS
330
1BF
102
}
330
1BF
100
AcDbXrecord
  1
{A12CBEB3-7425-4368-85E9-F503E846AB86}
  0
XRECORD
  5
1CC
102
{ACAD_REACTORS
330
1BF
102
}
330
1BF
100
AcDbXrecord
 40
0.0
  0
XRECORD
  5
1CD
102
{ACAD_REACTORS
330
1BF
102
}
330
1BF
100
AcDbXrecord
340
0
  0
XRECORD
  5
1CE
102
{ACAD_REACTORS
330
1BF
102
}
330
1BF
100
AcDbXrecord
 70
     0
  0
XRECORD
  5
1CF
102
{ACAD_REACTORS
330
1BF
102
}
330
1BF
100
AcDbXrecord
340
0
  0
XRECORD
  5
1D0
102
{ACAD_REACTORS
330
1BF
102
}
330
1BF
100
AcDbXrecord
 10
0.0
 20
0.0
 30
0.0
  0
XRECORD
  5
1D1
102
{ACAD_REACTORS
330
1BF
102
}
330
1BF
100
AcDbXrecord
 10
0.0
 20
0.0
 30
0.0
  0
XRECORD
  5
1D2
102
{ACAD_REACTORS
330
1BF
102
}
330
1BF
100
AcDbXrecord
 10
0.0
 20
0.0
 30
0.0
  0
XRECORD
  5
1D3
102
{ACAD_REACTORS
330
1BF
102
}
330
1BF
100
AcDbXrecord
 10
0.0
 20
0.0
 30
0.0
  0
XRECORD
  5
1D4
102
{ACAD_REACTORS
330
1BF
102
}
330
1BF
100
AcDbXrecord
 10
0.0
 20
0.0
 30
0.0
  0
XRECORD
  5
1D5
102
{ACAD_REACTORS
330
1BF
102
}
330
1BF
100
AcDbXrecord
 10
0.0
 20
0.0
 30
0.0
  0
XRECORD
  5
1D6
102
{ACAD_REACTORS
330
1BF
102
}
330
1BF
100
AcDbXrecord
340
0
  0
XRECORD
  5
1D7
102
{ACAD_REACTORS
330
1BF
102
}
330
1BF
100
AcDbXrecord
 70
     0
  0
XRECORD
  5
1D8
102
{ACAD_REACTORS
330
1BF
102
}
330
1BF
100
AcDbXrecord
340
0
  0
XRECORD
  5
1D9
102
{ACAD_REACTORS
330
1BF
102
}
330
1BF
100
AcDbXrecord
 10
0.0
 20
0.0
 30
0.0
  0
XRECORD
  5
1DA
102
{ACAD_REACTORS
330
1BF
102
}
330
1BF
100
AcDbXrecord
 10
0.0
 20
0.0
 30
0.0
  0
XRECORD
  5
1DB
102
{ACAD_REACTORS
330
1BF
102
}
330
1BF
100
AcDbXrecord
 10
0.0
 20
0.0
 30
0.0
  0
XRECORD
  5
1DC
102
{ACAD_REACTORS
330
1BF
102
}
330
1BF
100
AcDbXrecord
 10
0.0
 20
0.0
 30
0.0
  0
XRECORD
  5
1DD
102
{ACAD_REACTORS
330
1BF
102
}
330
1BF
100
AcDbXrecord
 10
0.0
 20
0.0
 30
0.0
  0
XRECORD
  5
1DE
102
{ACAD_REACTORS
330
1BF
102
}
330
1BF
100
AcDbXrecord
 10
0.0
 20
0.0
 30
0.0
  0
ENDSEC
  0
EOF
