  0
SECTION
  2
HEADER
  9
$ACADVER
  1
AC1015
  9
$ACADMAINTVER
 70
     6
  9
$DWGCODEPAGE
  3
ANSI_1252
  9
$INSBASE
 10
105.4640269999999
 20
-4.528761
 30
0.0
  9
$EXTMIN
 10
281.3870252079646
 20
29.87588502942992
 30
-0.0015258207003583
  9
$EXTMAX
 10
291.8972786491472
 20
44.76706391404604
 30
0.0000000349246037
  9
$LIMMIN
 10
0.0
 20
0.0
  9
$LIMMAX
 10
410.0
 20
287.0
  9
$ORTHOMODE
 70
     0
  9
$REGENMODE
 70
     1
  9
$FILLMODE
 70
     1
  9
$QTEXTMODE
 70
     0
  9
$MIRRTEXT
 70
     1
  9
$LTSCALE
 40
25.0
  9
$ATTMODE
 70
     1
  9
$TEXTSIZE
 40
0.1
  9
$TRACEWID
 40
1.0
  9
$TEXTSTYLE
  7
ROMANC
  9
$CLAYER
  8
0
  9
$CELTYPE
  6
ByLayer
  9
$CECOLOR
 62
   256
  9
$CELTSCALE
 40
1.0
  9
$DISPSILH
 70
     0
  9
$DIMSCALE
 40
1.5
  9
$DIMASZ
 40
0.1
  9
$DIMEXO
 40
0.01
  9
$DIMDLI
 40
7.0
  9
$DIMRND
 40
0.0
  9
$DIMDLE
 40
0.0
  9
$DIMEXE
 40
0.01
  9
$DIMTP
 40
0.0
  9
$DIMTM
 40
0.0
  9
$DIMTXT
 40
0.05
  9
$DIMCEN
 40
0.1
  9
$DIMTSZ
 40
0.0
  9
$DIMTOL
 70
     0
  9
$DIMLIM
 70
     0
  9
$DIMTIH
 70
     0
  9
$DIMTOH
 70
     0
  9
$DIMSE1
 70
     0
  9
$DIMSE2
 70
     0
  9
$DIMTAD
 70
     1
  9
$DIMZIN
 70
     0
  9
$DIMBLK
  1

  9
$DIMASO
 70
     1
  9
$DIMSHO
 70
     0
  9
$DIMPOST
  1

  9
$DIMAPOST
  1

  9
$DIMALT
 70
     0
  9
$DIMALTD
 70
     2
  9
$DIMALTF
 40
25.4
  9
$DIMLFAC
 40
1.0
  9
$DIMTOFL
 70
     1
  9
$DIMTVP
 40
0.0
  9
$DIMTIX
 70
     1
  9
$DIMSOXD
 70
     0
  9
$DIMSAH
 70
     0
  9
$DIMBLK1
  1

  9
$DIMBLK2
  1

  9
$DIMSTYLE
  2
SILVIA
  9
$DIMCLRD
 70
     0
  9
$DIMCLRE
 70
     0
  9
$DIMCLRT
 70
     0
  9
$DIMTFAC
 40
70.0
  9
$DIMGAP
 40
0.09
  9
$DIMJUST
 70
     0
  9
$DIMSD1
 70
     0
  9
$DIMSD2
 70
     0
  9
$DIMTOLJ
 70
     1
  9
$DIMTZIN
 70
     0
  9
$DIMALTZ
 70
     0
  9
$DIMALTTZ
 70
     0
  9
$DIMUPT
 70
     0
  9
$DIMDEC
 70
     4
  9
$DIMTDEC
 70
     4
  9
$DIMALTU
 70
     2
  9
$DIMALTTD
 70
     2
  9
$DIMTXSTY
  7
STANDARD
  9
$DIMAUNIT
 70
     0
  9
$DIMADEC
 70
     0
  9
$DIMALTRND
 40
0.0
  9
$DIMAZIN
 70
     0
  9
$DIMDSEP
 70
    46
  9
$DIMATFIT
 70
     3
  9
$DIMFRAC
 70
     0
  9
$DIMLDRBLK
  1

  9
$DIMLUNIT
 70
     2
  9
$DIMLWD
 70
    -2
  9
$DIMLWE
 70
    -2
  9
$DIMTMOVE
 70
     0
  9
$LUNITS
 70
     2
  9
$LUPREC
 70
     2
  9
$SKETCHINC
 40
1.0
  9
$FILLETRAD
 40
0.0
  9
$AUNITS
 70
     0
  9
$AUPREC
 70
     0
  9
$MENU
  1
acad
  9
$ELEVATION
 40
0.0
  9
$PELEVATION
 40
0.0
  9
$THICKNESS
 40
0.0
  9
$LIMCHECK
 70
     0
  9
$CHAMFERA
 40
0.0
  9
$CHAMFERB
 40
0.0
  9
$CHAMFERC
 40
0.0
  9
$CHAMFERD
 40
0.0
  9
$SKPOLY
 70
     0
  9
$TDCREATE
 40
2450305.554557986
  9
$TDUCREATE
 40
2450305.471224652
  9
$TDUPDATE
 40
2451698.420829734
  9
$TDUUPDATE
 40
2451698.337496400
  9
$TDINDWG
 40
0.0180808796
  9
$TDUSRTIMER
 40
0.0180792593
  9
$USRTIMER
 70
     1
  9
$ANGBASE
 50
0.0
  9
$ANGDIR
 70
     0
  9
$PDMODE
 70
     0
  9
$PDSIZE
 40
0.0
  9
$PLINEWID
 40
0.0
  9
$SPLFRAME
 70
     0
  9
$SPLINETYPE
 70
     6
  9
$SPLINESEGS
 70
     8
  9
$HANDSEED
  5
11C
  9
$SURFTAB1
 70
     6
  9
$SURFTAB2
 70
     6
  9
$SURFTYPE
 70
     6
  9
$SURFU
 70
     6
  9
$SURFV
 70
     6
  9
$UCSBASE
  2

  9
$UCSNAME
  2

  9
$UCSORG
 10
0.0
 20
0.0
 30
0.0
  9
$UCSXDIR
 10
1.0
 20
0.0
 30
0.0
  9
$UCSYDIR
 10
0.0
 20
1.0
 30
0.0
  9
$UCSORTHOREF
  2

  9
$UCSORTHOVIEW
 70
     0
  9
$UCSORGTOP
 10
0.0
 20
0.0
 30
0.0
  9
$UCSORGBOTTOM
 10
0.0
 20
0.0
 30
0.0
  9
$UCSORGLEFT
 10
0.0
 20
0.0
 30
0.0
  9
$UCSORGRIGHT
 10
0.0
 20
0.0
 30
0.0
  9
$UCSORGFRONT
 10
0.0
 20
0.0
 30
0.0
  9
$UCSORGBACK
 10
0.0
 20
0.0
 30
0.0
  9
$PUCSBASE
  2

  9
$PUCSNAME
  2

  9
$PUCSORG
 10
0.0
 20
0.0
 30
0.0
  9
$PUCSXDIR
 10
1.0
 20
0.0
 30
0.0
  9
$PUCSYDIR
 10
0.0
 20
1.0
 30
0.0
  9
$PUCSORTHOREF
  2

  9
$PUCSORTHOVIEW
 70
     0
  9
$PUCSORGTOP
 10
0.0
 20
0.0
 30
0.0
  9
$PUCSORGBOTTOM
 10
0.0
 20
0.0
 30
0.0
  9
$PUCSORGLEFT
 10
0.0
 20
0.0
 30
0.0
  9
$PUCSORGRIGHT
 10
0.0
 20
0.0
 30
0.0
  9
$PUCSORGFRONT
 10
0.0
 20
0.0
 30
0.0
  9
$PUCSORGBACK
 10
0.0
 20
0.0
 30
0.0
  9
$USERI1
 70
     0
  9
$USERI2
 70
     0
  9
$USERI3
 70
     0
  9
$USERI4
 70
     0
  9
$USERI5
 70
     0
  9
$USERR1
 40
0.0
  9
$USERR2
 40
0.0
  9
$USERR3
 40
0.0
  9
$USERR4
 40
0.0
  9
$USERR5
 40
0.0
  9
$WORLDVIEW
 70
     1
  9
$SHADEDGE
 70
     3
  9
$SHADEDIF
 70
    70
  9
$TILEMODE
 70
     1
  9
$MAXACTVP
 70
    16
  9
$PINSBASE
 10
0.0
 20
0.0
 30
0.0
  9
$PLIMCHECK
 70
     0
  9
$PEXTMIN
 10
1.000000000000000E+20
 20
1.000000000000000E+20
 30
1.000000000000000E+20
  9
$PEXTMAX
 10
-1.000000000000000E+20
 20
-1.000000000000000E+20
 30
-1.000000000000000E+20
  9
$PLIMMIN
 10
0.0
 20
0.0
  9
$PLIMMAX
 10
12.0
 20
9.0
  9
$UNITMODE
 70
     0
  9
$VISRETAIN
 70
     0
  9
$PLINEGEN
 70
     0
  9
$PSLTSCALE
 70
     0
  9
$TREEDEPTH
 70
  3020
  9
$CMLSTYLE
  2
Standard
  9
$CMLJUST
 70
     0
  9
$CMLSCALE
 40
1.0
  9
$PROXYGRAPHICS
 70
     1
  9
$MEASUREMENT
 70
     0
  9
$CELWEIGHT
370
    -1
  9
$ENDCAPS
280
     0
  9
$JOINSTYLE
280
     0
  9
$LWDISPLAY
290
     0
  9
$INSUNITS
 70
     0
  9
$HYPERLINKBASE
  1

  9
$STYLESHEET
  1

  9
$XEDIT
290
     1
  9
$CEPSNTYPE
380
     0
  9
$PSTYLEMODE
290
     1
  9
$FINGERPRINTGUID
  2
{3A9A1BF3-37C0-11D4-A5B7-0008C769B1B5}
  9
$VERSIONGUID
  2
{B57F78C0-3859-11D4-A5B9-0008C769B1B5}
  9
$EXTNAMES
290
     1
  9
$PSVPSCALE
 40
0.0
  9
$OLESTARTUP
290
     0
  0
ENDSEC
  0
SECTION
  2
CLASSES
  0
CLASS
  1
ACDBDICTIONARYWDFLT
  2
AcDbDictionaryWithDefault
  3
AutoCAD 2000
 90
        0
280
     0
281
     0
  0
CLASS
  1
ACDBPLACEHOLDER
  2
AcDbPlaceHolder
  3
AutoCAD 2000
 90
        0
280
     0
281
     0
  0
CLASS
  1
LAYOUT
  2
AcDbLayout
  3
AutoCAD 2000
 90
        0
280
     0
281
     0
  0
ENDSEC
  0
SECTION
  2
TABLES
  0
TABLE
  2
VPORT
  5
8
330
0
100
AcDbSymbolTable
 70
     5
  0
VPORT
  5
11B
330
8
100
AcDbSymbolTableRecord
100
AcDbViewportTableRecord
  2
*Active
 70
     0
 10
0.0
 20
0.0
 11
1.0
 21
1.0
 12
286.6421519285558
 22
37.32147447173798
 13
0.0
 23
0.0
 14
1.0
 24
1.0
 15
10.0
 25
10.0
 16
0.0
 26
0.0
 36
1.0
 17
0.0
 27
0.0
 37
0.0
 40
15.02948704763113
 41
1.21860465116279
 42
50.0
 43
0.0
 44
0.0
 50
0.0
 51
0.0
 71
     0
 72
   100
 73
     1
 74
     0
 75
     0
 76
     0
 77
     0
 78
     1
281
     0
 65
     0
110
0.0
120
0.0
130
0.0
111
1.0
121
0.0
131
0.0
112
0.0
122
1.0
132
0.0
 79
     0
146
0.0
  0
ENDTAB
  0
TABLE
  2
LTYPE
  5
5
330
0
100
AcDbSymbolTable
 70
     1
  0
LTYPE
  5
13
330
5
100
AcDbSymbolTableRecord
100
AcDbLinetypeTableRecord
  2
ByBlock
 70
     0
  3

 72
    65
 73
     0
 40
0.0
  0
LTYPE
  5
14
330
5
100
AcDbSymbolTableRecord
100
AcDbLinetypeTableRecord
  2
ByLayer
 70
     0
  3

 72
    65
 73
     0
 40
0.0
  0
LTYPE
  5
15
330
5
100
AcDbSymbolTableRecord
100
AcDbLinetypeTableRecord
  2
CONTINUOUS
 70
     0
  3
Solid line
 72
    65
 73
     0
 40
0.0
  0
ENDTAB
  0
TABLE
  2
LAYER
  5
2
330
0
100
AcDbSymbolTable
 70
     3
  0
LAYER
  5
10
330
2
100
AcDbSymbolTableRecord
100
AcDbLayerTableRecord
  2
0
 70
     0
 62
     7
  6
CONTINUOUS
370
    -3
390
F
  0
LAYER
  5
24
330
2
100
AcDbSymbolTableRecord
100
AcDbLayerTableRecord
  2
MESURA
 70
     0
 62
     7
  6
CONTINUOUS
370
    -3
390
F
  0
LAYER
  5
25
330
2
100
AcDbSymbolTableRecord
100
AcDbLayerTableRecord
  2
DEFPOINTS
 70
     0
 62
     7
  6
CONTINUOUS
290
     0
370
    -3
390
F
  0
ENDTAB
  0
TABLE
  2
STYLE
  5
3
330
0
100
AcDbSymbolTable
 70
     2
  0
STYLE
  5
11
330
3
100
AcDbSymbolTableRecord
100
AcDbTextStyleTableRecord
  2
STANDARD
 70
     0
 40
0.0
 41
1.0
 50
0.0
 71
     0
 42
0.1
  3
txt
  4

  0
STYLE
  5
22
330
3
100
AcDbSymbolTableRecord
100
AcDbTextStyleTableRecord
  2
ROMANC
 70
     0
 40
0.0
 41
1.0
 50
0.0
 71
     0
 42
0.1
  3
romanc
  4

  0
ENDTAB
  0
TABLE
  2
VIEW
  5
6
330
0
100
AcDbSymbolTable
 70
     0
  0
ENDTAB
  0
TABLE
  2
UCS
  5
7
330
0
100
AcDbSymbolTable
 70
     0
  0
ENDTAB
  0
TABLE
  2
APPID
  5
9
330
0
100
AcDbSymbolTable
 70
     1
  0
APPID
  5
12
330
9
100
AcDbSymbolTableRecord
100
AcDbRegAppTableRecord
  2
ACAD
 70
     0
  0
ENDTAB
  0
TABLE
  2
DIMSTYLE
  5
A
330
0
100
AcDbSymbolTable
 70
     1
100
AcDbDimStyleTable
 71
     1
340
26
  0
DIMSTYLE
105
26
102
{ACAD_REACTORS
330
C1
330
CE
330
DB
330
EA
102
}
330
A
100
AcDbSymbolTableRecord
100
AcDbDimStyleTableRecord
  2
SILVIA
 70
     0
 40
1.5
 41
0.1
 42
0.01
 43
7.0
 44
0.01
 73
     0
 74
     0
 77
     1
140
0.05
141
0.1
146
70.0
172
     1
174
     1
271
     2
272
     2
279
     2
340
22
  0
ENDTAB
  0
TABLE
  2
BLOCK_RECORD
  5
1
330
0
100
AcDbSymbolTable
 70
     6
  0
BLOCK_RECORD
  5
1E
330
1
100
AcDbSymbolTableRecord
100
AcDbBlockTableRecord
  2
*Model_Space
340
21
  0
BLOCK_RECORD
  5
1A
330
1
100
AcDbSymbolTableRecord
100
AcDbBlockTableRecord
  2
*Paper_Space
340
1D
  0
BLOCK_RECORD
  5
C2
330
1
100
AcDbSymbolTableRecord
100
AcDbBlockTableRecord
  2
*D2
340
0
  0
BLOCK_RECORD
  5
CF
330
1
100
AcDbSymbolTableRecord
100
AcDbBlockTableRecord
  2
*D3
340
0
  0
BLOCK_RECORD
  5
DC
330
1
100
AcDbSymbolTableRecord
100
AcDbBlockTableRecord
  2
*D4
340
0
  0
BLOCK_RECORD
  5
EB
330
1
100
AcDbSymbolTableRecord
100
AcDbBlockTableRecord
  2
*D5
340
0
  0
ENDTAB
  0
ENDSEC
  0
SECTION
  2
BLOCKS
  0
BLOCK
  5
1F
330
1E
100
AcDbEntity
  8
0
100
AcDbBlockBegin
  2
*Model_Space
 70
     0
 10
0.0
 20
0.0
 30
0.0
  3
*Model_Space
  1

  0
ENDBLK
  5
20
330
1E
100
AcDbEntity
  8
0
100
AcDbBlockEnd
  0
BLOCK
  5
1B
330
1A
100
AcDbEntity
 67
     1
  8
0
100
AcDbBlockBegin
  2
*Paper_Space
 70
     0
 10
0.0
 20
0.0
 30
0.0
  3
*Paper_Space
  1

  0
ENDBLK
  5
1C
330
1A
100
AcDbEntity
 67
     1
  8
0
100
AcDbBlockEnd
  0
BLOCK
  5
CC
330
C2
100
AcDbEntity
  8
0
100
AcDbBlockBegin
  2
*D2
 70
     1
 10
0.0
 20
0.0
 30
0.0
  3
*D2
  1

  0
LINE
  5
C3
330
C2
100
AcDbEntity
  8
0
 62
     0
370
    -2
100
AcDbLine
 10
287.1663635460316
 20
38.18693793200708
 30
0.0
 11
288.1000111843527
 21
38.18693793200708
 31
0.0
  0
LINE
  5
C4
330
C2
100
AcDbEntity
  8
0
 62
     0
370
    -2
100
AcDbLine
 10
286.6663635460316
 20
34.24693793200708
 30
0.0
 11
288.1000111843527
 21
34.24693793200708
 31
0.0
  0
LINE
  5
C5
330
C2
100
AcDbEntity
  8
0
 62
     0
370
    -2
100
AcDbLine
 10
288.0850111843527
 20
38.03693793200708
 30
0.0
 11
288.0850111843527
 21
34.39693793200708
 31
0.0
  0
SOLID
  5
C6
330
C2
100
AcDbEntity
  8
0
 62
     0
100
AcDbTrace
 10
288.0600111843527
 20
38.03693793200708
 30
0.0
 11
288.1100111843527
 21
38.03693793200708
 31
0.0
 12
288.0850111843527
 22
38.18693793200708
 32
0.0
 13
288.0850111843527
 23
38.18693793200708
 33
0.0
  0
SOLID
  5
C7
330
C2
100
AcDbEntity
  8
0
 62
     0
100
AcDbTrace
 10
288.0600111843527
 20
34.39693793200708
 30
0.0
 11
288.1100111843527
 21
34.39693793200708
 31
0.0
 12
288.0850111843527
 22
34.24693793200708
 32
0.0
 13
288.0850111843527
 23
34.24693793200708
 33
0.0
  0
MTEXT
  5
C8
330
C2
100
AcDbEntity
  8
0
 62
     0
100
AcDbMText
 10
287.9125111843527
 20
36.21693793200713
 30
0.0
 40
0.075
 41
0.0
 71
     5
 72
     1
  1
\A1;3.9400
 11
0.0000000000000001
 21
1.0
 31
0.0
 73
     1
 44
1.0
  0
POINT
  5
C9
330
C2
100
AcDbEntity
  8
DEFPOINTS
 62
     0
100
AcDbPoint
 10
287.1513635460317
 20
38.18693793200708
 30
0.0
  0
POINT
  5
CA
330
C2
100
AcDbEntity
  8
DEFPOINTS
 62
     0
100
AcDbPoint
 10
286.6513635460317
 20
34.24693793200708
 30
0.0
  0
POINT
  5
CB
330
C2
100
AcDbEntity
  8
DEFPOINTS
 62
     0
100
AcDbPoint
 10
288.0850111843527
 20
34.24693793200708
 30
0.0
  0
ENDBLK
  5
CD
330
C2
100
AcDbEntity
  8
0
100
AcDbBlockEnd
  0
BLOCK
  5
D9
330
CF
100
AcDbEntity
  8
0
100
AcDbBlockBegin
  2
*D3
 70
     1
 10
0.0
 20
0.0
 30
0.0
  3
*D3
  1

  0
LINE
  5
D0
330
CF
100
AcDbEntity
  8
0
 62
     0
370
    -2
100
AcDbLine
 10
287.1513635460317
 20
34.53193793200708
 30
0.0
 11
287.1513635460317
 21
33.45604082148644
 31
0.0
  0
LINE
  5
D1
330
CF
100
AcDbEntity
  8
0
 62
     0
370
    -2
100
AcDbLine
 10
285.1513635460316
 20
34.53193793200708
 30
0.0
 11
285.1513635460316
 21
33.45604082148644
 31
0.0
  0
LINE
  5
D2
330
CF
100
AcDbEntity
  8
0
 62
     0
370
    -2
100
AcDbLine
 10
287.0013635460317
 20
33.47104082148644
 30
0.0
 11
285.3013635460316
 21
33.47104082148644
 31
0.0
  0
SOLID
  5
D3
330
CF
100
AcDbEntity
  8
0
 62
     0
100
AcDbTrace
 10
287.0013635460317
 20
33.49604082148644
 30
0.0
 11
287.0013635460317
 21
33.44604082148644
 31
0.0
 12
287.1513635460317
 22
33.47104082148644
 32
0.0
 13
287.1513635460317
 23
33.47104082148644
 33
0.0
  0
SOLID
  5
D4
330
CF
100
AcDbEntity
  8
0
 62
     0
100
AcDbTrace
 10
285.3013635460316
 20
33.49604082148644
 30
0.0
 11
285.3013635460316
 21
33.44604082148644
 31
0.0
 12
285.1513635460316
 22
33.47104082148644
 32
0.0
 13
285.1513635460316
 23
33.47104082148644
 33
0.0
  0
MTEXT
  5
D5
330
CF
100
AcDbEntity
  8
0
 62
     0
100
AcDbMText
 10
286.1513635460316
 20
33.64354082148643
 30
0.0
 40
0.075
 41
0.0
 71
     5
 72
     1
  1
\A1;2.0000
 73
     1
 44
1.0
  0
POINT
  5
D6
330
CF
100
AcDbEntity
  8
DEFPOINTS
 62
     0
100
AcDbPoint
 10
287.1513635460317
 20
34.54693793200708
 30
0.0
  0
POINT
  5
D7
330
CF
100
AcDbEntity
  8
DEFPOINTS
 62
     0
100
AcDbPoint
 10
285.1513635460316
 20
34.54693793200708
 30
0.0
  0
POINT
  5
D8
330
CF
100
AcDbEntity
  8
DEFPOINTS
 62
     0
100
AcDbPoint
 10
285.1513635460316
 20
33.47104082148644
 30
0.0
  0
ENDBLK
  5
DA
330
CF
100
AcDbEntity
  8
0
100
AcDbBlockEnd
  0
BLOCK
  5
E8
330
DC
100
AcDbEntity
  8
0
100
AcDbBlockBegin
  2
*D4
 70
     1
 10
0.0
 20
0.0
 30
0.0
  3
*D4
  1

  0
LINE
  5
10F
330
DC
100
AcDbEntity
  8
0
 62
     0
370
    -2
100
AcDbLine
 10
287.1663635460316
 20
34.54693793200708
 30
0.0
 11
287.5190411563336
 21
34.54693793200708
 31
0.0
  0
LINE
  5
110
330
DC
100
AcDbEntity
  8
0
 62
     0
370
    -2
100
AcDbLine
 10
287.1663635460316
 20
34.24693793200708
 30
0.0
 11
287.5190411563336
 21
34.24693793200708
 31
0.0
  0
LINE
  5
111
330
DC
100
AcDbEntity
  8
0
 62
     0
370
    -2
100
AcDbLine
 10
287.5040411563336
 20
34.09693793200708
 30
0.0
 11
287.5040411563336
 21
33.94693793200708
 31
0.0
  0
LINE
  5
112
330
DC
100
AcDbEntity
  8
0
 62
     0
370
    -2
100
AcDbLine
 10
287.5040411563336
 20
34.69693793200708
 30
0.0
 11
287.5040411563336
 21
35.44193793200708
 31
0.0
  0
LINE
  5
113
330
DC
100
AcDbEntity
  8
0
 62
     0
370
    -2
100
AcDbLine
 10
287.5040411563336
 20
34.24693793200708
 30
0.0
 11
287.5040411563336
 21
34.54693793200708
 31
0.0
  0
SOLID
  5
114
330
DC
100
AcDbEntity
  8
0
 62
     0
100
AcDbTrace
 10
287.4790411563336
 20
34.09693793200708
 30
0.0
 11
287.5290411563336
 21
34.09693793200708
 31
0.0
 12
287.5040411563336
 22
34.24693793200708
 32
0.0
 13
287.5040411563336
 23
34.24693793200708
 33
0.0
  0
SOLID
  5
115
330
DC
100
AcDbEntity
  8
0
 62
     0
100
AcDbTrace
 10
287.4790411563336
 20
34.69693793200708
 30
0.0
 11
287.5290411563336
 21
34.69693793200708
 31
0.0
 12
287.5040411563336
 22
34.54693793200708
 32
0.0
 13
287.5040411563336
 23
34.54693793200708
 33
0.0
  0
MTEXT
  5
116
330
DC
100
AcDbEntity
  8
0
 62
     0
100
AcDbMText
 10
287.3315411563336
 20
35.14443793200713
 30
0.0
 40
0.075
 41
0.0
 71
     5
 72
     1
  1
\A1;0.3000
 11
0.0000000000000001
 21
1.0
 31
0.0
 73
     1
 44
1.0
  0
POINT
  5
117
330
DC
100
AcDbEntity
  8
DEFPOINTS
 62
     0
100
AcDbPoint
 10
287.1513635460317
 20
34.54693793200708
 30
0.0
  0
POINT
  5
118
330
DC
100
AcDbEntity
  8
DEFPOINTS
 62
     0
100
AcDbPoint
 10
287.1513635460317
 20
34.24693793200708
 30
0.0
  0
POINT
  5
119
330
DC
100
AcDbEntity
  8
DEFPOINTS
 62
     0
100
AcDbPoint
 10
287.5040411563336
 20
34.24693793200708
 30
0.0
  0
ENDBLK
  5
E9
330
DC
100
AcDbEntity
  8
0
100
AcDbBlockEnd
  0
BLOCK
  5
F7
330
EB
100
AcDbEntity
  8
0
100
AcDbBlockBegin
  2
*D5
 70
     1
 10
0.0
 20
0.0
 30
0.0
  3
*D5
  1

  0
LINE
  5
EC
330
EB
100
AcDbEntity
  8
0
 62
     0
370
    -2
100
AcDbLine
 10
286.6513635460317
 20
34.23193793200708
 30
0.0
 11
286.6513635460317
 21
33.89808444974703
 31
0.0
  0
LINE
  5
ED
330
EB
100
AcDbEntity
  8
0
 62
     0
370
    -2
100
AcDbLine
 10
287.1513635460317
 20
34.23193793200708
 30
0.0
 11
287.1513635460317
 21
33.89808444974703
 31
0.0
  0
LINE
  5
EE
330
EB
100
AcDbEntity
  8
0
 62
     0
370
    -2
100
AcDbLine
 10
286.5013635460316
 20
33.91308444974703
 30
0.0
 11
286.3513635460316
 21
33.91308444974703
 31
0.0
  0
LINE
  5
EF
330
EB
100
AcDbEntity
  8
0
 62
     0
370
    -2
100
AcDbLine
 10
287.3013635460316
 20
33.91308444974703
 30
0.0
 11
287.4513635460317
 21
33.91308444974703
 31
0.0
  0
LINE
  5
F0
330
EB
100
AcDbEntity
  8
0
 62
     0
370
    -2
100
AcDbLine
 10
286.6513635460317
 20
33.91308444974703
 30
0.0
 11
287.1513635460317
 21
33.91308444974703
 31
0.0
  0
SOLID
  5
F1
330
EB
100
AcDbEntity
  8
0
 62
     0
100
AcDbTrace
 10
286.5013635460316
 20
33.93808444974703
 30
0.0
 11
286.5013635460316
 21
33.88808444974703
 31
0.0
 12
286.6513635460317
 22
33.91308444974703
 32
0.0
 13
286.6513635460317
 23
33.91308444974703
 33
0.0
  0
SOLID
  5
F2
330
EB
100
AcDbEntity
  8
0
 62
     0
100
AcDbTrace
 10
287.3013635460316
 20
33.93808444974703
 30
0.0
 11
287.3013635460316
 21
33.88808444974703
 31
0.0
 12
287.1513635460317
 22
33.91308444974703
 32
0.0
 13
287.1513635460317
 23
33.91308444974703
 33
0.0
  0
MTEXT
  5
F3
330
EB
100
AcDbEntity
  8
0
 62
     0
100
AcDbMText
 10
286.9013635460317
 20
34.08558444974703
 30
0.0
 40
0.075
 41
0.0
 71
     5
 72
     1
  1
\A1;0.5000
 73
     1
 44
1.0
  0
POINT
  5
F4
330
EB
100
AcDbEntity
  8
DEFPOINTS
 62
     0
100
AcDbPoint
 10
286.6513635460317
 20
34.24693793200708
 30
0.0
  0
POINT
  5
F5
330
EB
100
AcDbEntity
  8
DEFPOINTS
 62
     0
100
AcDbPoint
 10
287.1513635460317
 20
34.24693793200708
 30
0.0
  0
POINT
  5
F6
330
EB
100
AcDbEntity
  8
DEFPOINTS
 62
     0
100
AcDbPoint
 10
287.1513635460317
 20
33.91308444974703
 30
0.0
  0
ENDBLK
  5
F8
330
EB
100
AcDbEntity
  8
0
100
AcDbBlockEnd
  0
ENDSEC
  0
SECTION
  2
ENTITIES
  0
LINE
  5
81
330
1E
100
AcDbEntity
  8
0
100
AcDbLine
 10
291.895795
 20
29.897444
 30
0.0
 11
291.895795
 21
44.747444
 31
0.0
  0
TEXT
  5
82
330
1E
100
AcDbEntity
  8
0
100
AcDbText
 10
283.887846
 20
40.56142
 30
0.0
 40
0.3
  1
P = 119 dm
  7
ROMANC
100
AcDbText
  0
LINE
  5
83
330
1E
100
AcDbEntity
  8
0
100
AcDbLine
 10
281.395795
 20
44.747444
 30
0.0
 11
281.395795
 21
29.897444
 31
0.0
  0
LINE
  5
84
330
1E
100
AcDbEntity
  8
0
100
AcDbLine
 10
281.395795
 20
29.897444
 30
0.0
 11
291.895795
 21
29.897444
 31
0.0
  0
LINE
  5
85
330
1E
100
AcDbEntity
  8
0
100
AcDbLine
 10
291.895795
 20
44.747444
 30
0.0
 11
281.395795
 21
44.747444
 31
0.0
  0
TEXT
  5
86
330
1E
100
AcDbEntity
  8
0
100
AcDbText
 10
287.1222709999999
 20
41.564915
 30
0.0
 40
0.1
  1
2
  7
ROMANC
100
AcDbText
  0
TEXT
  5
87
330
1E
100
AcDbEntity
  8
0
100
AcDbText
 10
283.925768
 20
41.857589
 30
0.0
 40
0.3
  1
ESCALA  1:50
  7
ROMANC
100
AcDbText
  0
TEXT
  5
88
330
1E
100
AcDbEntity
  8
0
100
AcDbText
 10
283.925768
 20
42.343303
 30
0.0
 40
0.3
  1
TIPUS   NT760
  7
ROMANC
100
AcDbText
  0
TEXT
  5
89
330
1E
100
AcDbEntity
  8
0
100
AcDbText
 10
283.938862
 20
41.25899899999999
 30
0.0
 40
0.3
  1
S= 760 dm
  7
ROMANC
100
AcDbText
  0
LINE
  5
B9
330
1E
100
AcDbEntity
  8
0
100
AcDbLine
 10
285.6513635460316
 20
34.24693793200708
 30
0.0
 11
286.6513635460317
 21
34.24693793200708
 31
0.0
  0
LINE
  5
BA
330
1E
100
AcDbEntity
  8
0
100
AcDbLine
 10
287.1513635460317
 20
34.54693793200708
 30
0.0
 11
287.1513635460317
 21
38.18693793200708
 31
0.0
  0
LINE
  5
BB
330
1E
100
AcDbEntity
  8
0
100
AcDbLine
 10
287.1513635460317
 20
38.18693793200708
 30
0.0
 11
285.1513635460316
 21
38.18693793200708
 31
0.0
  0
LINE
  5
BC
330
1E
100
AcDbEntity
  8
0
100
AcDbLine
 10
285.1513635460316
 20
38.18693793200708
 30
0.0
 11
285.1513635460316
 21
34.54693793200708
 31
0.0
  0
LINE
  5
BD
330
1E
100
AcDbEntity
  8
0
100
AcDbLine
 10
286.6513635460317
 20
34.24693793200708
 30
0.0
 11
286.6513635460317
 21
34.54693793200708
 31
0.0
  0
LINE
  5
BE
330
1E
100
AcDbEntity
  8
0
100
AcDbLine
 10
285.6513635460316
 20
34.54693793200708
 30
0.0
 11
285.6513635460316
 21
34.24693793200708
 31
0.0
  0
LINE
  5
BF
330
1E
100
AcDbEntity
  8
0
100
AcDbLine
 10
285.1513635460316
 20
34.54693793200708
 30
0.0
 11
285.6513635460316
 21
34.54693793200708
 31
0.0
  0
LINE
  5
C0
330
1E
100
AcDbEntity
  8
0
100
AcDbLine
 10
286.6513635460317
 20
34.54693793200708
 30
0.0
 11
287.1513635460317
 21
34.54693793200708
 31
0.0
  0
DIMENSION
  5
C1
330
1E
100
AcDbEntity
  8
0
100
AcDbDimension
  2
*D2
 10
288.0850111843527
 20
34.24693793200708
 30
0.0
 11
287.9125111843527
 21
36.21693793200713
 31
0.0
 70
    32
 71
     5
 42
3.939999999999997
  3
SILVIA
100
AcDbAlignedDimension
 13
287.1513635460317
 23
38.18693793200708
 33
0.0
 14
286.6513635460317
 24
34.24693793200708
 34
0.0
 50
90.0
100
AcDbRotatedDimension
1001
ACAD
1000
DSTYLE
1002
{
1070
   271
1070
     4
1070
   272
1070
     4
1070
   279
1070
     0
1070
   340
1005
11
1002
}
  0
DIMENSION
  5
CE
330
1E
100
AcDbEntity
  8
0
100
AcDbDimension
  2
*D3
 10
285.1513635460316
 20
33.47104082148644
 30
0.0
 11
286.1513635460316
 21
33.64354082148643
 31
0.0
 70
    32
 71
     5
 42
2.0
  3
SILVIA
100
AcDbAlignedDimension
 13
287.1513635460317
 23
34.54693793200708
 33
0.0
 14
285.1513635460316
 24
34.54693793200708
 34
0.0
100
AcDbRotatedDimension
1001
ACAD
1000
DSTYLE
1002
{
1070
   271
1070
     4
1070
   272
1070
     4
1070
   279
1070
     0
1070
   340
1005
11
1002
}
  0
DIMENSION
  5
DB
330
1E
100
AcDbEntity
  8
0
100
AcDbDimension
  2
*D4
 10
287.5040411563336
 20
34.24693793200708
 30
0.0
 11
287.5040411563336
 21
35.14443793200713
 31
0.0
 70
   160
 71
     5
 42
0.2999999999999971
  3
SILVIA
100
AcDbAlignedDimension
 13
287.1513635460317
 23
34.54693793200708
 33
0.0
 14
287.1513635460317
 24
34.24693793200708
 34
0.0
 50
90.0
100
AcDbRotatedDimension
1001
ACAD
1000
DSTYLE
1002
{
1070
   271
1070
     4
1070
   272
1070
     4
1070
   279
1070
     0
1070
   340
1005
11
1002
}
  0
DIMENSION
  5
EA
330
1E
100
AcDbEntity
  8
0
100
AcDbDimension
  2
*D5
 10
287.1513635460317
 20
33.91308444974703
 30
0.0
 11
286.9013635460317
 21
34.08558444974703
 31
0.0
 70
    32
 71
     5
 42
0.5
  3
SILVIA
100
AcDbAlignedDimension
 13
286.6513635460317
 23
34.24693793200708
 33
0.0
 14
287.1513635460317
 24
34.24693793200708
 34
0.0
100
AcDbRotatedDimension
1001
ACAD
1000
DSTYLE
1002
{
1070
   271
1070
     4
1070
   272
1070
     4
1070
   279
1070
     0
1070
   340
1005
11
1002
}
  0
ENDSEC
  0
SECTION
  2
OBJECTS
  0
DICTIONARY
  5
C
330
0
100
AcDbDictionary
281
     1
  3
ACAD_GROUP
350
D
  3
ACAD_LAYOUT
350
19
  3
ACAD_MLINESTYLE
350
16
  3
ACAD_PLOTSETTINGS
350
18
  3
ACAD_PLOTSTYLENAME
350
E
  0
DICTIONARY
  5
D
102
{ACAD_REACTORS
330
C
102
}
330
C
100
AcDbDictionary
281
     1
  0
DICTIONARY
  5
19
102
{ACAD_REACTORS
330
C
102
}
330
C
100
AcDbDictionary
281
     1
  3
Model
350
21
  3
Presentación1
350
1D
  0
DICTIONARY
  5
16
102
{ACAD_REACTORS
330
C
102
}
330
C
100
AcDbDictionary
281
     1
  3
Standard
350
17
  0
DICTIONARY
  5
18
102
{ACAD_REACTORS
330
C
102
}
330
C
100
AcDbDictionary
281
     1
  0
ACDBDICTIONARYWDFLT
  5
E
102
{ACAD_REACTORS
330
C
102
}
330
C
100
AcDbDictionary
281
     1
  3
Normal
350
F
100
AcDbDictionaryWithDefault
340
F
  0
LAYOUT
  5
21
102
{ACAD_REACTORS
330
19
102
}
330
19
100
AcDbPlotSettings
  1

  2
HP DesignJet 750C/PS FILE
  4
A4
  6

 40
7.482416629791259
 41
18.48907089233398
 42
7.228408813476562
 43
17.9810791015625
 44
209.9733276367187
 45
296.9259948730469
 46
0.0
 47
0.0
 48
0.0
 49
0.0
140
0.0
141
0.0
142
1.0
143
1.0
 70
 11952
 72
     0
 73
     1
 74
     0
  7

 75
     0
147
1.0
148
-7089.836173480404
149
-757.0909660772294
100
AcDbLayout
  1
Model
 70
     1
 71
     0
 10
0.0
 20
0.0
 11
12.0
 21
9.0
 12
0.0
 22
0.0
 32
0.0
 14
0.0
 24
0.0
 34
0.0
 15
0.0
 25
0.0
 35
0.0
146
0.0
 13
0.0
 23
0.0
 33
0.0
 16
1.0
 26
0.0
 36
0.0
 17
0.0
 27
1.0
 37
0.0
 76
     0
330
1E
  0
LAYOUT
  5
1D
102
{ACAD_REACTORS
330
19
102
}
330
19
100
AcDbPlotSettings
  1

  2
HP DesignJet 750C/PS FILE
  4

  6

 40
0.0
 41
0.0
 42
0.0
 43
0.0
 44
0.0
 45
0.0
 46
0.0
 47
0.0
 48
0.0
 49
0.0
140
0.0
141
0.0
142
1.0
143
1.0
 70
   688
 72
     0
 73
     0
 74
     5
  7

 75
    16
147
1.0
148
0.0
149
0.0
100
AcDbLayout
  1
Presentación1
 70
     0
 71
     1
 10
0.0
 20
0.0
 11
12.0
 21
9.0
 12
0.0
 22
0.0
 32
0.0
 14
1.000000000000000E+20
 24
1.000000000000000E+20
 34
1.000000000000000E+20
 15
-1.000000000000000E+20
 25
-1.000000000000000E+20
 35
-1.000000000000000E+20
146
0.0
 13
0.0
 23
0.0
 33
0.0
 16
1.0
 26
0.0
 36
0.0
 17
0.0
 27
1.0
 37
0.0
 76
     0
330
1A
  0
MLINESTYLE
  5
17
102
{ACAD_REACTORS
330
16
102
}
330
16
100
AcDbMlineStyle
  2
STANDARD
 70
     0
  3

 62
   256
 51
90.0
 52
90.0
 71
     2
 49
0.5
 62
   256
  6
BYLAYER
 49
-0.5
 62
   256
  6
BYLAYER
  0
ACDBPLACEHOLDER
  5
F
102
{ACAD_REACTORS
330
E
102
}
330
E
  0
ENDSEC
  0
EOF
