  0
SECTION
  2
HEADER
  9
$ACADVER
  1
AC1014
  9
$ACADMAINTVER
 70
     9
  9
$DWGCODEPAGE
  3
ANSI_1252
  9
$INSBASE
 10
105.4640269999999
 20
-4.528761
 30
0.0
  9
$EXTMIN
 10
249.7624218996643
 20
-27.5419910345596
 30
-0.0015258207003583
  9
$EXTMAX
 10
291.8972786491472
 20
44.76072017858029
 30
0.0000000349246037
  9
$LIMMIN
 10
0.0
 20
0.0
  9
$LIMMAX
 10
410.0
 20
287.0
  9
$ORTHOMODE
 70
     1
  9
$REGENMODE
 70
     1
  9
$FILLMODE
 70
     1
  9
$QTEXTMODE
 70
     0
  9
$MIRRTEXT
 70
     1
  9
$DRAGMODE
 70
     2
  9
$LTSCALE
 40
25.0
  9
$OSMODE
 70
    37
  9
$ATTMODE
 70
     1
  9
$TEXTSIZE
 40
0.1
  9
$TRACEWID
 40
1.0
  9
$TEXTSTYLE
  7
ROMANC
  9
$CLAYER
  8
0
  9
$CELTYPE
  6
BYLAYER
  9
$CECOLOR
 62
   256
  9
$CELTSCALE
 40
1.0
  9
$DELOBJ
 70
     1
  9
$DISPSILH
 70
     0
  9
$DIMSCALE
 40
1.5
  9
$DIMASZ
 40
0.1
  9
$DIMEXO
 40
0.01
  9
$DIMDLI
 40
7.0
  9
$DIMRND
 40
0.0
  9
$DIMDLE
 40
0.0
  9
$DIMEXE
 40
0.01
  9
$DIMTP
 40
0.0
  9
$DIMTM
 40
0.0
  9
$DIMTXT
 40
0.05
  9
$DIMCEN
 40
0.1
  9
$DIMTSZ
 40
0.0
  9
$DIMTOL
 70
     0
  9
$DIMLIM
 70
     0
  9
$DIMTIH
 70
     0
  9
$DIMTOH
 70
     0
  9
$DIMSE1
 70
     0
  9
$DIMSE2
 70
     0
  9
$DIMTAD
 70
     1
  9
$DIMZIN
 70
     0
  9
$DIMBLK
  1

  9
$DIMASO
 70
     1
  9
$DIMSHO
 70
     0
  9
$DIMPOST
  1

  9
$DIMAPOST
  1

  9
$DIMALT
 70
     0
  9
$DIMALTD
 70
     2
  9
$DIMALTF
 40
25.4
  9
$DIMLFAC
 40
1.0
  9
$DIMTOFL
 70
     1
  9
$DIMTVP
 40
0.0
  9
$DIMTIX
 70
     1
  9
$DIMSOXD
 70
     0
  9
$DIMSAH
 70
     0
  9
$DIMBLK1
  1

  9
$DIMBLK2
  1

  9
$DIMSTYLE
  2
SILVIA
  9
$DIMCLRD
 70
     0
  9
$DIMCLRE
 70
     0
  9
$DIMCLRT
 70
     0
  9
$DIMTFAC
 40
70.0
  9
$DIMGAP
 40
0.01
  9
$DIMJUST
 70
     0
  9
$DIMSD1
 70
     0
  9
$DIMSD2
 70
     0
  9
$DIMTOLJ
 70
     1
  9
$DIMTZIN
 70
     0
  9
$DIMALTZ
 70
     0
  9
$DIMALTTZ
 70
     0
  9
$DIMFIT
 70
     5
  9
$DIMUPT
 70
     0
  9
$DIMUNIT
 70
     2
  9
$DIMDEC
 70
     2
  9
$DIMTDEC
 70
     2
  9
$DIMALTU
 70
     2
  9
$DIMALTTD
 70
     2
  9
$DIMTXSTY
  7
ROMANC
  9
$DIMAUNIT
 70
     0
  9
$LUNITS
 70
     2
  9
$LUPREC
 70
     2
  9
$SKETCHINC
 40
1.0
  9
$FILLETRAD
 40
0.0
  9
$AUNITS
 70
     0
  9
$AUPREC
 70
     0
  9
$MENU
  1
acad
  9
$ELEVATION
 40
0.0
  9
$PELEVATION
 40
0.0
  9
$THICKNESS
 40
0.0
  9
$LIMCHECK
 70
     0
  9
$BLIPMODE
 70
     0
  9
$CHAMFERA
 40
0.0
  9
$CHAMFERB
 40
0.0
  9
$CHAMFERC
 40
0.0
  9
$CHAMFERD
 40
0.0
  9
$SKPOLY
 70
     0
  9
$TDCREATE
 40
2450128.470816898
  9
$TDUPDATE
 40
2452397.534807893
  9
$TDINDWG
 40
0.0090366782
  9
$TDUSRTIMER
 40
0.0090365046
  9
$USRTIMER
 70
     1
  9
$ANGBASE
 50
0.0
  9
$ANGDIR
 70
     0
  9
$PDMODE
 70
     0
  9
$PDSIZE
 40
0.0
  9
$PLINEWID
 40
0.0
  9
$COORDS
 70
     1
  9
$SPLFRAME
 70
     0
  9
$SPLINETYPE
 70
     6
  9
$SPLINESEGS
 70
     8
  9
$ATTDIA
 70
     0
  9
$ATTREQ
 70
     1
  9
$HANDLING
 70
 10241
  9
$HANDSEED
  5
1C5
  9
$SURFTAB1
 70
     6
  9
$SURFTAB2
 70
     6
  9
$SURFTYPE
 70
     6
  9
$SURFU
 70
     6
  9
$SURFV
 70
     6
  9
$UCSNAME
  2

  9
$UCSORG
 10
0.0
 20
0.0
 30
0.0
  9
$UCSXDIR
 10
1.0
 20
0.0
 30
0.0
  9
$UCSYDIR
 10
0.0
 20
1.0
 30
0.0
  9
$PUCSNAME
  2

  9
$PUCSORG
 10
0.0
 20
0.0
 30
0.0
  9
$PUCSXDIR
 10
1.0
 20
0.0
 30
0.0
  9
$PUCSYDIR
 10
0.0
 20
1.0
 30
0.0
  9
$USERI1
 70
     0
  9
$USERI2
 70
     0
  9
$USERI3
 70
     0
  9
$USERI4
 70
     0
  9
$USERI5
 70
     0
  9
$USERR1
 40
0.0
  9
$USERR2
 40
0.0
  9
$USERR3
 40
0.0
  9
$USERR4
 40
0.0
  9
$USERR5
 40
0.0
  9
$WORLDVIEW
 70
     1
  9
$SHADEDGE
 70
     3
  9
$SHADEDIF
 70
    70
  9
$TILEMODE
 70
     1
  9
$MAXACTVP
 70
    16
  9
$PINSBASE
 10
0.0
 20
0.0
 30
0.0
  9
$PLIMCHECK
 70
     0
  9
$PEXTMIN
 10
1.000000000000000E+20
 20
1.000000000000000E+20
 30
1.000000000000000E+20
  9
$PEXTMAX
 10
-1.000000000000000E+20
 20
-1.000000000000000E+20
 30
-1.000000000000000E+20
  9
$PLIMMIN
 10
0.0
 20
0.0
  9
$PLIMMAX
 10
12.0
 20
9.0
  9
$UNITMODE
 70
     0
  9
$VISRETAIN
 70
     0
  9
$PLINEGEN
 70
     0
  9
$PSLTSCALE
 70
     0
  9
$TREEDEPTH
 70
  3020
  9
$PICKSTYLE
 70
     1
  9
$CMLSTYLE
  2
STANDARD
  9
$CMLJUST
 70
     0
  9
$CMLSCALE
 40
1.0
  9
$PROXYGRAPHICS
 70
     1
  9
$MEASUREMENT
 70
     0
  0
ENDSEC
  0
SECTION
  2
CLASSES
  0
CLASS
  1
ACDBDICTIONARYWDFLT
  2
AcDbDictionaryWithDefault
  3
AutoCAD 2000
 90
        0
280
     0
281
     0
  0
CLASS
  1
ACDBPLACEHOLDER
  2
AcDbPlaceHolder
  3
AutoCAD 2000
 90
        0
280
     0
281
     0
  0
CLASS
  1
LAYOUT
  2
AcDbLayout
  3
AutoCAD 2000
 90
        0
280
     0
281
     0
  0
CLASS
  1
LONG_TRANSACTION
  2
AcDbLongTransaction
  3
AutoCAD 2000
 90
        0
280
     0
281
     0
  0
CLASS
  1
LWPOLYLINE
  2
AcDbPolyline
  3
AutoCAD 2000
 90
        0
280
     0
281
     1
  0
CLASS
  1
HATCH
  2
AcDbHatch
  3
AutoCAD 2000
 90
        0
280
     0
281
     1
  0
CLASS
  1
XRECORD
  2
AcDbXrecord
  3
AutoCAD 2000
 90
        0
280
     0
281
     0
  0
ENDSEC
  0
SECTION
  2
TABLES
  0
TABLE
  2
VPORT
  5
8
330
0
100
AcDbSymbolTable
 70
     3
  0
VPORT
  5
19F
330
8
100
AcDbSymbolTableRecord
100
AcDbViewportTableRecord
  2
*ACTIVE
 70
     0
 10
0.0
 20
0.0
 11
1.0
 21
1.0
 12
288.7996399046682
 22
37.31553662267674
 13
0.0
 23
0.0
 14
1.0
 24
1.0
 15
10.0
 25
10.0
 16
0.0
 26
0.0
 36
1.0
 17
0.0
 27
0.0
 37
0.0
 40
21.24277865108524
 41
1.454770755885997
 42
50.0
 43
0.0
 44
0.0
 50
0.0
 51
0.0
 71
     0
 72
   100
 73
     1
 74
     0
 75
     0
 76
     0
 77
     0
 78
     1
  0
ENDTAB
  0
TABLE
  2
LTYPE
  5
5
330
0
100
AcDbSymbolTable
 70
     1
  0
LTYPE
  5
13
330
5
100
AcDbSymbolTableRecord
100
AcDbLinetypeTableRecord
  2
BYBLOCK
 70
     0
  3

 72
    65
 73
     0
 40
0.0
  0
LTYPE
  5
14
330
5
100
AcDbSymbolTableRecord
100
AcDbLinetypeTableRecord
  2
BYLAYER
 70
     0
  3

 72
    65
 73
     0
 40
0.0
  0
LTYPE
  5
15
330
5
100
AcDbSymbolTableRecord
100
AcDbLinetypeTableRecord
  2
CONTINUOUS
 70
     0
  3
Solid line
 72
    65
 73
     0
 40
0.0
  0
ENDTAB
  0
TABLE
  2
LAYER
  5
2
330
0
100
AcDbSymbolTable
 70
     4
  0
LAYER
  5
10
330
2
100
AcDbSymbolTableRecord
100
AcDbLayerTableRecord
  2
0
 70
     0
 62
     7
  6
CONTINUOUS
  0
LAYER
  5
24
330
2
100
AcDbSymbolTableRecord
100
AcDbLayerTableRecord
  2
MESURA
 70
     0
 62
     7
  6
CONTINUOUS
  0
LAYER
  5
25
330
2
100
AcDbSymbolTableRecord
100
AcDbLayerTableRecord
  2
DEFPOINTS
 70
     0
 62
     7
  6
CONTINUOUS
  0
LAYER
  5
178
330
2
100
AcDbSymbolTableRecord
100
AcDbLayerTableRecord
  2
NO_PRINT
 70
     0
 62
     7
  6
CONTINUOUS
  0
ENDTAB
  0
TABLE
  2
STYLE
  5
3
330
0
100
AcDbSymbolTable
 70
     2
  0
STYLE
  5
11
330
3
100
AcDbSymbolTableRecord
100
AcDbTextStyleTableRecord
  2
STANDARD
 70
     0
 40
0.0
 41
1.0
 50
0.0
 71
     0
 42
0.1
  3
txt
  4

  0
STYLE
  5
22
330
3
100
AcDbSymbolTableRecord
100
AcDbTextStyleTableRecord
  2
ROMANC
 70
     0
 40
0.0
 41
1.0
 50
0.0
 71
     0
 42
0.1
  3
romanc
  4

  0
ENDTAB
  0
TABLE
  2
VIEW
  5
6
330
0
100
AcDbSymbolTable
 70
     0
  0
ENDTAB
  0
TABLE
  2
UCS
  5
7
330
0
100
AcDbSymbolTable
 70
     0
  0
ENDTAB
  0
TABLE
  2
APPID
  5
9
330
0
100
AcDbSymbolTable
 70
     1
  0
APPID
  5
12
330
9
100
AcDbSymbolTableRecord
100
AcDbRegAppTableRecord
  2
ACAD
 70
     0
  0
ENDTAB
  0
TABLE
  2
DIMSTYLE
  5
A
330
0
100
AcDbSymbolTable
 70
     1
  0
DIMSTYLE
105
26
102
{ACAD_REACTORS
330
115
330
108
330
131
330
124
330
147
102
}
330
A
100
AcDbSymbolTableRecord
100
AcDbDimStyleTableRecord
  2
SILVIA
 70
     0
  3

  4

  5

  6

  7

 40
1.5
 41
0.1
 42
0.01
 43
7.0
 44
0.01
 45
0.0
 46
0.0
 47
0.0
 48
0.0
140
0.05
141
0.1
142
0.0
143
25.4
144
1.0
145
0.0
146
70.0
147
0.09
 71
     0
 72
     0
 73
     0
 74
     0
 75
     0
 76
     0
 77
     1
 78
     0
170
     0
171
     2
172
     1
173
     0
174
     1
175
     0
176
     0
177
     0
178
     0
270
     2
271
     2
272
     2
273
     2
274
     2
340
22
275
     0
280
     0
281
     0
282
     0
283
     1
284
     0
285
     0
286
     0
287
     5
288
     0
  0
ENDTAB
  0
TABLE
  2
BLOCK_RECORD
  5
1
330
0
100
AcDbSymbolTable
 70
    12
  0
BLOCK_RECORD
  5
1E
102
{ACAD_XDICTIONARY
360
1C3
102
}
330
1
100
AcDbSymbolTableRecord
100
AcDbBlockTableRecord
  2
*MODEL_SPACE
  0
BLOCK_RECORD
  5
1A
102
{ACAD_XDICTIONARY
360
1C1
102
}
330
1
100
AcDbSymbolTableRecord
100
AcDbBlockTableRecord
  2
*PAPER_SPACE
  0
BLOCK_RECORD
  5
29
330
1
100
AcDbSymbolTableRecord
100
AcDbBlockTableRecord
  2
*D0
  0
BLOCK_RECORD
  5
35
330
1
100
AcDbSymbolTableRecord
100
AcDbBlockTableRecord
  2
*D1
  0
BLOCK_RECORD
  5
41
330
1
100
AcDbSymbolTableRecord
100
AcDbBlockTableRecord
  2
*D2
  0
BLOCK_RECORD
  5
4D
330
1
100
AcDbSymbolTableRecord
100
AcDbBlockTableRecord
  2
*D3
  0
BLOCK_RECORD
  5
5B
330
1
100
AcDbSymbolTableRecord
100
AcDbBlockTableRecord
  2
*D4
  0
BLOCK_RECORD
  5
67
330
1
100
AcDbSymbolTableRecord
100
AcDbBlockTableRecord
  2
*D5
  0
BLOCK_RECORD
  5
73
330
1
100
AcDbSymbolTableRecord
100
AcDbBlockTableRecord
  2
*D6
  0
BLOCK_RECORD
  5
109
330
1
100
AcDbSymbolTableRecord
100
AcDbBlockTableRecord
  2
*D7
  0
BLOCK_RECORD
  5
116
330
1
100
AcDbSymbolTableRecord
100
AcDbBlockTableRecord
  2
*D8
  0
BLOCK_RECORD
  5
125
330
1
100
AcDbSymbolTableRecord
100
AcDbBlockTableRecord
  2
*D9
  0
BLOCK_RECORD
  5
132
330
1
100
AcDbSymbolTableRecord
100
AcDbBlockTableRecord
  2
*D10
  0
BLOCK_RECORD
  5
148
330
1
100
AcDbSymbolTableRecord
100
AcDbBlockTableRecord
  2
*D11
  0
ENDTAB
  0
ENDSEC
  0
SECTION
  2
BLOCKS
  0
BLOCK
  5
1F
330
1E
100
AcDbEntity
  8
0
100
AcDbBlockBegin
  2
*MODEL_SPACE
 70
     0
 10
0.0
 20
0.0
 30
0.0
  3
*MODEL_SPACE
  1

  0
ENDBLK
  5
20
330
1E
100
AcDbEntity
  8
0
100
AcDbBlockEnd
  0
BLOCK
  5
1B
330
1A
100
AcDbEntity
 67
     1
  8
0
100
AcDbBlockBegin
  2
*PAPER_SPACE
 70
     0
 10
0.0
 20
0.0
 30
0.0
  3
*PAPER_SPACE
  1

  0
ENDBLK
  5
1C
330
1A
100
AcDbEntity
 67
     1
  8
0
100
AcDbBlockEnd
  0
BLOCK
  5
2A
330
29
100
AcDbEntity
  8
0
100
AcDbBlockBegin
  2
*D0
 70
     1
 10
0.0
 20
0.0
 30
0.0
  3
*D0
  1

  0
LINE
  5
2B
330
29
100
AcDbEntity
  8
0
  6
BYBLOCK
 62
     0
100
AcDbLine
 10
284.559831
 20
34.55532199999999
 30
0.0
 11
284.559831
 21
33.158068
 31
0.0
  0
LINE
  5
2C
330
29
100
AcDbEntity
  8
0
  6
BYBLOCK
 62
     0
100
AcDbLine
 10
287.4098309999999
 20
35.005322
 30
0.0
 11
287.4098309999999
 21
33.158068
 31
0.0
  0
LINE
  5
2D
330
29
100
AcDbEntity
  8
0
  6
BYBLOCK
 62
     0
100
AcDbLine
 10
284.709831
 20
33.173068
 30
0.0
 11
287.259831
 21
33.173068
 31
0.0
  0
SOLID
  5
2E
330
29
100
AcDbEntity
  8
0
  6
BYBLOCK
 62
     0
100
AcDbTrace
 10
284.709831
 20
33.198068
 30
0.0
 11
284.709831
 21
33.148068
 31
0.0
 12
284.559831
 22
33.173068
 32
0.0
 13
284.559831
 23
33.173068
 33
0.0
  0
SOLID
  5
2F
330
29
100
AcDbEntity
  8
0
  6
BYBLOCK
 62
     0
100
AcDbTrace
 10
287.259831
 20
33.198068
 30
0.0
 11
287.259831
 21
33.148068
 31
0.0
 12
287.4098309999999
 22
33.173068
 32
0.0
 13
287.4098309999999
 23
33.173068
 33
0.0
  0
TEXT
  5
30
330
29
100
AcDbEntity
  8
0
  6
BYBLOCK
 62
     0
100
AcDbText
 10
285.8598309999999
 20
33.21056799999999
 30
0.0
 40
0.075
  1
2.85
  7
ROMANC
 72
     1
 11
285.9848309999999
 21
33.24806799999999
 31
0.0
100
AcDbText
 73
     2
  0
POINT
  5
31
330
29
100
AcDbEntity
  8
DEFPOINTS
  6
BYBLOCK
 62
     0
100
AcDbPoint
 10
284.559831
 20
34.57032199999999
 30
0.0
  0
POINT
  5
32
330
29
100
AcDbEntity
  8
DEFPOINTS
  6
BYBLOCK
 62
     0
100
AcDbPoint
 10
287.4098309999999
 20
35.020322
 30
0.0
  0
POINT
  5
33
330
29
100
AcDbEntity
  8
DEFPOINTS
  6
BYBLOCK
 62
     0
100
AcDbPoint
 10
287.4098309999999
 20
33.173068
 30
0.0
  0
ENDBLK
  5
34
330
29
100
AcDbEntity
  8
0
100
AcDbBlockEnd
  0
BLOCK
  5
36
330
35
100
AcDbEntity
  8
0
100
AcDbBlockBegin
  2
*D1
 70
     1
 10
0.0
 20
0.0
 30
0.0
  3
*D1
  1

  0
LINE
  5
37
330
35
100
AcDbEntity
  8
0
  6
BYBLOCK
 62
     0
100
AcDbLine
 10
284.559831
 20
34.55532199999999
 30
0.0
 11
284.559831
 21
33.793489
 31
0.0
  0
LINE
  5
38
330
35
100
AcDbEntity
  8
0
  6
BYBLOCK
 62
     0
100
AcDbLine
 10
286.309831
 20
34.55532199999999
 30
0.0
 11
286.309831
 21
33.793489
 31
0.0
  0
LINE
  5
39
330
35
100
AcDbEntity
  8
0
  6
BYBLOCK
 62
     0
100
AcDbLine
 10
284.709831
 20
33.808489
 30
0.0
 11
286.159831
 21
33.808489
 31
0.0
  0
SOLID
  5
3A
330
35
100
AcDbEntity
  8
0
  6
BYBLOCK
 62
     0
100
AcDbTrace
 10
284.709831
 20
33.833489
 30
0.0
 11
284.709831
 21
33.783489
 31
0.0
 12
284.559831
 22
33.808489
 32
0.0
 13
284.559831
 23
33.808489
 33
0.0
  0
SOLID
  5
3B
330
35
100
AcDbEntity
  8
0
  6
BYBLOCK
 62
     0
100
AcDbTrace
 10
286.159831
 20
33.833489
 30
0.0
 11
286.159831
 21
33.783489
 31
0.0
 12
286.309831
 22
33.808489
 32
0.0
 13
286.309831
 23
33.808489
 33
0.0
  0
TEXT
  5
3C
330
35
100
AcDbEntity
  8
0
  6
BYBLOCK
 62
     0
100
AcDbText
 10
285.3151881428571
 20
33.845989
 30
0.0
 40
0.075
  1
1.75
  7
ROMANC
 72
     1
 11
285.434831
 21
33.883489
 31
0.0
100
AcDbText
 73
     2
  0
POINT
  5
3D
330
35
100
AcDbEntity
  8
DEFPOINTS
  6
BYBLOCK
 62
     0
100
AcDbPoint
 10
284.559831
 20
34.57032199999999
 30
0.0
  0
POINT
  5
3E
330
35
100
AcDbEntity
  8
DEFPOINTS
  6
BYBLOCK
 62
     0
100
AcDbPoint
 10
286.309831
 20
34.57032199999999
 30
0.0
  0
POINT
  5
3F
330
35
100
AcDbEntity
  8
DEFPOINTS
  6
BYBLOCK
 62
     0
100
AcDbPoint
 10
286.309831
 20
33.808489
 30
0.0
  0
ENDBLK
  5
40
330
35
100
AcDbEntity
  8
0
100
AcDbBlockEnd
  0
BLOCK
  5
42
330
41
100
AcDbEntity
  8
0
100
AcDbBlockBegin
  2
*D2
 70
     1
 10
0.0
 20
0.0
 30
0.0
  3
*D2
  1

  0
LINE
  5
43
330
41
100
AcDbEntity
  8
0
  6
BYBLOCK
 62
     0
100
AcDbLine
 10
286.309831
 20
34.55532199999999
 30
0.0
 11
286.309831
 21
33.793489
 31
0.0
  0
LINE
  5
44
330
41
100
AcDbEntity
  8
0
  6
BYBLOCK
 62
     0
100
AcDbLine
 10
287.4230839999999
 20
33.845715
 30
0.0
 11
287.4230839999999
 21
33.793489
 31
0.0
  0
LINE
  5
45
330
41
100
AcDbEntity
  8
0
  6
BYBLOCK
 62
     0
100
AcDbLine
 10
286.459831
 20
33.808489
 30
0.0
 11
287.273084
 21
33.808489
 31
0.0
  0
SOLID
  5
46
330
41
100
AcDbEntity
  8
0
  6
BYBLOCK
 62
     0
100
AcDbTrace
 10
286.459831
 20
33.833489
 30
0.0
 11
286.459831
 21
33.783489
 31
0.0
 12
286.309831
 22
33.808489
 32
0.0
 13
286.309831
 23
33.808489
 33
0.0
  0
SOLID
  5
47
330
41
100
AcDbEntity
  8
0
  6
BYBLOCK
 62
     0
100
AcDbTrace
 10
287.273084
 20
33.833489
 30
0.0
 11
287.273084
 21
33.783489
 31
0.0
 12
287.4230839999999
 22
33.808489
 32
0.0
 13
287.4230839999999
 23
33.808489
 33
0.0
  0
TEXT
  5
48
330
41
100
AcDbEntity
  8
0
  6
BYBLOCK
 62
     0
100
AcDbText
 10
286.7610998571428
 20
33.845989
 30
0.0
 40
0.075
  1
1.11
  7
ROMANC
 72
     1
 11
286.8664569999999
 21
33.883489
 31
0.0
100
AcDbText
 73
     2
  0
POINT
  5
49
330
41
100
AcDbEntity
  8
DEFPOINTS
  6
BYBLOCK
 62
     0
100
AcDbPoint
 10
286.309831
 20
34.57032199999999
 30
0.0
  0
POINT
  5
4A
330
41
100
AcDbEntity
  8
DEFPOINTS
  6
BYBLOCK
 62
     0
100
AcDbPoint
 10
287.4230839999999
 20
33.86071499999999
 30
0.0
  0
POINT
  5
4B
330
41
100
AcDbEntity
  8
DEFPOINTS
  6
BYBLOCK
 62
     0
100
AcDbPoint
 10
287.4230839999999
 20
33.808489
 30
0.0
  0
ENDBLK
  5
4C
330
41
100
AcDbEntity
  8
0
100
AcDbBlockEnd
  0
BLOCK
  5
4E
330
4D
100
AcDbEntity
  8
0
100
AcDbBlockBegin
  2
*D3
 70
     1
 10
0.0
 20
0.0
 30
0.0
  3
*D3
  1

  0
LINE
  5
4F
330
4D
100
AcDbEntity
  8
0
  6
BYBLOCK
 62
     0
100
AcDbLine
 10
286.324831
 20
34.57032199999999
 30
0.0
 11
288.3003529999999
 21
34.57032199999999
 31
0.0
  0
LINE
  5
50
330
4D
100
AcDbEntity
  8
0
  6
BYBLOCK
 62
     0
100
AcDbLine
 10
287.424831
 20
35.020322
 30
0.0
 11
288.3003529999999
 21
35.020322
 31
0.0
  0
LINE
  5
51
330
4D
100
AcDbEntity
  8
0
  6
BYBLOCK
 62
     0
100
AcDbLine
 10
288.2853529999999
 20
34.42032199999999
 30
0.0
 11
288.2853529999999
 21
34.270322
 31
0.0
  0
LINE
  5
52
330
4D
100
AcDbEntity
  8
0
  6
BYBLOCK
 62
     0
100
AcDbLine
 10
288.2853529999999
 20
35.170322
 30
0.0
 11
288.2853529999999
 21
35.32032199999999
 31
0.0
  0
SOLID
  5
53
330
4D
100
AcDbEntity
  8
0
  6
BYBLOCK
 62
     0
100
AcDbTrace
 10
288.2603529999999
 20
34.42032199999999
 30
0.0
 11
288.3103529999999
 21
34.42032199999999
 31
0.0
 12
288.2853529999999
 22
34.57032199999999
 32
0.0
 13
288.2853529999999
 23
34.57032199999999
 33
0.0
  0
SOLID
  5
54
330
4D
100
AcDbEntity
  8
0
  6
BYBLOCK
 62
     0
100
AcDbTrace
 10
288.2603529999999
 20
35.170322
 30
0.0
 11
288.3103529999999
 21
35.170322
 31
0.0
 12
288.2853529999999
 22
35.020322
 32
0.0
 13
288.2853529999999
 23
35.020322
 33
0.0
  0
LINE
  5
55
330
4D
100
AcDbEntity
  8
0
  6
BYBLOCK
 62
     0
100
AcDbLine
 10
288.2853529999999
 20
34.57032199999999
 30
0.0
 11
288.2853529999999
 21
35.020322
 31
0.0
  0
TEXT
  5
56
330
4D
100
AcDbEntity
  8
0
  6
BYBLOCK
 62
     0
100
AcDbText
 10
288.247853
 20
34.670322
 30
0.0
 40
0.075
  1
0.45
 50
90.0
  7
ROMANC
 72
     1
 11
288.210353
 21
34.79532199999999
 31
0.0
100
AcDbText
 73
     2
  0
POINT
  5
57
330
4D
100
AcDbEntity
  8
DEFPOINTS
  6
BYBLOCK
 62
     0
100
AcDbPoint
 10
286.309831
 20
34.57032199999999
 30
0.0
  0
POINT
  5
58
330
4D
100
AcDbEntity
  8
DEFPOINTS
  6
BYBLOCK
 62
     0
100
AcDbPoint
 10
287.4098309999999
 20
35.020322
 30
0.0
  0
POINT
  5
59
330
4D
100
AcDbEntity
  8
DEFPOINTS
  6
BYBLOCK
 62
     0
100
AcDbPoint
 10
288.2853529999999
 20
35.020322
 30
0.0
  0
ENDBLK
  5
5A
330
4D
100
AcDbEntity
  8
0
100
AcDbBlockEnd
  0
BLOCK
  5
5C
330
5B
100
AcDbEntity
  8
0
100
AcDbBlockBegin
  2
*D4
 70
     1
 10
0.0
 20
0.0
 30
0.0
  3
*D4
  1

  0
LINE
  5
5D
330
5B
100
AcDbEntity
  8
0
  6
BYBLOCK
 62
     0
100
AcDbLine
 10
287.424831
 20
35.020322
 30
0.0
 11
288.3003529999999
 21
35.020322
 31
0.0
  0
LINE
  5
5E
330
5B
100
AcDbEntity
  8
0
  6
BYBLOCK
 62
     0
100
AcDbLine
 10
287.424831
 20
36.270322
 30
0.0
 11
288.3003529999999
 21
36.270322
 31
0.0
  0
LINE
  5
5F
330
5B
100
AcDbEntity
  8
0
  6
BYBLOCK
 62
     0
100
AcDbLine
 10
288.2853529999999
 20
35.170322
 30
0.0
 11
288.2853529999999
 21
36.12032199999999
 31
0.0
  0
SOLID
  5
60
330
5B
100
AcDbEntity
  8
0
  6
BYBLOCK
 62
     0
100
AcDbTrace
 10
288.2603529999999
 20
35.170322
 30
0.0
 11
288.3103529999999
 21
35.170322
 31
0.0
 12
288.2853529999999
 22
35.020322
 32
0.0
 13
288.2853529999999
 23
35.020322
 33
0.0
  0
SOLID
  5
61
330
5B
100
AcDbEntity
  8
0
  6
BYBLOCK
 62
     0
100
AcDbTrace
 10
288.2603529999999
 20
36.12032199999999
 30
0.0
 11
288.3103529999999
 21
36.12032199999999
 31
0.0
 12
288.2853529999999
 22
36.270322
 32
0.0
 13
288.2853529999999
 23
36.270322
 33
0.0
  0
TEXT
  5
62
330
5B
100
AcDbEntity
  8
0
  6
BYBLOCK
 62
     0
100
AcDbText
 10
288.247853
 20
35.52567914285714
 30
0.0
 40
0.075
  1
1.25
 50
90.0
  7
ROMANC
 72
     1
 11
288.210353
 21
35.645322
 31
0.0
100
AcDbText
 73
     2
  0
POINT
  5
63
330
5B
100
AcDbEntity
  8
DEFPOINTS
  6
BYBLOCK
 62
     0
100
AcDbPoint
 10
287.4098309999999
 20
35.020322
 30
0.0
  0
POINT
  5
64
330
5B
100
AcDbEntity
  8
DEFPOINTS
  6
BYBLOCK
 62
     0
100
AcDbPoint
 10
287.4098309999999
 20
36.270322
 30
0.0
  0
POINT
  5
65
330
5B
100
AcDbEntity
  8
DEFPOINTS
  6
BYBLOCK
 62
     0
100
AcDbPoint
 10
288.2853529999999
 20
36.270322
 30
0.0
  0
ENDBLK
  5
66
330
5B
100
AcDbEntity
  8
0
100
AcDbBlockEnd
  0
BLOCK
  5
68
330
67
100
AcDbEntity
  8
0
100
AcDbBlockBegin
  2
*D5
 70
     1
 10
0.0
 20
0.0
 30
0.0
  3
*D5
  1

  0
LINE
  5
69
330
67
100
AcDbEntity
  8
0
  6
BYBLOCK
 62
     0
100
AcDbLine
 10
287.424831
 20
36.270322
 30
0.0
 11
288.3003529999999
 21
36.270322
 31
0.0
  0
LINE
  5
6A
330
67
100
AcDbEntity
  8
0
  6
BYBLOCK
 62
     0
100
AcDbLine
 10
285.983464
 20
37.620233
 30
0.0
 11
288.3003529999999
 21
37.620233
 31
0.0
  0
LINE
  5
6B
330
67
100
AcDbEntity
  8
0
  6
BYBLOCK
 62
     0
100
AcDbLine
 10
288.2853529999999
 20
36.420322
 30
0.0
 11
288.2853529999999
 21
37.470233
 31
0.0
  0
SOLID
  5
6C
330
67
100
AcDbEntity
  8
0
  6
BYBLOCK
 62
     0
100
AcDbTrace
 10
288.2603529999999
 20
36.420322
 30
0.0
 11
288.3103529999999
 21
36.420322
 31
0.0
 12
288.2853529999999
 22
36.270322
 32
0.0
 13
288.2853529999999
 23
36.270322
 33
0.0
  0
SOLID
  5
6D
330
67
100
AcDbEntity
  8
0
  6
BYBLOCK
 62
     0
100
AcDbTrace
 10
288.2603529999999
 20
37.470233
 30
0.0
 11
288.3103529999999
 21
37.470233
 31
0.0
 12
288.2853529999999
 22
37.620233
 32
0.0
 13
288.2853529999999
 23
37.620233
 33
0.0
  0
TEXT
  5
6E
330
67
100
AcDbEntity
  8
0
  6
BYBLOCK
 62
     0
100
AcDbText
 10
288.247853
 20
36.82563514285714
 30
0.0
 40
0.075
  1
1.35
 50
90.0
  7
ROMANC
 72
     1
 11
288.210353
 21
36.945278
 31
0.0
100
AcDbText
 73
     2
  0
POINT
  5
6F
330
67
100
AcDbEntity
  8
DEFPOINTS
  6
BYBLOCK
 62
     0
100
AcDbPoint
 10
287.4098309999999
 20
36.270322
 30
0.0
  0
POINT
  5
70
330
67
100
AcDbEntity
  8
DEFPOINTS
  6
BYBLOCK
 62
     0
100
AcDbPoint
 10
285.968464
 20
37.620233
 30
0.0
  0
POINT
  5
71
330
67
100
AcDbEntity
  8
DEFPOINTS
  6
BYBLOCK
 62
     0
100
AcDbPoint
 10
288.2853529999999
 20
37.620233
 30
0.0
  0
ENDBLK
  5
72
330
67
100
AcDbEntity
  8
0
100
AcDbBlockEnd
  0
BLOCK
  5
74
330
73
100
AcDbEntity
  8
0
100
AcDbBlockBegin
  2
*D6
 70
     1
 10
0.0
 20
0.0
 30
0.0
  3
*D6
  1

  0
LINE
  5
75
330
73
100
AcDbEntity
  8
0
  6
BYBLOCK
 62
     0
100
AcDbLine
 10
286.016197
 20
37.620233
 30
0.0
 11
289.066814
 21
37.620233
 31
0.0
  0
LINE
  5
76
330
73
100
AcDbEntity
  8
0
  6
BYBLOCK
 62
     0
100
AcDbLine
 10
285.443548
 20
34.420326
 30
0.0
 11
289.066814
 21
34.420326
 31
0.0
  0
LINE
  5
77
330
73
100
AcDbEntity
  8
0
  6
BYBLOCK
 62
     0
100
AcDbLine
 10
289.051814
 20
37.470233
 30
0.0
 11
289.051814
 21
34.570326
 31
0.0
  0
SOLID
  5
78
330
73
100
AcDbEntity
  8
0
  6
BYBLOCK
 62
     0
100
AcDbTrace
 10
289.0268139999999
 20
37.470233
 30
0.0
 11
289.076814
 21
37.470233
 31
0.0
 12
289.051814
 22
37.620233
 32
0.0
 13
289.051814
 23
37.620233
 33
0.0
  0
SOLID
  5
79
330
73
100
AcDbEntity
  8
0
  6
BYBLOCK
 62
     0
100
AcDbTrace
 10
289.0268139999999
 20
34.570326
 30
0.0
 11
289.076814
 21
34.570326
 31
0.0
 12
289.051814
 22
34.420326
 32
0.0
 13
289.051814
 23
34.420326
 33
0.0
  0
TEXT
  5
7A
330
73
100
AcDbEntity
  8
0
  6
BYBLOCK
 62
     0
100
AcDbText
 10
289.014314
 20
35.89528
 30
0.0
 40
0.075
  1
3.20
 50
90.0
  7
ROMANC
 72
     1
 11
288.976814
 21
36.02028
 31
0.0
100
AcDbText
 73
     2
  0
POINT
  5
7B
330
73
100
AcDbEntity
  8
DEFPOINTS
  6
BYBLOCK
 62
     0
100
AcDbPoint
 10
286.001197
 20
37.620233
 30
0.0
  0
POINT
  5
7C
330
73
100
AcDbEntity
  8
DEFPOINTS
  6
BYBLOCK
 62
     0
100
AcDbPoint
 10
285.4285479999999
 20
34.420326
 30
0.0
  0
POINT
  5
7D
330
73
100
AcDbEntity
  8
DEFPOINTS
  6
BYBLOCK
 62
     0
100
AcDbPoint
 10
289.051814
 20
34.420326
 30
0.0
  0
ENDBLK
  5
7E
330
73
100
AcDbEntity
  8
0
100
AcDbBlockEnd
  0
BLOCK
  5
113
330
109
100
AcDbEntity
  8
0
100
AcDbBlockBegin
  2
*D7
 70
     1
 10
0.0
 20
0.0
 30
0.0
  3
*D7
  1

  0
LINE
  5
10A
330
109
100
AcDbEntity
  8
0
 62
     0
100
AcDbLine
 10
285.4088627703837
 20
37.00380785195078
 30
0.0
 11
285.4088627703837
 21
36.64827447172182
 31
0.0
  0
LINE
  5
10B
330
109
100
AcDbEntity
  8
0
 62
     0
100
AcDbLine
 10
286.1588627703837
 20
37.00380785195078
 30
0.0
 11
286.1588627703837
 21
36.64827447172182
 31
0.0
  0
LINE
  5
10C
330
109
100
AcDbEntity
  8
0
 62
     0
100
AcDbLine
 10
285.5588627703837
 20
36.66327447172182
 30
0.0
 11
286.0088627703837
 21
36.66327447172182
 31
0.0
  0
SOLID
  5
10D
330
109
100
AcDbEntity
  8
0
 62
     0
100
AcDbTrace
 10
285.5588627703837
 20
36.68827447172182
 30
0.0
 11
285.5588627703837
 21
36.63827447172182
 31
0.0
 12
285.4088627703837
 22
36.66327447172182
 32
0.0
 13
285.4088627703837
 23
36.66327447172182
 33
0.0
  0
SOLID
  5
10E
330
109
100
AcDbEntity
  8
0
 62
     0
100
AcDbTrace
 10
286.0088627703837
 20
36.68827447172182
 30
0.0
 11
286.0088627703837
 21
36.63827447172182
 31
0.0
 12
286.1588627703837
 22
36.66327447172182
 32
0.0
 13
286.1588627703837
 23
36.66327447172182
 33
0.0
  0
MTEXT
  5
10F
330
109
100
AcDbEntity
  8
0
 62
     0
100
AcDbMText
 10
285.7838627703837
 20
36.83577447172182
 30
0.0
 40
0.075
 41
0.0
 71
     5
 72
     1
  1
\A1;0.7500
1001
ACAD
1000
MTEXTBEGIN
1070
    73
1070
     1
1070
    44
1040
1.0
1070
    74
1070
     0
1000
MTEXTEND
  0
POINT
  5
110
330
109
100
AcDbEntity
  8
DEFPOINTS
 62
     0
100
AcDbPoint
 10
285.4088627703837
 20
37.01880785195078
 30
0.0
  0
POINT
  5
111
330
109
100
AcDbEntity
  8
DEFPOINTS
 62
     0
100
AcDbPoint
 10
286.1588627703837
 20
37.01880785195078
 30
0.0
  0
POINT
  5
112
330
109
100
AcDbEntity
  8
DEFPOINTS
 62
     0
100
AcDbPoint
 10
286.1588627703837
 20
36.66327447172182
 30
0.0
  0
ENDBLK
  5
114
330
109
100
AcDbEntity
  8
0
100
AcDbBlockEnd
  0
BLOCK
  5
120
330
116
100
AcDbEntity
  8
0
100
AcDbBlockBegin
  2
*D8
 70
     1
 10
0.0
 20
0.0
 30
0.0
  3
*D8
  1

  0
LINE
  5
117
330
116
100
AcDbEntity
  8
0
 62
     0
100
AcDbLine
 10
286.1738627703837
 20
37.01880785195078
 30
0.0
 11
286.5106340534389
 21
37.01880785195078
 31
0.0
  0
LINE
  5
118
330
116
100
AcDbEntity
  8
0
 62
     0
100
AcDbLine
 10
286.1738627703837
 20
38.01880785195078
 30
0.0
 11
286.5106340534389
 21
38.01880785195078
 31
0.0
  0
LINE
  5
119
330
116
100
AcDbEntity
  8
0
 62
     0
100
AcDbLine
 10
286.4956340534389
 20
37.16880785195078
 30
0.0
 11
286.4956340534389
 21
37.86880785195078
 31
0.0
  0
SOLID
  5
11A
330
116
100
AcDbEntity
  8
0
 62
     0
100
AcDbTrace
 10
286.4706340534389
 20
37.16880785195078
 30
0.0
 11
286.5206340534389
 21
37.16880785195078
 31
0.0
 12
286.4956340534389
 22
37.01880785195078
 32
0.0
 13
286.4956340534389
 23
37.01880785195078
 33
0.0
  0
SOLID
  5
11B
330
116
100
AcDbEntity
  8
0
 62
     0
100
AcDbTrace
 10
286.4706340534389
 20
37.86880785195078
 30
0.0
 11
286.5206340534389
 21
37.86880785195078
 31
0.0
 12
286.4956340534389
 22
38.01880785195078
 32
0.0
 13
286.4956340534389
 23
38.01880785195078
 33
0.0
  0
MTEXT
  5
11C
330
116
100
AcDbEntity
  8
0
 62
     0
100
AcDbMText
 10
286.3231340534389
 20
37.51880785195083
 30
0.0
 40
0.075
 41
0.0
 71
     5
 72
     1
  1
\A1;1.0000
 11
0.0000000000000001
 21
1.0
 31
0.0
1001
ACAD
1000
MTEXTBEGIN
1070
    73
1070
     1
1070
    44
1040
1.0
1070
    74
1070
     0
1000
MTEXTEND
  0
POINT
  5
11D
330
116
100
AcDbEntity
  8
DEFPOINTS
 62
     0
100
AcDbPoint
 10
286.1588627703837
 20
37.01880785195078
 30
0.0
  0
POINT
  5
11E
330
116
100
AcDbEntity
  8
DEFPOINTS
 62
     0
100
AcDbPoint
 10
286.1588627703837
 20
38.01880785195078
 30
0.0
  0
POINT
  5
11F
330
116
100
AcDbEntity
  8
DEFPOINTS
 62
     0
100
AcDbPoint
 10
286.4956340534389
 20
38.01880785195078
 30
0.0
  0
ENDBLK
  5
121
330
116
100
AcDbEntity
  8
0
100
AcDbBlockEnd
  0
BLOCK
  5
12F
330
125
100
AcDbEntity
  8
0
100
AcDbBlockBegin
  2
*D9
 70
     1
 10
0.0
 20
0.0
 30
0.0
  3
*D9
  1

  0
LINE
  5
13E
330
125
100
AcDbEntity
  8
0
 62
     0
100
AcDbLine
 10
286.1738627703837
 20
38.01880785195078
 30
0.0
 11
286.3980686827263
 21
38.01880785195078
 31
0.0
  0
LINE
  5
13F
330
125
100
AcDbEntity
  8
0
 62
     0
100
AcDbLine
 10
286.1738627703837
 20
37.01880785195078
 30
0.0
 11
286.3980686827263
 21
37.01880785195078
 31
0.0
  0
LINE
  5
140
330
125
100
AcDbEntity
  8
0
 62
     0
100
AcDbLine
 10
286.3830686827263
 20
37.86880785195078
 30
0.0
 11
286.3830686827263
 21
37.16880785195078
 31
0.0
  0
MTEXT
  5
141
330
125
100
AcDbEntity
  8
0
 62
     0
100
AcDbMText
 10
286.2646084143597
 20
37.51880785195083
 30
0.0
 40
0.075
 41
0.0
 71
     5
 72
     1
  1
\A1;1.00
  7
ROMANC
 11
0.0000000000000001
 21
1.0
 31
0.0
1001
ACAD
1000
MTEXTBEGIN
1070
    73
1070
     1
1070
    44
1040
1.0
1070
    74
1070
     0
1000
MTEXTEND
  0
SOLID
  5
142
330
125
100
AcDbEntity
  8
0
 62
     0
100
AcDbTrace
 10
286.3580686827264
 20
37.86880785195078
 30
0.0
 11
286.4080686827263
 21
37.86880785195078
 31
0.0
 12
286.3830686827263
 22
38.01880785195078
 32
0.0
 13
286.3830686827263
 23
38.01880785195078
 33
0.0
  0
SOLID
  5
143
330
125
100
AcDbEntity
  8
0
 62
     0
100
AcDbTrace
 10
286.3580686827264
 20
37.16880785195078
 30
0.0
 11
286.4080686827263
 21
37.16880785195078
 31
0.0
 12
286.3830686827263
 22
37.01880785195078
 32
0.0
 13
286.3830686827263
 23
37.01880785195078
 33
0.0
  0
POINT
  5
144
330
125
100
AcDbEntity
  8
DEFPOINTS
 62
     0
100
AcDbPoint
 10
286.1588627703837
 20
38.01880785195078
 30
0.0
  0
POINT
  5
145
330
125
100
AcDbEntity
  8
DEFPOINTS
 62
     0
100
AcDbPoint
 10
286.1588627703837
 20
37.01880785195078
 30
0.0
  0
POINT
  5
146
330
125
100
AcDbEntity
  8
DEFPOINTS
 62
     0
100
AcDbPoint
 10
286.3830686827263
 20
37.01880785195078
 30
0.0
  0
ENDBLK
  5
130
330
125
100
AcDbEntity
  8
0
100
AcDbBlockEnd
  0
BLOCK
  5
13C
330
132
100
AcDbEntity
  8
0
100
AcDbBlockBegin
  2
*D10
 70
     1
 10
0.0
 20
0.0
 30
0.0
  3
*D10
  1

  0
LINE
  5
16F
330
132
100
AcDbEntity
  8
0
 62
     0
100
AcDbLine
 10
285.961177520285
 20
37.00380785195078
 30
0.0
 11
285.961177520285
 21
36.7992582154561
 31
0.0
  0
LINE
  5
170
330
132
100
AcDbEntity
  8
0
 62
     0
100
AcDbLine
 10
286.7111775202851
 20
37.00380785195078
 30
0.0
 11
286.7111775202851
 21
36.7992582154561
 31
0.0
  0
LINE
  5
171
330
132
100
AcDbEntity
  8
0
 62
     0
100
AcDbLine
 10
286.111177520285
 20
36.81425821545611
 30
0.0
 11
286.5611775202851
 21
36.81425821545611
 31
0.0
  0
SOLID
  5
172
330
132
100
AcDbEntity
  8
0
 62
     0
100
AcDbTrace
 10
286.111177520285
 20
36.8392582154561
 30
0.0
 11
286.111177520285
 21
36.78925821545611
 31
0.0
 12
285.961177520285
 22
36.81425821545611
 32
0.0
 13
285.961177520285
 23
36.81425821545611
 33
0.0
  0
SOLID
  5
173
330
132
100
AcDbEntity
  8
0
 62
     0
100
AcDbTrace
 10
286.5611775202851
 20
36.8392582154561
 30
0.0
 11
286.5611775202851
 21
36.78925821545611
 31
0.0
 12
286.7111775202851
 22
36.81425821545611
 32
0.0
 13
286.7111775202851
 23
36.81425821545611
 33
0.0
  0
MTEXT
  5
174
330
132
100
AcDbEntity
  8
0
 62
     0
100
AcDbMText
 10
286.336177520285
 20
36.86675821545611
 30
0.0
 40
0.075
 41
0.0
 71
     5
 72
     1
  1
\A1;0.75
  7
ROMANC
1001
ACAD
1000
MTEXTBEGIN
1070
    73
1070
     1
1070
    44
1040
1.0
1070
    74
1070
     0
1000
MTEXTEND
  0
POINT
  5
175
330
132
100
AcDbEntity
  8
DEFPOINTS
 62
     0
100
AcDbPoint
 10
285.961177520285
 20
37.01880785195078
 30
0.0
  0
POINT
  5
176
330
132
100
AcDbEntity
  8
DEFPOINTS
 62
     0
100
AcDbPoint
 10
286.7111775202851
 20
37.01880785195078
 30
0.0
  0
POINT
  5
177
330
132
100
AcDbEntity
  8
DEFPOINTS
 62
     0
100
AcDbPoint
 10
286.7111775202851
 20
36.81425821545611
 30
0.0
  0
ENDBLK
  5
13D
330
132
100
AcDbEntity
  8
0
100
AcDbBlockEnd
  0
BLOCK
  5
152
330
148
100
AcDbEntity
  8
0
100
AcDbBlockBegin
  2
*D11
 70
     1
 10
0.0
 20
0.0
 30
0.0
  3
*D11
  1

  0
LINE
  5
166
330
148
100
AcDbEntity
  8
0
 62
     0
100
AcDbLine
 10
286.726177520285
 20
38.01880785195078
 30
0.0
 11
286.8981806025
 21
38.01880785195078
 31
0.0
  0
LINE
  5
167
330
148
100
AcDbEntity
  8
0
 62
     0
100
AcDbLine
 10
286.726177520285
 20
37.01880785195078
 30
0.0
 11
286.8981806025
 21
37.01880785195078
 31
0.0
  0
LINE
  5
168
330
148
100
AcDbEntity
  8
0
 62
     0
100
AcDbLine
 10
286.8831806025
 20
37.86880785195078
 30
0.0
 11
286.8831806025
 21
37.16880785195078
 31
0.0
  0
SOLID
  5
169
330
148
100
AcDbEntity
  8
0
 62
     0
100
AcDbTrace
 10
286.8581806025
 20
37.86880785195078
 30
0.0
 11
286.9081806025
 21
37.86880785195078
 31
0.0
 12
286.8831806025
 22
38.01880785195078
 32
0.0
 13
286.8831806025
 23
38.01880785195078
 33
0.0
  0
SOLID
  5
16A
330
148
100
AcDbEntity
  8
0
 62
     0
100
AcDbTrace
 10
286.8581806025
 20
37.16880785195078
 30
0.0
 11
286.9081806025
 21
37.16880785195078
 31
0.0
 12
286.8831806025
 22
37.01880785195078
 32
0.0
 13
286.8831806025
 23
37.01880785195078
 33
0.0
  0
MTEXT
  5
16B
330
148
100
AcDbEntity
  8
0
 62
     0
100
AcDbMText
 10
286.8306806025
 20
37.51880785195083
 30
0.0
 40
0.075
 41
0.0
 71
     5
 72
     1
  1
\A1;1.00
  7
ROMANC
 11
0.0000000000000001
 21
1.0
 31
0.0
1001
ACAD
1000
MTEXTBEGIN
1070
    73
1070
     1
1070
    44
1040
1.0
1070
    74
1070
     0
1000
MTEXTEND
  0
POINT
  5
16C
330
148
100
AcDbEntity
  8
DEFPOINTS
 62
     0
100
AcDbPoint
 10
286.7111775202851
 20
38.01880785195078
 30
0.0
  0
POINT
  5
16D
330
148
100
AcDbEntity
  8
DEFPOINTS
 62
     0
100
AcDbPoint
 10
286.7111775202851
 20
37.01880785195078
 30
0.0
  0
POINT
  5
16E
330
148
100
AcDbEntity
  8
DEFPOINTS
 62
     0
100
AcDbPoint
 10
286.8831806025
 20
37.01880785195078
 30
0.0
  0
ENDBLK
  5
153
330
148
100
AcDbEntity
  8
0
100
AcDbBlockEnd
  0
ENDSEC
  0
SECTION
  2
ENTITIES
  0
TEXT
  5
7F
330
1E
100
AcDbEntity
  8
0
100
AcDbText
 10
249.7621479999999
 20
-27.532393
 30
0.0
 40
0.1
  1
3.2
  7
ROMANC
100
AcDbText
  0
LINE
  5
80
330
1E
100
AcDbEntity
  8
NO_PRINT
100
AcDbLine
 10
291.895795
 20
29.897444
 30
0.0
 11
291.895795
 21
44.747444
 31
0.0
  0
TEXT
  5
81
330
1E
100
AcDbEntity
  8
0
100
AcDbText
 10
284.282356418714
 20
40.56142
 30
0.0
 40
0.3
  1
P = 35 dm
  7
ROMANC
100
AcDbText
  0
LINE
  5
82
330
1E
100
AcDbEntity
  8
NO_PRINT
100
AcDbLine
 10
281.395795
 20
44.747444
 30
0.0
 11
281.395795
 21
29.897444
 31
0.0
  0
LINE
  5
83
330
1E
100
AcDbEntity
  8
NO_PRINT
100
AcDbLine
 10
281.395795
 20
29.897444
 30
0.0
 11
291.895795
 21
29.897444
 31
0.0
  0
LINE
  5
84
330
1E
100
AcDbEntity
  8
NO_PRINT
100
AcDbLine
 10
291.895795
 20
44.747444
 30
0.0
 11
281.395795
 21
44.747444
 31
0.0
  0
TEXT
  5
85
330
1E
100
AcDbEntity
  8
0
100
AcDbText
 10
287.516781418714
 20
41.564915
 30
0.0
 40
0.1
  1
2
  7
ROMANC
100
AcDbText
  0
TEXT
  5
86
330
1E
100
AcDbEntity
  8
0
100
AcDbText
 10
284.320278418714
 20
41.857589
 30
0.0
 40
0.3
  1
ESCALA  1:50
  7
ROMANC
100
AcDbText
  0
TEXT
  5
87
330
1E
100
AcDbEntity
  8
0
100
AcDbText
 10
284.320278418714
 20
42.343303
 30
0.0
 40
0.3
  1
TIPUS   NT75A
  7
ROMANC
100
AcDbText
  0
TEXT
  5
88
330
1E
100
AcDbEntity
  8
0
100
AcDbText
 10
284.333372418714
 20
41.25899899999999
 30
0.0
 40
0.3
  1
S=  75 dm
  7
ROMANC
100
AcDbText
  0
LWPOLYLINE
  5
107
330
1E
100
AcDbEntity
  8
0
100
AcDbPolyline
 90
        5
 70
     0
 43
0.0
 10
285.961177520285
 20
37.01880785195078
 10
286.7111775202851
 20
37.01880785195078
 10
286.7111775202851
 20
38.01880785195078
 10
285.961177520285
 20
38.01880785195078
 10
285.961177520285
 20
37.01880785195078
  0
LWPOLYLINE
  5
122
330
1E
100
AcDbEntity
  8
0
100
AcDbPolyline
 90
        4
 70
     1
 43
0.0
 10
285.9511775202851
 20
37.00880785195078
 10
286.721177520285
 20
37.00880785195078
 10
286.721177520285
 20
38.02880785195078
 10
285.9511775202851
 20
38.02880785195078
  0
LWPOLYLINE
  5
123
330
1E
100
AcDbEntity
  8
0
100
AcDbPolyline
 90
        4
 70
     1
 43
0.0
 10
285.9711775202851
 20
37.02880785195078
 10
286.701177520285
 20
37.02880785195078
 10
286.701177520285
 20
38.00880785195078
 10
285.9711775202851
 20
38.00880785195078
  0
DIMENSION
  5
131
330
1E
100
AcDbEntity
  8
0
100
AcDbDimension
  2
*D10
 10
286.7111775202851
 20
36.81425821545611
 30
0.0
 11
286.336177520285
 21
36.86675821545611
 31
0.0
 70
    32
  3
SILVIA
100
AcDbAlignedDimension
 13
285.961177520285
 23
37.01880785195078
 33
0.0
 14
286.7111775202851
 24
37.01880785195078
 34
0.0
100
AcDbRotatedDimension
1001
ACAD
1000
DSTYLE
1002
{
1070
   147
1040
0.01
1002
}
  0
DIMENSION
  5
147
330
1E
100
AcDbEntity
  8
0
100
AcDbDimension
  2
*D11
 10
286.8831806025
 20
37.01880785195078
 30
0.0
 11
286.8306806025
 21
37.51880785195083
 31
0.0
 70
    32
  3
SILVIA
100
AcDbAlignedDimension
 13
286.7111775202851
 23
38.01880785195078
 33
0.0
 14
286.7111775202851
 24
37.01880785195078
 34
0.0
 50
90.0
100
AcDbRotatedDimension
1001
ACAD
1000
DSTYLE
1002
{
1070
   147
1040
0.01
1002
}
  0
ENDSEC
  0
SECTION
  2
OBJECTS
  0
DICTIONARY
  5
C
330
0
100
AcDbDictionary
  3
ACAD_GROUP
350
D
  3
ACAD_PLOTSTYLENAME
350
E
  3
ACAD_MLINESTYLE
350
16
  3
ACAD_PLOTSETTINGS
350
18
  3
ACAD_LAYOUT
350
19
  3
ACDBHEADERROUNDTRIPXREC
350
1A0
  0
DICTIONARY
  5
1C3
330
1E
100
AcDbDictionary
280
     1
  3
ACAD_LAYOUTSELFREF
360
1C4
  0
DICTIONARY
  5
1C1
330
1A
100
AcDbDictionary
280
     1
  3
ACAD_LAYOUTSELFREF
360
1C2
  0
DICTIONARY
  5
D
102
{ACAD_REACTORS
330
C
102
}
330
C
100
AcDbDictionary
  0
ACDBDICTIONARYWDFLT
  5
E
102
{ACAD_REACTORS
330
C
102
}
330
C
100
AcDbDictionary
281
     1
  3
Normal
350
F
100
AcDbDictionaryWithDefault
340
F
  0
DICTIONARY
  5
16
102
{ACAD_REACTORS
330
C
102
}
330
C
100
AcDbDictionary
  3
STANDARD
350
17
  0
DICTIONARY
  5
18
102
{ACAD_REACTORS
330
C
102
}
330
C
100
AcDbDictionary
  0
DICTIONARY
  5
19
102
{ACAD_REACTORS
330
C
102
}
330
C
100
AcDbDictionary
  0
DICTIONARY
  5
1A0
102
{ACAD_REACTORS
330
C
102
}
330
C
100
AcDbDictionary
  3
TSTACKALIGN
350
1A1
  3
TSTACKSIZE
350
1A2
  3
HYPERLINKBASE
350
1A3
  3
STYLESHEET
350
1A4
  3
LAYOUTDICT
350
1A5
  3
PLOTSETDICT
350
1A6
  3
PLOTSTYLNAMDICT
350
1A7
  3
LWETCUNION
350
1A8
  3
INSUNITS
350
1A9
  3
CEPSNTYPE
350
1AA
  3
FINGERPRINTGUID
350
1AB
  3
VERSIONGUID
350
1AC
  3
PSVPSCALE
350
1AD
  3
DIMSTYLEDATA
350
1AE
  3
PUCSORTHOREF
350
1AF
  3
PUCSORTHOVIEW
350
1B0
  3
PUCSBASE
350
1B1
  3
PUCSORGTOP
350
1B2
  3
PUCSORGBOTTOM
350
1B3
  3
PUCSORGLEFT
350
1B4
  3
PUCSORGRIGHT
350
1B5
  3
PUCSORGFRONT
350
1B6
  3
PUCSORGBACK
350
1B7
  3
UCSORTHOREF
350
1B8
  3
UCSORTHOVIEW
350
1B9
  3
UCSBASE
350
1BA
  3
UCSORGTOP
350
1BB
  3
UCSORGBOTTOM
350
1BC
  3
UCSORGLEFT
350
1BD
  3
UCSORGRIGHT
350
1BE
  3
UCSORGFRONT
350
1BF
  3
UCSORGBACK
350
1C0
  0
XRECORD
  5
1C4
102
{ACAD_REACTORS
330
1C3
102
}
330
1C3
100
AcDbXrecord
340
1E
  0
XRECORD
  5
1C2
102
{ACAD_REACTORS
330
1C1
102
}
330
1C1
100
AcDbXrecord
340
1A
  0
ACDBPLACEHOLDER
  5
F
102
{ACAD_REACTORS
330
E
102
}
330
E
100
AcDbPlaceHolder
280
     0
  0
MLINESTYLE
  5
17
102
{ACAD_REACTORS
330
16
102
}
330
16
100
AcDbMlineStyle
  2
STANDARD
 70
     0
  3

 62
   256
 51
90.0
 52
90.0
 71
     2
 49
0.5
 62
   256
  6
BYLAYER
 49
-0.5
 62
   256
  6
BYLAYER
  0
XRECORD
  5
1A1
102
{ACAD_REACTORS
330
1A0
102
}
330
1A0
100
AcDbXrecord
 90
        1
  0
XRECORD
  5
1A2
102
{ACAD_REACTORS
330
1A0
102
}
330
1A0
100
AcDbXrecord
 90
       70
  0
XRECORD
  5
1A3
102
{ACAD_REACTORS
330
1A0
102
}
330
1A0
100
AcDbXrecord
  1

  0
XRECORD
  5
1A4
102
{ACAD_REACTORS
330
1A0
102
}
330
1A0
100
AcDbXrecord
  1
STANDARD2.ctb
  0
XRECORD
  5
1A5
102
{ACAD_REACTORS
330
1A0
102
}
330
1A0
100
AcDbXrecord
340
19
  0
XRECORD
  5
1A6
102
{ACAD_REACTORS
330
1A0
102
}
330
1A0
100
AcDbXrecord
340
18
  0
XRECORD
  5
1A7
102
{ACAD_REACTORS
330
1A0
102
}
330
1A0
100
AcDbXrecord
340
E
  0
XRECORD
  5
1A8
102
{ACAD_REACTORS
330
1A0
102
}
330
1A0
100
AcDbXrecord
 90
    10781
  0
XRECORD
  5
1A9
102
{ACAD_REACTORS
330
1A0
102
}
330
1A0
100
AcDbXrecord
 90
        0
  0
XRECORD
  5
1AA
102
{ACAD_REACTORS
330
1A0
102
}
330
1A0
100
AcDbXrecord
 90
        0
  0
XRECORD
  5
1AB
102
{ACAD_REACTORS
330
1A0
102
}
330
1A0
100
AcDbXrecord
  1
{59483B1C-8DC5-4A85-A866-4A835FE9ACFB}
  0
XRECORD
  5
1AC
102
{ACAD_REACTORS
330
1A0
102
}
330
1A0
100
AcDbXrecord
  1
{A2C10C5F-23E1-487D-AD21-0B3E49256E58}
  0
XRECORD
  5
1AD
102
{ACAD_REACTORS
330
1A0
102
}
330
1A0
100
AcDbXrecord
 40
0.0
  0
XRECORD
  5
1AE
102
{ACAD_REACTORS
330
1A0
102
}
330
1A0
100
AcDbXrecord
1000
DSTYLE
1002
{
1070
   279
 70
     2
1002
}
  0
XRECORD
  5
1AF
102
{ACAD_REACTORS
330
1A0
102
}
330
1A0
100
AcDbXrecord
340
0
  0
XRECORD
  5
1B0
102
{ACAD_REACTORS
330
1A0
102
}
330
1A0
100
AcDbXrecord
 70
     0
  0
XRECORD
  5
1B1
102
{ACAD_REACTORS
330
1A0
102
}
330
1A0
100
AcDbXrecord
340
0
  0
XRECORD
  5
1B2
102
{ACAD_REACTORS
330
1A0
102
}
330
1A0
100
AcDbXrecord
 10
0.0
 20
0.0
 30
0.0
  0
XRECORD
  5
1B3
102
{ACAD_REACTORS
330
1A0
102
}
330
1A0
100
AcDbXrecord
 10
0.0
 20
0.0
 30
0.0
  0
XRECORD
  5
1B4
102
{ACAD_REACTORS
330
1A0
102
}
330
1A0
100
AcDbXrecord
 10
0.0
 20
0.0
 30
0.0
  0
XRECORD
  5
1B5
102
{ACAD_REACTORS
330
1A0
102
}
330
1A0
100
AcDbXrecord
 10
0.0
 20
0.0
 30
0.0
  0
XRECORD
  5
1B6
102
{ACAD_REACTORS
330
1A0
102
}
330
1A0
100
AcDbXrecord
 10
0.0
 20
0.0
 30
0.0
  0
XRECORD
  5
1B7
102
{ACAD_REACTORS
330
1A0
102
}
330
1A0
100
AcDbXrecord
 10
0.0
 20
0.0
 30
0.0
  0
XRECORD
  5
1B8
102
{ACAD_REACTORS
330
1A0
102
}
330
1A0
100
AcDbXrecord
340
0
  0
XRECORD
  5
1B9
102
{ACAD_REACTORS
330
1A0
102
}
330
1A0
100
AcDbXrecord
 70
     0
  0
XRECORD
  5
1BA
102
{ACAD_REACTORS
330
1A0
102
}
330
1A0
100
AcDbXrecord
340
0
  0
XRECORD
  5
1BB
102
{ACAD_REACTORS
330
1A0
102
}
330
1A0
100
AcDbXrecord
 10
0.0
 20
0.0
 30
0.0
  0
XRECORD
  5
1BC
102
{ACAD_REACTORS
330
1A0
102
}
330
1A0
100
AcDbXrecord
 10
0.0
 20
0.0
 30
0.0
  0
XRECORD
  5
1BD
102
{ACAD_REACTORS
330
1A0
102
}
330
1A0
100
AcDbXrecord
 10
0.0
 20
0.0
 30
0.0
  0
XRECORD
  5
1BE
102
{ACAD_REACTORS
330
1A0
102
}
330
1A0
100
AcDbXrecord
 10
0.0
 20
0.0
 30
0.0
  0
XRECORD
  5
1BF
102
{ACAD_REACTORS
330
1A0
102
}
330
1A0
100
AcDbXrecord
 10
0.0
 20
0.0
 30
0.0
  0
XRECORD
  5
1C0
102
{ACAD_REACTORS
330
1A0
102
}
330
1A0
100
AcDbXrecord
 10
0.0
 20
0.0
 30
0.0
  0
ENDSEC
  0
EOF
