  0
SECTION
  2
HEADER
  9
$ACADVER
  1
AC1015
  9
$ACADMAINTVER
 70
    13
  9
$DWGCODEPAGE
  3
ANSI_1252
  9
$INSBASE
 10
0.0
 20
0.0
 30
0.0
  9
$EXTMIN
 10
281.3950692441341
 20
29.89657355491301
 30
-98.29650011472404
  9
$EXTMAX
 10
300.2153403264669
 20
44.74748374051749
 30
65.54100007656962
  9
$LIMMIN
 10
280.396
 20
28.89699999999999
  9
$LIMMAX
 10
292.896
 20
43.74699999999999
  9
$ORTHOMODE
 70
     1
  9
$REGENMODE
 70
     1
  9
$FILLMODE
 70
     1
  9
$QTEXTMODE
 70
     0
  9
$MIRRTEXT
 70
     1
  9
$LTSCALE
 40
1.0
  9
$ATTMODE
 70
     1
  9
$TEXTSIZE
 40
0.2
  9
$TRACEWID
 40
0.05
  9
$TEXTSTYLE
  7
Standard
  9
$CLAYER
  8
0
  9
$CELTYPE
  6
ByLayer
  9
$CECOLOR
 62
   256
  9
$CELTSCALE
 40
1.0
  9
$DISPSILH
 70
     0
  9
$DIMSCALE
 40
1.0
  9
$DIMASZ
 40
0.18
  9
$DIMEXO
 40
0.0625
  9
$DIMDLI
 40
0.38
  9
$DIMRND
 40
0.0
  9
$DIMDLE
 40
0.0
  9
$DIMEXE
 40
0.18
  9
$DIMTP
 40
0.0
  9
$DIMTM
 40
0.0
  9
$DIMTXT
 40
0.18
  9
$DIMCEN
 40
0.09
  9
$DIMTSZ
 40
0.0
  9
$DIMTOL
 70
     0
  9
$DIMLIM
 70
     0
  9
$DIMTIH
 70
     1
  9
$DIMTOH
 70
     1
  9
$DIMSE1
 70
     0
  9
$DIMSE2
 70
     0
  9
$DIMTAD
 70
     0
  9
$DIMZIN
 70
     0
  9
$DIMBLK
  1

  9
$DIMASO
 70
     1
  9
$DIMSHO
 70
     1
  9
$DIMPOST
  1

  9
$DIMAPOST
  1

  9
$DIMALT
 70
     0
  9
$DIMALTD
 70
     2
  9
$DIMALTF
 40
25.4
  9
$DIMLFAC
 40
1.0
  9
$DIMTOFL
 70
     0
  9
$DIMTVP
 40
0.0
  9
$DIMTIX
 70
     0
  9
$DIMSOXD
 70
     0
  9
$DIMSAH
 70
     0
  9
$DIMBLK1
  1

  9
$DIMBLK2
  1

  9
$DIMSTYLE
  2
Standard
  9
$DIMCLRD
 70
     0
  9
$DIMCLRE
 70
     0
  9
$DIMCLRT
 70
     0
  9
$DIMTFAC
 40
1.0
  9
$DIMGAP
 40
0.09
  9
$DIMJUST
 70
     0
  9
$DIMSD1
 70
     0
  9
$DIMSD2
 70
     0
  9
$DIMTOLJ
 70
     1
  9
$DIMTZIN
 70
     0
  9
$DIMALTZ
 70
     0
  9
$DIMALTTZ
 70
     0
  9
$DIMUPT
 70
     0
  9
$DIMDEC
 70
     4
  9
$DIMTDEC
 70
     4
  9
$DIMALTU
 70
     2
  9
$DIMALTTD
 70
     2
  9
$DIMTXSTY
  7
Standard
  9
$DIMAUNIT
 70
     0
  9
$DIMADEC
 70
     0
  9
$DIMALTRND
 40
0.0
  9
$DIMAZIN
 70
     0
  9
$DIMDSEP
 70
    46
  9
$DIMATFIT
 70
     3
  9
$DIMFRAC
 70
     0
  9
$DIMLDRBLK
  1

  9
$DIMLUNIT
 70
     2
  9
$DIMLWD
 70
    -2
  9
$DIMLWE
 70
    -2
  9
$DIMTMOVE
 70
     0
  9
$LUNITS
 70
     2
  9
$LUPREC
 70
     4
  9
$SKETCHINC
 40
0.1
  9
$FILLETRAD
 40
0.0
  9
$AUNITS
 70
     0
  9
$AUPREC
 70
     0
  9
$MENU
  1
acad
  9
$ELEVATION
 40
0.0
  9
$PELEVATION
 40
0.0
  9
$THICKNESS
 40
0.0
  9
$LIMCHECK
 70
     0
  9
$CHAMFERA
 40
0.0
  9
$CHAMFERB
 40
0.0
  9
$CHAMFERC
 40
0.0
  9
$CHAMFERD
 40
0.0
  9
$SKPOLY
 70
     0
  9
$TDCREATE
 40
2448315.373408102
  9
$TDUCREATE
 40
2448315.331741435
  9
$TDUPDATE
 40
2453739.487592222
  9
$TDUUPDATE
 40
2453739.445925555
  9
$TDINDWG
 40
0.0077985764
  9
$TDUSRTIMER
 40
0.0077974884
  9
$USRTIMER
 70
     1
  9
$ANGBASE
 50
0.0
  9
$ANGDIR
 70
     0
  9
$PDMODE
 70
     0
  9
$PDSIZE
 40
0.0
  9
$PLINEWID
 40
0.0
  9
$SPLFRAME
 70
     0
  9
$SPLINETYPE
 70
     6
  9
$SPLINESEGS
 70
     8
  9
$HANDSEED
  5
C4
  9
$SURFTAB1
 70
     6
  9
$SURFTAB2
 70
     6
  9
$SURFTYPE
 70
     6
  9
$SURFU
 70
     6
  9
$SURFV
 70
     6
  9
$UCSBASE
  2

  9
$UCSNAME
  2

  9
$UCSORG
 10
0.0
 20
0.0
 30
0.0
  9
$UCSXDIR
 10
1.0
 20
0.0
 30
0.0
  9
$UCSYDIR
 10
0.0
 20
1.0
 30
0.0
  9
$UCSORTHOREF
  2

  9
$UCSORTHOVIEW
 70
     0
  9
$UCSORGTOP
 10
0.0
 20
0.0
 30
0.0
  9
$UCSORGBOTTOM
 10
0.0
 20
0.0
 30
0.0
  9
$UCSORGLEFT
 10
0.0
 20
0.0
 30
0.0
  9
$UCSORGRIGHT
 10
0.0
 20
0.0
 30
0.0
  9
$UCSORGFRONT
 10
0.0
 20
0.0
 30
0.0
  9
$UCSORGBACK
 10
0.0
 20
0.0
 30
0.0
  9
$PUCSBASE
  2

  9
$PUCSNAME
  2

  9
$PUCSORG
 10
0.0
 20
0.0
 30
0.0
  9
$PUCSXDIR
 10
1.0
 20
0.0
 30
0.0
  9
$PUCSYDIR
 10
0.0
 20
1.0
 30
0.0
  9
$PUCSORTHOREF
  2

  9
$PUCSORTHOVIEW
 70
     0
  9
$PUCSORGTOP
 10
0.0
 20
0.0
 30
0.0
  9
$PUCSORGBOTTOM
 10
0.0
 20
0.0
 30
0.0
  9
$PUCSORGLEFT
 10
0.0
 20
0.0
 30
0.0
  9
$PUCSORGRIGHT
 10
0.0
 20
0.0
 30
0.0
  9
$PUCSORGFRONT
 10
0.0
 20
0.0
 30
0.0
  9
$PUCSORGBACK
 10
0.0
 20
0.0
 30
0.0
  9
$USERI1
 70
     0
  9
$USERI2
 70
     0
  9
$USERI3
 70
     0
  9
$USERI4
 70
     0
  9
$USERI5
 70
     0
  9
$USERR1
 40
0.0
  9
$USERR2
 40
0.0
  9
$USERR3
 40
0.0
  9
$USERR4
 40
0.0
  9
$USERR5
 40
0.0
  9
$WORLDVIEW
 70
     1
  9
$SHADEDGE
 70
     3
  9
$SHADEDIF
 70
    70
  9
$TILEMODE
 70
     1
  9
$MAXACTVP
 70
    16
  9
$PINSBASE
 10
0.0
 20
0.0
 30
0.0
  9
$PLIMCHECK
 70
     0
  9
$PEXTMIN
 10
1.000000000000000E+20
 20
1.000000000000000E+20
 30
1.000000000000000E+20
  9
$PEXTMAX
 10
-1.000000000000000E+20
 20
-1.000000000000000E+20
 30
-1.000000000000000E+20
  9
$PLIMMIN
 10
0.0
 20
0.0
  9
$PLIMMAX
 10
12.0
 20
9.0
  9
$UNITMODE
 70
     0
  9
$VISRETAIN
 70
     0
  9
$PLINEGEN
 70
     0
  9
$PSLTSCALE
 70
     1
  9
$TREEDEPTH
 70
  3020
  9
$CMLSTYLE
  2
Standard
  9
$CMLJUST
 70
     0
  9
$CMLSCALE
 40
1.0
  9
$PROXYGRAPHICS
 70
     1
  9
$MEASUREMENT
 70
     0
  9
$CELWEIGHT
370
    40
  9
$ENDCAPS
280
     0
  9
$JOINSTYLE
280
     0
  9
$LWDISPLAY
290
     0
  9
$INSUNITS
 70
     0
  9
$HYPERLINKBASE
  1

  9
$STYLESHEET
  1

  9
$XEDIT
290
     1
  9
$CEPSNTYPE
380
     0
  9
$PSTYLEMODE
290
     1
  9
$FINGERPRINTGUID
  2
{CBED5895-4307-4DDF-BF9A-4A147BE048F5}
  9
$VERSIONGUID
  2
{77A927B2-8D8F-4D4B-8B02-A51957395B24}
  9
$EXTNAMES
290
     1
  9
$PSVPSCALE
 40
0.0
  9
$OLESTARTUP
290
     0
  0
ENDSEC
  0
SECTION
  2
CLASSES
  0
CLASS
  1
ACDBDICTIONARYWDFLT
  2
AcDbDictionaryWithDefault
  3
AutoCAD 2000
 90
        0
280
     0
281
     0
  0
CLASS
  1
ACDBPLACEHOLDER
  2
AcDbPlaceHolder
  3
AutoCAD 2000
 90
        0
280
     0
281
     0
  0
CLASS
  1
LAYOUT
  2
AcDbLayout
  3
AutoCAD 2000
 90
        0
280
     0
281
     0
  0
CLASS
  1
DICTIONARYVAR
  2
AcDbDictionaryVar
  3
AutoCAD 2000
 90
        0
280
     0
281
     0
  0
ENDSEC
  0
SECTION
  2
TABLES
  0
TABLE
  2
VPORT
  5
8
330
0
100
AcDbSymbolTable
 70
     4
  0
VPORT
  5
C3
330
8
100
AcDbSymbolTableRecord
100
AcDbViewportTableRecord
  2
*Active
 70
     0
 10
0.0
 20
0.0
 11
1.0
 21
1.0
 12
287.731895419942
 22
36.58653569866717
 13
0.0
 23
0.0
 14
1.0
 24
1.0
 15
0.0
 25
0.0
 16
0.0
 26
0.0
 36
1.0
 17
0.0
 27
0.0
 37
0.0
 40
22.35711392229853
 41
1.498756218905472
 42
50.0
 43
0.0
 44
0.0
 50
0.0
 51
0.0
 71
     0
 72
   100
 73
     1
 74
     1
 75
     0
 76
     0
 77
     0
 78
     0
281
     0
 65
     1
110
0.0
120
0.0
130
0.0
111
1.0
121
0.0
131
0.0
112
0.0
122
1.0
132
0.0
 79
     0
146
0.0
  0
ENDTAB
  0
TABLE
  2
LTYPE
  5
5
330
0
100
AcDbSymbolTable
 70
     1
  0
LTYPE
  5
13
330
5
100
AcDbSymbolTableRecord
100
AcDbLinetypeTableRecord
  2
ByBlock
 70
     0
  3

 72
    65
 73
     0
 40
0.0
  0
LTYPE
  5
14
330
5
100
AcDbSymbolTableRecord
100
AcDbLinetypeTableRecord
  2
ByLayer
 70
     0
  3

 72
    65
 73
     0
 40
0.0
  0
LTYPE
  5
15
330
5
100
AcDbSymbolTableRecord
100
AcDbLinetypeTableRecord
  2
CONTINUOUS
 70
     0
  3
Solid line
 72
    65
 73
     0
 40
0.0
  0
ENDTAB
  0
TABLE
  2
LAYER
  5
2
330
0
100
AcDbSymbolTable
 70
     8
  0
LAYER
  5
10
330
2
100
AcDbSymbolTableRecord
100
AcDbLayerTableRecord
  2
0
 70
     0
 62
     7
  6
CONTINUOUS
370
    -3
390
F
  0
LAYER
  5
22
330
2
100
AcDbSymbolTableRecord
100
AcDbLayerTableRecord
  2
1
 70
     0
 62
     7
  6
CONTINUOUS
370
    -3
390
F
  0
LAYER
  5
23
330
2
100
AcDbSymbolTableRecord
100
AcDbLayerTableRecord
  2
7
 70
     0
 62
     7
  6
CONTINUOUS
370
    -3
390
F
  0
LAYER
  5
24
330
2
100
AcDbSymbolTableRecord
100
AcDbLayerTableRecord
  2
8
 70
     0
 62
     7
  6
CONTINUOUS
370
    -3
390
F
  0
LAYER
  5
25
330
2
100
AcDbSymbolTableRecord
100
AcDbLayerTableRecord
  2
9
 70
     0
 62
     7
  6
CONTINUOUS
370
    -3
390
F
  0
LAYER
  5
26
330
2
100
AcDbSymbolTableRecord
100
AcDbLayerTableRecord
  2
22
 70
     0
 62
     7
  6
CONTINUOUS
370
    -3
390
F
  0
LAYER
  5
27
330
2
100
AcDbSymbolTableRecord
100
AcDbLayerTableRecord
  2
25
 70
     0
 62
     7
  6
CONTINUOUS
370
    -3
390
F
  0
LAYER
  5
77
330
2
100
AcDbSymbolTableRecord
100
AcDbLayerTableRecord
  2
Defpoints
 70
     0
 62
     7
  6
CONTINUOUS
290
     0
370
    -3
390
F
  0
ENDTAB
  0
TABLE
  2
STYLE
  5
3
330
0
100
AcDbSymbolTable
 70
     2
  0
STYLE
  5
11
330
3
100
AcDbSymbolTableRecord
100
AcDbTextStyleTableRecord
  2
Standard
 70
     0
 40
0.0
 41
1.0
 50
0.0
 71
     0
 42
0.2
  3
txt
  4

  0
STYLE
  5
28
330
3
100
AcDbSymbolTableRecord
100
AcDbTextStyleTableRecord
  2
ROMANC
 70
     0
 40
0.0
 41
1.0
 50
0.0
 71
     0
 42
0.2
  3
ROMANC
  4

  0
ENDTAB
  0
TABLE
  2
VIEW
  5
6
330
0
100
AcDbSymbolTable
 70
     0
  0
ENDTAB
  0
TABLE
  2
UCS
  5
7
330
0
100
AcDbSymbolTable
 70
     0
  0
ENDTAB
  0
TABLE
  2
APPID
  5
9
330
0
100
AcDbSymbolTable
 70
     1
  0
APPID
  5
12
330
9
100
AcDbSymbolTableRecord
100
AcDbRegAppTableRecord
  2
ACAD
 70
     0
  0
ENDTAB
  0
TABLE
  2
DIMSTYLE
  5
A
330
0
100
AcDbSymbolTable
 70
     1
100
AcDbDimStyleTable
 71
     1
340
65
  0
DIMSTYLE
105
65
102
{ACAD_REACTORS
330
76
330
85
330
93
102
}
330
A
100
AcDbSymbolTableRecord
100
AcDbDimStyleTableRecord
  2
Standard
 70
     0
340
11
  0
ENDTAB
  0
TABLE
  2
BLOCK_RECORD
  5
1
330
0
100
AcDbSymbolTable
 70
     3
  0
BLOCK_RECORD
  5
1E
330
1
100
AcDbSymbolTableRecord
100
AcDbBlockTableRecord
  2
*Model_Space
340
21
  0
BLOCK_RECORD
  5
1A
330
1
100
AcDbSymbolTableRecord
100
AcDbBlockTableRecord
  2
*Paper_Space
340
1D
  0
BLOCK_RECORD
  5
78
330
1
100
AcDbSymbolTableRecord
100
AcDbBlockTableRecord
  2
*D0
340
0
  0
BLOCK_RECORD
  5
86
330
1
100
AcDbSymbolTableRecord
100
AcDbBlockTableRecord
  2
*D1
340
0
  0
BLOCK_RECORD
  5
94
330
1
100
AcDbSymbolTableRecord
100
AcDbBlockTableRecord
  2
*D2
340
0
  0
ENDTAB
  0
ENDSEC
  0
SECTION
  2
BLOCKS
  0
BLOCK
  5
1F
330
1E
100
AcDbEntity
  8
0
100
AcDbBlockBegin
  2
*Model_Space
 70
     0
 10
0.0
 20
0.0
 30
0.0
  3
*Model_Space
  1

  0
ENDBLK
  5
20
330
1E
100
AcDbEntity
  8
0
100
AcDbBlockEnd
  0
BLOCK
  5
1B
330
1A
100
AcDbEntity
 67
     1
  8
0
100
AcDbBlockBegin
  2
*Paper_Space
 70
     0
 10
0.0
 20
0.0
 30
0.0
  3
*Paper_Space
  1

  0
ENDBLK
  5
1C
330
1A
100
AcDbEntity
 67
     1
  8
0
100
AcDbBlockEnd
  0
BLOCK
  5
83
330
78
100
AcDbEntity
  8
0
370
    40
100
AcDbBlockBegin
  2
*D0
 70
     1
 10
0.0
 20
0.0
 30
0.0
  3
*D0
  1

  0
LINE
  5
B5
330
78
100
AcDbEntity
  8
0
 62
     0
370
    -2
100
AcDbLine
 10
288.3439124776939
 20
35.01177170554802
 30
0.0
 11
289.1515601941437
 21
35.01177170554802
 31
0.0
  0
LINE
  5
B6
330
78
100
AcDbEntity
  8
0
 62
     0
370
    -2
100
AcDbLine
 10
288.3439124776939
 20
33.51177170554802
 30
0.0
 11
289.1515601941437
 21
33.51177170554802
 31
0.0
  0
LINE
  5
B7
330
78
100
AcDbEntity
  8
0
 62
     0
370
    -2
100
AcDbLine
 10
288.9715601941436
 20
34.83177170554802
 30
0.0
 11
288.9715601941436
 21
34.44177170554802
 31
0.0
  0
LINE
  5
B8
330
78
100
AcDbEntity
  8
0
 62
     0
370
    -2
100
AcDbLine
 10
288.9715601941436
 20
33.69177170554802
 30
0.0
 11
288.9715601941436
 21
34.08177170554802
 31
0.0
  0
SOLID
  5
B9
330
78
100
AcDbEntity
  8
0
 62
     0
370
    40
100
AcDbTrace
 10
288.9415601941437
 20
34.83177170554802
 30
0.0
 11
289.0015601941436
 21
34.83177170554802
 31
0.0
 12
288.9715601941436
 22
35.01177170554802
 32
0.0
 13
288.9715601941436
 23
35.01177170554802
 33
0.0
  0
SOLID
  5
BA
330
78
100
AcDbEntity
  8
0
 62
     0
370
    40
100
AcDbTrace
 10
288.9415601941437
 20
33.69177170554802
 30
0.0
 11
289.0015601941436
 21
33.69177170554802
 31
0.0
 12
288.9715601941436
 22
33.51177170554802
 32
0.0
 13
288.9715601941436
 23
33.51177170554802
 33
0.0
  0
MTEXT
  5
BB
330
78
100
AcDbEntity
  8
0
 62
     0
370
    40
100
AcDbMText
 10
288.9715601941436
 20
34.26177170554807
 30
0.0
 40
0.18
 41
0.0
 71
     5
 72
     1
  1
\A1;1.5000
 73
     1
 44
1.0
  0
POINT
  5
BC
330
78
100
AcDbEntity
  8
Defpoints
 62
     0
370
    40
100
AcDbPoint
 10
288.2814124776938
 20
35.01177170554802
 30
0.0
  0
POINT
  5
BD
330
78
100
AcDbEntity
  8
Defpoints
 62
     0
370
    40
100
AcDbPoint
 10
288.2814124776938
 20
33.51177170554802
 30
0.0
  0
POINT
  5
BE
330
78
100
AcDbEntity
  8
Defpoints
 62
     0
370
    40
100
AcDbPoint
 10
288.9715601941436
 20
33.51177170554802
 30
0.0
  0
ENDBLK
  5
84
330
78
100
AcDbEntity
  8
0
370
    40
100
AcDbBlockEnd
  0
BLOCK
  5
91
330
86
100
AcDbEntity
  8
0
370
    40
100
AcDbBlockBegin
  2
*D1
 70
     1
 10
0.0
 20
0.0
 30
0.0
  3
*D1
  1

  0
LINE
  5
AB
330
86
100
AcDbEntity
  8
0
 62
     0
370
    -2
100
AcDbLine
 10
286.1439124776939
 20
33.211771705548
 30
0.0
 11
290.3573852965714
 21
33.211771705548
 31
0.0
  0
LINE
  5
AC
330
86
100
AcDbEntity
  8
0
 62
     0
370
    -2
100
AcDbLine
 10
286.1439124776939
 20
35.01177170554802
 30
0.0
 11
290.3573852965714
 21
35.01177170554802
 31
0.0
  0
LINE
  5
AD
330
86
100
AcDbEntity
  8
0
 62
     0
370
    -2
100
AcDbLine
 10
290.1773852965714
 20
33.39177170554801
 30
0.0
 11
290.1773852965714
 21
33.93177170554801
 31
0.0
  0
LINE
  5
AE
330
86
100
AcDbEntity
  8
0
 62
     0
370
    -2
100
AcDbLine
 10
290.1773852965714
 20
34.83177170554802
 30
0.0
 11
290.1773852965714
 21
34.29177170554801
 31
0.0
  0
SOLID
  5
AF
330
86
100
AcDbEntity
  8
0
 62
     0
370
    40
100
AcDbTrace
 10
290.1473852965714
 20
33.39177170554801
 30
0.0
 11
290.2073852965714
 21
33.39177170554801
 31
0.0
 12
290.1773852965714
 22
33.211771705548
 32
0.0
 13
290.1773852965714
 23
33.211771705548
 33
0.0
  0
SOLID
  5
B0
330
86
100
AcDbEntity
  8
0
 62
     0
370
    40
100
AcDbTrace
 10
290.1473852965714
 20
34.83177170554802
 30
0.0
 11
290.2073852965714
 21
34.83177170554802
 31
0.0
 12
290.1773852965714
 22
35.01177170554802
 32
0.0
 13
290.1773852965714
 23
35.01177170554802
 33
0.0
  0
MTEXT
  5
B1
330
86
100
AcDbEntity
  8
0
 62
     0
370
    40
100
AcDbMText
 10
290.1773852965714
 20
34.11177170554806
 30
0.0
 40
0.18
 41
0.0
 71
     5
 72
     1
  1
\A1;1.8000
 73
     1
 44
1.0
  0
POINT
  5
B2
330
86
100
AcDbEntity
  8
Defpoints
 62
     0
370
    40
100
AcDbPoint
 10
286.0814124776938
 20
33.211771705548
 30
0.0
  0
POINT
  5
B3
330
86
100
AcDbEntity
  8
Defpoints
 62
     0
370
    40
100
AcDbPoint
 10
286.0814124776938
 20
35.01177170554802
 30
0.0
  0
POINT
  5
B4
330
86
100
AcDbEntity
  8
Defpoints
 62
     0
370
    40
100
AcDbPoint
 10
290.1773852965714
 20
35.01177170554802
 30
0.0
  0
ENDBLK
  5
92
330
86
100
AcDbEntity
  8
0
370
    40
100
AcDbBlockEnd
  0
BLOCK
  5
9F
330
94
100
AcDbEntity
  8
0
370
    40
100
AcDbBlockBegin
  2
*D2
 70
     1
 10
0.0
 20
0.0
 30
0.0
  3
*D2
  1

  0
LINE
  5
A1
330
94
100
AcDbEntity
  8
0
 62
     0
370
    -2
100
AcDbLine
 10
288.2814124776938
 20
35.07427170554802
 30
0.0
 11
288.2814124776938
 21
36.0134977748351
 31
0.0
  0
LINE
  5
A2
330
94
100
AcDbEntity
  8
0
 62
     0
370
    -2
100
AcDbLine
 10
283.8814124776939
 20
35.07427170554802
 30
0.0
 11
283.8814124776939
 21
36.0134977748351
 31
0.0
  0
LINE
  5
A3
330
94
100
AcDbEntity
  8
0
 62
     0
370
    -2
100
AcDbLine
 10
288.1014124776939
 20
35.8334977748351
 30
0.0
 11
286.5764124776939
 21
35.8334977748351
 31
0.0
  0
LINE
  5
A4
330
94
100
AcDbEntity
  8
0
 62
     0
370
    -2
100
AcDbLine
 10
284.0614124776939
 20
35.8334977748351
 30
0.0
 11
285.5864124776939
 21
35.8334977748351
 31
0.0
  0
SOLID
  5
A5
330
94
100
AcDbEntity
  8
0
 62
     0
370
    40
100
AcDbTrace
 10
288.1014124776939
 20
35.8634977748351
 30
0.0
 11
288.1014124776939
 21
35.8034977748351
 31
0.0
 12
288.2814124776938
 22
35.8334977748351
 32
0.0
 13
288.2814124776938
 23
35.8334977748351
 33
0.0
  0
SOLID
  5
A6
330
94
100
AcDbEntity
  8
0
 62
     0
370
    40
100
AcDbTrace
 10
284.0614124776939
 20
35.8634977748351
 30
0.0
 11
284.0614124776939
 21
35.8034977748351
 31
0.0
 12
283.8814124776939
 22
35.8334977748351
 32
0.0
 13
283.8814124776939
 23
35.8334977748351
 33
0.0
  0
MTEXT
  5
A7
330
94
100
AcDbEntity
  8
0
 62
     0
370
    40
100
AcDbMText
 10
286.0814124776938
 20
35.8334977748351
 30
0.0
 40
0.18
 41
0.0
 71
     5
 72
     1
  1
\A1;4.4000
 73
     1
 44
1.0
  0
POINT
  5
A8
330
94
100
AcDbEntity
  8
Defpoints
 62
     0
370
    40
100
AcDbPoint
 10
288.2814124776938
 20
35.01177170554802
 30
0.0
  0
POINT
  5
A9
330
94
100
AcDbEntity
  8
Defpoints
 62
     0
370
    40
100
AcDbPoint
 10
283.8814124776939
 20
35.01177170554802
 30
0.0
  0
POINT
  5
AA
330
94
100
AcDbEntity
  8
Defpoints
 62
     0
370
    40
100
AcDbPoint
 10
283.8814124776939
 20
35.8334977748351
 30
0.0
  0
ENDBLK
  5
A0
330
94
100
AcDbEntity
  8
0
370
    40
100
AcDbBlockEnd
  0
ENDSEC
  0
SECTION
  2
ENTITIES
  0
TEXT
  5
2C
330
1E
100
AcDbEntity
  8
0
  6
Continuous
100
AcDbText
 10
287.9821419552127
 20
41.32399999999999
 30
0.0
 40
0.1
  1
2
  7
ROMANC
100
AcDbText
  0
TEXT
  5
2D
330
1E
100
AcDbEntity
  8
0
  6
Continuous
100
AcDbText
 10
284.9991419552127
 20
41.768
 30
0.0
 40
0.3
  1
ESCALA  1:50
  7
ROMANC
100
AcDbText
  0
LWPOLYLINE
  5
2E
330
1E
100
AcDbEntity
  8
0
  6
Continuous
100
AcDbPolyline
 90
        4
 70
     1
 43
0.0
 10
281.396
 20
44.747
 10
291.896
 20
44.747
 10
291.896
 20
29.897
 10
281.396
 20
29.897
  0
TEXT
  5
34
330
1E
100
AcDbEntity
  8
0
  6
Continuous
100
AcDbText
 10
284.9991419552127
 20
42.381
 30
0.0
 40
0.3
  1
TIPUS   NT748
  7
ROMANC
100
AcDbText
  0
TEXT
  5
35
330
1E
100
AcDbEntity
  8
0
  6
Continuous
100
AcDbText
 10
285.0181419552128
 20
41.09899999999999
 30
0.0
 40
0.3
  1
S = 748 dm
  7
ROMANC
100
AcDbText
  0
TEXT
  5
36
330
1E
100
AcDbEntity
  8
0
  6
Continuous
100
AcDbText
 10
284.9951419552128
 20
40.529
 30
0.0
 40
0.3
  1
P = 119 dm
  7
ROMANC
100
AcDbText
  0
LWPOLYLINE
  5
72
330
1E
100
AcDbEntity
  8
0
  6
Continuous
370
    40
100
AcDbPolyline
 90
        4
 70
     1
 43
0.0
 10
288.2814124776938
 20
33.51177170554802
 10
288.2814124776938
 20
35.01177170554802
 10
283.8814124776939
 20
35.01177170554802
 10
283.8814124776939
 20
33.51177170554802
 42
0.1363636363636399
  0
DIMENSION
  5
76
330
1E
100
AcDbEntity
  8
0
370
    40
100
AcDbDimension
  2
*D0
 10
288.9715601941436
 20
33.51177170554802
 30
0.0
 11
288.9715601941436
 21
34.26177170554807
 31
0.0
 70
    32
 71
     5
 42
1.5
  3
Standard
100
AcDbAlignedDimension
 13
288.2814124776938
 23
35.01177170554802
 33
0.0
 14
288.2814124776938
 24
33.51177170554802
 34
0.0
 50
90.0
100
AcDbRotatedDimension
  0
DIMENSION
  5
85
330
1E
100
AcDbEntity
  8
0
370
    40
100
AcDbDimension
  2
*D1
 10
290.1773852965714
 20
35.01177170554802
 30
0.0
 11
290.1773852965714
 21
34.11177170554806
 31
0.0
 70
    32
 71
     5
 42
1.800000000000011
  3
Standard
100
AcDbAlignedDimension
 13
286.0814124776938
 23
33.211771705548
 33
0.0
 14
286.0814124776938
 24
35.01177170554802
 34
0.0
 50
90.0
100
AcDbRotatedDimension
  0
DIMENSION
  5
93
330
1E
100
AcDbEntity
  8
0
370
    40
100
AcDbDimension
  2
*D2
 10
283.8814124776939
 20
35.8334977748351
 30
0.0
 11
286.0814124776938
 21
35.8334977748351
 31
0.0
 70
    32
 71
     5
 42
4.399999999999977
  3
Standard
100
AcDbAlignedDimension
 13
288.2814124776938
 23
35.01177170554802
 33
0.0
 14
283.8814124776939
 24
35.01177170554802
 34
0.0
100
AcDbRotatedDimension
  0
ENDSEC
  0
SECTION
  2
OBJECTS
  0
DICTIONARY
  5
C
330
0
100
AcDbDictionary
281
     1
  3
ACAD_GROUP
350
D
  3
ACAD_LAYOUT
350
19
  3
ACAD_MLINESTYLE
350
16
  3
ACAD_PLOTSETTINGS
350
18
  3
ACAD_PLOTSTYLENAME
350
E
  3
AcDbVariableDictionary
350
C0
  0
DICTIONARY
  5
D
102
{ACAD_REACTORS
330
C
102
}
330
C
100
AcDbDictionary
281
     1
  0
DICTIONARY
  5
19
102
{ACAD_REACTORS
330
C
102
}
330
C
100
AcDbDictionary
281
     1
  3
Model
350
21
  3
Presentación1
350
1D
  0
DICTIONARY
  5
16
102
{ACAD_REACTORS
330
C
102
}
330
C
100
AcDbDictionary
281
     1
  3
Standard
350
17
  0
DICTIONARY
  5
18
102
{ACAD_REACTORS
330
C
102
}
330
C
100
AcDbDictionary
281
     1
  0
ACDBDICTIONARYWDFLT
  5
E
102
{ACAD_REACTORS
330
C
102
}
330
C
100
AcDbDictionary
281
     1
  3
Normal
350
F
100
AcDbDictionaryWithDefault
340
F
  0
DICTIONARY
  5
C0
102
{ACAD_REACTORS
330
C
102
}
330
C
100
AcDbDictionary
281
     1
  3
DIMASSOC
350
C1
  0
LAYOUT
  5
21
102
{ACAD_REACTORS
330
19
102
}
330
19
100
AcDbPlotSettings
  1

  2
\\SERVIDOR1W\HPInkjet_PS
  4

  6

 40
0.0
 41
0.0
 42
0.0
 43
0.0
 44
0.0
 45
0.0
 46
0.0
 47
0.0
 48
0.0
 49
0.0
140
0.0
141
0.0
142
1.0
143
1.0
 70
  1712
 72
     0
 73
     0
 74
     0
  7

 75
     0
147
1.0
148
0.0
149
0.0
100
AcDbLayout
  1
Model
 70
     1
 71
     0
 10
0.0
 20
0.0
 11
12.0
 21
9.0
 12
0.0
 22
0.0
 32
0.0
 14
0.0
 24
0.0
 34
0.0
 15
0.0
 25
0.0
 35
0.0
146
0.0
 13
0.0
 23
0.0
 33
0.0
 16
1.0
 26
0.0
 36
0.0
 17
0.0
 27
1.0
 37
0.0
 76
     0
330
1E
  0
LAYOUT
  5
1D
102
{ACAD_REACTORS
330
19
102
}
330
19
100
AcDbPlotSettings
  1

  2
\\SERVIDOR1W\HPInkjet_PS
  4

  6

 40
0.0
 41
0.0
 42
0.0
 43
0.0
 44
0.0
 45
0.0
 46
0.0
 47
0.0
 48
0.0
 49
0.0
140
0.0
141
0.0
142
1.0
143
1.0
 70
   688
 72
     0
 73
     0
 74
     5
  7

 75
    16
147
1.0
148
0.0
149
0.0
100
AcDbLayout
  1
Presentación1
 70
     1
 71
     1
 10
0.0
 20
0.0
 11
12.0
 21
9.0
 12
0.0
 22
0.0
 32
0.0
 14
1.000000000000000E+20
 24
1.000000000000000E+20
 34
1.000000000000000E+20
 15
-1.000000000000000E+20
 25
-1.000000000000000E+20
 35
-1.000000000000000E+20
146
0.0
 13
0.0
 23
0.0
 33
0.0
 16
1.0
 26
0.0
 36
0.0
 17
0.0
 27
1.0
 37
0.0
 76
     0
330
1A
  0
MLINESTYLE
  5
17
102
{ACAD_REACTORS
330
16
102
}
330
16
100
AcDbMlineStyle
  2
STANDARD
 70
     0
  3

 62
   256
 51
90.0
 52
90.0
 71
     2
 49
0.5
 62
   256
  6
BYLAYER
 49
-0.5
 62
   256
  6
BYLAYER
  0
ACDBPLACEHOLDER
  5
F
102
{ACAD_REACTORS
330
E
102
}
330
E
  0
DICTIONARYVAR
  5
C1
102
{ACAD_REACTORS
330
C0
102
}
330
C0
100
DictionaryVariables
280
     0
  1
1
  0
ENDSEC
  0
EOF
