  0
SECTION
  2
HEADER
  9
$ACADVER
  1
AC1021
  9
$ACADMAINTVER
 70
    50
  9
$DWGCODEPAGE
  3
ANSI_1252
  9
$LASTSAVEDBY
  1
Veronica
  9
$INSBASE
 10
0.0
 20
0.0
 30
0.0
  9
$EXTMIN
 10
281.3950692441341
 20
29.89657355491301
 30
-98.29650011472404
  9
$EXTMAX
 10
346.900656465822
 20
45.84791397746559
 30
65.54100007656962
  9
$LIMMIN
 10
280.396
 20
28.897
  9
$LIMMAX
 10
292.896
 20
43.74699999999999
  9
$ORTHOMODE
 70
     1
  9
$REGENMODE
 70
     1
  9
$FILLMODE
 70
     1
  9
$QTEXTMODE
 70
     0
  9
$MIRRTEXT
 70
     1
  9
$LTSCALE
 40
1.0
  9
$ATTMODE
 70
     1
  9
$TEXTSIZE
 40
0.2
  9
$TRACEWID
 40
0.05
  9
$TEXTSTYLE
  7
Standard
  9
$CLAYER
  8
0
  9
$CELTYPE
  6
ByLayer
  9
$CECOLOR
 62
   256
  9
$CELTSCALE
 40
1.0
  9
$DISPSILH
 70
     0
  9
$DIMSCALE
 40
1.0
  9
$DIMASZ
 40
0.18
  9
$DIMEXO
 40
0.0625
  9
$DIMDLI
 40
0.38
  9
$DIMRND
 40
0.0
  9
$DIMDLE
 40
0.0
  9
$DIMEXE
 40
0.18
  9
$DIMTP
 40
0.0
  9
$DIMTM
 40
0.0
  9
$DIMTXT
 40
0.18
  9
$DIMCEN
 40
0.09
  9
$DIMTSZ
 40
0.0
  9
$DIMTOL
 70
     0
  9
$DIMLIM
 70
     0
  9
$DIMTIH
 70
     1
  9
$DIMTOH
 70
     1
  9
$DIMSE1
 70
     0
  9
$DIMSE2
 70
     0
  9
$DIMTAD
 70
     0
  9
$DIMZIN
 70
     0
  9
$DIMBLK
  1

  9
$DIMASO
 70
     1
  9
$DIMSHO
 70
     1
  9
$DIMPOST
  1

  9
$DIMAPOST
  1

  9
$DIMALT
 70
     0
  9
$DIMALTD
 70
     2
  9
$DIMALTF
 40
25.4
  9
$DIMLFAC
 40
1.0
  9
$DIMTOFL
 70
     0
  9
$DIMTVP
 40
0.0
  9
$DIMTIX
 70
     0
  9
$DIMSOXD
 70
     0
  9
$DIMSAH
 70
     0
  9
$DIMBLK1
  1

  9
$DIMBLK2
  1

  9
$DIMSTYLE
  2
Standard
  9
$DIMCLRD
 70
     0
  9
$DIMCLRE
 70
     0
  9
$DIMCLRT
 70
     0
  9
$DIMTFAC
 40
1.0
  9
$DIMGAP
 40
0.09
  9
$DIMJUST
 70
     0
  9
$DIMSD1
 70
     0
  9
$DIMSD2
 70
     0
  9
$DIMTOLJ
 70
     1
  9
$DIMTZIN
 70
     0
  9
$DIMALTZ
 70
     0
  9
$DIMALTTZ
 70
     0
  9
$DIMUPT
 70
     0
  9
$DIMDEC
 70
     4
  9
$DIMTDEC
 70
     4
  9
$DIMALTU
 70
     2
  9
$DIMALTTD
 70
     2
  9
$DIMTXSTY
  7
Standard
  9
$DIMAUNIT
 70
     0
  9
$DIMADEC
 70
     0
  9
$DIMALTRND
 40
0.0
  9
$DIMAZIN
 70
     0
  9
$DIMDSEP
 70
    46
  9
$DIMATFIT
 70
     3
  9
$DIMFRAC
 70
     0
  9
$DIMLDRBLK
  1

  9
$DIMLUNIT
 70
     2
  9
$DIMLWD
 70
    -2
  9
$DIMLWE
 70
    -2
  9
$DIMTMOVE
 70
     0
  9
$DIMFXL
 40
1.0
  9
$DIMFXLON
 70
     0
  9
$DIMJOGANG
 40
0.7853981633974483
  9
$DIMTFILL
 70
     0
  9
$DIMTFILLCLR
 70
     0
  9
$DIMARCSYM
 70
     0
  9
$DIMLTYPE
  6

  9
$DIMLTEX1
  6

  9
$DIMLTEX2
  6

  9
$LUNITS
 70
     2
  9
$LUPREC
 70
     4
  9
$SKETCHINC
 40
0.1
  9
$FILLETRAD
 40
0.0
  9
$AUNITS
 70
     0
  9
$AUPREC
 70
     0
  9
$MENU
  1
acad
  9
$ELEVATION
 40
0.0
  9
$PELEVATION
 40
0.0
  9
$THICKNESS
 40
0.0
  9
$LIMCHECK
 70
     0
  9
$CHAMFERA
 40
0.0
  9
$CHAMFERB
 40
0.0
  9
$CHAMFERC
 40
0.0
  9
$CHAMFERD
 40
0.0
  9
$SKPOLY
 70
     0
  9
$TDCREATE
 40
2448315.373408102
  9
$TDUCREATE
 40
2448315.290074769
  9
$TDUPDATE
 40
2455405.536890694
  9
$TDUUPDATE
 40
2455405.453557361
  9
$TDINDWG
 40
0.0090324306
  9
$TDUSRTIMER
 40
0.0090324306
  9
$USRTIMER
 70
     1
  9
$ANGBASE
 50
0.0
  9
$ANGDIR
 70
     0
  9
$PDMODE
 70
     0
  9
$PDSIZE
 40
0.0
  9
$PLINEWID
 40
0.0
  9
$SPLFRAME
 70
     0
  9
$SPLINETYPE
 70
     6
  9
$SPLINESEGS
 70
     8
  9
$HANDSEED
  5
725
  9
$SURFTAB1
 70
     6
  9
$SURFTAB2
 70
     6
  9
$SURFTYPE
 70
     6
  9
$SURFU
 70
     6
  9
$SURFV
 70
     6
  9
$UCSBASE
  2

  9
$UCSNAME
  2

  9
$UCSORG
 10
0.0
 20
0.0
 30
0.0
  9
$UCSXDIR
 10
1.0
 20
0.0
 30
0.0
  9
$UCSYDIR
 10
0.0
 20
1.0
 30
0.0
  9
$UCSORTHOREF
  2

  9
$UCSORTHOVIEW
 70
     0
  9
$UCSORGTOP
 10
0.0
 20
0.0
 30
0.0
  9
$UCSORGBOTTOM
 10
0.0
 20
0.0
 30
0.0
  9
$UCSORGLEFT
 10
0.0
 20
0.0
 30
0.0
  9
$UCSORGRIGHT
 10
0.0
 20
0.0
 30
0.0
  9
$UCSORGFRONT
 10
0.0
 20
0.0
 30
0.0
  9
$UCSORGBACK
 10
0.0
 20
0.0
 30
0.0
  9
$PUCSBASE
  2

  9
$PUCSNAME
  2

  9
$PUCSORG
 10
0.0
 20
0.0
 30
0.0
  9
$PUCSXDIR
 10
1.0
 20
0.0
 30
0.0
  9
$PUCSYDIR
 10
0.0
 20
1.0
 30
0.0
  9
$PUCSORTHOREF
  2

  9
$PUCSORTHOVIEW
 70
     0
  9
$PUCSORGTOP
 10
0.0
 20
0.0
 30
0.0
  9
$PUCSORGBOTTOM
 10
0.0
 20
0.0
 30
0.0
  9
$PUCSORGLEFT
 10
0.0
 20
0.0
 30
0.0
  9
$PUCSORGRIGHT
 10
0.0
 20
0.0
 30
0.0
  9
$PUCSORGFRONT
 10
0.0
 20
0.0
 30
0.0
  9
$PUCSORGBACK
 10
0.0
 20
0.0
 30
0.0
  9
$USERI1
 70
     0
  9
$USERI2
 70
     0
  9
$USERI3
 70
     0
  9
$USERI4
 70
     0
  9
$USERI5
 70
     0
  9
$USERR1
 40
0.0
  9
$USERR2
 40
0.0
  9
$USERR3
 40
0.0
  9
$USERR4
 40
0.0
  9
$USERR5
 40
0.0
  9
$WORLDVIEW
 70
     1
  9
$SHADEDGE
 70
     3
  9
$SHADEDIF
 70
    70
  9
$TILEMODE
 70
     1
  9
$MAXACTVP
 70
    16
  9
$PINSBASE
 10
0.0
 20
0.0
 30
0.0
  9
$PLIMCHECK
 70
     0
  9
$PEXTMIN
 10
1.000000000000000E+20
 20
1.000000000000000E+20
 30
1.000000000000000E+20
  9
$PEXTMAX
 10
-1.000000000000000E+20
 20
-1.000000000000000E+20
 30
-1.000000000000000E+20
  9
$PLIMMIN
 10
0.0
 20
0.0
  9
$PLIMMAX
 10
12.0
 20
9.0
  9
$UNITMODE
 70
     0
  9
$VISRETAIN
 70
     0
  9
$PLINEGEN
 70
     0
  9
$PSLTSCALE
 70
     1
  9
$TREEDEPTH
 70
  3020
  9
$CMLSTYLE
  2
Standard
  9
$CMLJUST
 70
     0
  9
$CMLSCALE
 40
1.0
  9
$PROXYGRAPHICS
 70
     1
  9
$MEASUREMENT
 70
     0
  9
$CELWEIGHT
370
    -1
  9
$ENDCAPS
280
     0
  9
$JOINSTYLE
280
     0
  9
$LWDISPLAY
290
     0
  9
$INSUNITS
 70
     0
  9
$HYPERLINKBASE
  1

  9
$STYLESHEET
  1

  9
$XEDIT
290
     1
  9
$CEPSNTYPE
380
     0
  9
$PSTYLEMODE
290
     1
  9
$FINGERPRINTGUID
  2
{06A19995-55D4-4369-B1ED-8CA5B218ECE8}
  9
$VERSIONGUID
  2
{512D2802-27C8-4B2A-B4BC-6D1E6DCE1740}
  9
$EXTNAMES
290
     1
  9
$PSVPSCALE
 40
0.0
  9
$OLESTARTUP
290
     0
  9
$SORTENTS
280
   127
  9
$INDEXCTL
280
     0
  9
$HIDETEXT
280
     0
  9
$XCLIPFRAME
290
     0
  9
$HALOGAP
280
     0
  9
$OBSCOLOR
 70
   257
  9
$OBSLTYPE
280
     0
  9
$INTERSECTIONDISPLAY
280
     0
  9
$INTERSECTIONCOLOR
 70
   257
  9
$DIMASSOC
280
     1
  9
$PROJECTNAME
  1

  9
$CAMERADISPLAY
290
     0
  9
$LENSLENGTH
 40
50.0
  9
$CAMERAHEIGHT
 40
0.0
  9
$STEPSPERSEC
 40
2.0
  9
$STEPSIZE
 40
6.0
  9
$3DDWFPREC
 40
2.0
  9
$PSOLWIDTH
 40
0.25
  9
$PSOLHEIGHT
 40
4.0
  9
$LOFTANG1
 40
1.570796326794896
  9
$LOFTANG2
 40
1.570796326794896
  9
$LOFTMAG1
 40
0.0
  9
$LOFTMAG2
 40
0.0
  9
$LOFTPARAM
 70
     7
  9
$LOFTNORMALS
280
     1
  9
$LATITUDE
 40
37.795
  9
$LONGITUDE
 40
-122.394
  9
$NORTHDIRECTION
 40
0.0
  9
$TIMEZONE
 70
 -8000
  9
$LIGHTGLYPHDISPLAY
280
     1
  9
$TILEMODELIGHTSYNCH
280
     1
  9
$CMATERIAL
347
11
  9
$SOLIDHIST
280
     1
  9
$SHOWHIST
280
     1
  9
$DWFFRAME
280
     2
  9
$DGNFRAME
280
     0
  9
$REALWORLDSCALE
290
     1
  9
$INTERFERECOLOR
 62
     1
  9
$INTERFEREOBJVS
345
33
  9
$INTERFEREVPVS
346
30
  9
$CSHADOW
280
     0
  9
$SHADOWPLANELOCATION
 40
0.0
  0
ENDSEC
  0
SECTION
  2
CLASSES
  0
CLASS
  1
ACDBDICTIONARYWDFLT
  2
AcDbDictionaryWithDefault
  3
ObjectDBX Classes
 90
        0
 91
        1
280
     0
281
     0
  0
CLASS
  1
MATERIAL
  2
AcDbMaterial
  3
ObjectDBX Classes
 90
     1153
 91
        3
280
     0
281
     0
  0
CLASS
  1
VISUALSTYLE
  2
AcDbVisualStyle
  3
ObjectDBX Classes
 90
     4095
 91
       19
280
     0
281
     0
  0
CLASS
  1
SCALE
  2
AcDbScale
  3
ObjectDBX Classes
 90
     1153
 91
       34
280
     0
281
     0
  0
CLASS
  1
TABLESTYLE
  2
AcDbTableStyle
  3
ObjectDBX Classes
 90
     4095
 91
        1
280
     0
281
     0
  0
CLASS
  1
MLEADERSTYLE
  2
AcDbMLeaderStyle
  3
ACDB_MLEADERSTYLE_CLASS
 90
     4095
 91
        1
280
     0
281
     0
  0
CLASS
  1
EXACXREFPANELOBJECT
  2
ExAcXREFPanelObject
  3
EXAC_ESW
 90
     1025
 91
        1
280
     0
281
     0
  0
CLASS
  1
NPOCOLLECTION
  2
AcDbImpNonPersistentObjectsCollection
  3
ObjectDBX Classes
 90
     1153
 91
        1
280
     0
281
     0
  0
CLASS
  1
AEC_REFEDIT_STATUS_TRACKER
  2
AecDbRefEditStatusTracker
  3
AecArchBase60|Product Desc: Autodesk Architectural Desktop 2007 |Company: Autodesk,Inc. |WEB Address: www.autodesk.com
 90
      129
 91
        1
280
     0
281
     0
  0
CLASS
  1
SORTENTSTABLE
  2
AcDbSortentsTable
  3
ObjectDBX Classes
 90
        0
 91
        3
280
     0
281
     0
  0
CLASS
  1
DICTIONARYVAR
  2
AcDbDictionaryVar
  3
ObjectDBX Classes
 90
        0
 91
       19
280
     0
281
     0
  0
CLASS
  1
CELLSTYLEMAP
  2
AcDbCellStyleMap
  3
ObjectDBX Classes
 90
     1152
 91
        2
280
     0
281
     0
  0
ENDSEC
  0
SECTION
  2
TABLES
  0
TABLE
  2
VPORT
  5
8
330
0
100
AcDbSymbolTable
 70
     1
  0
VPORT
  5
83
330
8
100
AcDbSymbolTableRecord
100
AcDbViewportTableRecord
  2
*Active
 70
     0
 10
0.0
 20
0.0
 11
1.0
 21
1.0
 12
286.6624578082528
 22
38.9916262288105
 13
0.0
 23
0.0
 14
1.0
 24
1.0
 15
0.0
 25
0.0
 16
0.0
 26
0.0
 36
1.0
 17
0.0
 27
0.0
 37
0.0
 40
23.10855170658929
 41
1.451421800947867
 42
50.0
 43
0.0
 44
0.0
 50
0.0
 51
0.0
 71
     0
 72
   100
 73
     1
 74
     1
 75
     0
 76
     0
 77
     0
 78
     0
281
     0
 65
     1
110
0.0
120
0.0
130
0.0
111
1.0
121
0.0
131
0.0
112
0.0
122
1.0
132
0.0
 79
     0
146
0.0
348
2F
 60
     3
 61
     5
292
     1
282
     1
141
0.0
142
0.0
 63
   250
421
  3355443
  0
ENDTAB
  0
TABLE
  2
LTYPE
  5
5
330
0
100
AcDbSymbolTable
 70
     3
  0
LTYPE
  5
65
330
5
100
AcDbSymbolTableRecord
100
AcDbLinetypeTableRecord
  2
ByBlock
 70
     0
  3

 72
    65
 73
     0
 40
0.0
  0
LTYPE
  5
66
330
5
100
AcDbSymbolTableRecord
100
AcDbLinetypeTableRecord
  2
ByLayer
 70
     0
  3

 72
    65
 73
     0
 40
0.0
  0
LTYPE
  5
67
330
5
100
AcDbSymbolTableRecord
100
AcDbLinetypeTableRecord
  2
CONTINUOUS
 70
     0
  3
Solid line
 72
    65
 73
     0
 40
0.0
  0
ENDTAB
  0
TABLE
  2
LAYER
  5
2
330
0
100
AcDbSymbolTable
 70
     9
  0
LAYER
  5
5F
102
{ACAD_XDICTIONARY
360
6A4
102
}
330
2
100
AcDbSymbolTableRecord
100
AcDbLayerTableRecord
  2
0
 70
     0
 62
     7
  6
CONTINUOUS
370
    -3
390
F
347
21
  0
LAYER
  5
7A
102
{ACAD_XDICTIONARY
360
6A6
102
}
330
2
100
AcDbSymbolTableRecord
100
AcDbLayerTableRecord
  2
1
 70
     0
 62
     7
  6
CONTINUOUS
370
    -3
390
F
347
21
  0
LAYER
  5
7B
102
{ACAD_XDICTIONARY
360
6A8
102
}
330
2
100
AcDbSymbolTableRecord
100
AcDbLayerTableRecord
  2
7
 70
     0
 62
     7
  6
CONTINUOUS
370
    -3
390
F
347
21
  0
LAYER
  5
7C
102
{ACAD_XDICTIONARY
360
6AA
102
}
330
2
100
AcDbSymbolTableRecord
100
AcDbLayerTableRecord
  2
8
 70
     0
 62
     7
  6
CONTINUOUS
370
    -3
390
F
347
21
  0
LAYER
  5
7D
102
{ACAD_XDICTIONARY
360
6AC
102
}
330
2
100
AcDbSymbolTableRecord
100
AcDbLayerTableRecord
  2
9
 70
     0
 62
     7
  6
CONTINUOUS
370
    -3
390
F
347
21
  0
LAYER
  5
7E
102
{ACAD_XDICTIONARY
360
6AE
102
}
330
2
100
AcDbSymbolTableRecord
100
AcDbLayerTableRecord
  2
22
 70
     0
 62
     7
  6
CONTINUOUS
370
    -3
390
F
347
21
  0
LAYER
  5
7F
102
{ACAD_XDICTIONARY
360
6B0
102
}
330
2
100
AcDbSymbolTableRecord
100
AcDbLayerTableRecord
  2
25
 70
     0
 62
     7
  6
CONTINUOUS
370
    -3
390
F
347
21
  0
LAYER
  5
214
330
2
100
AcDbSymbolTableRecord
100
AcDbLayerTableRecord
  2
Defpoints
 70
     0
 62
     7
  6
CONTINUOUS
290
     0
370
    -3
390
F
347
21
  0
LAYER
  5
215
102
{ACAD_XDICTIONARY
360
6B2
102
}
330
2
100
AcDbSymbolTableRecord
100
AcDbLayerTableRecord
  2
GEOMETRIA
 70
     0
 62
     7
  6
CONTINUOUS
370
    -3
390
F
347
21
1001
AcAecLayerStandard
1000

1000

  0
ENDTAB
  0
TABLE
  2
STYLE
  5
3
330
0
100
AcDbSymbolTable
 70
     5
  0
STYLE
  5
60
330
3
100
AcDbSymbolTableRecord
100
AcDbTextStyleTableRecord
  2
Standard
 70
     0
 40
0.0
 41
1.0
 50
0.0
 71
     0
 42
0.2
  3
txt
  4

  0
STYLE
  5
64
330
3
100
AcDbSymbolTableRecord
100
AcDbTextStyleTableRecord
  2
Annotative
 70
     0
 40
0.0
 41
1.0
 50
0.0
 71
     0
 42
0.2
  3
txt
  4

1001
AcadAnnotative
1000
AnnotativeData
1002
{
1070
     1
1070
     1
1002
}
  0
STYLE
  5
80
330
3
100
AcDbSymbolTableRecord
100
AcDbTextStyleTableRecord
  2
ROMANC
 70
     0
 40
0.0
 41
1.0
 50
0.0
 71
     0
 42
0.2
  3
ROMANC
  4

  0
STYLE
  5
216
330
3
100
AcDbSymbolTableRecord
100
AcDbTextStyleTableRecord
  2
ROMANS
 70
     0
 40
0.0
 41
1.0
 50
0.0
 71
     0
 42
2.5
  3
romans.shx
  4

  0
ENDTAB
  0
TABLE
  2
VIEW
  5
6
330
0
100
AcDbSymbolTable
 70
     0
  0
ENDTAB
  0
TABLE
  2
UCS
  5
7
330
0
100
AcDbSymbolTable
 70
     0
  0
ENDTAB
  0
TABLE
  2
APPID
  5
9
330
0
100
AcDbSymbolTable
 70
    10
  0
APPID
  5
61
330
9
100
AcDbSymbolTableRecord
100
AcDbRegAppTableRecord
  2
ACAD
 70
     0
  0
APPID
  5
68
330
9
100
AcDbSymbolTableRecord
100
AcDbRegAppTableRecord
  2
AcadAnnotative
 70
     0
  0
APPID
  5
CE
330
9
100
AcDbSymbolTableRecord
100
AcDbRegAppTableRecord
  2
ACAD_EXEMPT_FROM_CAD_STANDARDS
 70
     0
  0
APPID
  5
21A
330
9
100
AcDbSymbolTableRecord
100
AcDbRegAppTableRecord
  2
ACAD_DSTYLE_DIMJAG
 70
     0
  0
APPID
  5
21B
330
9
100
AcDbSymbolTableRecord
100
AcDbRegAppTableRecord
  2
ACAD_DSTYLE_DIMTALN
 70
     0
  0
APPID
  5
21C
330
9
100
AcDbSymbolTableRecord
100
AcDbRegAppTableRecord
  2
AcAecLayerStandard
 70
     0
  0
APPID
  5
21D
330
9
100
AcDbSymbolTableRecord
100
AcDbRegAppTableRecord
  2
ADE
 70
     0
  0
APPID
  5
21E
330
9
100
AcDbSymbolTableRecord
100
AcDbRegAppTableRecord
  2
ACAD_DSTYLE_DIMBREAK
 70
     0
  0
APPID
  5
6E9
330
9
100
AcDbSymbolTableRecord
100
AcDbRegAppTableRecord
  2
ACAD_PSEXT
 70
     0
  0
APPID
  5
724
330
9
100
AcDbSymbolTableRecord
100
AcDbRegAppTableRecord
  2
ACAD_MLEADERVER
 70
     0
  0
ENDTAB
  0
TABLE
  2
DIMSTYLE
  5
A
330
0
100
AcDbSymbolTable
 70
     7
100
AcDbDimStyleTable
 71
     2
340
62
340
218
  0
DIMSTYLE
105
62
330
A
100
AcDbSymbolTableRecord
100
AcDbDimStyleTableRecord
  2
Standard
 70
     0
340
60
  0
DIMSTYLE
105
63
330
A
100
AcDbSymbolTableRecord
100
AcDbDimStyleTableRecord
  2
Annotative
 70
     0
340
60
1001
AcadAnnotative
1000
AnnotativeData
1002
{
1070
     1
1070
     1
1002
}
  0
DIMSTYLE
105
217
102
{ACAD_REACTORS
330
237
330
238
330
239
330
23A
330
23B
330
23C
330
23D
330
23E
330
243
102
}
330
A
100
AcDbSymbolTableRecord
100
AcDbDimStyleTableRecord
  2
acota 1-25
 70
     0
 40
0.075
 41
1.0
 42
1.0
 43
0.3
 44
0.3
 46
0.3
140
1.0
141
1.0
147
0.01
178
   256
179
     2
271
     2
272
     2
279
     2
340
216
342
E0
371
    -1
372
    -1
1001
ACAD_DSTYLE_DIMJAG
1070
   388
1040
1.5
1001
ACAD_DSTYLE_DIMTALN
1070
   392
1070
     0
  0
DIMSTYLE
105
218
102
{ACAD_REACTORS
330
22F
330
22E
330
22D
330
22C
330
22B
330
22A
330
229
330
228
330
4AE
330
4D0
330
504
330
4F6
330
4E8
330
550
330
542
102
}
330
A
100
AcDbSymbolTableRecord
100
AcDbDimStyleTableRecord
  2
acota 1-50
 70
     0
 40
0.15
 41
1.0
 42
1.0
 43
0.3
 44
0.3
 46
0.3
140
1.0
141
1.0
147
0.01
178
   256
179
     2
271
     2
272
     2
279
     2
340
216
342
E0
371
    -1
372
    -1
1001
ACAD_DSTYLE_DIMBREAK
1070
   391
1040
3.75
1001
ACAD_DSTYLE_DIMJAG
1070
   388
1040
1.5
1001
ACAD_DSTYLE_DIMTALN
1070
   392
1070
     0
  0
DIMSTYLE
105
219
102
{ACAD_REACTORS
330
245
330
244
330
242
330
241
330
248
330
247
330
246
102
}
330
A
100
AcDbSymbolTableRecord
100
AcDbDimStyleTableRecord
  2
acota 1-10
 70
     0
 40
0.03
 41
1.0
 42
1.0
 43
0.3
 44
0.3
 46
0.3
140
1.0
141
1.0
147
0.01
178
   256
179
     2
271
     2
272
     2
279
     2
340
216
342
E0
371
    -1
372
    -1
1001
ACAD_DSTYLE_DIMBREAK
1070
   391
1040
3.75
1001
ACAD_DSTYLE_DIMJAG
1070
   388
1040
1.5
1001
ACAD_DSTYLE_DIMTALN
1070
   392
1070
     0
  0
ENDTAB
  0
TABLE
  2
BLOCK_RECORD
  5
1
330
0
100
AcDbSymbolTable
 70
    61
  0
BLOCK_RECORD
  5
76
102
{ACAD_XDICTIONARY
360
D7
102
}
330
1
100
AcDbSymbolTableRecord
100
AcDbBlockTableRecord
  2
*Model_Space
340
79
 70
     0
280
     1
281
     0
  0
BLOCK_RECORD
  5
72
330
1
100
AcDbSymbolTableRecord
100
AcDbBlockTableRecord
  2
*Paper_Space
340
75
 70
     0
280
     1
281
     0
  0
BLOCK_RECORD
  5
E0
330
1
100
AcDbSymbolTableRecord
100
AcDbBlockTableRecord
  2
_ArchTick
340
0
310
2800000020000000200000000100080000000000000400000000000000000000000000000000000000000000000080000080000000808000800000008000800080800000C0C0C000C0DCC000F0CAA6000020400000206000002080000020A0000020C0000020E00000400000004020000040400000406000004080000040A0
310
000040C0000040E00000600000006020000060400000606000006080000060A0000060C0000060E00000800000008020000080400000806000008080000080A0000080C0000080E00000A0000000A0200000A0400000A0600000A0800000A0A00000A0C00000A0E00000C0000000C0200000C0400000C0600000C0800000C0
310
A00000C0C00000C0E00000E0000000E0200000E0400000E0600000E0800000E0A00000E0C00000E0E00040000000400020004000400040006000400080004000A0004000C0004000E00040200000402020004020400040206000402080004020A0004020C0004020E000404000004040200040404000404060004040800040
310
40A0004040C0004040E00040600000406020004060400040606000406080004060A0004060C0004060E00040800000408020004080400040806000408080004080A0004080C0004080E00040A0000040A0200040A0400040A0600040A0800040A0A00040A0C00040A0E00040C0000040C0200040C0400040C0600040C08000
310
40C0A00040C0C00040C0E00040E0000040E0200040E0400040E0600040E0800040E0A00040E0C00040E0E00080000000800020008000400080006000800080008000A0008000C0008000E00080200000802020008020400080206000802080008020A0008020C0008020E00080400000804020008040400080406000804080
310
008040A0008040C0008040E00080600000806020008060400080606000806080008060A0008060C0008060E00080800000808020008080400080806000808080008080A0008080C0008080E00080A0000080A0200080A0400080A0600080A0800080A0A00080A0C00080A0E00080C0000080C0200080C0400080C0600080C0
310
800080C0A00080C0C00080C0E00080E0000080E0200080E0400080E0600080E0800080E0A00080E0C00080E0E000C0000000C0002000C0004000C0006000C0008000C000A000C000C000C000E000C0200000C0202000C0204000C0206000C0208000C020A000C020C000C020E000C0400000C0402000C0404000C0406000C0
310
408000C040A000C040C000C040E000C0600000C0602000C0604000C0606000C0608000C060A000C060C000C060E000C0800000C0802000C0804000C0806000C0808000C080A000C080C000C080E000C0A00000C0A02000C0A04000C0A06000C0A08000C0A0A000C0A0C000C0A0E000C0C00000C0C02000C0C04000C0C06000
310
C0C08000C0C0A000F0FBFF00A4A0A000808080000000FF0000FF000000FFFF00FF000000FF00FF00FFFF0000FFFFFF00000000FF000000000000000000000000000000000000000000000000000000000000FF00FF00000000000000000000000000000000000000000000000000000000FF000000FF000000000000000000
310
0000000000000000000000000000000000FF0000000000FF0000000000000000000000000000000000000000000000000000FF0000000000FF0000000000000000000000000000000000000000000000000000FF0000000000FF0000000000000000000000000000000000000000000000000000FF0000000000FF00000000
310
00000000000000000000000000000000000000000000FF0000000000FF0000000000000000000000000000000000000000000000000000FF0000000000FF0000000000000000000000000000000000000000000000000000FF0000000000FF0000000000000000000000000000000000000000000000000000FF0000000000
310
FF0000000000000000000000000000000000000000000000000000FF0000000000FF0000000000000000000000000000000000000000000000000000FF0000000000FF0000000000000000000000000000000000000000000000000000FF0000000000FF0000000000000000000000000000000000000000000000000000FF
310
0000000000FF0000000000000000000000000000000000000000000000000000FF0000000000FF0000000000000000000000000000000000000000000000000000FF0000000000FF0000000000000000000000000000000000000000000000000000FF0000000000FF00000000000000000000000000000000000000000000
310
00000000FF0000000000FF0000000000000000000000000000000000000000000000000000FF0000000000FF0000000000000000000000000000000000000000000000000000FF0000000000FF0000000000000000000000000000000000000000000000000000FF0000000000FF0000000000000000000000000000000000
310
000000000000000000FF0000000000FF0000000000000000000000000000000000000000000000000000FF0000000000FF0000000000000000000000000000000000000000000000000000FF0000000000FF0000000000000000000000000000000000000000000000000000FF0000000000FF000000000000000000000000
310
0000000000000000000000000000FF0000000000FF0000000000000000000000000000000000000000000000000000FF0000000000FF0000000000000000000000000000000000000000000000000000FF0000000000FF0000000000000000000000000000000000000000000000000000FF000000FF000000000000000000
310
00000000000000000000000000000000000000FF00FF000000000000000000000000000000000000000000000000000000000000FF000000
102
{BLKREFS
331
14E
331
14F
331
15B
331
15C
331
168
331
169
331
175
331
176
331
182
331
183
331
18F
331
190
331
19B
331
19C
331
1A8
331
1A9
331
1CE
331
1CF
331
1E8
331
1E9
331
1DB
331
1DC
331
1C1
331
1C2
331
1B4
331
1B5
331
20E
331
20F
331
201
331
202
331
1F5
331
1F6
331
142
331
143
331
136
331
137
331
12A
331
12B
331
11D
331
11E
331
110
331
111
331
104
331
105
331
F7
331
F8
331
EA
331
EB
331
3B6
331
3B7
331
3C0
331
3C1
331
3CA
331
3CB
331
3D3
331
3D4
331
3DD
331
3DE
331
3E7
331
3E8
331
3F0
331
3F1
331
3F9
331
3FA
331
402
331
403
331
40C
331
40D
331
416
331
417
331
420
331
421
331
42A
331
42B
331
434
331
435
331
43D
331
43E
331
447
331
448
331
450
331
451
331
45A
331
45B
331
464
331
465
331
46E
331
46F
331
478
331
479
331
482
331
483
331
48B
331
48C
331
495
331
496
331
4A0
331
4A1
331
65C
331
65D
331
666
331
667
331
670
331
671
331
679
331
67A
331
683
331
684
331
68C
331
68D
331
696
331
697
102
}
 70
     0
280
     1
281
     0
  0
BLOCK_RECORD
  5
E4
330
1
100
AcDbSymbolTableRecord
100
AcDbBlockTableRecord
  2
*D2
340
0
 70
     0
280
     1
281
     0
  0
BLOCK_RECORD
  5
F1
330
1
100
AcDbSymbolTableRecord
100
AcDbBlockTableRecord
  2
*D3
340
0
 70
     0
280
     1
281
     0
  0
BLOCK_RECORD
  5
FE
330
1
100
AcDbSymbolTableRecord
100
AcDbBlockTableRecord
  2
*D4
340
0
 70
     0
280
     1
281
     0
  0
BLOCK_RECORD
  5
10A
330
1
100
AcDbSymbolTableRecord
100
AcDbBlockTableRecord
  2
*D5
340
0
 70
     0
280
     1
281
     0
  0
BLOCK_RECORD
  5
117
330
1
100
AcDbSymbolTableRecord
100
AcDbBlockTableRecord
  2
*D6
340
0
 70
     0
280
     1
281
     0
  0
BLOCK_RECORD
  5
124
330
1
100
AcDbSymbolTableRecord
100
AcDbBlockTableRecord
  2
*D7
340
0
 70
     0
280
     1
281
     0
  0
BLOCK_RECORD
  5
130
330
1
100
AcDbSymbolTableRecord
100
AcDbBlockTableRecord
  2
*D8
340
0
 70
     0
280
     1
281
     0
  0
BLOCK_RECORD
  5
13C
330
1
100
AcDbSymbolTableRecord
100
AcDbBlockTableRecord
  2
*D9
340
0
 70
     0
280
     1
281
     0
  0
BLOCK_RECORD
  5
148
330
1
100
AcDbSymbolTableRecord
100
AcDbBlockTableRecord
  2
*D10
340
0
 70
     0
280
     1
281
     0
  0
BLOCK_RECORD
  5
155
330
1
100
AcDbSymbolTableRecord
100
AcDbBlockTableRecord
  2
*D11
340
0
 70
     0
280
     1
281
     0
  0
BLOCK_RECORD
  5
162
330
1
100
AcDbSymbolTableRecord
100
AcDbBlockTableRecord
  2
*D12
340
0
 70
     0
280
     1
281
     0
  0
BLOCK_RECORD
  5
16F
330
1
100
AcDbSymbolTableRecord
100
AcDbBlockTableRecord
  2
*D13
340
0
 70
     0
280
     1
281
     0
  0
BLOCK_RECORD
  5
17C
330
1
100
AcDbSymbolTableRecord
100
AcDbBlockTableRecord
  2
*D14
340
0
 70
     0
280
     1
281
     0
  0
BLOCK_RECORD
  5
189
330
1
100
AcDbSymbolTableRecord
100
AcDbBlockTableRecord
  2
*D15
340
0
 70
     0
280
     1
281
     0
  0
BLOCK_RECORD
  5
195
330
1
100
AcDbSymbolTableRecord
100
AcDbBlockTableRecord
  2
*D16
340
0
 70
     0
280
     1
281
     0
  0
BLOCK_RECORD
  5
1A2
330
1
100
AcDbSymbolTableRecord
100
AcDbBlockTableRecord
  2
*D17
340
0
 70
     0
280
     1
281
     0
  0
BLOCK_RECORD
  5
1AE
330
1
100
AcDbSymbolTableRecord
100
AcDbBlockTableRecord
  2
*D18
340
0
 70
     0
280
     1
281
     0
  0
BLOCK_RECORD
  5
1BB
330
1
100
AcDbSymbolTableRecord
100
AcDbBlockTableRecord
  2
*D19
340
0
 70
     0
280
     1
281
     0
  0
BLOCK_RECORD
  5
1C8
330
1
100
AcDbSymbolTableRecord
100
AcDbBlockTableRecord
  2
*D20
340
0
 70
     0
280
     1
281
     0
  0
BLOCK_RECORD
  5
1D5
330
1
100
AcDbSymbolTableRecord
100
AcDbBlockTableRecord
  2
*D21
340
0
 70
     0
280
     1
281
     0
  0
BLOCK_RECORD
  5
1E2
330
1
100
AcDbSymbolTableRecord
100
AcDbBlockTableRecord
  2
*D22
340
0
 70
     0
280
     1
281
     0
  0
BLOCK_RECORD
  5
1EF
330
1
100
AcDbSymbolTableRecord
100
AcDbBlockTableRecord
  2
*D23
340
0
 70
     0
280
     1
281
     0
  0
BLOCK_RECORD
  5
1FB
330
1
100
AcDbSymbolTableRecord
100
AcDbBlockTableRecord
  2
*D24
340
0
 70
     0
280
     1
281
     0
  0
BLOCK_RECORD
  5
208
330
1
100
AcDbSymbolTableRecord
100
AcDbBlockTableRecord
  2
*D25
340
0
 70
     0
280
     1
281
     0
  0
BLOCK_RECORD
  5
282
330
1
100
AcDbSymbolTableRecord
100
AcDbBlockTableRecord
  2
*D27
340
0
 70
     0
280
     1
281
     0
  0
BLOCK_RECORD
  5
28F
330
1
100
AcDbSymbolTableRecord
100
AcDbBlockTableRecord
  2
*D28
340
0
 70
     0
280
     1
281
     0
  0
BLOCK_RECORD
  5
29C
330
1
100
AcDbSymbolTableRecord
100
AcDbBlockTableRecord
  2
*D29
340
0
 70
     0
280
     1
281
     0
  0
BLOCK_RECORD
  5
2A8
330
1
100
AcDbSymbolTableRecord
100
AcDbBlockTableRecord
  2
*D30
340
0
 70
     0
280
     1
281
     0
  0
BLOCK_RECORD
  5
2B5
330
1
100
AcDbSymbolTableRecord
100
AcDbBlockTableRecord
  2
*D31
340
0
 70
     0
280
     1
281
     0
  0
BLOCK_RECORD
  5
2C2
330
1
100
AcDbSymbolTableRecord
100
AcDbBlockTableRecord
  2
*D32
340
0
 70
     0
280
     1
281
     0
  0
BLOCK_RECORD
  5
2CE
330
1
100
AcDbSymbolTableRecord
100
AcDbBlockTableRecord
  2
*D33
340
0
 70
     0
280
     1
281
     0
  0
BLOCK_RECORD
  5
2DA
330
1
100
AcDbSymbolTableRecord
100
AcDbBlockTableRecord
  2
*D34
340
0
 70
     0
280
     1
281
     0
  0
BLOCK_RECORD
  5
2E6
330
1
100
AcDbSymbolTableRecord
100
AcDbBlockTableRecord
  2
*D35
340
0
 70
     0
280
     1
281
     0
  0
BLOCK_RECORD
  5
2F3
330
1
100
AcDbSymbolTableRecord
100
AcDbBlockTableRecord
  2
*D36
340
0
 70
     0
280
     1
281
     0
  0
BLOCK_RECORD
  5
300
330
1
100
AcDbSymbolTableRecord
100
AcDbBlockTableRecord
  2
*D37
340
0
 70
     0
280
     1
281
     0
  0
BLOCK_RECORD
  5
30D
330
1
100
AcDbSymbolTableRecord
100
AcDbBlockTableRecord
  2
*D38
340
0
 70
     0
280
     1
281
     0
  0
BLOCK_RECORD
  5
31A
330
1
100
AcDbSymbolTableRecord
100
AcDbBlockTableRecord
  2
*D39
340
0
 70
     0
280
     1
281
     0
  0
BLOCK_RECORD
  5
327
330
1
100
AcDbSymbolTableRecord
100
AcDbBlockTableRecord
  2
*D40
340
0
 70
     0
280
     1
281
     0
  0
BLOCK_RECORD
  5
333
330
1
100
AcDbSymbolTableRecord
100
AcDbBlockTableRecord
  2
*D41
340
0
 70
     0
280
     1
281
     0
  0
BLOCK_RECORD
  5
340
330
1
100
AcDbSymbolTableRecord
100
AcDbBlockTableRecord
  2
*D42
340
0
 70
     0
280
     1
281
     0
  0
BLOCK_RECORD
  5
34C
330
1
100
AcDbSymbolTableRecord
100
AcDbBlockTableRecord
  2
*D43
340
0
 70
     0
280
     1
281
     0
  0
BLOCK_RECORD
  5
359
330
1
100
AcDbSymbolTableRecord
100
AcDbBlockTableRecord
  2
*D44
340
0
 70
     0
280
     1
281
     0
  0
BLOCK_RECORD
  5
366
330
1
100
AcDbSymbolTableRecord
100
AcDbBlockTableRecord
  2
*D45
340
0
 70
     0
280
     1
281
     0
  0
BLOCK_RECORD
  5
373
330
1
100
AcDbSymbolTableRecord
100
AcDbBlockTableRecord
  2
*D46
340
0
 70
     0
280
     1
281
     0
  0
BLOCK_RECORD
  5
380
330
1
100
AcDbSymbolTableRecord
100
AcDbBlockTableRecord
  2
*D47
340
0
 70
     0
280
     1
281
     0
  0
BLOCK_RECORD
  5
38D
330
1
100
AcDbSymbolTableRecord
100
AcDbBlockTableRecord
  2
*D48
340
0
 70
     0
280
     1
281
     0
  0
BLOCK_RECORD
  5
399
330
1
100
AcDbSymbolTableRecord
100
AcDbBlockTableRecord
  2
*D49
340
0
 70
     0
280
     1
281
     0
  0
BLOCK_RECORD
  5
3A6
330
1
100
AcDbSymbolTableRecord
100
AcDbBlockTableRecord
  2
*D50
340
0
 70
     0
280
     1
281
     0
  0
BLOCK_RECORD
  5
49A
330
1
100
AcDbSymbolTableRecord
100
AcDbBlockTableRecord
  2
*D51
340
0
 70
     0
280
     1
281
     0
  0
BLOCK_RECORD
  5
4AF
330
1
100
AcDbSymbolTableRecord
100
AcDbBlockTableRecord
  2
*D53
340
0
 70
     0
280
     1
281
     0
  0
BLOCK_RECORD
  5
4D1
330
1
100
AcDbSymbolTableRecord
100
AcDbBlockTableRecord
  2
*D54
340
0
 70
     0
280
     1
281
     0
  0
BLOCK_RECORD
  5
4E9
330
1
100
AcDbSymbolTableRecord
100
AcDbBlockTableRecord
  2
*D55
340
0
 70
     0
280
     1
281
     0
  0
BLOCK_RECORD
  5
4F7
330
1
100
AcDbSymbolTableRecord
100
AcDbBlockTableRecord
  2
*D56
340
0
 70
     0
280
     1
281
     0
  0
BLOCK_RECORD
  5
505
330
1
100
AcDbSymbolTableRecord
100
AcDbBlockTableRecord
  2
*D57
340
0
 70
     0
280
     1
281
     0
  0
BLOCK_RECORD
  5
543
330
1
100
AcDbSymbolTableRecord
100
AcDbBlockTableRecord
  2
*D58
340
0
 70
     0
280
     1
281
     0
  0
BLOCK_RECORD
  5
551
330
1
100
AcDbSymbolTableRecord
100
AcDbBlockTableRecord
  2
*D59
340
0
 70
     0
280
     1
281
     0
  0
ENDTAB
  0
ENDSEC
  0
SECTION
  2
BLOCKS
  0
BLOCK
  5
77
330
76
100
AcDbEntity
  8
0
100
AcDbBlockBegin
  2
*Model_Space
 70
     0
 10
0.0
 20
0.0
 30
0.0
  3
*Model_Space
  1

  0
ENDBLK
  5
78
330
76
100
AcDbEntity
  8
0
100
AcDbBlockEnd
  0
BLOCK
  5
73
330
72
100
AcDbEntity
 67
     1
  8
0
100
AcDbBlockBegin
  2
*Paper_Space
 70
     0
 10
0.0
 20
0.0
 30
0.0
  3
*Paper_Space
  1

  0
ENDBLK
  5
74
330
72
100
AcDbEntity
 67
     1
  8
0
100
AcDbBlockEnd
  0
BLOCK
  5
E1
330
E0
100
AcDbEntity
  8
0
100
AcDbBlockBegin
  2
_ArchTick
 70
     0
 10
0.0
 20
0.0
 30
0.0
  3
_ArchTick
  1

  0
LWPOLYLINE
  5
E2
330
E0
100
AcDbEntity
  8
0
  6
ByBlock
 62
     0
100
AcDbPolyline
 90
        2
 70
     0
 43
0.15
 10
-0.5
 20
-0.5
 10
0.5
 20
0.5
  0
ENDBLK
  5
E3
330
E0
100
AcDbEntity
  8
0
100
AcDbBlockEnd
  0
BLOCK
  5
E5
330
E4
100
AcDbEntity
  8
0
100
AcDbBlockBegin
  2
*D2
 70
     1
 10
0.0
 20
0.0
 30
0.0
  3
*D2
  1

  0
LINE
  5
E6
330
E4
100
AcDbEntity
  8
0
  6
Continuous
 62
     0
100
AcDbLine
 10
-0.0169768284872589
 20
5.78571634266477
 30
0.0
 11
-0.0169768284872588
 21
7.499399271670871
 31
0.0
  0
LINE
  5
E7
330
E4
100
AcDbEntity
  8
0
  6
Continuous
 62
     0
100
AcDbLine
 10
0.8830231715127325
 20
5.78571634266477
 30
0.0
 11
0.8830231715127327
 21
7.499399271670871
 31
0.0
  0
LINE
  5
E8
330
E4
100
AcDbEntity
  8
0
  6
Continuous
 62
     0
100
AcDbLine
 10
-0.0619768284872588
 20
7.454399271670871
 30
0.0
 11
0.2029517429413084
 21
7.454399271670871
 31
0.0
  0
LINE
  5
E9
330
E4
100
AcDbEntity
  8
0
  6
Continuous
 62
     0
100
AcDbLine
 10
0.9280231715127326
 20
7.454399271670871
 30
0.0
 11
0.6630946000841656
 21
7.454399271670871
 31
0.0
  0
INSERT
  5
EA
330
E4
100
AcDbEntity
  8
0
  6
Continuous
 62
     0
100
AcDbBlockReference
  2
_ArchTick
 10
-0.0169768284872588
 20
7.454399271670871
 30
0.0
 41
0.15
 42
0.15
 43
0.15
 50
180.0
  0
INSERT
  5
EB
330
E4
100
AcDbEntity
  8
0
  6
Continuous
 62
     0
100
AcDbBlockReference
  2
_ArchTick
 10
0.8830231715127327
 20
7.454399271670871
 30
0.0
 41
0.15
 42
0.15
 43
0.15
  0
MTEXT
  5
EC
330
E4
100
AcDbEntity
  8
0
  6
Continuous
100
AcDbMText
 10
0.433023171512737
 20
7.454399271670871
 30
0.0
 40
0.15
 41
0.0
 46
0.0
 71
     5
 72
     1
  1
\A1;0.90
  7
ROMANS
 73
     1
 44
1.0
  0
POINT
  5
ED
330
E4
100
AcDbEntity
  8
Defpoints
  6
Continuous
 62
     0
100
AcDbPoint
 10
-0.0169768284872589
 20
5.635716342664769
 30
0.0
  0
POINT
  5
EE
330
E4
100
AcDbEntity
  8
Defpoints
  6
Continuous
 62
     0
100
AcDbPoint
 10
0.8830231715127325
 20
5.635716342664769
 30
0.0
  0
POINT
  5
EF
330
E4
100
AcDbEntity
  8
Defpoints
  6
Continuous
 62
     0
100
AcDbPoint
 10
0.8830231715127327
 20
7.454399271670871
 30
0.0
  0
ENDBLK
  5
F0
330
E4
100
AcDbEntity
  8
0
100
AcDbBlockEnd
  0
BLOCK
  5
F2
330
F1
100
AcDbEntity
  8
0
100
AcDbBlockBegin
  2
*D3
 70
     1
 10
0.0
 20
0.0
 30
0.0
  3
*D3
  1

  0
LINE
  5
F3
330
F1
100
AcDbEntity
  8
0
  6
Continuous
 62
     0
100
AcDbLine
 10
0.5830231715127369
 20
5.485716342664778
 30
0.0
 11
1.531269238034245
 21
5.485716342664778
 31
0.0
  0
LINE
  5
F4
330
F1
100
AcDbEntity
  8
0
  6
Continuous
 62
     0
100
AcDbLine
 10
0.5830231715127297
 20
7.135716342664784
 30
0.0
 11
1.531269238034246
 21
7.135716342664784
 31
0.0
  0
LINE
  5
F5
330
F1
100
AcDbEntity
  8
0
  6
Continuous
 62
     0
100
AcDbLine
 10
1.486269238034246
 20
5.440716342664778
 30
0.0
 11
1.486269238034246
 21
6.23421634266478
 31
0.0
  0
LINE
  5
F6
330
F1
100
AcDbEntity
  8
0
  6
Continuous
 62
     0
100
AcDbLine
 10
1.486269238034246
 20
7.180716342664783
 30
0.0
 11
1.486269238034246
 21
6.387216342664781
 31
0.0
  0
INSERT
  5
F7
330
F1
100
AcDbEntity
  8
0
  6
Continuous
 62
     0
100
AcDbBlockReference
  2
_ArchTick
 10
1.486269238034246
 20
5.485716342664778
 30
0.0
 41
0.15
 42
0.15
 43
0.15
 50
270.0
  0
INSERT
  5
F8
330
F1
100
AcDbEntity
  8
0
  6
Continuous
 62
     0
100
AcDbBlockReference
  2
_ArchTick
 10
1.486269238034246
 20
7.135716342664784
 30
0.0
 41
0.15
 42
0.15
 43
0.15
 50
90.0
  0
MTEXT
  5
F9
330
F1
100
AcDbEntity
  8
0
  6
Continuous
100
AcDbMText
 10
1.486269238034245
 20
6.310716342664781
 30
0.0
 40
0.15
 41
0.0
 46
0.0
 71
     5
 72
     1
  1
\A1;1.65
  7
ROMANS
 73
     1
 44
1.0
  0
POINT
  5
FA
330
F1
100
AcDbEntity
  8
Defpoints
  6
Continuous
 62
     0
100
AcDbPoint
 10
0.4330231715127369
 20
5.485716342664778
 30
0.0
  0
POINT
  5
FB
330
F1
100
AcDbEntity
  8
Defpoints
  6
Continuous
 62
     0
100
AcDbPoint
 10
0.4330231715127298
 20
7.135716342664784
 30
0.0
  0
POINT
  5
FC
330
F1
100
AcDbEntity
  8
Defpoints
  6
Continuous
 62
     0
100
AcDbPoint
 10
1.486269238034246
 20
7.135716342664784
 30
0.0
  0
ENDBLK
  5
FD
330
F1
100
AcDbEntity
  8
0
100
AcDbBlockEnd
  0
BLOCK
  5
FF
330
FE
100
AcDbEntity
  8
0
100
AcDbBlockBegin
  2
*D4
 70
     1
 10
0.0
 20
0.0
 30
0.0
  3
*D4
  1

  0
LINE
  5
100
330
FE
100
AcDbEntity
  8
0
  6
Continuous
 62
     0
100
AcDbLine
 10
0.5830231715127369
 20
5.485716342664778
 30
0.0
 11
1.2172573937854
 21
5.485716342664778
 31
0.0
  0
LINE
  5
101
330
FE
100
AcDbEntity
  8
0
  6
Continuous
 62
     0
100
AcDbLine
 10
1.033023171512732
 20
5.635716342664769
 30
0.0
 11
1.2172573937854
 21
5.635716342664769
 31
0.0
  0
LINE
  5
102
330
FE
100
AcDbEntity
  8
0
  6
Continuous
 62
     0
100
AcDbLine
 10
1.1722573937854
 20
5.440716342664778
 30
0.0
 11
1.1722573937854
 21
5.680716342664769
 31
0.0
  0
MTEXT
  5
103
330
FE
100
AcDbEntity
  8
0
  6
Continuous
100
AcDbMText
 10
1.518007393785399
 20
5.560716342664774
 30
0.0
 40
0.15
 41
0.0
 46
0.0
 71
     5
 72
     1
  1
\A1;0.15
  7
ROMANS
 73
     1
 44
1.0
  0
INSERT
  5
104
330
FE
100
AcDbEntity
  8
0
  6
Continuous
 62
     0
100
AcDbBlockReference
  2
_ArchTick
 10
1.1722573937854
 20
5.485716342664778
 30
0.0
 41
0.15
 42
0.15
 43
0.15
 50
270.0
  0
INSERT
  5
105
330
FE
100
AcDbEntity
  8
0
  6
Continuous
 62
     0
100
AcDbBlockReference
  2
_ArchTick
 10
1.1722573937854
 20
5.635716342664769
 30
0.0
 41
0.15
 42
0.15
 43
0.15
 50
90.0
  0
POINT
  5
106
330
FE
100
AcDbEntity
  8
Defpoints
  6
Continuous
 62
     0
100
AcDbPoint
 10
0.4330231715127369
 20
5.485716342664778
 30
0.0
  0
POINT
  5
107
330
FE
100
AcDbEntity
  8
Defpoints
  6
Continuous
 62
     0
100
AcDbPoint
 10
0.8830231715127325
 20
5.635716342664769
 30
0.0
  0
POINT
  5
108
330
FE
100
AcDbEntity
  8
Defpoints
  6
Continuous
 62
     0
100
AcDbPoint
 10
1.1722573937854
 20
5.635716342664769
 30
0.0
  0
ENDBLK
  5
109
330
FE
100
AcDbEntity
  8
0
100
AcDbBlockEnd
  0
BLOCK
  5
10B
330
10A
100
AcDbEntity
  8
0
100
AcDbBlockBegin
  2
*D5
 70
     1
 10
0.0
 20
0.0
 30
0.0
  3
*D5
  1

  0
LINE
  5
10C
330
10A
100
AcDbEntity
  8
0
  6
Continuous
 62
     0
100
AcDbLine
 10
1.033023171512732
 20
5.635716342664769
 30
0.0
 11
1.2172573937854
 21
5.635716342664769
 31
0.0
  0
LINE
  5
10D
330
10A
100
AcDbEntity
  8
0
  6
Continuous
 62
     0
100
AcDbLine
 10
1.033023171512732
 20
6.685716342664795
 30
0.0
 11
1.2172573937854
 21
6.685716342664795
 31
0.0
  0
LINE
  5
10E
330
10A
100
AcDbEntity
  8
0
  6
Continuous
 62
     0
100
AcDbLine
 10
1.1722573937854
 20
5.590716342664769
 30
0.0
 11
1.1722573937854
 21
6.084216342664782
 31
0.0
  0
LINE
  5
10F
330
10A
100
AcDbEntity
  8
0
  6
Continuous
 62
     0
100
AcDbLine
 10
1.1722573937854
 20
6.730716342664795
 30
0.0
 11
1.1722573937854
 21
6.237216342664782
 31
0.0
  0
INSERT
  5
110
330
10A
100
AcDbEntity
  8
0
  6
Continuous
 62
     0
100
AcDbBlockReference
  2
_ArchTick
 10
1.1722573937854
 20
5.635716342664769
 30
0.0
 41
0.15
 42
0.15
 43
0.15
 50
270.0
  0
INSERT
  5
111
330
10A
100
AcDbEntity
  8
0
  6
Continuous
 62
     0
100
AcDbBlockReference
  2
_ArchTick
 10
1.1722573937854
 20
6.685716342664795
 30
0.0
 41
0.15
 42
0.15
 43
0.15
 50
90.0
  0
MTEXT
  5
112
330
10A
100
AcDbEntity
  8
0
  6
Continuous
100
AcDbMText
 10
1.172257393785399
 20
6.160716342664782
 30
0.0
 40
0.15
 41
0.0
 46
0.0
 71
     5
 72
     1
  1
\A1;1.05
  7
ROMANS
 73
     1
 44
1.0
  0
POINT
  5
113
330
10A
100
AcDbEntity
  8
Defpoints
  6
Continuous
 62
     0
100
AcDbPoint
 10
0.8830231715127325
 20
5.635716342664769
 30
0.0
  0
POINT
  5
114
330
10A
100
AcDbEntity
  8
Defpoints
  6
Continuous
 62
     0
100
AcDbPoint
 10
0.8830231715127325
 20
6.685716342664795
 30
0.0
  0
POINT
  5
115
330
10A
100
AcDbEntity
  8
Defpoints
  6
Continuous
 62
     0
100
AcDbPoint
 10
1.1722573937854
 20
6.685716342664795
 30
0.0
  0
ENDBLK
  5
116
330
10A
100
AcDbEntity
  8
0
100
AcDbBlockEnd
  0
BLOCK
  5
118
330
117
100
AcDbEntity
  8
0
100
AcDbBlockBegin
  2
*D6
 70
     1
 10
0.0
 20
0.0
 30
0.0
  3
*D6
  1

  0
LINE
  5
119
330
117
100
AcDbEntity
  8
0
  6
Continuous
 62
     0
100
AcDbLine
 10
1.033023171512732
 20
6.685716342664795
 30
0.0
 11
1.2172573937854
 21
6.685716342664795
 31
0.0
  0
LINE
  5
11A
330
117
100
AcDbEntity
  8
0
  6
Continuous
 62
     0
100
AcDbLine
 10
0.5830231715127297
 20
7.135716342664784
 30
0.0
 11
1.2172573937854
 21
7.135716342664784
 31
0.0
  0
LINE
  5
11B
330
117
100
AcDbEntity
  8
0
  6
Continuous
 62
     0
100
AcDbLine
 10
1.1722573937854
 20
6.640716342664795
 30
0.0
 11
1.1722573937854
 21
6.834216342664789
 31
0.0
  0
LINE
  5
11C
330
117
100
AcDbEntity
  8
0
  6
Continuous
 62
     0
100
AcDbLine
 10
1.1722573937854
 20
7.180716342664783
 30
0.0
 11
1.1722573937854
 21
6.987216342664789
 31
0.0
  0
INSERT
  5
11D
330
117
100
AcDbEntity
  8
0
  6
Continuous
 62
     0
100
AcDbBlockReference
  2
_ArchTick
 10
1.1722573937854
 20
6.685716342664795
 30
0.0
 41
0.15
 42
0.15
 43
0.15
 50
270.0
  0
INSERT
  5
11E
330
117
100
AcDbEntity
  8
0
  6
Continuous
 62
     0
100
AcDbBlockReference
  2
_ArchTick
 10
1.1722573937854
 20
7.135716342664784
 30
0.0
 41
0.15
 42
0.15
 43
0.15
 50
90.0
  0
MTEXT
  5
11F
330
117
100
AcDbEntity
  8
0
  6
Continuous
100
AcDbMText
 10
1.172257393785399
 20
6.910716342664789
 30
0.0
 40
0.15
 41
0.0
 46
0.0
 71
     5
 72
     1
  1
\A1;0.45
  7
ROMANS
 73
     1
 44
1.0
  0
POINT
  5
120
330
117
100
AcDbEntity
  8
Defpoints
  6
Continuous
 62
     0
100
AcDbPoint
 10
0.8830231715127325
 20
6.685716342664795
 30
0.0
  0
POINT
  5
121
330
117
100
AcDbEntity
  8
Defpoints
  6
Continuous
 62
     0
100
AcDbPoint
 10
0.4330231715127298
 20
7.135716342664784
 30
0.0
  0
POINT
  5
122
330
117
100
AcDbEntity
  8
Defpoints
  6
Continuous
 62
     0
100
AcDbPoint
 10
1.1722573937854
 20
7.135716342664784
 30
0.0
  0
ENDBLK
  5
123
330
117
100
AcDbEntity
  8
0
100
AcDbBlockEnd
  0
BLOCK
  5
125
330
124
100
AcDbEntity
  8
0
100
AcDbBlockBegin
  2
*D7
 70
     1
 10
0.0
 20
0.0
 30
0.0
  3
*D7
  1

  0
LINE
  5
126
330
124
100
AcDbEntity
  8
0
  6
Continuous
 62
     0
100
AcDbLine
 10
-0.0169768284872589
 20
5.485716342664769
 30
0.0
 11
-0.0169768284872589
 21
5.346185377119034
 31
0.0
  0
LINE
  5
127
330
124
100
AcDbEntity
  8
0
  6
Continuous
 62
     0
100
AcDbLine
 10
0.213023171512738
 20
5.485716342664769
 30
0.0
 11
0.2130231715127379
 21
5.346185377119034
 31
0.0
  0
LINE
  5
128
330
124
100
AcDbEntity
  8
0
  6
Continuous
 62
     0
100
AcDbLine
 10
-0.0619768284872589
 20
5.391185377119034
 30
0.0
 11
0.2580231715127379
 21
5.391185377119034
 31
0.0
  0
MTEXT
  5
129
330
124
100
AcDbEntity
  8
0
  6
Continuous
100
AcDbMText
 10
0.0991063460250956
 20
5.264780073518414
 30
0.0
 40
0.15
 41
0.0
 46
0.0
 71
     5
 72
     1
  1
\A1;0.23
  7
ROMANS
 73
     1
 44
1.0
  0
INSERT
  5
12A
330
124
100
AcDbEntity
  8
0
  6
Continuous
 62
     0
100
AcDbBlockReference
  2
_ArchTick
 10
-0.0169768284872589
 20
5.391185377119034
 30
0.0
 41
0.15
 42
0.15
 43
0.15
 50
180.0
  0
INSERT
  5
12B
330
124
100
AcDbEntity
  8
0
  6
Continuous
 62
     0
100
AcDbBlockReference
  2
_ArchTick
 10
0.2130231715127379
 20
5.391185377119034
 30
0.0
 41
0.15
 42
0.15
 43
0.15
  0
POINT
  5
12C
330
124
100
AcDbEntity
  8
Defpoints
  6
Continuous
 62
     0
100
AcDbPoint
 10
-0.0169768284872589
 20
5.635716342664769
 30
0.0
  0
POINT
  5
12D
330
124
100
AcDbEntity
  8
Defpoints
  6
Continuous
 62
     0
100
AcDbPoint
 10
0.213023171512738
 20
5.635716342664769
 30
0.0
  0
POINT
  5
12E
330
124
100
AcDbEntity
  8
Defpoints
  6
Continuous
 62
     0
100
AcDbPoint
 10
0.2130231715127379
 20
5.391185377119034
 30
0.0
  0
ENDBLK
  5
12F
330
124
100
AcDbEntity
  8
0
100
AcDbBlockEnd
  0
BLOCK
  5
131
330
130
100
AcDbEntity
  8
0
100
AcDbBlockBegin
  2
*D8
 70
     1
 10
0.0
 20
0.0
 30
0.0
  3
*D8
  1

  0
LINE
  5
132
330
130
100
AcDbEntity
  8
0
  6
Continuous
 62
     0
100
AcDbLine
 10
0.213023171512738
 20
5.485716342664769
 30
0.0
 11
0.2130231715127379
 21
5.346185377119034
 31
0.0
  0
LINE
  5
133
330
130
100
AcDbEntity
  8
0
  6
Continuous
 62
     0
100
AcDbLine
 10
0.6530231715127357
 20
5.485716342664769
 30
0.0
 11
0.6530231715127357
 21
5.346185377119034
 31
0.0
  0
LINE
  5
134
330
130
100
AcDbEntity
  8
0
  6
Continuous
 62
     0
100
AcDbLine
 10
0.1680231715127379
 20
5.391185377119034
 30
0.0
 11
0.6980231715127358
 21
5.391185377119034
 31
0.0
  0
MTEXT
  5
135
330
130
100
AcDbEntity
  8
0
  6
Continuous
100
AcDbMText
 10
0.4330231715127369
 20
5.045435377119035
 30
0.0
 40
0.15
 41
0.0
 46
0.0
 71
     5
 72
     1
  1
\A1;0.44
  7
ROMANS
 73
     1
 44
1.0
  0
INSERT
  5
136
330
130
100
AcDbEntity
  8
0
  6
Continuous
 62
     0
100
AcDbBlockReference
  2
_ArchTick
 10
0.2130231715127379
 20
5.391185377119034
 30
0.0
 41
0.15
 42
0.15
 43
0.15
 50
180.0
  0
INSERT
  5
137
330
130
100
AcDbEntity
  8
0
  6
Continuous
 62
     0
100
AcDbBlockReference
  2
_ArchTick
 10
0.6530231715127357
 20
5.391185377119034
 30
0.0
 41
0.15
 42
0.15
 43
0.15
  0
POINT
  5
138
330
130
100
AcDbEntity
  8
Defpoints
  6
Continuous
 62
     0
100
AcDbPoint
 10
0.213023171512738
 20
5.635716342664769
 30
0.0
  0
POINT
  5
139
330
130
100
AcDbEntity
  8
Defpoints
  6
Continuous
 62
     0
100
AcDbPoint
 10
0.6530231715127357
 20
5.635716342664769
 30
0.0
  0
POINT
  5
13A
330
130
100
AcDbEntity
  8
Defpoints
  6
Continuous
 62
     0
100
AcDbPoint
 10
0.6530231715127357
 20
5.391185377119034
 30
0.0
  0
ENDBLK
  5
13B
330
130
100
AcDbEntity
  8
0
100
AcDbBlockEnd
  0
BLOCK
  5
13D
330
13C
100
AcDbEntity
  8
0
100
AcDbBlockBegin
  2
*D9
 70
     1
 10
0.0
 20
0.0
 30
0.0
  3
*D9
  1

  0
LINE
  5
13E
330
13C
100
AcDbEntity
  8
0
  6
Continuous
 62
     0
100
AcDbLine
 10
0.6530231715127357
 20
5.485716342664769
 30
0.0
 11
0.6530231715127357
 21
5.346185377119034
 31
0.0
  0
LINE
  5
13F
330
13C
100
AcDbEntity
  8
0
  6
Continuous
 62
     0
100
AcDbLine
 10
0.8830231715127325
 20
5.485716342664769
 30
0.0
 11
0.8830231715127325
 21
5.346185377119034
 31
0.0
  0
LINE
  5
140
330
13C
100
AcDbEntity
  8
0
  6
Continuous
 62
     0
100
AcDbLine
 10
0.6080231715127357
 20
5.391185377119034
 30
0.0
 11
0.9280231715127326
 21
5.391185377119034
 31
0.0
  0
MTEXT
  5
141
330
13C
100
AcDbEntity
  8
0
  6
Continuous
100
AcDbMText
 10
0.7644544464222279
 20
5.267418483948494
 30
0.0
 40
0.15
 41
0.0
 46
0.0
 71
     5
 72
     1
  1
\A1;0.23
  7
ROMANS
 73
     1
 44
1.0
  0
INSERT
  5
142
330
13C
100
AcDbEntity
  8
0
  6
Continuous
 62
     0
100
AcDbBlockReference
  2
_ArchTick
 10
0.6530231715127357
 20
5.391185377119034
 30
0.0
 41
0.15
 42
0.15
 43
0.15
 50
180.0
  0
INSERT
  5
143
330
13C
100
AcDbEntity
  8
0
  6
Continuous
 62
     0
100
AcDbBlockReference
  2
_ArchTick
 10
0.8830231715127325
 20
5.391185377119034
 30
0.0
 41
0.15
 42
0.15
 43
0.15
  0
POINT
  5
144
330
13C
100
AcDbEntity
  8
Defpoints
  6
Continuous
 62
     0
100
AcDbPoint
 10
0.6530231715127357
 20
5.635716342664769
 30
0.0
  0
POINT
  5
145
330
13C
100
AcDbEntity
  8
Defpoints
  6
Continuous
 62
     0
100
AcDbPoint
 10
0.8830231715127325
 20
5.635716342664769
 30
0.0
  0
POINT
  5
146
330
13C
100
AcDbEntity
  8
Defpoints
  6
Continuous
 62
     0
100
AcDbPoint
 10
0.8830231715127325
 20
5.391185377119034
 30
0.0
  0
ENDBLK
  5
147
330
13C
100
AcDbEntity
  8
0
100
AcDbBlockEnd
  0
BLOCK
  5
149
330
148
100
AcDbEntity
  8
0
100
AcDbBlockBegin
  2
*D10
 70
     1
 10
0.0
 20
0.0
 30
0.0
  3
*D10
  1

  0
LINE
  5
14A
330
148
100
AcDbEntity
  8
0
  6
Continuous
 62
     0
100
AcDbLine
 10
7.835146336794963
 20
2.224340468848223
 30
0.0
 11
7.835146336794963
 21
3.990523397854324
 31
0.0
  0
LINE
  5
14B
330
148
100
AcDbEntity
  8
0
  6
Continuous
 62
     0
100
AcDbLine
 10
8.735146336794954
 20
2.224340468848223
 30
0.0
 11
8.735146336794954
 21
3.990523397854324
 31
0.0
  0
LINE
  5
14C
330
148
100
AcDbEntity
  8
0
  6
Continuous
 62
     0
100
AcDbLine
 10
7.812646336794963
 20
3.968023397854324
 30
0.0
 11
8.170110622509245
 21
3.968023397854324
 31
0.0
  0
LINE
  5
14D
330
148
100
AcDbEntity
  8
0
  6
Continuous
 62
     0
100
AcDbLine
 10
8.757646336794955
 20
3.968023397854324
 30
0.0
 11
8.400182051080673
 21
3.968023397854324
 31
0.0
  0
INSERT
  5
14E
330
148
100
AcDbEntity
  8
0
  6
Continuous
 62
     0
100
AcDbBlockReference
  2
_ArchTick
 10
7.835146336794963
 20
3.968023397854324
 30
0.0
 41
0.075
 42
0.075
 43
0.075
 50
180.0
  0
INSERT
  5
14F
330
148
100
AcDbEntity
  8
0
  6
Continuous
 62
     0
100
AcDbBlockReference
  2
_ArchTick
 10
8.735146336794954
 20
3.968023397854324
 30
0.0
 41
0.075
 42
0.075
 43
0.075
  0
MTEXT
  5
150
330
148
100
AcDbEntity
  8
0
  6
Continuous
100
AcDbMText
 10
8.285146336794959
 20
3.968023397854324
 30
0.0
 40
0.075
 41
0.0
 46
0.0
 71
     5
 72
     1
  1
\A1;0.90
  7
ROMANS
 73
     1
 44
1.0
  0
POINT
  5
151
330
148
100
AcDbEntity
  8
Defpoints
  6
Continuous
 62
     0
100
AcDbPoint
 10
7.835146336794963
 20
2.149340468848222
 30
0.0
  0
POINT
  5
152
330
148
100
AcDbEntity
  8
Defpoints
  6
Continuous
 62
     0
100
AcDbPoint
 10
8.735146336794954
 20
2.149340468848222
 30
0.0
  0
POINT
  5
153
330
148
100
AcDbEntity
  8
Defpoints
  6
Continuous
 62
     0
100
AcDbPoint
 10
8.735146336794954
 20
3.968023397854324
 30
0.0
  0
ENDBLK
  5
154
330
148
100
AcDbEntity
  8
0
100
AcDbBlockEnd
  0
BLOCK
  5
156
330
155
100
AcDbEntity
  8
0
100
AcDbBlockBegin
  2
*D11
 70
     1
 10
0.0
 20
0.0
 30
0.0
  3
*D11
  1

  0
LINE
  5
157
330
155
100
AcDbEntity
  8
0
  6
Continuous
 62
     0
100
AcDbLine
 10
8.360146336794958
 20
1.999340468848231
 30
0.0
 11
9.360892403316469
 21
1.999340468848231
 31
0.0
  0
LINE
  5
158
330
155
100
AcDbEntity
  8
0
  6
Continuous
 62
     0
100
AcDbLine
 10
8.360146336794951
 20
3.649340468848237
 30
0.0
 11
9.360892403316469
 21
3.649340468848236
 31
0.0
  0
LINE
  5
159
330
155
100
AcDbEntity
  8
0
  6
Continuous
 62
     0
100
AcDbLine
 10
9.338392403316468
 20
1.976840468848231
 30
0.0
 11
9.338392403316468
 21
2.786090468848233
 31
0.0
  0
LINE
  5
15A
330
155
100
AcDbEntity
  8
0
  6
Continuous
 62
     0
100
AcDbLine
 10
9.338392403316468
 20
3.671840468848236
 30
0.0
 11
9.338392403316468
 21
2.862590468848233
 31
0.0
  0
INSERT
  5
15B
330
155
100
AcDbEntity
  8
0
  6
Continuous
 62
     0
100
AcDbBlockReference
  2
_ArchTick
 10
9.338392403316468
 20
1.999340468848231
 30
0.0
 41
0.075
 42
0.075
 43
0.075
 50
270.0
  0
INSERT
  5
15C
330
155
100
AcDbEntity
  8
0
  6
Continuous
 62
     0
100
AcDbBlockReference
  2
_ArchTick
 10
9.338392403316468
 20
3.649340468848236
 30
0.0
 41
0.075
 42
0.075
 43
0.075
 50
90.0
  0
MTEXT
  5
15D
330
155
100
AcDbEntity
  8
0
  6
Continuous
100
AcDbMText
 10
9.338392403316468
 20
2.824340468848235
 30
0.0
 40
0.075
 41
0.0
 46
0.0
 71
     5
 72
     1
  1
\A1;1.65
  7
ROMANS
 73
     1
 44
1.0
  0
POINT
  5
15E
330
155
100
AcDbEntity
  8
Defpoints
  6
Continuous
 62
     0
100
AcDbPoint
 10
8.285146336794959
 20
1.999340468848231
 30
0.0
  0
POINT
  5
15F
330
155
100
AcDbEntity
  8
Defpoints
  6
Continuous
 62
     0
100
AcDbPoint
 10
8.285146336794952
 20
3.649340468848237
 30
0.0
  0
POINT
  5
160
330
155
100
AcDbEntity
  8
Defpoints
  6
Continuous
 62
     0
100
AcDbPoint
 10
9.338392403316468
 20
3.649340468848236
 30
0.0
  0
ENDBLK
  5
161
330
155
100
AcDbEntity
  8
0
100
AcDbBlockEnd
  0
BLOCK
  5
163
330
162
100
AcDbEntity
  8
0
100
AcDbBlockBegin
  2
*D12
 70
     1
 10
0.0
 20
0.0
 30
0.0
  3
*D12
  1

  0
LINE
  5
164
330
162
100
AcDbEntity
  8
0
  6
Continuous
 62
     0
100
AcDbLine
 10
8.360146336794958
 20
1.999340468848231
 30
0.0
 11
9.046880559067624
 21
1.999340468848231
 31
0.0
  0
LINE
  5
165
330
162
100
AcDbEntity
  8
0
  6
Continuous
 62
     0
100
AcDbLine
 10
8.810146336794954
 20
2.149340468848222
 30
0.0
 11
9.046880559067624
 21
2.149340468848222
 31
0.0
  0
LINE
  5
166
330
162
100
AcDbEntity
  8
0
  6
Continuous
 62
     0
100
AcDbLine
 10
9.024380559067623
 20
1.976840468848231
 30
0.0
 11
9.024380559067623
 21
2.036090468848226
 31
0.0
  0
LINE
  5
167
330
162
100
AcDbEntity
  8
0
  6
Continuous
 62
     0
100
AcDbLine
 10
9.024380559067623
 20
2.171840468848222
 30
0.0
 11
9.024380559067623
 21
2.112590468848226
 31
0.0
  0
INSERT
  5
168
330
162
100
AcDbEntity
  8
0
  6
Continuous
 62
     0
100
AcDbBlockReference
  2
_ArchTick
 10
9.024380559067623
 20
1.999340468848231
 30
0.0
 41
0.075
 42
0.075
 43
0.075
 50
270.0
  0
INSERT
  5
169
330
162
100
AcDbEntity
  8
0
  6
Continuous
 62
     0
100
AcDbBlockReference
  2
_ArchTick
 10
9.024380559067623
 20
2.149340468848222
 30
0.0
 41
0.075
 42
0.075
 43
0.075
 50
90.0
  0
MTEXT
  5
16A
330
162
100
AcDbEntity
  8
0
  6
Continuous
100
AcDbMText
 10
9.024380559067623
 20
2.074340468848228
 30
0.0
 40
0.075
 41
0.0
 46
0.0
 71
     5
 72
     1
  1
\A1;0.15
  7
ROMANS
 73
     1
 44
1.0
  0
POINT
  5
16B
330
162
100
AcDbEntity
  8
Defpoints
  6
Continuous
 62
     0
100
AcDbPoint
 10
8.285146336794959
 20
1.999340468848231
 30
0.0
  0
POINT
  5
16C
330
162
100
AcDbEntity
  8
Defpoints
  6
Continuous
 62
     0
100
AcDbPoint
 10
8.735146336794954
 20
2.149340468848222
 30
0.0
  0
POINT
  5
16D
330
162
100
AcDbEntity
  8
Defpoints
  6
Continuous
 62
     0
100
AcDbPoint
 10
9.024380559067623
 20
2.149340468848222
 30
0.0
  0
ENDBLK
  5
16E
330
162
100
AcDbEntity
  8
0
100
AcDbBlockEnd
  0
BLOCK
  5
170
330
16F
100
AcDbEntity
  8
0
100
AcDbBlockBegin
  2
*D13
 70
     1
 10
0.0
 20
0.0
 30
0.0
  3
*D13
  1

  0
LINE
  5
171
330
16F
100
AcDbEntity
  8
0
  6
Continuous
 62
     0
100
AcDbLine
 10
8.810146336794954
 20
2.149340468848222
 30
0.0
 11
9.046880559067624
 21
2.149340468848222
 31
0.0
  0
LINE
  5
172
330
16F
100
AcDbEntity
  8
0
  6
Continuous
 62
     0
100
AcDbLine
 10
8.810146336794954
 20
3.199340468848248
 30
0.0
 11
9.046880559067624
 21
3.199340468848248
 31
0.0
  0
LINE
  5
173
330
16F
100
AcDbEntity
  8
0
  6
Continuous
 62
     0
100
AcDbLine
 10
9.024380559067623
 20
2.126840468848222
 30
0.0
 11
9.024380559067623
 21
2.636090468848235
 31
0.0
  0
LINE
  5
174
330
16F
100
AcDbEntity
  8
0
  6
Continuous
 62
     0
100
AcDbLine
 10
9.024380559067623
 20
3.221840468848248
 30
0.0
 11
9.024380559067623
 21
2.712590468848235
 31
0.0
  0
INSERT
  5
175
330
16F
100
AcDbEntity
  8
0
  6
Continuous
 62
     0
100
AcDbBlockReference
  2
_ArchTick
 10
9.024380559067623
 20
2.149340468848222
 30
0.0
 41
0.075
 42
0.075
 43
0.075
 50
270.0
  0
INSERT
  5
176
330
16F
100
AcDbEntity
  8
0
  6
Continuous
 62
     0
100
AcDbBlockReference
  2
_ArchTick
 10
9.024380559067623
 20
3.199340468848248
 30
0.0
 41
0.075
 42
0.075
 43
0.075
 50
90.0
  0
MTEXT
  5
177
330
16F
100
AcDbEntity
  8
0
  6
Continuous
100
AcDbMText
 10
9.024380559067623
 20
2.674340468848237
 30
0.0
 40
0.075
 41
0.0
 46
0.0
 71
     5
 72
     1
  1
\A1;1.05
  7
ROMANS
 73
     1
 44
1.0
  0
POINT
  5
178
330
16F
100
AcDbEntity
  8
Defpoints
  6
Continuous
 62
     0
100
AcDbPoint
 10
8.735146336794954
 20
2.149340468848222
 30
0.0
  0
POINT
  5
179
330
16F
100
AcDbEntity
  8
Defpoints
  6
Continuous
 62
     0
100
AcDbPoint
 10
8.735146336794954
 20
3.199340468848248
 30
0.0
  0
POINT
  5
17A
330
16F
100
AcDbEntity
  8
Defpoints
  6
Continuous
 62
     0
100
AcDbPoint
 10
9.024380559067623
 20
3.199340468848248
 30
0.0
  0
ENDBLK
  5
17B
330
16F
100
AcDbEntity
  8
0
100
AcDbBlockEnd
  0
BLOCK
  5
17D
330
17C
100
AcDbEntity
  8
0
100
AcDbBlockBegin
  2
*D14
 70
     1
 10
0.0
 20
0.0
 30
0.0
  3
*D14
  1

  0
LINE
  5
17E
330
17C
100
AcDbEntity
  8
0
  6
Continuous
 62
     0
100
AcDbLine
 10
8.810146336794954
 20
3.199340468848248
 30
0.0
 11
9.046880559067624
 21
3.199340468848248
 31
0.0
  0
LINE
  5
17F
330
17C
100
AcDbEntity
  8
0
  6
Continuous
 62
     0
100
AcDbLine
 10
8.360146336794951
 20
3.649340468848237
 30
0.0
 11
9.046880559067624
 21
3.649340468848236
 31
0.0
  0
LINE
  5
180
330
17C
100
AcDbEntity
  8
0
  6
Continuous
 62
     0
100
AcDbLine
 10
9.024380559067623
 20
3.176840468848248
 30
0.0
 11
9.024380559067623
 21
3.386090468848242
 31
0.0
  0
LINE
  5
181
330
17C
100
AcDbEntity
  8
0
  6
Continuous
 62
     0
100
AcDbLine
 10
9.024380559067623
 20
3.671840468848236
 30
0.0
 11
9.024380559067623
 21
3.462590468848242
 31
0.0
  0
INSERT
  5
182
330
17C
100
AcDbEntity
  8
0
  6
Continuous
 62
     0
100
AcDbBlockReference
  2
_ArchTick
 10
9.024380559067623
 20
3.199340468848248
 30
0.0
 41
0.075
 42
0.075
 43
0.075
 50
270.0
  0
INSERT
  5
183
330
17C
100
AcDbEntity
  8
0
  6
Continuous
 62
     0
100
AcDbBlockReference
  2
_ArchTick
 10
9.024380559067623
 20
3.649340468848236
 30
0.0
 41
0.075
 42
0.075
 43
0.075
 50
90.0
  0
MTEXT
  5
184
330
17C
100
AcDbEntity
  8
0
  6
Continuous
100
AcDbMText
 10
9.024380559067623
 20
3.424340468848244
 30
0.0
 40
0.075
 41
0.0
 46
0.0
 71
     5
 72
     1
  1
\A1;0.45
  7
ROMANS
 73
     1
 44
1.0
  0
POINT
  5
185
330
17C
100
AcDbEntity
  8
Defpoints
  6
Continuous
 62
     0
100
AcDbPoint
 10
8.735146336794954
 20
3.199340468848248
 30
0.0
  0
POINT
  5
186
330
17C
100
AcDbEntity
  8
Defpoints
  6
Continuous
 62
     0
100
AcDbPoint
 10
8.285146336794952
 20
3.649340468848237
 30
0.0
  0
POINT
  5
187
330
17C
100
AcDbEntity
  8
Defpoints
  6
Continuous
 62
     0
100
AcDbPoint
 10
9.024380559067623
 20
3.649340468848236
 30
0.0
  0
ENDBLK
  5
188
330
17C
100
AcDbEntity
  8
0
100
AcDbBlockEnd
  0
BLOCK
  5
18A
330
189
100
AcDbEntity
  8
0
100
AcDbBlockBegin
  2
*D15
 70
     1
 10
0.0
 20
0.0
 30
0.0
  3
*D15
  1

  0
LINE
  5
18B
330
189
100
AcDbEntity
  8
0
  6
Continuous
 62
     0
100
AcDbLine
 10
7.835146336794963
 20
2.074340468848222
 30
0.0
 11
7.835146336794963
 21
1.882309503302487
 31
0.0
  0
LINE
  5
18C
330
189
100
AcDbEntity
  8
0
  6
Continuous
 62
     0
100
AcDbLine
 10
8.06514633679496
 20
2.074340468848222
 30
0.0
 11
8.06514633679496
 21
1.882309503302487
 31
0.0
  0
LINE
  5
18D
330
189
100
AcDbEntity
  8
0
  6
Continuous
 62
     0
100
AcDbLine
 10
7.812646336794963
 20
1.904809503302487
 30
0.0
 11
8.087646336794961
 21
1.904809503302487
 31
0.0
  0
MTEXT
  5
18E
330
189
100
AcDbEntity
  8
0
  6
Continuous
100
AcDbMText
 10
7.951229511307317
 20
1.778404199701867
 30
0.0
 40
0.075
 41
0.0
 46
0.0
 71
     5
 72
     1
  1
\A1;0.23
  7
ROMANS
 73
     1
 44
1.0
  0
INSERT
  5
18F
330
189
100
AcDbEntity
  8
0
  6
Continuous
 62
     0
100
AcDbBlockReference
  2
_ArchTick
 10
7.835146336794963
 20
1.904809503302487
 30
0.0
 41
0.075
 42
0.075
 43
0.075
 50
180.0
  0
INSERT
  5
190
330
189
100
AcDbEntity
  8
0
  6
Continuous
 62
     0
100
AcDbBlockReference
  2
_ArchTick
 10
8.06514633679496
 20
1.904809503302487
 30
0.0
 41
0.075
 42
0.075
 43
0.075
  0
POINT
  5
191
330
189
100
AcDbEntity
  8
Defpoints
  6
Continuous
 62
     0
100
AcDbPoint
 10
7.835146336794963
 20
2.149340468848222
 30
0.0
  0
POINT
  5
192
330
189
100
AcDbEntity
  8
Defpoints
  6
Continuous
 62
     0
100
AcDbPoint
 10
8.06514633679496
 20
2.149340468848222
 30
0.0
  0
POINT
  5
193
330
189
100
AcDbEntity
  8
Defpoints
  6
Continuous
 62
     0
100
AcDbPoint
 10
8.06514633679496
 20
1.904809503302487
 30
0.0
  0
ENDBLK
  5
194
330
189
100
AcDbEntity
  8
0
100
AcDbBlockEnd
  0
BLOCK
  5
196
330
195
100
AcDbEntity
  8
0
100
AcDbBlockBegin
  2
*D16
 70
     1
 10
0.0
 20
0.0
 30
0.0
  3
*D16
  1

  0
LINE
  5
197
330
195
100
AcDbEntity
  8
0
  6
Continuous
 62
     0
100
AcDbLine
 10
8.06514633679496
 20
2.074340468848222
 30
0.0
 11
8.06514633679496
 21
1.882309503302487
 31
0.0
  0
LINE
  5
198
330
195
100
AcDbEntity
  8
0
  6
Continuous
 62
     0
100
AcDbLine
 10
8.505146336794958
 20
2.074340468848222
 30
0.0
 11
8.505146336794958
 21
1.882309503302487
 31
0.0
  0
LINE
  5
199
330
195
100
AcDbEntity
  8
0
  6
Continuous
 62
     0
100
AcDbLine
 10
8.042646336794959
 20
1.904809503302487
 30
0.0
 11
8.16832490822353
 21
1.904809503302487
 31
0.0
  0
LINE
  5
19A
330
195
100
AcDbEntity
  8
0
  6
Continuous
 62
     0
100
AcDbLine
 10
8.527646336794958
 20
1.904809503302487
 30
0.0
 11
8.401967765366388
 21
1.904809503302487
 31
0.0
  0
INSERT
  5
19B
330
195
100
AcDbEntity
  8
0
  6
Continuous
 62
     0
100
AcDbBlockReference
  2
_ArchTick
 10
8.06514633679496
 20
1.904809503302487
 30
0.0
 41
0.075
 42
0.075
 43
0.075
 50
180.0
  0
INSERT
  5
19C
330
195
100
AcDbEntity
  8
0
  6
Continuous
 62
     0
100
AcDbBlockReference
  2
_ArchTick
 10
8.505146336794958
 20
1.904809503302487
 30
0.0
 41
0.075
 42
0.075
 43
0.075
  0
MTEXT
  5
19D
330
195
100
AcDbEntity
  8
0
  6
Continuous
100
AcDbMText
 10
8.285146336794959
 20
1.904809503302487
 30
0.0
 40
0.075
 41
0.0
 46
0.0
 71
     5
 72
     1
  1
\A1;0.44
  7
ROMANS
 73
     1
 44
1.0
  0
POINT
  5
19E
330
195
100
AcDbEntity
  8
Defpoints
  6
Continuous
 62
     0
100
AcDbPoint
 10
8.06514633679496
 20
2.149340468848222
 30
0.0
  0
POINT
  5
19F
330
195
100
AcDbEntity
  8
Defpoints
  6
Continuous
 62
     0
100
AcDbPoint
 10
8.505146336794958
 20
2.149340468848222
 30
0.0
  0
POINT
  5
1A0
330
195
100
AcDbEntity
  8
Defpoints
  6
Continuous
 62
     0
100
AcDbPoint
 10
8.505146336794958
 20
1.904809503302487
 30
0.0
  0
ENDBLK
  5
1A1
330
195
100
AcDbEntity
  8
0
100
AcDbBlockEnd
  0
BLOCK
  5
1A3
330
1A2
100
AcDbEntity
  8
0
100
AcDbBlockBegin
  2
*D17
 70
     1
 10
0.0
 20
0.0
 30
0.0
  3
*D17
  1

  0
LINE
  5
1A4
330
1A2
100
AcDbEntity
  8
0
  6
Continuous
 62
     0
100
AcDbLine
 10
8.505146336794958
 20
2.074340468848222
 30
0.0
 11
8.505146336794958
 21
1.882309503302487
 31
0.0
  0
LINE
  5
1A5
330
1A2
100
AcDbEntity
  8
0
  6
Continuous
 62
     0
100
AcDbLine
 10
8.735146336794954
 20
2.074340468848222
 30
0.0
 11
8.735146336794954
 21
1.882309503302487
 31
0.0
  0
LINE
  5
1A6
330
1A2
100
AcDbEntity
  8
0
  6
Continuous
 62
     0
100
AcDbLine
 10
8.482646336794957
 20
1.904809503302487
 30
0.0
 11
8.757646336794955
 21
1.904809503302487
 31
0.0
  0
MTEXT
  5
1A7
330
1A2
100
AcDbEntity
  8
0
  6
Continuous
100
AcDbMText
 10
8.61657761170445
 20
1.781042610131947
 30
0.0
 40
0.075
 41
0.0
 46
0.0
 71
     5
 72
     1
  1
\A1;0.23
  7
ROMANS
 73
     1
 44
1.0
  0
INSERT
  5
1A8
330
1A2
100
AcDbEntity
  8
0
  6
Continuous
 62
     0
100
AcDbBlockReference
  2
_ArchTick
 10
8.505146336794958
 20
1.904809503302487
 30
0.0
 41
0.075
 42
0.075
 43
0.075
 50
180.0
  0
INSERT
  5
1A9
330
1A2
100
AcDbEntity
  8
0
  6
Continuous
 62
     0
100
AcDbBlockReference
  2
_ArchTick
 10
8.735146336794954
 20
1.904809503302487
 30
0.0
 41
0.075
 42
0.075
 43
0.075
  0
POINT
  5
1AA
330
1A2
100
AcDbEntity
  8
Defpoints
  6
Continuous
 62
     0
100
AcDbPoint
 10
8.505146336794958
 20
2.149340468848222
 30
0.0
  0
POINT
  5
1AB
330
1A2
100
AcDbEntity
  8
Defpoints
  6
Continuous
 62
     0
100
AcDbPoint
 10
8.735146336794954
 20
2.149340468848222
 30
0.0
  0
POINT
  5
1AC
330
1A2
100
AcDbEntity
  8
Defpoints
  6
Continuous
 62
     0
100
AcDbPoint
 10
8.735146336794954
 20
1.904809503302487
 30
0.0
  0
ENDBLK
  5
1AD
330
1A2
100
AcDbEntity
  8
0
100
AcDbBlockEnd
  0
BLOCK
  5
1AF
330
1AE
100
AcDbEntity
  8
0
100
AcDbBlockBegin
  2
*D18
 70
     1
 10
0.0
 20
0.0
 30
0.0
  3
*D18
  1

  0
LINE
  5
1B0
330
1AE
100
AcDbEntity
  8
0
  6
Continuous
 62
     0
100
AcDbLine
 10
12.01028433361791
 20
0.5013896589242809
 30
0.0
 11
12.01028433361791
 21
2.108491867443731
 31
0.0
  0
LINE
  5
1B1
330
1AE
100
AcDbEntity
  8
0
  6
Continuous
 62
     0
100
AcDbLine
 10
12.91028433361791
 20
0.5013896589242809
 30
0.0
 11
12.91028433361791
 21
2.108491867443731
 31
0.0
  0
LINE
  5
1B2
330
1AE
100
AcDbEntity
  8
0
  6
Continuous
 62
     0
100
AcDbLine
 10
12.00128433361792
 20
2.099491867443731
 30
0.0
 11
12.41427004790363
 21
2.099491867443731
 31
0.0
  0
LINE
  5
1B3
330
1AE
100
AcDbEntity
  8
0
  6
Continuous
 62
     0
100
AcDbLine
 10
12.91928433361791
 20
2.099491867443731
 30
0.0
 11
12.5062986193322
 21
2.099491867443731
 31
0.0
  0
INSERT
  5
1B4
330
1AE
100
AcDbEntity
  8
0
  6
Continuous
 62
     0
100
AcDbBlockReference
  2
_ArchTick
 10
12.01028433361791
 20
2.099491867443731
 30
0.0
 41
0.03
 42
0.03
 43
0.03
 50
180.0
  0
INSERT
  5
1B5
330
1AE
100
AcDbEntity
  8
0
  6
Continuous
 62
     0
100
AcDbBlockReference
  2
_ArchTick
 10
12.91028433361791
 20
2.099491867443731
 30
0.0
 41
0.03
 42
0.03
 43
0.03
  0
MTEXT
  5
1B6
330
1AE
100
AcDbEntity
  8
0
  6
Continuous
100
AcDbMText
 10
12.46028433361791
 20
2.099491867443731
 30
0.0
 40
0.03
 41
0.0
 46
0.0
 71
     5
 72
     1
  1
\A1;0.90
  7
ROMANS
 73
     1
 44
1.0
  0
POINT
  5
1B7
330
1AE
100
AcDbEntity
  8
Defpoints
  6
Continuous
 62
     0
100
AcDbPoint
 10
12.01028433361791
 20
0.4713896589242808
 30
0.0
  0
POINT
  5
1B8
330
1AE
100
AcDbEntity
  8
Defpoints
  6
Continuous
 62
     0
100
AcDbPoint
 10
12.91028433361791
 20
0.4713896589242808
 30
0.0
  0
POINT
  5
1B9
330
1AE
100
AcDbEntity
  8
Defpoints
  6
Continuous
 62
     0
100
AcDbPoint
 10
12.91028433361791
 20
2.099491867443731
 30
0.0
  0
ENDBLK
  5
1BA
330
1AE
100
AcDbEntity
  8
0
100
AcDbBlockEnd
  0
BLOCK
  5
1BC
330
1BB
100
AcDbEntity
  8
0
100
AcDbBlockBegin
  2
*D19
 70
     1
 10
0.0
 20
0.0
 30
0.0
  3
*D19
  1

  0
LINE
  5
1BD
330
1BB
100
AcDbEntity
  8
0
  6
Continuous
 62
     0
100
AcDbLine
 10
12.49028433361791
 20
0.3213896589242893
 30
0.0
 11
13.52253040013942
 21
0.321389658924289
 31
0.0
  0
LINE
  5
1BE
330
1BB
100
AcDbEntity
  8
0
  6
Continuous
 62
     0
100
AcDbLine
 10
12.4902843336179
 20
1.971389658924294
 30
0.0
 11
13.52253040013942
 21
1.971389658924294
 31
0.0
  0
LINE
  5
1BF
330
1BB
100
AcDbEntity
  8
0
  6
Continuous
 62
     0
100
AcDbLine
 10
13.51353040013942
 20
0.312389658924289
 30
0.0
 11
13.51353040013942
 21
1.131089658924291
 31
0.0
  0
LINE
  5
1C0
330
1BB
100
AcDbEntity
  8
0
  6
Continuous
 62
     0
100
AcDbLine
 10
13.51353040013942
 20
1.980389658924294
 30
0.0
 11
13.51353040013942
 21
1.161689658924291
 31
0.0
  0
INSERT
  5
1C1
330
1BB
100
AcDbEntity
  8
0
  6
Continuous
 62
     0
100
AcDbBlockReference
  2
_ArchTick
 10
13.51353040013942
 20
0.321389658924289
 30
0.0
 41
0.03
 42
0.03
 43
0.03
 50
270.0
  0
INSERT
  5
1C2
330
1BB
100
AcDbEntity
  8
0
  6
Continuous
 62
     0
100
AcDbBlockReference
  2
_ArchTick
 10
13.51353040013942
 20
1.971389658924294
 30
0.0
 41
0.03
 42
0.03
 43
0.03
 50
90.0
  0
MTEXT
  5
1C3
330
1BB
100
AcDbEntity
  8
0
  6
Continuous
100
AcDbMText
 10
13.51353040013942
 20
1.146389658924293
 30
0.0
 40
0.03
 41
0.0
 46
0.0
 71
     5
 72
     1
  1
\A1;1.65
  7
ROMANS
 73
     1
 44
1.0
  0
POINT
  5
1C4
330
1BB
100
AcDbEntity
  8
Defpoints
  6
Continuous
 62
     0
100
AcDbPoint
 10
12.46028433361791
 20
0.3213896589242893
 30
0.0
  0
POINT
  5
1C5
330
1BB
100
AcDbEntity
  8
Defpoints
  6
Continuous
 62
     0
100
AcDbPoint
 10
12.46028433361791
 20
1.971389658924294
 30
0.0
  0
POINT
  5
1C6
330
1BB
100
AcDbEntity
  8
Defpoints
  6
Continuous
 62
     0
100
AcDbPoint
 10
13.51353040013942
 20
1.971389658924294
 30
0.0
  0
ENDBLK
  5
1C7
330
1BB
100
AcDbEntity
  8
0
100
AcDbBlockEnd
  0
BLOCK
  5
1C9
330
1C8
100
AcDbEntity
  8
0
100
AcDbBlockBegin
  2
*D20
 70
     1
 10
0.0
 20
0.0
 30
0.0
  3
*D20
  1

  0
LINE
  5
1CA
330
1C8
100
AcDbEntity
  8
0
  6
Continuous
 62
     0
100
AcDbLine
 10
12.53528433361791
 20
0.3213896589242893
 30
0.0
 11
13.22201855589058
 21
0.3213896589242891
 31
0.0
  0
LINE
  5
1CB
330
1C8
100
AcDbEntity
  8
0
  6
Continuous
 62
     0
100
AcDbLine
 10
12.98528433361791
 20
0.4713896589242808
 30
0.0
 11
13.22201855589058
 21
0.4713896589242807
 31
0.0
  0
LINE
  5
1CC
330
1C8
100
AcDbEntity
  8
0
  6
Continuous
 62
     0
100
AcDbLine
 10
13.19951855589058
 20
0.2988896589242891
 30
0.0
 11
13.19951855589058
 21
0.3581396589242848
 31
0.0
  0
LINE
  5
1CD
330
1C8
100
AcDbEntity
  8
0
  6
Continuous
 62
     0
100
AcDbLine
 10
13.19951855589058
 20
0.4938896589242808
 30
0.0
 11
13.19951855589058
 21
0.4346396589242849
 31
0.0
  0
INSERT
  5
1CE
330
1C8
100
AcDbEntity
  8
0
  6
Continuous
 62
     0
100
AcDbBlockReference
  2
_ArchTick
 10
13.19951855589058
 20
0.3213896589242891
 30
0.0
 41
0.075
 42
0.075
 43
0.075
 50
270.0
  0
INSERT
  5
1CF
330
1C8
100
AcDbEntity
  8
0
  6
Continuous
 62
     0
100
AcDbBlockReference
  2
_ArchTick
 10
13.19951855589058
 20
0.4713896589242807
 30
0.0
 41
0.075
 42
0.075
 43
0.075
 50
90.0
  0
MTEXT
  5
1D0
330
1C8
100
AcDbEntity
  8
0
  6
Continuous
100
AcDbMText
 10
13.19951855589058
 20
0.396389658924287
 30
0.0
 40
0.075
 41
0.0
 46
0.0
 71
     5
 72
     1
  1
\A1;0.15
  7
ROMANS
 73
     1
 44
1.0
  0
POINT
  5
1D1
330
1C8
100
AcDbEntity
  8
Defpoints
  6
Continuous
 62
     0
100
AcDbPoint
 10
12.46028433361791
 20
0.3213896589242893
 30
0.0
  0
POINT
  5
1D2
330
1C8
100
AcDbEntity
  8
Defpoints
  6
Continuous
 62
     0
100
AcDbPoint
 10
12.91028433361791
 20
0.4713896589242808
 30
0.0
  0
POINT
  5
1D3
330
1C8
100
AcDbEntity
  8
Defpoints
  6
Continuous
 62
     0
100
AcDbPoint
 10
13.19951855589058
 20
0.4713896589242807
 30
0.0
  0
ENDBLK
  5
1D4
330
1C8
100
AcDbEntity
  8
0
100
AcDbBlockEnd
  0
BLOCK
  5
1D6
330
1D5
100
AcDbEntity
  8
0
100
AcDbBlockBegin
  2
*D21
 70
     1
 10
0.0
 20
0.0
 30
0.0
  3
*D21
  1

  0
LINE
  5
1D7
330
1D5
100
AcDbEntity
  8
0
  6
Continuous
 62
     0
100
AcDbLine
 10
12.94028433361791
 20
0.4713896589242808
 30
0.0
 11
13.20851855589058
 21
0.4713896589242807
 31
0.0
  0
LINE
  5
1D8
330
1D5
100
AcDbEntity
  8
0
  6
Continuous
 62
     0
100
AcDbLine
 10
12.94028433361791
 20
1.521389658924306
 30
0.0
 11
13.20851855589058
 21
1.521389658924306
 31
0.0
  0
LINE
  5
1D9
330
1D5
100
AcDbEntity
  8
0
  6
Continuous
 62
     0
100
AcDbLine
 10
13.19951855589058
 20
0.4623896589242807
 30
0.0
 11
13.19951855589058
 21
0.9810896589242934
 31
0.0
  0
LINE
  5
1DA
330
1D5
100
AcDbEntity
  8
0
  6
Continuous
 62
     0
100
AcDbLine
 10
13.19951855589058
 20
1.530389658924306
 30
0.0
 11
13.19951855589058
 21
1.011689658924293
 31
0.0
  0
INSERT
  5
1DB
330
1D5
100
AcDbEntity
  8
0
  6
Continuous
 62
     0
100
AcDbBlockReference
  2
_ArchTick
 10
13.19951855589058
 20
0.4713896589242807
 30
0.0
 41
0.03
 42
0.03
 43
0.03
 50
270.0
  0
INSERT
  5
1DC
330
1D5
100
AcDbEntity
  8
0
  6
Continuous
 62
     0
100
AcDbBlockReference
  2
_ArchTick
 10
13.19951855589058
 20
1.521389658924306
 30
0.0
 41
0.03
 42
0.03
 43
0.03
 50
90.0
  0
MTEXT
  5
1DD
330
1D5
100
AcDbEntity
  8
0
  6
Continuous
100
AcDbMText
 10
13.19951855589058
 20
0.9963896589242956
 30
0.0
 40
0.03
 41
0.0
 46
0.0
 71
     5
 72
     1
  1
\A1;1.05
  7
ROMANS
 73
     1
 44
1.0
  0
POINT
  5
1DE
330
1D5
100
AcDbEntity
  8
Defpoints
  6
Continuous
 62
     0
100
AcDbPoint
 10
12.91028433361791
 20
0.4713896589242808
 30
0.0
  0
POINT
  5
1DF
330
1D5
100
AcDbEntity
  8
Defpoints
  6
Continuous
 62
     0
100
AcDbPoint
 10
12.91028433361791
 20
1.521389658924306
 30
0.0
  0
POINT
  5
1E0
330
1D5
100
AcDbEntity
  8
Defpoints
  6
Continuous
 62
     0
100
AcDbPoint
 10
13.19951855589058
 20
1.521389658924306
 30
0.0
  0
ENDBLK
  5
1E1
330
1D5
100
AcDbEntity
  8
0
100
AcDbBlockEnd
  0
BLOCK
  5
1E3
330
1E2
100
AcDbEntity
  8
0
100
AcDbBlockBegin
  2
*D22
 70
     1
 10
0.0
 20
0.0
 30
0.0
  3
*D22
  1

  0
LINE
  5
1E4
330
1E2
100
AcDbEntity
  8
0
  6
Continuous
 62
     0
100
AcDbLine
 10
12.94028433361791
 20
1.521389658924306
 30
0.0
 11
13.20851855589058
 21
1.521389658924306
 31
0.0
  0
LINE
  5
1E5
330
1E2
100
AcDbEntity
  8
0
  6
Continuous
 62
     0
100
AcDbLine
 10
12.4902843336179
 20
1.971389658924294
 30
0.0
 11
13.20851855589058
 21
1.971389658924294
 31
0.0
  0
LINE
  5
1E6
330
1E2
100
AcDbEntity
  8
0
  6
Continuous
 62
     0
100
AcDbLine
 10
13.19951855589058
 20
1.512389658924306
 30
0.0
 11
13.19951855589058
 21
1.7310896589243
 31
0.0
  0
LINE
  5
1E7
330
1E2
100
AcDbEntity
  8
0
  6
Continuous
 62
     0
100
AcDbLine
 10
13.19951855589058
 20
1.980389658924294
 30
0.0
 11
13.19951855589058
 21
1.7616896589243
 31
0.0
  0
INSERT
  5
1E8
330
1E2
100
AcDbEntity
  8
0
  6
Continuous
 62
     0
100
AcDbBlockReference
  2
_ArchTick
 10
13.19951855589058
 20
1.521389658924306
 30
0.0
 41
0.03
 42
0.03
 43
0.03
 50
270.0
  0
INSERT
  5
1E9
330
1E2
100
AcDbEntity
  8
0
  6
Continuous
 62
     0
100
AcDbBlockReference
  2
_ArchTick
 10
13.19951855589058
 20
1.971389658924294
 30
0.0
 41
0.03
 42
0.03
 43
0.03
 50
90.0
  0
MTEXT
  5
1EA
330
1E2
100
AcDbEntity
  8
0
  6
Continuous
100
AcDbMText
 10
13.19951855589058
 20
1.746389658924302
 30
0.0
 40
0.03
 41
0.0
 46
0.0
 71
     5
 72
     1
  1
\A1;0.45
  7
ROMANS
 73
     1
 44
1.0
  0
POINT
  5
1EB
330
1E2
100
AcDbEntity
  8
Defpoints
  6
Continuous
 62
     0
100
AcDbPoint
 10
12.91028433361791
 20
1.521389658924306
 30
0.0
  0
POINT
  5
1EC
330
1E2
100
AcDbEntity
  8
Defpoints
  6
Continuous
 62
     0
100
AcDbPoint
 10
12.46028433361791
 20
1.971389658924294
 30
0.0
  0
POINT
  5
1ED
330
1E2
100
AcDbEntity
  8
Defpoints
  6
Continuous
 62
     0
100
AcDbPoint
 10
13.19951855589058
 20
1.971389658924294
 30
0.0
  0
ENDBLK
  5
1EE
330
1E2
100
AcDbEntity
  8
0
100
AcDbBlockEnd
  0
BLOCK
  5
1F0
330
1EF
100
AcDbEntity
  8
0
100
AcDbBlockBegin
  2
*D23
 70
     1
 10
0.0
 20
0.0
 30
0.0
  3
*D23
  1

  0
LINE
  5
1F1
330
1EF
100
AcDbEntity
  8
0
  6
Continuous
 62
     0
100
AcDbLine
 10
12.01028433361791
 20
0.4413896589242807
 30
0.0
 11
12.01028433361791
 21
0.2178586933785457
 31
0.0
  0
LINE
  5
1F2
330
1EF
100
AcDbEntity
  8
0
  6
Continuous
 62
     0
100
AcDbLine
 10
12.24028433361791
 20
0.4413896589242807
 30
0.0
 11
12.24028433361791
 21
0.2178586933785457
 31
0.0
  0
LINE
  5
1F3
330
1EF
100
AcDbEntity
  8
0
  6
Continuous
 62
     0
100
AcDbLine
 10
12.00128433361792
 20
0.2268586933785457
 30
0.0
 11
12.24928433361791
 21
0.2268586933785457
 31
0.0
  0
MTEXT
  5
1F4
330
1EF
100
AcDbEntity
  8
0
  6
Continuous
100
AcDbMText
 10
12.12636750813027
 20
0.1004533897779254
 30
0.0
 40
0.03
 41
0.0
 46
0.0
 71
     5
 72
     1
  1
\A1;0.23
  7
ROMANS
 73
     1
 44
1.0
  0
INSERT
  5
1F5
330
1EF
100
AcDbEntity
  8
0
  6
Continuous
 62
     0
100
AcDbBlockReference
  2
_ArchTick
 10
12.01028433361791
 20
0.2268586933785457
 30
0.0
 41
0.03
 42
0.03
 43
0.03
 50
180.0
  0
INSERT
  5
1F6
330
1EF
100
AcDbEntity
  8
0
  6
Continuous
 62
     0
100
AcDbBlockReference
  2
_ArchTick
 10
12.24028433361791
 20
0.2268586933785457
 30
0.0
 41
0.03
 42
0.03
 43
0.03
  0
POINT
  5
1F7
330
1EF
100
AcDbEntity
  8
Defpoints
  6
Continuous
 62
     0
100
AcDbPoint
 10
12.01028433361791
 20
0.4713896589242808
 30
0.0
  0
POINT
  5
1F8
330
1EF
100
AcDbEntity
  8
Defpoints
  6
Continuous
 62
     0
100
AcDbPoint
 10
12.24028433361791
 20
0.4713896589242808
 30
0.0
  0
POINT
  5
1F9
330
1EF
100
AcDbEntity
  8
Defpoints
  6
Continuous
 62
     0
100
AcDbPoint
 10
12.24028433361791
 20
0.2268586933785457
 30
0.0
  0
ENDBLK
  5
1FA
330
1EF
100
AcDbEntity
  8
0
100
AcDbBlockEnd
  0
BLOCK
  5
1FC
330
1FB
100
AcDbEntity
  8
0
100
AcDbBlockBegin
  2
*D24
 70
     1
 10
0.0
 20
0.0
 30
0.0
  3
*D24
  1

  0
LINE
  5
1FD
330
1FB
100
AcDbEntity
  8
0
  6
Continuous
 62
     0
100
AcDbLine
 10
12.24028433361791
 20
0.4413896589242807
 30
0.0
 11
12.24028433361791
 21
0.2178586933785457
 31
0.0
  0
LINE
  5
1FE
330
1FB
100
AcDbEntity
  8
0
  6
Continuous
 62
     0
100
AcDbLine
 10
12.68028433361791
 20
0.4413896589242807
 30
0.0
 11
12.68028433361791
 21
0.2178586933785457
 31
0.0
  0
LINE
  5
1FF
330
1FB
100
AcDbEntity
  8
0
  6
Continuous
 62
     0
100
AcDbLine
 10
12.23128433361791
 20
0.2268586933785457
 30
0.0
 11
12.41355576218934
 21
0.2268586933785457
 31
0.0
  0
LINE
  5
200
330
1FB
100
AcDbEntity
  8
0
  6
Continuous
 62
     0
100
AcDbLine
 10
12.68928433361791
 20
0.2268586933785457
 30
0.0
 11
12.50701290504648
 21
0.2268586933785457
 31
0.0
  0
INSERT
  5
201
330
1FB
100
AcDbEntity
  8
0
  6
Continuous
 62
     0
100
AcDbBlockReference
  2
_ArchTick
 10
12.24028433361791
 20
0.2268586933785457
 30
0.0
 41
0.03
 42
0.03
 43
0.03
 50
180.0
  0
INSERT
  5
202
330
1FB
100
AcDbEntity
  8
0
  6
Continuous
 62
     0
100
AcDbBlockReference
  2
_ArchTick
 10
12.68028433361791
 20
0.2268586933785457
 30
0.0
 41
0.03
 42
0.03
 43
0.03
  0
MTEXT
  5
203
330
1FB
100
AcDbEntity
  8
0
  6
Continuous
100
AcDbMText
 10
12.46028433361791
 20
0.2268586933785457
 30
0.0
 40
0.03
 41
0.0
 46
0.0
 71
     5
 72
     1
  1
\A1;0.44
  7
ROMANS
 73
     1
 44
1.0
  0
POINT
  5
204
330
1FB
100
AcDbEntity
  8
Defpoints
  6
Continuous
 62
     0
100
AcDbPoint
 10
12.24028433361791
 20
0.4713896589242808
 30
0.0
  0
POINT
  5
205
330
1FB
100
AcDbEntity
  8
Defpoints
  6
Continuous
 62
     0
100
AcDbPoint
 10
12.68028433361791
 20
0.4713896589242808
 30
0.0
  0
POINT
  5
206
330
1FB
100
AcDbEntity
  8
Defpoints
  6
Continuous
 62
     0
100
AcDbPoint
 10
12.68028433361791
 20
0.2268586933785457
 30
0.0
  0
ENDBLK
  5
207
330
1FB
100
AcDbEntity
  8
0
100
AcDbBlockEnd
  0
BLOCK
  5
209
330
208
100
AcDbEntity
  8
0
100
AcDbBlockBegin
  2
*D25
 70
     1
 10
0.0
 20
0.0
 30
0.0
  3
*D25
  1

  0
LINE
  5
20A
330
208
100
AcDbEntity
  8
0
  6
Continuous
 62
     0
100
AcDbLine
 10
12.68028433361791
 20
0.4413896589242807
 30
0.0
 11
12.68028433361791
 21
0.2178586933785457
 31
0.0
  0
LINE
  5
20B
330
208
100
AcDbEntity
  8
0
  6
Continuous
 62
     0
100
AcDbLine
 10
12.91028433361791
 20
0.4413896589242807
 30
0.0
 11
12.91028433361791
 21
0.2178586933785457
 31
0.0
  0
LINE
  5
20C
330
208
100
AcDbEntity
  8
0
  6
Continuous
 62
     0
100
AcDbLine
 10
12.67128433361791
 20
0.2268586933785457
 30
0.0
 11
12.91928433361791
 21
0.2268586933785457
 31
0.0
  0
MTEXT
  5
20D
330
208
100
AcDbEntity
  8
0
  6
Continuous
100
AcDbMText
 10
12.7917156085274
 20
0.1030918002080057
 30
0.0
 40
0.03
 41
0.0
 46
0.0
 71
     5
 72
     1
  1
\A1;0.23
  7
ROMANS
 73
     1
 44
1.0
  0
INSERT
  5
20E
330
208
100
AcDbEntity
  8
0
  6
Continuous
 62
     0
100
AcDbBlockReference
  2
_ArchTick
 10
12.68028433361791
 20
0.2268586933785457
 30
0.0
 41
0.03
 42
0.03
 43
0.03
 50
180.0
  0
INSERT
  5
20F
330
208
100
AcDbEntity
  8
0
  6
Continuous
 62
     0
100
AcDbBlockReference
  2
_ArchTick
 10
12.91028433361791
 20
0.2268586933785457
 30
0.0
 41
0.03
 42
0.03
 43
0.03
  0
POINT
  5
210
330
208
100
AcDbEntity
  8
Defpoints
  6
Continuous
 62
     0
100
AcDbPoint
 10
12.68028433361791
 20
0.4713896589242808
 30
0.0
  0
POINT
  5
211
330
208
100
AcDbEntity
  8
Defpoints
  6
Continuous
 62
     0
100
AcDbPoint
 10
12.91028433361791
 20
0.4713896589242808
 30
0.0
  0
POINT
  5
212
330
208
100
AcDbEntity
  8
Defpoints
  6
Continuous
 62
     0
100
AcDbPoint
 10
12.91028433361791
 20
0.2268586933785457
 30
0.0
  0
ENDBLK
  5
213
330
208
100
AcDbEntity
  8
0
100
AcDbBlockEnd
  0
BLOCK
  5
283
330
282
100
AcDbEntity
  8
0
100
AcDbBlockBegin
  2
*D27
 70
     1
 10
0.0
 20
0.0
 30
0.0
  3
*D27
  1

  0
LINE
  5
3B2
330
282
100
AcDbEntity
  8
0
  6
Continuous
 62
     0
100
AcDbLine
 10
333.2560917642446
 20
36.78363032013037
 30
0.0
 11
333.2560917642446
 21
38.49731324913648
 31
0.0
  0
LINE
  5
3B3
330
282
100
AcDbEntity
  8
0
  6
Continuous
 62
     0
100
AcDbLine
 10
334.1560917642446
 20
36.78363032013037
 30
0.0
 11
334.1560917642446
 21
38.49731324913648
 31
0.0
  0
LINE
  5
3B4
330
282
100
AcDbEntity
  8
0
  6
Continuous
 62
     0
100
AcDbLine
 10
333.2110917642446
 20
38.45231324913648
 30
0.0
 11
333.4760203356732
 21
38.45231324913648
 31
0.0
  0
LINE
  5
3B5
330
282
100
AcDbEntity
  8
0
  6
Continuous
 62
     0
100
AcDbLine
 10
334.2010917642446
 20
38.45231324913648
 30
0.0
 11
333.936163192816
 21
38.45231324913648
 31
0.0
  0
INSERT
  5
3B6
330
282
100
AcDbEntity
  8
0
  6
Continuous
 62
     0
100
AcDbBlockReference
  2
_ArchTick
 10
333.2560917642446
 20
38.45231324913648
 30
0.0
 41
0.15
 42
0.15
 43
0.15
 50
180.0
  0
INSERT
  5
3B7
330
282
100
AcDbEntity
  8
0
  6
Continuous
 62
     0
100
AcDbBlockReference
  2
_ArchTick
 10
334.1560917642446
 20
38.45231324913648
 30
0.0
 41
0.15
 42
0.15
 43
0.15
  0
MTEXT
  5
3B8
330
282
100
AcDbEntity
  8
0
  6
Continuous
100
AcDbMText
 10
333.7060917642446
 20
38.45231324913648
 30
0.0
 40
0.15
 41
0.0
 46
0.0
 71
     5
 72
     1
  1
\A1;0.90
  7
ROMANS
 73
     1
 44
1.0
  0
POINT
  5
3B9
330
282
100
AcDbEntity
  8
Defpoints
  6
Continuous
 62
     0
100
AcDbPoint
 10
333.2560917642446
 20
36.63363032013037
 30
0.0
  0
POINT
  5
3BA
330
282
100
AcDbEntity
  8
Defpoints
  6
Continuous
 62
     0
100
AcDbPoint
 10
334.1560917642446
 20
36.63363032013037
 30
0.0
  0
POINT
  5
3BB
330
282
100
AcDbEntity
  8
Defpoints
  6
Continuous
 62
     0
100
AcDbPoint
 10
334.1560917642446
 20
38.45231324913648
 30
0.0
  0
ENDBLK
  5
284
330
282
100
AcDbEntity
  8
0
100
AcDbBlockEnd
  0
BLOCK
  5
290
330
28F
100
AcDbEntity
  8
0
100
AcDbBlockBegin
  2
*D28
 70
     1
 10
0.0
 20
0.0
 30
0.0
  3
*D28
  1

  0
LINE
  5
3BC
330
28F
100
AcDbEntity
  8
0
  6
Continuous
 62
     0
100
AcDbLine
 10
333.8560917642446
 20
36.48363032013038
 30
0.0
 11
334.8043378307661
 21
36.48363032013038
 31
0.0
  0
LINE
  5
3BD
330
28F
100
AcDbEntity
  8
0
  6
Continuous
 62
     0
100
AcDbLine
 10
333.8560917642446
 20
38.13363032013039
 30
0.0
 11
334.8043378307661
 21
38.13363032013039
 31
0.0
  0
LINE
  5
3BE
330
28F
100
AcDbEntity
  8
0
  6
Continuous
 62
     0
100
AcDbLine
 10
334.7593378307661
 20
36.43863032013038
 30
0.0
 11
334.7593378307661
 21
37.23213032013038
 31
0.0
  0
LINE
  5
3BF
330
28F
100
AcDbEntity
  8
0
  6
Continuous
 62
     0
100
AcDbLine
 10
334.7593378307661
 20
38.17863032013039
 30
0.0
 11
334.7593378307661
 21
37.38513032013039
 31
0.0
  0
INSERT
  5
3C0
330
28F
100
AcDbEntity
  8
0
  6
Continuous
 62
     0
100
AcDbBlockReference
  2
_ArchTick
 10
334.7593378307661
 20
36.48363032013038
 30
0.0
 41
0.15
 42
0.15
 43
0.15
 50
270.0
  0
INSERT
  5
3C1
330
28F
100
AcDbEntity
  8
0
  6
Continuous
 62
     0
100
AcDbBlockReference
  2
_ArchTick
 10
334.7593378307661
 20
38.13363032013039
 30
0.0
 41
0.15
 42
0.15
 43
0.15
 50
90.0
  0
MTEXT
  5
3C2
330
28F
100
AcDbEntity
  8
0
  6
Continuous
100
AcDbMText
 10
334.7593378307661
 20
37.30863032013044
 30
0.0
 40
0.15
 41
0.0
 46
0.0
 71
     5
 72
     1
  1
\A1;1.65
  7
ROMANS
 73
     1
 44
1.0
  0
POINT
  5
3C3
330
28F
100
AcDbEntity
  8
Defpoints
  6
Continuous
 62
     0
100
AcDbPoint
 10
333.7060917642446
 20
36.48363032013038
 30
0.0
  0
POINT
  5
3C4
330
28F
100
AcDbEntity
  8
Defpoints
  6
Continuous
 62
     0
100
AcDbPoint
 10
333.7060917642446
 20
38.13363032013039
 30
0.0
  0
POINT
  5
3C5
330
28F
100
AcDbEntity
  8
Defpoints
  6
Continuous
 62
     0
100
AcDbPoint
 10
334.7593378307661
 20
38.13363032013039
 30
0.0
  0
ENDBLK
  5
291
330
28F
100
AcDbEntity
  8
0
100
AcDbBlockEnd
  0
BLOCK
  5
29D
330
29C
100
AcDbEntity
  8
0
100
AcDbBlockBegin
  2
*D29
 70
     1
 10
0.0
 20
0.0
 30
0.0
  3
*D29
  1

  0
LINE
  5
3C6
330
29C
100
AcDbEntity
  8
0
  6
Continuous
 62
     0
100
AcDbLine
 10
333.8560917642446
 20
36.48363032013038
 30
0.0
 11
334.4903259865173
 21
36.48363032013038
 31
0.0
  0
LINE
  5
3C7
330
29C
100
AcDbEntity
  8
0
  6
Continuous
 62
     0
100
AcDbLine
 10
334.3060917642446
 20
36.63363032013037
 30
0.0
 11
334.4903259865173
 21
36.63363032013037
 31
0.0
  0
LINE
  5
3C8
330
29C
100
AcDbEntity
  8
0
  6
Continuous
 62
     0
100
AcDbLine
 10
334.4453259865173
 20
36.43863032013038
 30
0.0
 11
334.4453259865173
 21
36.67863032013038
 31
0.0
  0
MTEXT
  5
3C9
330
29C
100
AcDbEntity
  8
0
  6
Continuous
100
AcDbMText
 10
334.7910759865173
 20
36.55863032013043
 30
0.0
 40
0.15
 41
0.0
 46
0.0
 71
     5
 72
     1
  1
\A1;0.15
  7
ROMANS
 73
     1
 44
1.0
  0
INSERT
  5
3CA
330
29C
100
AcDbEntity
  8
0
  6
Continuous
 62
     0
100
AcDbBlockReference
  2
_ArchTick
 10
334.4453259865173
 20
36.48363032013038
 30
0.0
 41
0.15
 42
0.15
 43
0.15
 50
270.0
  0
INSERT
  5
3CB
330
29C
100
AcDbEntity
  8
0
  6
Continuous
 62
     0
100
AcDbBlockReference
  2
_ArchTick
 10
334.4453259865173
 20
36.63363032013037
 30
0.0
 41
0.15
 42
0.15
 43
0.15
 50
90.0
  0
POINT
  5
3CC
330
29C
100
AcDbEntity
  8
Defpoints
  6
Continuous
 62
     0
100
AcDbPoint
 10
333.7060917642446
 20
36.48363032013038
 30
0.0
  0
POINT
  5
3CD
330
29C
100
AcDbEntity
  8
Defpoints
  6
Continuous
 62
     0
100
AcDbPoint
 10
334.1560917642446
 20
36.63363032013037
 30
0.0
  0
POINT
  5
3CE
330
29C
100
AcDbEntity
  8
Defpoints
  6
Continuous
 62
     0
100
AcDbPoint
 10
334.4453259865173
 20
36.63363032013037
 30
0.0
  0
ENDBLK
  5
29E
330
29C
100
AcDbEntity
  8
0
100
AcDbBlockEnd
  0
BLOCK
  5
2A9
330
2A8
100
AcDbEntity
  8
0
100
AcDbBlockBegin
  2
*D30
 70
     1
 10
0.0
 20
0.0
 30
0.0
  3
*D30
  1

  0
LINE
  5
3CF
330
2A8
100
AcDbEntity
  8
0
  6
Continuous
 62
     0
100
AcDbLine
 10
334.3060917642446
 20
36.63363032013037
 30
0.0
 11
334.4903259865173
 21
36.63363032013037
 31
0.0
  0
LINE
  5
3D0
330
2A8
100
AcDbEntity
  8
0
  6
Continuous
 62
     0
100
AcDbLine
 10
334.3060917642446
 20
37.6836303201304
 30
0.0
 11
334.4903259865173
 21
37.6836303201304
 31
0.0
  0
LINE
  5
3D1
330
2A8
100
AcDbEntity
  8
0
  6
Continuous
 62
     0
100
AcDbLine
 10
334.4453259865173
 20
36.58863032013037
 30
0.0
 11
334.4453259865173
 21
37.08213032013038
 31
0.0
  0
LINE
  5
3D2
330
2A8
100
AcDbEntity
  8
0
  6
Continuous
 62
     0
100
AcDbLine
 10
334.4453259865173
 20
37.7286303201304
 30
0.0
 11
334.4453259865173
 21
37.23513032013039
 31
0.0
  0
INSERT
  5
3D3
330
2A8
100
AcDbEntity
  8
0
  6
Continuous
 62
     0
100
AcDbBlockReference
  2
_ArchTick
 10
334.4453259865173
 20
36.63363032013037
 30
0.0
 41
0.15
 42
0.15
 43
0.15
 50
270.0
  0
INSERT
  5
3D4
330
2A8
100
AcDbEntity
  8
0
  6
Continuous
 62
     0
100
AcDbBlockReference
  2
_ArchTick
 10
334.4453259865173
 20
37.6836303201304
 30
0.0
 41
0.15
 42
0.15
 43
0.15
 50
90.0
  0
MTEXT
  5
3D5
330
2A8
100
AcDbEntity
  8
0
  6
Continuous
100
AcDbMText
 10
334.4453259865173
 20
37.15863032013043
 30
0.0
 40
0.15
 41
0.0
 46
0.0
 71
     5
 72
     1
  1
\A1;1.05
  7
ROMANS
 73
     1
 44
1.0
  0
POINT
  5
3D6
330
2A8
100
AcDbEntity
  8
Defpoints
  6
Continuous
 62
     0
100
AcDbPoint
 10
334.1560917642446
 20
36.63363032013037
 30
0.0
  0
POINT
  5
3D7
330
2A8
100
AcDbEntity
  8
Defpoints
  6
Continuous
 62
     0
100
AcDbPoint
 10
334.1560917642446
 20
37.6836303201304
 30
0.0
  0
POINT
  5
3D8
330
2A8
100
AcDbEntity
  8
Defpoints
  6
Continuous
 62
     0
100
AcDbPoint
 10
334.4453259865173
 20
37.6836303201304
 30
0.0
  0
ENDBLK
  5
2AA
330
2A8
100
AcDbEntity
  8
0
100
AcDbBlockEnd
  0
BLOCK
  5
2B6
330
2B5
100
AcDbEntity
  8
0
100
AcDbBlockBegin
  2
*D31
 70
     1
 10
0.0
 20
0.0
 30
0.0
  3
*D31
  1

  0
LINE
  5
3D9
330
2B5
100
AcDbEntity
  8
0
  6
Continuous
 62
     0
100
AcDbLine
 10
334.3060917642446
 20
37.6836303201304
 30
0.0
 11
334.4903259865173
 21
37.6836303201304
 31
0.0
  0
LINE
  5
3DA
330
2B5
100
AcDbEntity
  8
0
  6
Continuous
 62
     0
100
AcDbLine
 10
333.8560917642446
 20
38.13363032013039
 30
0.0
 11
334.4903259865173
 21
38.13363032013039
 31
0.0
  0
LINE
  5
3DB
330
2B5
100
AcDbEntity
  8
0
  6
Continuous
 62
     0
100
AcDbLine
 10
334.4453259865173
 20
37.6386303201304
 30
0.0
 11
334.4453259865173
 21
37.83213032013039
 31
0.0
  0
LINE
  5
3DC
330
2B5
100
AcDbEntity
  8
0
  6
Continuous
 62
     0
100
AcDbLine
 10
334.4453259865173
 20
38.17863032013039
 30
0.0
 11
334.4453259865173
 21
37.9851303201304
 31
0.0
  0
INSERT
  5
3DD
330
2B5
100
AcDbEntity
  8
0
  6
Continuous
 62
     0
100
AcDbBlockReference
  2
_ArchTick
 10
334.4453259865173
 20
37.6836303201304
 30
0.0
 41
0.15
 42
0.15
 43
0.15
 50
270.0
  0
INSERT
  5
3DE
330
2B5
100
AcDbEntity
  8
0
  6
Continuous
 62
     0
100
AcDbBlockReference
  2
_ArchTick
 10
334.4453259865173
 20
38.13363032013039
 30
0.0
 41
0.15
 42
0.15
 43
0.15
 50
90.0
  0
MTEXT
  5
3DF
330
2B5
100
AcDbEntity
  8
0
  6
Continuous
100
AcDbMText
 10
334.4453259865173
 20
37.90863032013044
 30
0.0
 40
0.15
 41
0.0
 46
0.0
 71
     5
 72
     1
  1
\A1;0.45
  7
ROMANS
 73
     1
 44
1.0
  0
POINT
  5
3E0
330
2B5
100
AcDbEntity
  8
Defpoints
  6
Continuous
 62
     0
100
AcDbPoint
 10
334.1560917642446
 20
37.6836303201304
 30
0.0
  0
POINT
  5
3E1
330
2B5
100
AcDbEntity
  8
Defpoints
  6
Continuous
 62
     0
100
AcDbPoint
 10
333.7060917642446
 20
38.13363032013039
 30
0.0
  0
POINT
  5
3E2
330
2B5
100
AcDbEntity
  8
Defpoints
  6
Continuous
 62
     0
100
AcDbPoint
 10
334.4453259865173
 20
38.13363032013039
 30
0.0
  0
ENDBLK
  5
2B7
330
2B5
100
AcDbEntity
  8
0
100
AcDbBlockEnd
  0
BLOCK
  5
2C3
330
2C2
100
AcDbEntity
  8
0
100
AcDbBlockBegin
  2
*D32
 70
     1
 10
0.0
 20
0.0
 30
0.0
  3
*D32
  1

  0
LINE
  5
3E3
330
2C2
100
AcDbEntity
  8
0
  6
Continuous
 62
     0
100
AcDbLine
 10
333.2560917642446
 20
36.48363032013037
 30
0.0
 11
333.2560917642446
 21
36.34409935458464
 31
0.0
  0
LINE
  5
3E4
330
2C2
100
AcDbEntity
  8
0
  6
Continuous
 62
     0
100
AcDbLine
 10
333.4860917642446
 20
36.48363032013037
 30
0.0
 11
333.4860917642446
 21
36.34409935458464
 31
0.0
  0
LINE
  5
3E5
330
2C2
100
AcDbEntity
  8
0
  6
Continuous
 62
     0
100
AcDbLine
 10
333.2110917642446
 20
36.38909935458464
 30
0.0
 11
333.5310917642447
 21
36.38909935458464
 31
0.0
  0
MTEXT
  5
3E6
330
2C2
100
AcDbEntity
  8
0
  6
Continuous
100
AcDbMText
 10
333.372174938757
 20
36.26269405098402
 30
0.0
 40
0.15
 41
0.0
 46
0.0
 71
     5
 72
     1
  1
\A1;0.23
  7
ROMANS
 73
     1
 44
1.0
  0
INSERT
  5
3E7
330
2C2
100
AcDbEntity
  8
0
  6
Continuous
 62
     0
100
AcDbBlockReference
  2
_ArchTick
 10
333.2560917642446
 20
36.38909935458464
 30
0.0
 41
0.15
 42
0.15
 43
0.15
 50
180.0
  0
INSERT
  5
3E8
330
2C2
100
AcDbEntity
  8
0
  6
Continuous
 62
     0
100
AcDbBlockReference
  2
_ArchTick
 10
333.4860917642446
 20
36.38909935458464
 30
0.0
 41
0.15
 42
0.15
 43
0.15
  0
POINT
  5
3E9
330
2C2
100
AcDbEntity
  8
Defpoints
  6
Continuous
 62
     0
100
AcDbPoint
 10
333.2560917642446
 20
36.63363032013037
 30
0.0
  0
POINT
  5
3EA
330
2C2
100
AcDbEntity
  8
Defpoints
  6
Continuous
 62
     0
100
AcDbPoint
 10
333.4860917642446
 20
36.63363032013037
 30
0.0
  0
POINT
  5
3EB
330
2C2
100
AcDbEntity
  8
Defpoints
  6
Continuous
 62
     0
100
AcDbPoint
 10
333.4860917642446
 20
36.38909935458464
 30
0.0
  0
ENDBLK
  5
2C4
330
2C2
100
AcDbEntity
  8
0
100
AcDbBlockEnd
  0
BLOCK
  5
2CF
330
2CE
100
AcDbEntity
  8
0
100
AcDbBlockBegin
  2
*D33
 70
     1
 10
0.0
 20
0.0
 30
0.0
  3
*D33
  1

  0
LINE
  5
3EC
330
2CE
100
AcDbEntity
  8
0
  6
Continuous
 62
     0
100
AcDbLine
 10
333.4860917642446
 20
36.48363032013037
 30
0.0
 11
333.4860917642446
 21
36.34409935458464
 31
0.0
  0
LINE
  5
3ED
330
2CE
100
AcDbEntity
  8
0
  6
Continuous
 62
     0
100
AcDbLine
 10
333.9260917642446
 20
36.48363032013037
 30
0.0
 11
333.9260917642446
 21
36.34409935458464
 31
0.0
  0
LINE
  5
3EE
330
2CE
100
AcDbEntity
  8
0
  6
Continuous
 62
     0
100
AcDbLine
 10
333.4410917642446
 20
36.38909935458464
 30
0.0
 11
333.9710917642447
 21
36.38909935458464
 31
0.0
  0
MTEXT
  5
3EF
330
2CE
100
AcDbEntity
  8
0
  6
Continuous
100
AcDbMText
 10
333.7060917642447
 20
36.04334935458464
 30
0.0
 40
0.15
 41
0.0
 46
0.0
 71
     5
 72
     1
  1
\A1;0.44
  7
ROMANS
 73
     1
 44
1.0
  0
INSERT
  5
3F0
330
2CE
100
AcDbEntity
  8
0
  6
Continuous
 62
     0
100
AcDbBlockReference
  2
_ArchTick
 10
333.4860917642446
 20
36.38909935458464
 30
0.0
 41
0.15
 42
0.15
 43
0.15
 50
180.0
  0
INSERT
  5
3F1
330
2CE
100
AcDbEntity
  8
0
  6
Continuous
 62
     0
100
AcDbBlockReference
  2
_ArchTick
 10
333.9260917642446
 20
36.38909935458464
 30
0.0
 41
0.15
 42
0.15
 43
0.15
  0
POINT
  5
3F2
330
2CE
100
AcDbEntity
  8
Defpoints
  6
Continuous
 62
     0
100
AcDbPoint
 10
333.4860917642446
 20
36.63363032013037
 30
0.0
  0
POINT
  5
3F3
330
2CE
100
AcDbEntity
  8
Defpoints
  6
Continuous
 62
     0
100
AcDbPoint
 10
333.9260917642446
 20
36.63363032013037
 30
0.0
  0
POINT
  5
3F4
330
2CE
100
AcDbEntity
  8
Defpoints
  6
Continuous
 62
     0
100
AcDbPoint
 10
333.9260917642446
 20
36.38909935458464
 30
0.0
  0
ENDBLK
  5
2D0
330
2CE
100
AcDbEntity
  8
0
100
AcDbBlockEnd
  0
BLOCK
  5
2DB
330
2DA
100
AcDbEntity
  8
0
100
AcDbBlockBegin
  2
*D34
 70
     1
 10
0.0
 20
0.0
 30
0.0
  3
*D34
  1

  0
LINE
  5
3F5
330
2DA
100
AcDbEntity
  8
0
  6
Continuous
 62
     0
100
AcDbLine
 10
333.9260917642446
 20
36.48363032013037
 30
0.0
 11
333.9260917642446
 21
36.34409935458464
 31
0.0
  0
LINE
  5
3F6
330
2DA
100
AcDbEntity
  8
0
  6
Continuous
 62
     0
100
AcDbLine
 10
334.1560917642446
 20
36.48363032013037
 30
0.0
 11
334.1560917642446
 21
36.34409935458464
 31
0.0
  0
LINE
  5
3F7
330
2DA
100
AcDbEntity
  8
0
  6
Continuous
 62
     0
100
AcDbLine
 10
333.8810917642446
 20
36.38909935458464
 30
0.0
 11
334.2010917642446
 21
36.38909935458464
 31
0.0
  0
MTEXT
  5
3F8
330
2DA
100
AcDbEntity
  8
0
  6
Continuous
100
AcDbMText
 10
334.0375230391541
 20
36.2653324614141
 30
0.0
 40
0.15
 41
0.0
 46
0.0
 71
     5
 72
     1
  1
\A1;0.23
  7
ROMANS
 73
     1
 44
1.0
  0
INSERT
  5
3F9
330
2DA
100
AcDbEntity
  8
0
  6
Continuous
 62
     0
100
AcDbBlockReference
  2
_ArchTick
 10
333.9260917642446
 20
36.38909935458464
 30
0.0
 41
0.15
 42
0.15
 43
0.15
 50
180.0
  0
INSERT
  5
3FA
330
2DA
100
AcDbEntity
  8
0
  6
Continuous
 62
     0
100
AcDbBlockReference
  2
_ArchTick
 10
334.1560917642446
 20
36.38909935458464
 30
0.0
 41
0.15
 42
0.15
 43
0.15
  0
POINT
  5
3FB
330
2DA
100
AcDbEntity
  8
Defpoints
  6
Continuous
 62
     0
100
AcDbPoint
 10
333.9260917642446
 20
36.63363032013037
 30
0.0
  0
POINT
  5
3FC
330
2DA
100
AcDbEntity
  8
Defpoints
  6
Continuous
 62
     0
100
AcDbPoint
 10
334.1560917642446
 20
36.63363032013037
 30
0.0
  0
POINT
  5
3FD
330
2DA
100
AcDbEntity
  8
Defpoints
  6
Continuous
 62
     0
100
AcDbPoint
 10
334.1560917642446
 20
36.38909935458464
 30
0.0
  0
ENDBLK
  5
2DC
330
2DA
100
AcDbEntity
  8
0
100
AcDbBlockEnd
  0
BLOCK
  5
2E7
330
2E6
100
AcDbEntity
  8
0
100
AcDbBlockBegin
  2
*D35
 70
     1
 10
0.0
 20
0.0
 30
0.0
  3
*D35
  1

  0
LINE
  5
3FE
330
2E6
100
AcDbEntity
  8
0
  6
Continuous
 62
     0
100
AcDbLine
 10
341.1082149295268
 20
33.22225444631383
 30
0.0
 11
341.1082149295268
 21
34.98843737531993
 31
0.0
  0
LINE
  5
3FF
330
2E6
100
AcDbEntity
  8
0
  6
Continuous
 62
     0
100
AcDbLine
 10
342.0082149295268
 20
33.22225444631383
 30
0.0
 11
342.0082149295268
 21
34.98843737531993
 31
0.0
  0
LINE
  5
400
330
2E6
100
AcDbEntity
  8
0
  6
Continuous
 62
     0
100
AcDbLine
 10
341.0857149295269
 20
34.96593737531993
 30
0.0
 11
341.4431792152411
 21
34.96593737531993
 31
0.0
  0
LINE
  5
401
330
2E6
100
AcDbEntity
  8
0
  6
Continuous
 62
     0
100
AcDbLine
 10
342.0307149295268
 20
34.96593737531993
 30
0.0
 11
341.6732506438126
 21
34.96593737531993
 31
0.0
  0
INSERT
  5
402
330
2E6
100
AcDbEntity
  8
0
  6
Continuous
 62
     0
100
AcDbBlockReference
  2
_ArchTick
 10
341.1082149295268
 20
34.96593737531993
 30
0.0
 41
0.075
 42
0.075
 43
0.075
 50
180.0
  0
INSERT
  5
403
330
2E6
100
AcDbEntity
  8
0
  6
Continuous
 62
     0
100
AcDbBlockReference
  2
_ArchTick
 10
342.0082149295268
 20
34.96593737531993
 30
0.0
 41
0.075
 42
0.075
 43
0.075
  0
MTEXT
  5
404
330
2E6
100
AcDbEntity
  8
0
  6
Continuous
100
AcDbMText
 10
341.5582149295269
 20
34.96593737531993
 30
0.0
 40
0.075
 41
0.0
 46
0.0
 71
     5
 72
     1
  1
\A1;0.90
  7
ROMANS
 73
     1
 44
1.0
  0
POINT
  5
405
330
2E6
100
AcDbEntity
  8
Defpoints
  6
Continuous
 62
     0
100
AcDbPoint
 10
341.1082149295268
 20
33.14725444631382
 30
0.0
  0
POINT
  5
406
330
2E6
100
AcDbEntity
  8
Defpoints
  6
Continuous
 62
     0
100
AcDbPoint
 10
342.0082149295268
 20
33.14725444631382
 30
0.0
  0
POINT
  5
407
330
2E6
100
AcDbEntity
  8
Defpoints
  6
Continuous
 62
     0
100
AcDbPoint
 10
342.0082149295268
 20
34.96593737531993
 30
0.0
  0
ENDBLK
  5
2E8
330
2E6
100
AcDbEntity
  8
0
100
AcDbBlockEnd
  0
BLOCK
  5
2F4
330
2F3
100
AcDbEntity
  8
0
100
AcDbBlockBegin
  2
*D36
 70
     1
 10
0.0
 20
0.0
 30
0.0
  3
*D36
  1

  0
LINE
  5
408
330
2F3
100
AcDbEntity
  8
0
  6
Continuous
 62
     0
100
AcDbLine
 10
341.6332149295268
 20
32.99725444631383
 30
0.0
 11
342.6339609960483
 21
32.99725444631383
 31
0.0
  0
LINE
  5
409
330
2F3
100
AcDbEntity
  8
0
  6
Continuous
 62
     0
100
AcDbLine
 10
341.6332149295268
 20
34.64725444631384
 30
0.0
 11
342.6339609960483
 21
34.64725444631384
 31
0.0
  0
LINE
  5
40A
330
2F3
100
AcDbEntity
  8
0
  6
Continuous
 62
     0
100
AcDbLine
 10
342.6114609960483
 20
32.97475444631383
 30
0.0
 11
342.6114609960483
 21
33.78400444631384
 31
0.0
  0
LINE
  5
40B
330
2F3
100
AcDbEntity
  8
0
  6
Continuous
 62
     0
100
AcDbLine
 10
342.6114609960483
 20
34.66975444631384
 30
0.0
 11
342.6114609960483
 21
33.86050444631383
 31
0.0
  0
INSERT
  5
40C
330
2F3
100
AcDbEntity
  8
0
  6
Continuous
 62
     0
100
AcDbBlockReference
  2
_ArchTick
 10
342.6114609960483
 20
32.99725444631383
 30
0.0
 41
0.075
 42
0.075
 43
0.075
 50
270.0
  0
INSERT
  5
40D
330
2F3
100
AcDbEntity
  8
0
  6
Continuous
 62
     0
100
AcDbBlockReference
  2
_ArchTick
 10
342.6114609960483
 20
34.64725444631384
 30
0.0
 41
0.075
 42
0.075
 43
0.075
 50
90.0
  0
MTEXT
  5
40E
330
2F3
100
AcDbEntity
  8
0
  6
Continuous
100
AcDbMText
 10
342.6114609960483
 20
33.82225444631389
 30
0.0
 40
0.075
 41
0.0
 46
0.0
 71
     5
 72
     1
  1
\A1;1.65
  7
ROMANS
 73
     1
 44
1.0
  0
POINT
  5
40F
330
2F3
100
AcDbEntity
  8
Defpoints
  6
Continuous
 62
     0
100
AcDbPoint
 10
341.5582149295269
 20
32.99725444631383
 30
0.0
  0
POINT
  5
410
330
2F3
100
AcDbEntity
  8
Defpoints
  6
Continuous
 62
     0
100
AcDbPoint
 10
341.5582149295269
 20
34.64725444631384
 30
0.0
  0
POINT
  5
411
330
2F3
100
AcDbEntity
  8
Defpoints
  6
Continuous
 62
     0
100
AcDbPoint
 10
342.6114609960483
 20
34.64725444631384
 30
0.0
  0
ENDBLK
  5
2F5
330
2F3
100
AcDbEntity
  8
0
100
AcDbBlockEnd
  0
BLOCK
  5
301
330
300
100
AcDbEntity
  8
0
100
AcDbBlockBegin
  2
*D37
 70
     1
 10
0.0
 20
0.0
 30
0.0
  3
*D37
  1

  0
LINE
  5
412
330
300
100
AcDbEntity
  8
0
  6
Continuous
 62
     0
100
AcDbLine
 10
341.6332149295268
 20
32.99725444631383
 30
0.0
 11
342.3199491517995
 21
32.99725444631383
 31
0.0
  0
LINE
  5
413
330
300
100
AcDbEntity
  8
0
  6
Continuous
 62
     0
100
AcDbLine
 10
342.0832149295268
 20
33.14725444631382
 30
0.0
 11
342.3199491517995
 21
33.14725444631382
 31
0.0
  0
LINE
  5
414
330
300
100
AcDbEntity
  8
0
  6
Continuous
 62
     0
100
AcDbLine
 10
342.2974491517995
 20
32.97475444631383
 30
0.0
 11
342.2974491517995
 21
33.03400444631383
 31
0.0
  0
LINE
  5
415
330
300
100
AcDbEntity
  8
0
  6
Continuous
 62
     0
100
AcDbLine
 10
342.2974491517995
 20
33.16975444631383
 30
0.0
 11
342.2974491517995
 21
33.11050444631383
 31
0.0
  0
INSERT
  5
416
330
300
100
AcDbEntity
  8
0
  6
Continuous
 62
     0
100
AcDbBlockReference
  2
_ArchTick
 10
342.2974491517995
 20
32.99725444631383
 30
0.0
 41
0.075
 42
0.075
 43
0.075
 50
270.0
  0
INSERT
  5
417
330
300
100
AcDbEntity
  8
0
  6
Continuous
 62
     0
100
AcDbBlockReference
  2
_ArchTick
 10
342.2974491517995
 20
33.14725444631382
 30
0.0
 41
0.075
 42
0.075
 43
0.075
 50
90.0
  0
MTEXT
  5
418
330
300
100
AcDbEntity
  8
0
  6
Continuous
100
AcDbMText
 10
342.2974491517995
 20
33.07225444631388
 30
0.0
 40
0.075
 41
0.0
 46
0.0
 71
     5
 72
     1
  1
\A1;0.15
  7
ROMANS
 73
     1
 44
1.0
  0
POINT
  5
419
330
300
100
AcDbEntity
  8
Defpoints
  6
Continuous
 62
     0
100
AcDbPoint
 10
341.5582149295269
 20
32.99725444631383
 30
0.0
  0
POINT
  5
41A
330
300
100
AcDbEntity
  8
Defpoints
  6
Continuous
 62
     0
100
AcDbPoint
 10
342.0082149295268
 20
33.14725444631382
 30
0.0
  0
POINT
  5
41B
330
300
100
AcDbEntity
  8
Defpoints
  6
Continuous
 62
     0
100
AcDbPoint
 10
342.2974491517995
 20
33.14725444631382
 30
0.0
  0
ENDBLK
  5
302
330
300
100
AcDbEntity
  8
0
100
AcDbBlockEnd
  0
BLOCK
  5
30E
330
30D
100
AcDbEntity
  8
0
100
AcDbBlockBegin
  2
*D38
 70
     1
 10
0.0
 20
0.0
 30
0.0
  3
*D38
  1

  0
LINE
  5
41C
330
30D
100
AcDbEntity
  8
0
  6
Continuous
 62
     0
100
AcDbLine
 10
342.0832149295268
 20
33.14725444631382
 30
0.0
 11
342.3199491517995
 21
33.14725444631382
 31
0.0
  0
LINE
  5
41D
330
30D
100
AcDbEntity
  8
0
  6
Continuous
 62
     0
100
AcDbLine
 10
342.0832149295268
 20
34.19725444631385
 30
0.0
 11
342.3199491517995
 21
34.19725444631385
 31
0.0
  0
LINE
  5
41E
330
30D
100
AcDbEntity
  8
0
  6
Continuous
 62
     0
100
AcDbLine
 10
342.2974491517995
 20
33.12475444631382
 30
0.0
 11
342.2974491517995
 21
33.63400444631384
 31
0.0
  0
LINE
  5
41F
330
30D
100
AcDbEntity
  8
0
  6
Continuous
 62
     0
100
AcDbLine
 10
342.2974491517995
 20
34.21975444631385
 30
0.0
 11
342.2974491517995
 21
33.71050444631384
 31
0.0
  0
INSERT
  5
420
330
30D
100
AcDbEntity
  8
0
  6
Continuous
 62
     0
100
AcDbBlockReference
  2
_ArchTick
 10
342.2974491517995
 20
33.14725444631382
 30
0.0
 41
0.075
 42
0.075
 43
0.075
 50
270.0
  0
INSERT
  5
421
330
30D
100
AcDbEntity
  8
0
  6
Continuous
 62
     0
100
AcDbBlockReference
  2
_ArchTick
 10
342.2974491517995
 20
34.19725444631385
 30
0.0
 41
0.075
 42
0.075
 43
0.075
 50
90.0
  0
MTEXT
  5
422
330
30D
100
AcDbEntity
  8
0
  6
Continuous
100
AcDbMText
 10
342.2974491517995
 20
33.67225444631389
 30
0.0
 40
0.075
 41
0.0
 46
0.0
 71
     5
 72
     1
  1
\A1;1.05
  7
ROMANS
 73
     1
 44
1.0
  0
POINT
  5
423
330
30D
100
AcDbEntity
  8
Defpoints
  6
Continuous
 62
     0
100
AcDbPoint
 10
342.0082149295268
 20
33.14725444631382
 30
0.0
  0
POINT
  5
424
330
30D
100
AcDbEntity
  8
Defpoints
  6
Continuous
 62
     0
100
AcDbPoint
 10
342.0082149295268
 20
34.19725444631385
 30
0.0
  0
POINT
  5
425
330
30D
100
AcDbEntity
  8
Defpoints
  6
Continuous
 62
     0
100
AcDbPoint
 10
342.2974491517995
 20
34.19725444631385
 30
0.0
  0
ENDBLK
  5
30F
330
30D
100
AcDbEntity
  8
0
100
AcDbBlockEnd
  0
BLOCK
  5
31B
330
31A
100
AcDbEntity
  8
0
100
AcDbBlockBegin
  2
*D39
 70
     1
 10
0.0
 20
0.0
 30
0.0
  3
*D39
  1

  0
LINE
  5
426
330
31A
100
AcDbEntity
  8
0
  6
Continuous
 62
     0
100
AcDbLine
 10
342.0832149295268
 20
34.19725444631385
 30
0.0
 11
342.3199491517995
 21
34.19725444631385
 31
0.0
  0
LINE
  5
427
330
31A
100
AcDbEntity
  8
0
  6
Continuous
 62
     0
100
AcDbLine
 10
341.6332149295268
 20
34.64725444631384
 30
0.0
 11
342.3199491517995
 21
34.64725444631384
 31
0.0
  0
LINE
  5
428
330
31A
100
AcDbEntity
  8
0
  6
Continuous
 62
     0
100
AcDbLine
 10
342.2974491517995
 20
34.17475444631385
 30
0.0
 11
342.2974491517995
 21
34.38400444631385
 31
0.0
  0
LINE
  5
429
330
31A
100
AcDbEntity
  8
0
  6
Continuous
 62
     0
100
AcDbLine
 10
342.2974491517995
 20
34.66975444631384
 30
0.0
 11
342.2974491517995
 21
34.46050444631384
 31
0.0
  0
INSERT
  5
42A
330
31A
100
AcDbEntity
  8
0
  6
Continuous
 62
     0
100
AcDbBlockReference
  2
_ArchTick
 10
342.2974491517995
 20
34.19725444631385
 30
0.0
 41
0.075
 42
0.075
 43
0.075
 50
270.0
  0
INSERT
  5
42B
330
31A
100
AcDbEntity
  8
0
  6
Continuous
 62
     0
100
AcDbBlockReference
  2
_ArchTick
 10
342.2974491517995
 20
34.64725444631384
 30
0.0
 41
0.075
 42
0.075
 43
0.075
 50
90.0
  0
MTEXT
  5
42C
330
31A
100
AcDbEntity
  8
0
  6
Continuous
100
AcDbMText
 10
342.2974491517995
 20
34.4222544463139
 30
0.0
 40
0.075
 41
0.0
 46
0.0
 71
     5
 72
     1
  1
\A1;0.45
  7
ROMANS
 73
     1
 44
1.0
  0
POINT
  5
42D
330
31A
100
AcDbEntity
  8
Defpoints
  6
Continuous
 62
     0
100
AcDbPoint
 10
342.0082149295268
 20
34.19725444631385
 30
0.0
  0
POINT
  5
42E
330
31A
100
AcDbEntity
  8
Defpoints
  6
Continuous
 62
     0
100
AcDbPoint
 10
341.5582149295269
 20
34.64725444631384
 30
0.0
  0
POINT
  5
42F
330
31A
100
AcDbEntity
  8
Defpoints
  6
Continuous
 62
     0
100
AcDbPoint
 10
342.2974491517995
 20
34.64725444631384
 30
0.0
  0
ENDBLK
  5
31C
330
31A
100
AcDbEntity
  8
0
100
AcDbBlockEnd
  0
BLOCK
  5
328
330
327
100
AcDbEntity
  8
0
100
AcDbBlockBegin
  2
*D40
 70
     1
 10
0.0
 20
0.0
 30
0.0
  3
*D40
  1

  0
LINE
  5
430
330
327
100
AcDbEntity
  8
0
  6
Continuous
 62
     0
100
AcDbLine
 10
341.1082149295268
 20
33.07225444631382
 30
0.0
 11
341.1082149295268
 21
32.88022348076809
 31
0.0
  0
LINE
  5
431
330
327
100
AcDbEntity
  8
0
  6
Continuous
 62
     0
100
AcDbLine
 10
341.3382149295268
 20
33.07225444631382
 30
0.0
 11
341.3382149295268
 21
32.88022348076809
 31
0.0
  0
LINE
  5
432
330
327
100
AcDbEntity
  8
0
  6
Continuous
 62
     0
100
AcDbLine
 10
341.0857149295269
 20
32.90272348076809
 30
0.0
 11
341.3607149295268
 21
32.90272348076809
 31
0.0
  0
MTEXT
  5
433
330
327
100
AcDbEntity
  8
0
  6
Continuous
100
AcDbMText
 10
341.2242981040392
 20
32.77631817716747
 30
0.0
 40
0.075
 41
0.0
 46
0.0
 71
     5
 72
     1
  1
\A1;0.23
  7
ROMANS
 73
     1
 44
1.0
  0
INSERT
  5
434
330
327
100
AcDbEntity
  8
0
  6
Continuous
 62
     0
100
AcDbBlockReference
  2
_ArchTick
 10
341.1082149295268
 20
32.90272348076809
 30
0.0
 41
0.075
 42
0.075
 43
0.075
 50
180.0
  0
INSERT
  5
435
330
327
100
AcDbEntity
  8
0
  6
Continuous
 62
     0
100
AcDbBlockReference
  2
_ArchTick
 10
341.3382149295268
 20
32.90272348076809
 30
0.0
 41
0.075
 42
0.075
 43
0.075
  0
POINT
  5
436
330
327
100
AcDbEntity
  8
Defpoints
  6
Continuous
 62
     0
100
AcDbPoint
 10
341.1082149295268
 20
33.14725444631382
 30
0.0
  0
POINT
  5
437
330
327
100
AcDbEntity
  8
Defpoints
  6
Continuous
 62
     0
100
AcDbPoint
 10
341.3382149295268
 20
33.14725444631382
 30
0.0
  0
POINT
  5
438
330
327
100
AcDbEntity
  8
Defpoints
  6
Continuous
 62
     0
100
AcDbPoint
 10
341.3382149295268
 20
32.90272348076809
 30
0.0
  0
ENDBLK
  5
329
330
327
100
AcDbEntity
  8
0
100
AcDbBlockEnd
  0
BLOCK
  5
334
330
333
100
AcDbEntity
  8
0
100
AcDbBlockBegin
  2
*D41
 70
     1
 10
0.0
 20
0.0
 30
0.0
  3
*D41
  1

  0
LINE
  5
439
330
333
100
AcDbEntity
  8
0
  6
Continuous
 62
     0
100
AcDbLine
 10
341.3382149295268
 20
33.07225444631382
 30
0.0
 11
341.3382149295268
 21
32.88022348076809
 31
0.0
  0
LINE
  5
43A
330
333
100
AcDbEntity
  8
0
  6
Continuous
 62
     0
100
AcDbLine
 10
341.7782149295268
 20
33.07225444631382
 30
0.0
 11
341.7782149295268
 21
32.88022348076809
 31
0.0
  0
LINE
  5
43B
330
333
100
AcDbEntity
  8
0
  6
Continuous
 62
     0
100
AcDbLine
 10
341.3157149295269
 20
32.90272348076809
 30
0.0
 11
341.4413935009554
 21
32.90272348076809
 31
0.0
  0
LINE
  5
43C
330
333
100
AcDbEntity
  8
0
  6
Continuous
 62
     0
100
AcDbLine
 10
341.8007149295268
 20
32.90272348076809
 30
0.0
 11
341.6750363580982
 21
32.90272348076809
 31
0.0
  0
INSERT
  5
43D
330
333
100
AcDbEntity
  8
0
  6
Continuous
 62
     0
100
AcDbBlockReference
  2
_ArchTick
 10
341.3382149295268
 20
32.90272348076809
 30
0.0
 41
0.075
 42
0.075
 43
0.075
 50
180.0
  0
INSERT
  5
43E
330
333
100
AcDbEntity
  8
0
  6
Continuous
 62
     0
100
AcDbBlockReference
  2
_ArchTick
 10
341.7782149295268
 20
32.90272348076809
 30
0.0
 41
0.075
 42
0.075
 43
0.075
  0
MTEXT
  5
43F
330
333
100
AcDbEntity
  8
0
  6
Continuous
100
AcDbMText
 10
341.5582149295268
 20
32.90272348076809
 30
0.0
 40
0.075
 41
0.0
 46
0.0
 71
     5
 72
     1
  1
\A1;0.44
  7
ROMANS
 73
     1
 44
1.0
  0
POINT
  5
440
330
333
100
AcDbEntity
  8
Defpoints
  6
Continuous
 62
     0
100
AcDbPoint
 10
341.3382149295268
 20
33.14725444631382
 30
0.0
  0
POINT
  5
441
330
333
100
AcDbEntity
  8
Defpoints
  6
Continuous
 62
     0
100
AcDbPoint
 10
341.7782149295268
 20
33.14725444631382
 30
0.0
  0
POINT
  5
442
330
333
100
AcDbEntity
  8
Defpoints
  6
Continuous
 62
     0
100
AcDbPoint
 10
341.7782149295268
 20
32.90272348076809
 30
0.0
  0
ENDBLK
  5
335
330
333
100
AcDbEntity
  8
0
100
AcDbBlockEnd
  0
BLOCK
  5
341
330
340
100
AcDbEntity
  8
0
100
AcDbBlockBegin
  2
*D42
 70
     1
 10
0.0
 20
0.0
 30
0.0
  3
*D42
  1

  0
LINE
  5
443
330
340
100
AcDbEntity
  8
0
  6
Continuous
 62
     0
100
AcDbLine
 10
341.7782149295268
 20
33.07225444631382
 30
0.0
 11
341.7782149295268
 21
32.88022348076809
 31
0.0
  0
LINE
  5
444
330
340
100
AcDbEntity
  8
0
  6
Continuous
 62
     0
100
AcDbLine
 10
342.0082149295268
 20
33.07225444631382
 30
0.0
 11
342.0082149295268
 21
32.88022348076809
 31
0.0
  0
LINE
  5
445
330
340
100
AcDbEntity
  8
0
  6
Continuous
 62
     0
100
AcDbLine
 10
341.7557149295268
 20
32.90272348076809
 30
0.0
 11
342.0307149295268
 21
32.90272348076809
 31
0.0
  0
MTEXT
  5
446
330
340
100
AcDbEntity
  8
0
  6
Continuous
100
AcDbMText
 10
341.8896462044363
 20
32.77895658759755
 30
0.0
 40
0.075
 41
0.0
 46
0.0
 71
     5
 72
     1
  1
\A1;0.23
  7
ROMANS
 73
     1
 44
1.0
  0
INSERT
  5
447
330
340
100
AcDbEntity
  8
0
  6
Continuous
 62
     0
100
AcDbBlockReference
  2
_ArchTick
 10
341.7782149295268
 20
32.90272348076809
 30
0.0
 41
0.075
 42
0.075
 43
0.075
 50
180.0
  0
INSERT
  5
448
330
340
100
AcDbEntity
  8
0
  6
Continuous
 62
     0
100
AcDbBlockReference
  2
_ArchTick
 10
342.0082149295268
 20
32.90272348076809
 30
0.0
 41
0.075
 42
0.075
 43
0.075
  0
POINT
  5
449
330
340
100
AcDbEntity
  8
Defpoints
  6
Continuous
 62
     0
100
AcDbPoint
 10
341.7782149295268
 20
33.14725444631382
 30
0.0
  0
POINT
  5
44A
330
340
100
AcDbEntity
  8
Defpoints
  6
Continuous
 62
     0
100
AcDbPoint
 10
342.0082149295268
 20
33.14725444631382
 30
0.0
  0
POINT
  5
44B
330
340
100
AcDbEntity
  8
Defpoints
  6
Continuous
 62
     0
100
AcDbPoint
 10
342.0082149295268
 20
32.90272348076809
 30
0.0
  0
ENDBLK
  5
342
330
340
100
AcDbEntity
  8
0
100
AcDbBlockEnd
  0
BLOCK
  5
34D
330
34C
100
AcDbEntity
  8
0
100
AcDbBlockBegin
  2
*D43
 70
     1
 10
0.0
 20
0.0
 30
0.0
  3
*D43
  1

  0
LINE
  5
44C
330
34C
100
AcDbEntity
  8
0
  6
Continuous
 62
     0
100
AcDbLine
 10
345.2833529263498
 20
31.49930363638989
 30
0.0
 11
345.2833529263498
 21
33.10640584490933
 31
0.0
  0
LINE
  5
44D
330
34C
100
AcDbEntity
  8
0
  6
Continuous
 62
     0
100
AcDbLine
 10
346.1833529263498
 20
31.49930363638989
 30
0.0
 11
346.1833529263498
 21
33.10640584490933
 31
0.0
  0
LINE
  5
44E
330
34C
100
AcDbEntity
  8
0
  6
Continuous
 62
     0
100
AcDbLine
 10
345.2743529263498
 20
33.09740584490934
 30
0.0
 11
345.6873386406355
 21
33.09740584490934
 31
0.0
  0
LINE
  5
44F
330
34C
100
AcDbEntity
  8
0
  6
Continuous
 62
     0
100
AcDbLine
 10
346.1923529263498
 20
33.09740584490934
 30
0.0
 11
345.7793672120641
 21
33.09740584490934
 31
0.0
  0
INSERT
  5
450
330
34C
100
AcDbEntity
  8
0
  6
Continuous
 62
     0
100
AcDbBlockReference
  2
_ArchTick
 10
345.2833529263498
 20
33.09740584490934
 30
0.0
 41
0.03
 42
0.03
 43
0.03
 50
180.0
  0
INSERT
  5
451
330
34C
100
AcDbEntity
  8
0
  6
Continuous
 62
     0
100
AcDbBlockReference
  2
_ArchTick
 10
346.1833529263498
 20
33.09740584490934
 30
0.0
 41
0.03
 42
0.03
 43
0.03
  0
MTEXT
  5
452
330
34C
100
AcDbEntity
  8
0
  6
Continuous
100
AcDbMText
 10
345.7333529263498
 20
33.09740584490934
 30
0.0
 40
0.03
 41
0.0
 46
0.0
 71
     5
 72
     1
  1
\A1;0.90
  7
ROMANS
 73
     1
 44
1.0
  0
POINT
  5
453
330
34C
100
AcDbEntity
  8
Defpoints
  6
Continuous
 62
     0
100
AcDbPoint
 10
345.2833529263498
 20
31.46930363638988
 30
0.0
  0
POINT
  5
454
330
34C
100
AcDbEntity
  8
Defpoints
  6
Continuous
 62
     0
100
AcDbPoint
 10
346.1833529263498
 20
31.46930363638988
 30
0.0
  0
POINT
  5
455
330
34C
100
AcDbEntity
  8
Defpoints
  6
Continuous
 62
     0
100
AcDbPoint
 10
346.1833529263498
 20
33.09740584490934
 30
0.0
  0
ENDBLK
  5
34E
330
34C
100
AcDbEntity
  8
0
100
AcDbBlockEnd
  0
BLOCK
  5
35A
330
359
100
AcDbEntity
  8
0
100
AcDbBlockBegin
  2
*D44
 70
     1
 10
0.0
 20
0.0
 30
0.0
  3
*D44
  1

  0
LINE
  5
456
330
359
100
AcDbEntity
  8
0
  6
Continuous
 62
     0
100
AcDbLine
 10
345.7633529263497
 20
31.31930363638989
 30
0.0
 11
346.7955989928713
 21
31.31930363638989
 31
0.0
  0
LINE
  5
457
330
359
100
AcDbEntity
  8
0
  6
Continuous
 62
     0
100
AcDbLine
 10
345.7633529263497
 20
32.9693036363899
 30
0.0
 11
346.7955989928713
 21
32.9693036363899
 31
0.0
  0
LINE
  5
458
330
359
100
AcDbEntity
  8
0
  6
Continuous
 62
     0
100
AcDbLine
 10
346.7865989928713
 20
31.31030363638989
 30
0.0
 11
346.7865989928713
 21
32.12900363638989
 31
0.0
  0
LINE
  5
459
330
359
100
AcDbEntity
  8
0
  6
Continuous
 62
     0
100
AcDbLine
 10
346.7865989928713
 20
32.9783036363899
 30
0.0
 11
346.7865989928713
 21
32.1596036363899
 31
0.0
  0
INSERT
  5
45A
330
359
100
AcDbEntity
  8
0
  6
Continuous
 62
     0
100
AcDbBlockReference
  2
_ArchTick
 10
346.7865989928713
 20
31.31930363638989
 30
0.0
 41
0.03
 42
0.03
 43
0.03
 50
270.0
  0
INSERT
  5
45B
330
359
100
AcDbEntity
  8
0
  6
Continuous
 62
     0
100
AcDbBlockReference
  2
_ArchTick
 10
346.7865989928713
 20
32.9693036363899
 30
0.0
 41
0.03
 42
0.03
 43
0.03
 50
90.0
  0
MTEXT
  5
45C
330
359
100
AcDbEntity
  8
0
  6
Continuous
100
AcDbMText
 10
346.7865989928713
 20
32.14430363638995
 30
0.0
 40
0.03
 41
0.0
 46
0.0
 71
     5
 72
     1
  1
\A1;1.65
  7
ROMANS
 73
     1
 44
1.0
  0
POINT
  5
45D
330
359
100
AcDbEntity
  8
Defpoints
  6
Continuous
 62
     0
100
AcDbPoint
 10
345.7333529263498
 20
31.31930363638989
 30
0.0
  0
POINT
  5
45E
330
359
100
AcDbEntity
  8
Defpoints
  6
Continuous
 62
     0
100
AcDbPoint
 10
345.7333529263498
 20
32.9693036363899
 30
0.0
  0
POINT
  5
45F
330
359
100
AcDbEntity
  8
Defpoints
  6
Continuous
 62
     0
100
AcDbPoint
 10
346.7865989928713
 20
32.9693036363899
 30
0.0
  0
ENDBLK
  5
35B
330
359
100
AcDbEntity
  8
0
100
AcDbBlockEnd
  0
BLOCK
  5
367
330
366
100
AcDbEntity
  8
0
100
AcDbBlockBegin
  2
*D45
 70
     1
 10
0.0
 20
0.0
 30
0.0
  3
*D45
  1

  0
LINE
  5
460
330
366
100
AcDbEntity
  8
0
  6
Continuous
 62
     0
100
AcDbLine
 10
345.8083529263498
 20
31.31930363638989
 30
0.0
 11
346.4950871486224
 21
31.31930363638989
 31
0.0
  0
LINE
  5
461
330
366
100
AcDbEntity
  8
0
  6
Continuous
 62
     0
100
AcDbLine
 10
346.2583529263498
 20
31.46930363638988
 30
0.0
 11
346.4950871486224
 21
31.46930363638988
 31
0.0
  0
LINE
  5
462
330
366
100
AcDbEntity
  8
0
  6
Continuous
 62
     0
100
AcDbLine
 10
346.4725871486225
 20
31.29680363638989
 30
0.0
 11
346.4725871486225
 21
31.35605363638989
 31
0.0
  0
LINE
  5
463
330
366
100
AcDbEntity
  8
0
  6
Continuous
 62
     0
100
AcDbLine
 10
346.4725871486225
 20
31.49180363638989
 30
0.0
 11
346.4725871486225
 21
31.43255363638989
 31
0.0
  0
INSERT
  5
464
330
366
100
AcDbEntity
  8
0
  6
Continuous
 62
     0
100
AcDbBlockReference
  2
_ArchTick
 10
346.4725871486225
 20
31.31930363638989
 30
0.0
 41
0.075
 42
0.075
 43
0.075
 50
270.0
  0
INSERT
  5
465
330
366
100
AcDbEntity
  8
0
  6
Continuous
 62
     0
100
AcDbBlockReference
  2
_ArchTick
 10
346.4725871486225
 20
31.46930363638988
 30
0.0
 41
0.075
 42
0.075
 43
0.075
 50
90.0
  0
MTEXT
  5
466
330
366
100
AcDbEntity
  8
0
  6
Continuous
100
AcDbMText
 10
346.4725871486225
 20
31.39430363638994
 30
0.0
 40
0.075
 41
0.0
 46
0.0
 71
     5
 72
     1
  1
\A1;0.15
  7
ROMANS
 73
     1
 44
1.0
  0
POINT
  5
467
330
366
100
AcDbEntity
  8
Defpoints
  6
Continuous
 62
     0
100
AcDbPoint
 10
345.7333529263498
 20
31.31930363638989
 30
0.0
  0
POINT
  5
468
330
366
100
AcDbEntity
  8
Defpoints
  6
Continuous
 62
     0
100
AcDbPoint
 10
346.1833529263498
 20
31.46930363638988
 30
0.0
  0
POINT
  5
469
330
366
100
AcDbEntity
  8
Defpoints
  6
Continuous
 62
     0
100
AcDbPoint
 10
346.4725871486225
 20
31.46930363638988
 30
0.0
  0
ENDBLK
  5
368
330
366
100
AcDbEntity
  8
0
100
AcDbBlockEnd
  0
BLOCK
  5
374
330
373
100
AcDbEntity
  8
0
100
AcDbBlockBegin
  2
*D46
 70
     1
 10
0.0
 20
0.0
 30
0.0
  3
*D46
  1

  0
LINE
  5
46A
330
373
100
AcDbEntity
  8
0
  6
Continuous
 62
     0
100
AcDbLine
 10
346.2133529263498
 20
31.46930363638988
 30
0.0
 11
346.4815871486225
 21
31.46930363638988
 31
0.0
  0
LINE
  5
46B
330
373
100
AcDbEntity
  8
0
  6
Continuous
 62
     0
100
AcDbLine
 10
346.2133529263498
 20
32.51930363638991
 30
0.0
 11
346.4815871486225
 21
32.51930363638991
 31
0.0
  0
LINE
  5
46C
330
373
100
AcDbEntity
  8
0
  6
Continuous
 62
     0
100
AcDbLine
 10
346.4725871486225
 20
31.46030363638988
 30
0.0
 11
346.4725871486225
 21
31.9790036363899
 31
0.0
  0
LINE
  5
46D
330
373
100
AcDbEntity
  8
0
  6
Continuous
 62
     0
100
AcDbLine
 10
346.4725871486225
 20
32.52830363638991
 30
0.0
 11
346.4725871486225
 21
32.0096036363899
 31
0.0
  0
INSERT
  5
46E
330
373
100
AcDbEntity
  8
0
  6
Continuous
 62
     0
100
AcDbBlockReference
  2
_ArchTick
 10
346.4725871486225
 20
31.46930363638988
 30
0.0
 41
0.03
 42
0.03
 43
0.03
 50
270.0
  0
INSERT
  5
46F
330
373
100
AcDbEntity
  8
0
  6
Continuous
 62
     0
100
AcDbBlockReference
  2
_ArchTick
 10
346.4725871486225
 20
32.51930363638991
 30
0.0
 41
0.03
 42
0.03
 43
0.03
 50
90.0
  0
MTEXT
  5
470
330
373
100
AcDbEntity
  8
0
  6
Continuous
100
AcDbMText
 10
346.4725871486225
 20
31.99430363638995
 30
0.0
 40
0.03
 41
0.0
 46
0.0
 71
     5
 72
     1
  1
\A1;1.05
  7
ROMANS
 73
     1
 44
1.0
  0
POINT
  5
471
330
373
100
AcDbEntity
  8
Defpoints
  6
Continuous
 62
     0
100
AcDbPoint
 10
346.1833529263498
 20
31.46930363638988
 30
0.0
  0
POINT
  5
472
330
373
100
AcDbEntity
  8
Defpoints
  6
Continuous
 62
     0
100
AcDbPoint
 10
346.1833529263498
 20
32.51930363638991
 30
0.0
  0
POINT
  5
473
330
373
100
AcDbEntity
  8
Defpoints
  6
Continuous
 62
     0
100
AcDbPoint
 10
346.4725871486225
 20
32.51930363638991
 30
0.0
  0
ENDBLK
  5
375
330
373
100
AcDbEntity
  8
0
100
AcDbBlockEnd
  0
BLOCK
  5
381
330
380
100
AcDbEntity
  8
0
100
AcDbBlockBegin
  2
*D47
 70
     1
 10
0.0
 20
0.0
 30
0.0
  3
*D47
  1

  0
LINE
  5
474
330
380
100
AcDbEntity
  8
0
  6
Continuous
 62
     0
100
AcDbLine
 10
346.2133529263498
 20
32.51930363638991
 30
0.0
 11
346.4815871486225
 21
32.51930363638991
 31
0.0
  0
LINE
  5
475
330
380
100
AcDbEntity
  8
0
  6
Continuous
 62
     0
100
AcDbLine
 10
345.7633529263497
 20
32.9693036363899
 30
0.0
 11
346.4815871486225
 21
32.9693036363899
 31
0.0
  0
LINE
  5
476
330
380
100
AcDbEntity
  8
0
  6
Continuous
 62
     0
100
AcDbLine
 10
346.4725871486225
 20
32.51030363638991
 30
0.0
 11
346.4725871486225
 21
32.7290036363899
 31
0.0
  0
LINE
  5
477
330
380
100
AcDbEntity
  8
0
  6
Continuous
 62
     0
100
AcDbLine
 10
346.4725871486225
 20
32.9783036363899
 30
0.0
 11
346.4725871486225
 21
32.7596036363899
 31
0.0
  0
INSERT
  5
478
330
380
100
AcDbEntity
  8
0
  6
Continuous
 62
     0
100
AcDbBlockReference
  2
_ArchTick
 10
346.4725871486225
 20
32.51930363638991
 30
0.0
 41
0.03
 42
0.03
 43
0.03
 50
270.0
  0
INSERT
  5
479
330
380
100
AcDbEntity
  8
0
  6
Continuous
 62
     0
100
AcDbBlockReference
  2
_ArchTick
 10
346.4725871486225
 20
32.9693036363899
 30
0.0
 41
0.03
 42
0.03
 43
0.03
 50
90.0
  0
MTEXT
  5
47A
330
380
100
AcDbEntity
  8
0
  6
Continuous
100
AcDbMText
 10
346.4725871486225
 20
32.74430363638996
 30
0.0
 40
0.03
 41
0.0
 46
0.0
 71
     5
 72
     1
  1
\A1;0.45
  7
ROMANS
 73
     1
 44
1.0
  0
POINT
  5
47B
330
380
100
AcDbEntity
  8
Defpoints
  6
Continuous
 62
     0
100
AcDbPoint
 10
346.1833529263498
 20
32.51930363638991
 30
0.0
  0
POINT
  5
47C
330
380
100
AcDbEntity
  8
Defpoints
  6
Continuous
 62
     0
100
AcDbPoint
 10
345.7333529263498
 20
32.9693036363899
 30
0.0
  0
POINT
  5
47D
330
380
100
AcDbEntity
  8
Defpoints
  6
Continuous
 62
     0
100
AcDbPoint
 10
346.4725871486225
 20
32.9693036363899
 30
0.0
  0
ENDBLK
  5
382
330
380
100
AcDbEntity
  8
0
100
AcDbBlockEnd
  0
BLOCK
  5
38E
330
38D
100
AcDbEntity
  8
0
100
AcDbBlockBegin
  2
*D48
 70
     1
 10
0.0
 20
0.0
 30
0.0
  3
*D48
  1

  0
LINE
  5
47E
330
38D
100
AcDbEntity
  8
0
  6
Continuous
 62
     0
100
AcDbLine
 10
345.2833529263498
 20
31.43930363638988
 30
0.0
 11
345.2833529263498
 21
31.21577267084415
 31
0.0
  0
LINE
  5
47F
330
38D
100
AcDbEntity
  8
0
  6
Continuous
 62
     0
100
AcDbLine
 10
345.5133529263498
 20
31.43930363638988
 30
0.0
 11
345.5133529263498
 21
31.21577267084415
 31
0.0
  0
LINE
  5
480
330
38D
100
AcDbEntity
  8
0
  6
Continuous
 62
     0
100
AcDbLine
 10
345.2743529263498
 20
31.22477267084415
 30
0.0
 11
345.5223529263498
 21
31.22477267084415
 31
0.0
  0
MTEXT
  5
481
330
38D
100
AcDbEntity
  8
0
  6
Continuous
100
AcDbMText
 10
345.3994361008621
 20
31.09836736724353
 30
0.0
 40
0.03
 41
0.0
 46
0.0
 71
     5
 72
     1
  1
\A1;0.23
  7
ROMANS
 73
     1
 44
1.0
  0
INSERT
  5
482
330
38D
100
AcDbEntity
  8
0
  6
Continuous
 62
     0
100
AcDbBlockReference
  2
_ArchTick
 10
345.2833529263498
 20
31.22477267084415
 30
0.0
 41
0.03
 42
0.03
 43
0.03
 50
180.0
  0
INSERT
  5
483
330
38D
100
AcDbEntity
  8
0
  6
Continuous
 62
     0
100
AcDbBlockReference
  2
_ArchTick
 10
345.5133529263498
 20
31.22477267084415
 30
0.0
 41
0.03
 42
0.03
 43
0.03
  0
POINT
  5
484
330
38D
100
AcDbEntity
  8
Defpoints
  6
Continuous
 62
     0
100
AcDbPoint
 10
345.2833529263498
 20
31.46930363638988
 30
0.0
  0
POINT
  5
485
330
38D
100
AcDbEntity
  8
Defpoints
  6
Continuous
 62
     0
100
AcDbPoint
 10
345.5133529263498
 20
31.46930363638988
 30
0.0
  0
POINT
  5
486
330
38D
100
AcDbEntity
  8
Defpoints
  6
Continuous
 62
     0
100
AcDbPoint
 10
345.5133529263498
 20
31.22477267084415
 30
0.0
  0
ENDBLK
  5
38F
330
38D
100
AcDbEntity
  8
0
100
AcDbBlockEnd
  0
BLOCK
  5
39A
330
399
100
AcDbEntity
  8
0
100
AcDbBlockBegin
  2
*D49
 70
     1
 10
0.0
 20
0.0
 30
0.0
  3
*D49
  1

  0
LINE
  5
487
330
399
100
AcDbEntity
  8
0
  6
Continuous
 62
     0
100
AcDbLine
 10
345.5133529263498
 20
31.43930363638988
 30
0.0
 11
345.5133529263498
 21
31.21577267084415
 31
0.0
  0
LINE
  5
488
330
399
100
AcDbEntity
  8
0
  6
Continuous
 62
     0
100
AcDbLine
 10
345.9533529263498
 20
31.43930363638988
 30
0.0
 11
345.9533529263498
 21
31.21577267084415
 31
0.0
  0
LINE
  5
489
330
399
100
AcDbEntity
  8
0
  6
Continuous
 62
     0
100
AcDbLine
 10
345.5043529263498
 20
31.22477267084415
 30
0.0
 11
345.6866243549212
 21
31.22477267084415
 31
0.0
  0
LINE
  5
48A
330
399
100
AcDbEntity
  8
0
  6
Continuous
 62
     0
100
AcDbLine
 10
345.9623529263498
 20
31.22477267084415
 30
0.0
 11
345.7800814977783
 21
31.22477267084415
 31
0.0
  0
INSERT
  5
48B
330
399
100
AcDbEntity
  8
0
  6
Continuous
 62
     0
100
AcDbBlockReference
  2
_ArchTick
 10
345.5133529263498
 20
31.22477267084415
 30
0.0
 41
0.03
 42
0.03
 43
0.03
 50
180.0
  0
INSERT
  5
48C
330
399
100
AcDbEntity
  8
0
  6
Continuous
 62
     0
100
AcDbBlockReference
  2
_ArchTick
 10
345.9533529263498
 20
31.22477267084415
 30
0.0
 41
0.03
 42
0.03
 43
0.03
  0
MTEXT
  5
48D
330
399
100
AcDbEntity
  8
0
  6
Continuous
100
AcDbMText
 10
345.7333529263498
 20
31.22477267084415
 30
0.0
 40
0.03
 41
0.0
 46
0.0
 71
     5
 72
     1
  1
\A1;0.44
  7
ROMANS
 73
     1
 44
1.0
  0
POINT
  5
48E
330
399
100
AcDbEntity
  8
Defpoints
  6
Continuous
 62
     0
100
AcDbPoint
 10
345.5133529263498
 20
31.46930363638988
 30
0.0
  0
POINT
  5
48F
330
399
100
AcDbEntity
  8
Defpoints
  6
Continuous
 62
     0
100
AcDbPoint
 10
345.9533529263498
 20
31.46930363638988
 30
0.0
  0
POINT
  5
490
330
399
100
AcDbEntity
  8
Defpoints
  6
Continuous
 62
     0
100
AcDbPoint
 10
345.9533529263498
 20
31.22477267084415
 30
0.0
  0
ENDBLK
  5
39B
330
399
100
AcDbEntity
  8
0
100
AcDbBlockEnd
  0
BLOCK
  5
3A7
330
3A6
100
AcDbEntity
  8
0
100
AcDbBlockBegin
  2
*D50
 70
     1
 10
0.0
 20
0.0
 30
0.0
  3
*D50
  1

  0
LINE
  5
491
330
3A6
100
AcDbEntity
  8
0
  6
Continuous
 62
     0
100
AcDbLine
 10
345.9533529263498
 20
31.43930363638988
 30
0.0
 11
345.9533529263498
 21
31.21577267084415
 31
0.0
  0
LINE
  5
492
330
3A6
100
AcDbEntity
  8
0
  6
Continuous
 62
     0
100
AcDbLine
 10
346.1833529263498
 20
31.43930363638988
 30
0.0
 11
346.1833529263498
 21
31.21577267084415
 31
0.0
  0
LINE
  5
493
330
3A6
100
AcDbEntity
  8
0
  6
Continuous
 62
     0
100
AcDbLine
 10
345.9443529263498
 20
31.22477267084415
 30
0.0
 11
346.1923529263498
 21
31.22477267084415
 31
0.0
  0
MTEXT
  5
494
330
3A6
100
AcDbEntity
  8
0
  6
Continuous
100
AcDbMText
 10
346.0647842012593
 20
31.10100577767361
 30
0.0
 40
0.03
 41
0.0
 46
0.0
 71
     5
 72
     1
  1
\A1;0.23
  7
ROMANS
 73
     1
 44
1.0
  0
INSERT
  5
495
330
3A6
100
AcDbEntity
  8
0
  6
Continuous
 62
     0
100
AcDbBlockReference
  2
_ArchTick
 10
345.9533529263498
 20
31.22477267084415
 30
0.0
 41
0.03
 42
0.03
 43
0.03
 50
180.0
  0
INSERT
  5
496
330
3A6
100
AcDbEntity
  8
0
  6
Continuous
 62
     0
100
AcDbBlockReference
  2
_ArchTick
 10
346.1833529263498
 20
31.22477267084415
 30
0.0
 41
0.03
 42
0.03
 43
0.03
  0
POINT
  5
497
330
3A6
100
AcDbEntity
  8
Defpoints
  6
Continuous
 62
     0
100
AcDbPoint
 10
345.9533529263498
 20
31.46930363638988
 30
0.0
  0
POINT
  5
498
330
3A6
100
AcDbEntity
  8
Defpoints
  6
Continuous
 62
     0
100
AcDbPoint
 10
346.1833529263498
 20
31.46930363638988
 30
0.0
  0
POINT
  5
499
330
3A6
100
AcDbEntity
  8
Defpoints
  6
Continuous
 62
     0
100
AcDbPoint
 10
346.1833529263498
 20
31.22477267084415
 30
0.0
  0
ENDBLK
  5
3A8
330
3A6
100
AcDbEntity
  8
0
100
AcDbBlockEnd
  0
BLOCK
  5
49B
330
49A
100
AcDbEntity
  8
0
100
AcDbBlockBegin
  2
*D51
 70
     1
 10
0.0
 20
0.0
 30
0.0
  3
*D51
  1

  0
LINE
  5
49C
330
49A
100
AcDbEntity
  8
0
  6
Continuous
 62
     0
100
AcDbLine
 10
333.8560917642446
 20
36.48363032013038
 30
0.0
 11
334.8043378307661
 21
36.48363032013038
 31
0.0
  0
LINE
  5
49D
330
49A
100
AcDbEntity
  8
0
  6
Continuous
 62
     0
100
AcDbLine
 10
333.8560917642446
 20
38.13363032013039
 30
0.0
 11
334.8043378307661
 21
38.13363032013039
 31
0.0
  0
LINE
  5
49E
330
49A
100
AcDbEntity
  8
0
  6
Continuous
 62
     0
100
AcDbLine
 10
334.7593378307661
 20
36.43863032013038
 30
0.0
 11
334.7593378307661
 21
37.23213032013038
 31
0.0
  0
LINE
  5
49F
330
49A
100
AcDbEntity
  8
0
  6
Continuous
 62
     0
100
AcDbLine
 10
334.7593378307661
 20
38.17863032013039
 30
0.0
 11
334.7593378307661
 21
37.38513032013039
 31
0.0
  0
INSERT
  5
4A0
330
49A
100
AcDbEntity
  8
0
  6
Continuous
 62
     0
100
AcDbBlockReference
  2
_ArchTick
 10
334.7593378307661
 20
36.48363032013038
 30
0.0
 41
0.15
 42
0.15
 43
0.15
 50
270.0
  0
INSERT
  5
4A1
330
49A
100
AcDbEntity
  8
0
  6
Continuous
 62
     0
100
AcDbBlockReference
  2
_ArchTick
 10
334.7593378307661
 20
38.13363032013039
 30
0.0
 41
0.15
 42
0.15
 43
0.15
 50
90.0
  0
MTEXT
  5
4A2
330
49A
100
AcDbEntity
  8
0
  6
Continuous
100
AcDbMText
 10
334.7593378307661
 20
37.30863032013044
 30
0.0
 40
0.15
 41
0.0
 46
0.0
 71
     5
 72
     1
  1
\A1;1.65
  7
ROMANS
 73
     1
 44
1.0
  0
POINT
  5
4A3
330
49A
100
AcDbEntity
  8
Defpoints
  6
Continuous
 62
     0
100
AcDbPoint
 10
333.7060917642446
 20
36.48363032013038
 30
0.0
  0
POINT
  5
4A4
330
49A
100
AcDbEntity
  8
Defpoints
  6
Continuous
 62
     0
100
AcDbPoint
 10
333.7060917642446
 20
38.13363032013039
 30
0.0
  0
POINT
  5
4A5
330
49A
100
AcDbEntity
  8
Defpoints
  6
Continuous
 62
     0
100
AcDbPoint
 10
334.7593378307661
 20
38.13363032013039
 30
0.0
  0
ENDBLK
  5
4A6
330
49A
100
AcDbEntity
  8
0
100
AcDbBlockEnd
  0
BLOCK
  5
4B0
330
4AF
100
AcDbEntity
  8
0
100
AcDbBlockBegin
  2
*D53
 70
     1
 10
0.0
 20
0.0
 30
0.0
  3
*D53
  1

  0
LINE
  5
658
330
4AF
100
AcDbEntity
  8
0
  6
Continuous
 62
     0
100
AcDbLine
 10
288.2311598420098
 20
34.69261638626375
 30
0.0
 11
288.8491735313391
 21
34.69261638626375
 31
0.0
  0
LINE
  5
659
330
4AF
100
AcDbEntity
  8
0
  6
Continuous
 62
     0
100
AcDbLine
 10
288.2311598420098
 20
36.69261638626375
 30
0.0
 11
288.8491735313391
 21
36.69261638626375
 31
0.0
  0
LINE
  5
65A
330
4AF
100
AcDbEntity
  8
0
  6
Continuous
 62
     0
100
AcDbLine
 10
288.8041735313391
 20
34.64761638626375
 30
0.0
 11
288.8041735313391
 21
35.61611638626375
 31
0.0
  0
LINE
  5
65B
330
4AF
100
AcDbEntity
  8
0
  6
Continuous
 62
     0
100
AcDbLine
 10
288.8041735313391
 20
36.73761638626376
 30
0.0
 11
288.8041735313391
 21
35.76911638626376
 31
0.0
  0
INSERT
  5
65C
330
4AF
100
AcDbEntity
  8
0
  6
Continuous
 62
     0
100
AcDbBlockReference
  2
_ArchTick
 10
288.8041735313391
 20
34.69261638626375
 30
0.0
 41
0.15
 42
0.15
 43
0.15
 50
270.0
  0
INSERT
  5
65D
330
4AF
100
AcDbEntity
  8
0
  6
Continuous
 62
     0
100
AcDbBlockReference
  2
_ArchTick
 10
288.8041735313391
 20
36.69261638626375
 30
0.0
 41
0.15
 42
0.15
 43
0.15
 50
90.0
  0
MTEXT
  5
65E
330
4AF
100
AcDbEntity
  8
0
  6
Continuous
100
AcDbMText
 10
288.8041735313391
 20
35.6926163862638
 30
0.0
 40
0.15
 41
0.0
 46
0.0
 71
     5
 72
     1
  1
\A1;2.00
  7
ROMANS
 73
     1
 44
1.0
  0
POINT
  5
65F
330
4AF
100
AcDbEntity
  8
Defpoints
  6
Continuous
 62
     0
100
AcDbPoint
 10
288.0811598420098
 20
34.69261638626375
 30
0.0
  0
POINT
  5
660
330
4AF
100
AcDbEntity
  8
Defpoints
  6
Continuous
 62
     0
100
AcDbPoint
 10
288.0811598420098
 20
36.69261638626375
 30
0.0
  0
POINT
  5
661
330
4AF
100
AcDbEntity
  8
Defpoints
  6
Continuous
 62
     0
100
AcDbPoint
 10
288.8041735313391
 20
36.69261638626375
 30
0.0
  0
ENDBLK
  5
4B1
330
4AF
100
AcDbEntity
  8
0
100
AcDbBlockEnd
  0
BLOCK
  5
4D2
330
4D1
100
AcDbEntity
  8
0
100
AcDbBlockBegin
  2
*D54
 70
     1
 10
0.0
 20
0.0
 30
0.0
  3
*D54
  1

  0
LINE
  5
662
330
4D1
100
AcDbEntity
  8
0
  6
Continuous
 62
     0
100
AcDbLine
 10
287.7311598420097
 20
34.69261638626375
 30
0.0
 11
288.8491735313391
 21
34.69261638626375
 31
0.0
  0
LINE
  5
663
330
4D1
100
AcDbEntity
  8
0
  6
Continuous
 62
     0
100
AcDbLine
 10
287.7311598420098
 20
34.29261638626375
 30
0.0
 11
288.8491735313391
 21
34.29261638626375
 31
0.0
  0
LINE
  5
664
330
4D1
100
AcDbEntity
  8
0
  6
Continuous
 62
     0
100
AcDbLine
 10
288.8041735313391
 20
34.73761638626375
 30
0.0
 11
288.8041735313391
 21
34.56911638626376
 31
0.0
  0
LINE
  5
665
330
4D1
100
AcDbEntity
  8
0
  6
Continuous
 62
     0
100
AcDbLine
 10
288.8041735313391
 20
34.24761638626375
 30
0.0
 11
288.8041735313391
 21
34.41611638626375
 31
0.0
  0
INSERT
  5
666
330
4D1
100
AcDbEntity
  8
0
  6
Continuous
 62
     0
100
AcDbBlockReference
  2
_ArchTick
 10
288.8041735313391
 20
34.69261638626375
 30
0.0
 41
0.15
 42
0.15
 43
0.15
 50
90.0
  0
INSERT
  5
667
330
4D1
100
AcDbEntity
  8
0
  6
Continuous
 62
     0
100
AcDbBlockReference
  2
_ArchTick
 10
288.8041735313391
 20
34.29261638626375
 30
0.0
 41
0.15
 42
0.15
 43
0.15
 50
270.0
  0
MTEXT
  5
668
330
4D1
100
AcDbEntity
  8
0
  6
Continuous
100
AcDbMText
 10
288.8041735313391
 20
34.49261638626381
 30
0.0
 40
0.15
 41
0.0
 46
0.0
 71
     5
 72
     1
  1
\A1;0.40
  7
ROMANS
 73
     1
 44
1.0
  0
POINT
  5
669
330
4D1
100
AcDbEntity
  8
Defpoints
  6
Continuous
 62
     0
100
AcDbPoint
 10
287.5811598420098
 20
34.69261638626375
 30
0.0
  0
POINT
  5
66A
330
4D1
100
AcDbEntity
  8
Defpoints
  6
Continuous
 62
     0
100
AcDbPoint
 10
287.5811598420098
 20
34.29261638626375
 30
0.0
  0
POINT
  5
66B
330
4D1
100
AcDbEntity
  8
Defpoints
  6
Continuous
 62
     0
100
AcDbPoint
 10
288.8041735313391
 20
34.29261638626375
 30
0.0
  0
ENDBLK
  5
4D3
330
4D1
100
AcDbEntity
  8
0
100
AcDbBlockEnd
  0
BLOCK
  5
4EA
330
4E9
100
AcDbEntity
  8
0
100
AcDbBlockBegin
  2
*D55
 70
     1
 10
0.0
 20
0.0
 30
0.0
  3
*D55
  1

  0
LINE
  5
66C
330
4E9
100
AcDbEntity
  8
0
  6
Continuous
 62
     0
100
AcDbLine
 10
285.0811598420098
 20
34.54261638626376
 30
0.0
 11
285.0811598420098
 21
33.73981290580538
 31
0.0
  0
LINE
  5
66D
330
4E9
100
AcDbEntity
  8
0
  6
Continuous
 62
     0
100
AcDbLine
 10
285.5811598420098
 20
34.54261638626376
 30
0.0
 11
285.5811598420098
 21
33.73981290580538
 31
0.0
  0
LINE
  5
66E
330
4E9
100
AcDbEntity
  8
0
  6
Continuous
 62
     0
100
AcDbLine
 10
285.0361598420098
 20
33.78481290580538
 30
0.0
 11
285.6261598420098
 21
33.78481290580538
 31
0.0
  0
MTEXT
  5
66F
330
4E9
100
AcDbEntity
  8
0
  6
Continuous
100
AcDbMText
 10
285.3311598420098
 20
33.96757330319309
 30
0.0
 40
0.15
 41
0.0
 46
0.0
 71
     5
 72
     1
  1
\A1;0.50
  7
ROMANS
 73
     1
 44
1.0
  0
INSERT
  5
670
330
4E9
100
AcDbEntity
  8
0
  6
Continuous
 62
     0
100
AcDbBlockReference
  2
_ArchTick
 10
285.0811598420098
 20
33.78481290580538
 30
0.0
 41
0.15
 42
0.15
 43
0.15
 50
180.0
  0
INSERT
  5
671
330
4E9
100
AcDbEntity
  8
0
  6
Continuous
 62
     0
100
AcDbBlockReference
  2
_ArchTick
 10
285.5811598420098
 20
33.78481290580538
 30
0.0
 41
0.15
 42
0.15
 43
0.15
  0
POINT
  5
672
330
4E9
100
AcDbEntity
  8
Defpoints
  6
Continuous
 62
     0
100
AcDbPoint
 10
285.0811598420098
 20
34.69261638626375
 30
0.0
  0
POINT
  5
673
330
4E9
100
AcDbEntity
  8
Defpoints
  6
Continuous
 62
     0
100
AcDbPoint
 10
285.5811598420098
 20
34.69261638626375
 30
0.0
  0
POINT
  5
674
330
4E9
100
AcDbEntity
  8
Defpoints
  6
Continuous
 62
     0
100
AcDbPoint
 10
285.5811598420098
 20
33.78481290580538
 30
0.0
  0
ENDBLK
  5
4EB
330
4E9
100
AcDbEntity
  8
0
100
AcDbBlockEnd
  0
BLOCK
  5
4F8
330
4F7
100
AcDbEntity
  8
0
100
AcDbBlockBegin
  2
*D56
 70
     1
 10
0.0
 20
0.0
 30
0.0
  3
*D56
  1

  0
LINE
  5
675
330
4F7
100
AcDbEntity
  8
0
  6
Continuous
 62
     0
100
AcDbLine
 10
285.5811598420098
 20
34.14261638626375
 30
0.0
 11
285.5811598420098
 21
33.73981290580538
 31
0.0
  0
LINE
  5
676
330
4F7
100
AcDbEntity
  8
0
  6
Continuous
 62
     0
100
AcDbLine
 10
287.5811598420098
 20
34.14261638626404
 30
0.0
 11
287.5811598420098
 21
33.73981290580538
 31
0.0
  0
LINE
  5
677
330
4F7
100
AcDbEntity
  8
0
  6
Continuous
 62
     0
100
AcDbLine
 10
285.5361598420098
 20
33.78481290580538
 30
0.0
 11
286.3510884134384
 21
33.78481290580538
 31
0.0
  0
LINE
  5
678
330
4F7
100
AcDbEntity
  8
0
  6
Continuous
 62
     0
100
AcDbLine
 10
287.6261598420098
 20
33.78481290580538
 30
0.0
 11
286.8112312705812
 21
33.78481290580538
 31
0.0
  0
INSERT
  5
679
330
4F7
100
AcDbEntity
  8
0
  6
Continuous
 62
     0
100
AcDbBlockReference
  2
_ArchTick
 10
285.5811598420098
 20
33.78481290580538
 30
0.0
 41
0.15
 42
0.15
 43
0.15
 50
180.0
  0
INSERT
  5
67A
330
4F7
100
AcDbEntity
  8
0
  6
Continuous
 62
     0
100
AcDbBlockReference
  2
_ArchTick
 10
287.5811598420098
 20
33.78481290580538
 30
0.0
 41
0.15
 42
0.15
 43
0.15
  0
MTEXT
  5
67B
330
4F7
100
AcDbEntity
  8
0
  6
Continuous
100
AcDbMText
 10
286.5811598420098
 20
33.78481290580538
 30
0.0
 40
0.15
 41
0.0
 46
0.0
 71
     5
 72
     1
  1
\A1;2.00
  7
ROMANS
 73
     1
 44
1.0
  0
POINT
  5
67C
330
4F7
100
AcDbEntity
  8
Defpoints
  6
Continuous
 62
     0
100
AcDbPoint
 10
285.5811598420098
 20
34.29261638626375
 30
0.0
  0
POINT
  5
67D
330
4F7
100
AcDbEntity
  8
Defpoints
  6
Continuous
 62
     0
100
AcDbPoint
 10
287.5811598420098
 20
34.29261638626404
 30
0.0
  0
POINT
  5
67E
330
4F7
100
AcDbEntity
  8
Defpoints
  6
Continuous
 62
     0
100
AcDbPoint
 10
287.5811598420098
 20
33.78481290580538
 30
0.0
  0
ENDBLK
  5
4F9
330
4F7
100
AcDbEntity
  8
0
100
AcDbBlockEnd
  0
BLOCK
  5
506
330
505
100
AcDbEntity
  8
0
100
AcDbBlockBegin
  2
*D57
 70
     1
 10
0.0
 20
0.0
 30
0.0
  3
*D57
  1

  0
LINE
  5
67F
330
505
100
AcDbEntity
  8
0
  6
Continuous
 62
     0
100
AcDbLine
 10
287.5811598420098
 20
34.14261638626375
 30
0.0
 11
287.5811598420098
 21
33.73981290580538
 31
0.0
  0
LINE
  5
680
330
505
100
AcDbEntity
  8
0
  6
Continuous
 62
     0
100
AcDbLine
 10
288.0811598420098
 20
34.54261638626376
 30
0.0
 11
288.0811598420098
 21
33.73981290580538
 31
0.0
  0
LINE
  5
681
330
505
100
AcDbEntity
  8
0
  6
Continuous
 62
     0
100
AcDbLine
 10
287.5361598420098
 20
33.78481290580538
 30
0.0
 11
288.1261598420098
 21
33.78481290580538
 31
0.0
  0
MTEXT
  5
682
330
505
100
AcDbEntity
  8
0
  6
Continuous
100
AcDbMText
 10
287.8311598420098
 20
33.9732367459265
 30
0.0
 40
0.15
 41
0.0
 46
0.0
 71
     5
 72
     1
  1
\A1;0.50
  7
ROMANS
 73
     1
 44
1.0
  0
INSERT
  5
683
330
505
100
AcDbEntity
  8
0
  6
Continuous
 62
     0
100
AcDbBlockReference
  2
_ArchTick
 10
287.5811598420098
 20
33.78481290580538
 30
0.0
 41
0.15
 42
0.15
 43
0.15
 50
180.0
  0
INSERT
  5
684
330
505
100
AcDbEntity
  8
0
  6
Continuous
 62
     0
100
AcDbBlockReference
  2
_ArchTick
 10
288.0811598420098
 20
33.78481290580538
 30
0.0
 41
0.15
 42
0.15
 43
0.15
  0
POINT
  5
685
330
505
100
AcDbEntity
  8
Defpoints
  6
Continuous
 62
     0
100
AcDbPoint
 10
287.5811598420098
 20
34.29261638626375
 30
0.0
  0
POINT
  5
686
330
505
100
AcDbEntity
  8
Defpoints
  6
Continuous
 62
     0
100
AcDbPoint
 10
288.0811598420098
 20
34.69261638626375
 30
0.0
  0
POINT
  5
687
330
505
100
AcDbEntity
  8
Defpoints
  6
Continuous
 62
     0
100
AcDbPoint
 10
288.0811598420098
 20
33.78481290580538
 30
0.0
  0
ENDBLK
  5
507
330
505
100
AcDbEntity
  8
0
100
AcDbBlockEnd
  0
BLOCK
  5
544
330
543
100
AcDbEntity
  8
0
100
AcDbBlockBegin
  2
*D58
 70
     1
 10
0.0
 20
0.0
 30
0.0
  3
*D58
  1

  0
LINE
  5
688
330
543
100
AcDbEntity
  8
0
  6
Continuous
 62
     0
100
AcDbLine
 10
284.9311598420099
 20
36.69261638626375
 30
0.0
 11
284.5234621915058
 21
36.69261638626375
 31
0.0
  0
LINE
  5
689
330
543
100
AcDbEntity
  8
0
  6
Continuous
 62
     0
100
AcDbLine
 10
285.4311598420098
 20
34.29261638626375
 30
0.0
 11
284.5234621915058
 21
34.29261638626375
 31
0.0
  0
LINE
  5
68A
330
543
100
AcDbEntity
  8
0
  6
Continuous
 62
     0
100
AcDbLine
 10
284.5684621915058
 20
36.73761638626376
 30
0.0
 11
284.5684621915058
 21
35.56911638626376
 31
0.0
  0
LINE
  5
68B
330
543
100
AcDbEntity
  8
0
  6
Continuous
 62
     0
100
AcDbLine
 10
284.5684621915058
 20
34.24761638626375
 30
0.0
 11
284.5684621915058
 21
35.41611638626375
 31
0.0
  0
INSERT
  5
68C
330
543
100
AcDbEntity
  8
0
  6
Continuous
 62
     0
100
AcDbBlockReference
  2
_ArchTick
 10
284.5684621915058
 20
36.69261638626375
 30
0.0
 41
0.15
 42
0.15
 43
0.15
 50
90.0
  0
INSERT
  5
68D
330
543
100
AcDbEntity
  8
0
  6
Continuous
 62
     0
100
AcDbBlockReference
  2
_ArchTick
 10
284.5684621915058
 20
34.29261638626375
 30
0.0
 41
0.15
 42
0.15
 43
0.15
 50
270.0
  0
MTEXT
  5
68E
330
543
100
AcDbEntity
  8
0
  6
Continuous
100
AcDbMText
 10
284.5684621915058
 20
35.49261638626381
 30
0.0
 40
0.15
 41
0.0
 46
0.0
 71
     5
 72
     1
  1
\A1;2.40
  7
ROMANS
 73
     1
 44
1.0
  0
POINT
  5
68F
330
543
100
AcDbEntity
  8
Defpoints
  6
Continuous
 62
     0
100
AcDbPoint
 10
285.0811598420098
 20
36.69261638626375
 30
0.0
  0
POINT
  5
690
330
543
100
AcDbEntity
  8
Defpoints
  6
Continuous
 62
     0
100
AcDbPoint
 10
285.5811598420098
 20
34.29261638626375
 30
0.0
  0
POINT
  5
691
330
543
100
AcDbEntity
  8
Defpoints
  6
Continuous
 62
     0
100
AcDbPoint
 10
284.5684621915058
 20
34.29261638626375
 30
0.0
  0
ENDBLK
  5
545
330
543
100
AcDbEntity
  8
0
100
AcDbBlockEnd
  0
BLOCK
  5
552
330
551
100
AcDbEntity
  8
0
100
AcDbBlockBegin
  2
*D59
 70
     1
 10
0.0
 20
0.0
 30
0.0
  3
*D59
  1

  0
LINE
  5
692
330
551
100
AcDbEntity
  8
0
  6
Continuous
 62
     0
100
AcDbLine
 10
285.0811598420098
 20
36.84261638626375
 30
0.0
 11
285.0811598420098
 21
37.15042915203468
 31
0.0
  0
LINE
  5
693
330
551
100
AcDbEntity
  8
0
  6
Continuous
 62
     0
100
AcDbLine
 10
288.0811598420098
 20
36.84261638626375
 30
0.0
 11
288.0811598420098
 21
37.15042915203468
 31
0.0
  0
LINE
  5
694
330
551
100
AcDbEntity
  8
0
  6
Continuous
 62
     0
100
AcDbLine
 10
285.0361598420098
 20
37.10542915203467
 30
0.0
 11
286.3510884134384
 21
37.10542915203467
 31
0.0
  0
LINE
  5
695
330
551
100
AcDbEntity
  8
0
  6
Continuous
 62
     0
100
AcDbLine
 10
288.1261598420098
 20
37.10542915203467
 30
0.0
 11
286.8112312705812
 21
37.10542915203467
 31
0.0
  0
INSERT
  5
696
330
551
100
AcDbEntity
  8
0
  6
Continuous
 62
     0
100
AcDbBlockReference
  2
_ArchTick
 10
285.0811598420098
 20
37.10542915203467
 30
0.0
 41
0.15
 42
0.15
 43
0.15
 50
180.0
  0
INSERT
  5
697
330
551
100
AcDbEntity
  8
0
  6
Continuous
 62
     0
100
AcDbBlockReference
  2
_ArchTick
 10
288.0811598420098
 20
37.10542915203467
 30
0.0
 41
0.15
 42
0.15
 43
0.15
  0
MTEXT
  5
698
330
551
100
AcDbEntity
  8
0
  6
Continuous
100
AcDbMText
 10
286.5811598420098
 20
37.10542915203467
 30
0.0
 40
0.15
 41
0.0
 46
0.0
 71
     5
 72
     1
  1
\A1;3.00
  7
ROMANS
 73
     1
 44
1.0
  0
POINT
  5
699
330
551
100
AcDbEntity
  8
Defpoints
  6
Continuous
 62
     0
100
AcDbPoint
 10
285.0811598420098
 20
36.69261638626375
 30
0.0
  0
POINT
  5
69A
330
551
100
AcDbEntity
  8
Defpoints
  6
Continuous
 62
     0
100
AcDbPoint
 10
288.0811598420098
 20
36.69261638626375
 30
0.0
  0
POINT
  5
69B
330
551
100
AcDbEntity
  8
Defpoints
  6
Continuous
 62
     0
100
AcDbPoint
 10
288.0811598420098
 20
37.10542915203467
 30
0.0
  0
ENDBLK
  5
553
330
551
100
AcDbEntity
  8
0
100
AcDbBlockEnd
  0
ENDSEC
  0
SECTION
  2
ENTITIES
  0
LWPOLYLINE
  5
86
330
76
100
AcDbEntity
  8
0
  6
Continuous
 62
     7
100
AcDbPolyline
 90
        4
 70
   129
 43
0.0
 10
281.396
 20
44.747
 10
291.896
 20
44.747
 10
291.896
 20
29.897
 10
281.396
 20
29.897
  0
LWPOLYLINE
  5
DF
330
76
100
AcDbEntity
  8
GEOMETRIA
  6
Continuous
100
AcDbPolyline
 90
        8
 70
   129
 43
0.02
 10
285.0811598420098
 20
36.69261638626375
 10
285.0811598420098
 20
34.69261638626375
 10
285.5811598420098
 20
34.69261638626375
 10
285.5811598420098
 20
34.29261638626375
 10
287.5811598420098
 20
34.29261638626375
 10
287.5811598420098
 20
34.69261638626375
 10
288.0811598420098
 20
34.69261638626375
 10
288.0811598420098
 20
36.69261638626375
  0
DIMENSION
  5
4AE
330
76
100
AcDbEntity
  8
0
  6
Continuous
100
AcDbDimension
  2
*D53
 10
288.8041735313391
 20
36.69261638626375
 30
0.0
 11
288.8041735313391
 21
35.6926163862638
 31
0.0
 70
    32
 71
     5
 42
2.0
 73
     0
 74
     0
 75
     0
  3
acota 1-50
100
AcDbAlignedDimension
 13
288.0811598420098
 23
34.69261638626375
 33
0.0
 14
288.0811598420098
 24
36.69261638626375
 34
0.0
 50
90.0
100
AcDbRotatedDimension
  0
DIMENSION
  5
4D0
330
76
100
AcDbEntity
  8
0
  6
Continuous
100
AcDbDimension
  2
*D54
 10
288.8041735313391
 20
34.29261638626375
 30
0.0
 11
288.8041735313391
 21
34.49261638626381
 31
0.0
 70
    32
 71
     5
 42
0.3999999999999986
 73
     0
 74
     0
 75
     0
  3
acota 1-50
100
AcDbAlignedDimension
 13
287.5811598420098
 23
34.69261638626375
 33
0.0
 14
287.5811598420098
 24
34.29261638626375
 34
0.0
 50
90.0
100
AcDbRotatedDimension
  0
DIMENSION
  5
4E8
330
76
100
AcDbEntity
  8
0
  6
Continuous
100
AcDbDimension
  2
*D55
 10
285.5811598420098
 20
33.78481290580538
 30
0.0
 11
285.3311598420098
 21
33.96757330319309
 31
0.0
 70
   160
 71
     5
 42
0.4999999999999432
 73
     0
 74
     0
 75
     0
  3
acota 1-50
100
AcDbAlignedDimension
 13
285.0811598420098
 23
34.69261638626375
 33
0.0
 14
285.5811598420098
 24
34.69261638626375
 34
0.0
100
AcDbRotatedDimension
  0
DIMENSION
  5
4F6
330
76
100
AcDbEntity
  8
0
  6
Continuous
100
AcDbDimension
  2
*D56
 10
287.5811598420098
 20
33.78481290580538
 30
0.0
 11
286.5811598420098
 21
33.78481290580538
 31
0.0
 70
    32
 71
     5
 42
2.0
 73
     0
 74
     0
 75
     0
  3
acota 1-50
100
AcDbAlignedDimension
 13
285.5811598420098
 23
34.29261638626375
 33
0.0
 14
287.5811598420098
 24
34.29261638626404
 34
0.0
100
AcDbRotatedDimension
  0
DIMENSION
  5
504
330
76
100
AcDbEntity
  8
0
  6
Continuous
100
AcDbDimension
  2
*D57
 10
288.0811598420098
 20
33.78481290580538
 30
0.0
 11
287.8311598420098
 21
33.9732367459265
 31
0.0
 70
   160
 71
     5
 42
0.5
 73
     0
 74
     0
 75
     0
  3
acota 1-50
100
AcDbAlignedDimension
 13
287.5811598420098
 23
34.29261638626375
 33
0.0
 14
288.0811598420098
 24
34.69261638626375
 34
0.0
100
AcDbRotatedDimension
  0
DIMENSION
  5
542
330
76
100
AcDbEntity
  8
0
  6
Continuous
100
AcDbDimension
  2
*D58
 10
284.5684621915058
 20
34.29261638626375
 30
0.0
 11
284.5684621915058
 21
35.49261638626381
 31
0.0
 70
    32
 71
     5
 42
2.399999999999998
 73
     0
 74
     0
 75
     0
  3
acota 1-50
100
AcDbAlignedDimension
 13
285.0811598420098
 23
36.69261638626375
 33
0.0
 14
285.5811598420098
 24
34.29261638626375
 34
0.0
 50
90.0
100
AcDbRotatedDimension
  0
DIMENSION
  5
550
330
76
100
AcDbEntity
  8
0
  6
Continuous
100
AcDbDimension
  2
*D59
 10
288.0811598420098
 20
37.10542915203467
 30
0.0
 11
286.5811598420098
 21
37.10542915203467
 31
0.0
 70
    32
 71
     5
 42
3.0
 73
     0
 74
     0
 75
     0
  3
acota 1-50
100
AcDbAlignedDimension
 13
285.0811598420098
 23
36.69261638626375
 33
0.0
 14
288.0811598420098
 24
36.69261638626375
 34
0.0
100
AcDbRotatedDimension
  0
TEXT
  5
5B6
330
76
100
AcDbEntity
  8
0
  6
Continuous
 62
     7
100
AcDbText
 10
284.795374308152
 20
41.10629238786339
 30
0.0
 40
0.3
  1
P = 108 dm
  7
ROMANC
100
AcDbText
  0
TEXT
  5
5B7
330
76
100
AcDbEntity
  8
0
  6
Continuous
 62
     7
100
AcDbText
 10
284.795374308152
 20
41.57899691679273
 30
0.0
 40
0.3
  1
S = 680  dm
  7
ROMANC
100
AcDbText
  0
TEXT
  5
5B8
330
76
100
AcDbEntity
  8
0
  6
Continuous
 62
     7
100
AcDbText
 10
284.795374308152
 20
42.05170144572207
 30
0.0
 40
0.3
  1
ESCALA  1:50
  7
ROMANC
100
AcDbText
  0
TEXT
  5
5B9
330
76
100
AcDbEntity
  8
0
  6
Continuous
 62
     7
100
AcDbText
 10
284.795374308152
 20
42.52440597465141
 30
0.0
 40
0.3
  1
TIPUS  NT680B
  7
ROMANC
100
AcDbText
  0
TEXT
  5
5BA
330
76
100
AcDbEntity
  8
0
  6
Continuous
 62
     7
100
AcDbText
 10
288.3032743081519
 20
41.88489691679271
 30
0.0
 40
0.1
  1
2
  7
ROMANC
100
AcDbText
  0
ENDSEC
  0
SECTION
  2
OBJECTS
  0
DICTIONARY
  5
C
330
0
100
AcDbDictionary
281
     1
  3
ACAD_COLOR
350
6D
  3
ACAD_GROUP
350
D
  3
ACAD_LAYOUT
350
6C
  3
ACAD_MATERIAL
350
10
  3
ACAD_MLEADERSTYLE
350
70
  3
ACAD_MLINESTYLE
350
69
  3
ACAD_PLOTSETTINGS
350
6B
  3
ACAD_PLOTSTYLENAME
350
E
  3
ACAD_SCALELIST
350
3D
  3
ACAD_TABLESTYLE
350
6E
  3
ACAD_VISUALSTYLE
350
29
  3
ACDB_RECOMPOSE_DATA
350
6FD
  3
AcDbVariableDictionary
350
6F2
  3
AEC_PROPERTY_SET_DEFS
350
252
  0
DICTIONARY
  5
6A4
330
5F
100
AcDbDictionary
280
     1
281
     1
  3
ADSK_XREC_LAYER_RECONCILED
360
6A5
  0
DICTIONARY
  5
6A6
330
7A
100
AcDbDictionary
280
     1
281
     1
  3
ADSK_XREC_LAYER_RECONCILED
360
6A7
  0
DICTIONARY
  5
6A8
330
7B
100
AcDbDictionary
280
     1
281
     1
  3
ADSK_XREC_LAYER_RECONCILED
360
6A9
  0
DICTIONARY
  5
6AA
330
7C
100
AcDbDictionary
280
     1
281
     1
  3
ADSK_XREC_LAYER_RECONCILED
360
6AB
  0
DICTIONARY
  5
6AC
330
7D
100
AcDbDictionary
280
     1
281
     1
  3
ADSK_XREC_LAYER_RECONCILED
360
6AD
  0
DICTIONARY
  5
6AE
330
7E
100
AcDbDictionary
280
     1
281
     1
  3
ADSK_XREC_LAYER_RECONCILED
360
6AF
  0
DICTIONARY
  5
6B0
330
7F
100
AcDbDictionary
280
     1
281
     1
  3
ADSK_XREC_LAYER_RECONCILED
360
6B1
  0
DICTIONARY
  5
6B2
330
215
100
AcDbDictionary
280
     1
281
     1
  3
ADSK_XREC_LAYER_RECONCILED
360
6B3
  0
DICTIONARY
  5
D7
330
76
100
AcDbDictionary
280
     1
281
     1
  3
ACAD_SORTENTS
360
D8
  0
DICTIONARY
  5
6D
102
{ACAD_REACTORS
330
C
102
}
330
C
100
AcDbDictionary
281
     1
  0
DICTIONARY
  5
D
102
{ACAD_REACTORS
330
C
102
}
330
C
100
AcDbDictionary
281
     1
  0
DICTIONARY
  5
6C
102
{ACAD_REACTORS
330
C
102
}
330
C
100
AcDbDictionary
281
     1
  3
Model
350
79
  3
Presentación1
350
75
  0
DICTIONARY
  5
10
102
{ACAD_REACTORS
330
C
102
}
330
C
100
AcDbDictionary
281
     1
  3
ByBlock
350
19
  3
ByLayer
350
11
  3
Global
350
21
  0
DICTIONARY
  5
70
102
{ACAD_REACTORS
330
C
102
}
330
C
100
AcDbDictionary
281
     1
  3
Standard
350
71
  0
DICTIONARY
  5
69
102
{ACAD_REACTORS
330
C
102
}
330
C
100
AcDbDictionary
281
     1
  3
Standard
350
6A
  0
DICTIONARY
  5
6B
102
{ACAD_REACTORS
330
C
102
}
330
C
100
AcDbDictionary
281
     1
  0
ACDBDICTIONARYWDFLT
  5
E
102
{ACAD_REACTORS
330
C
102
}
330
C
100
AcDbDictionary
281
     1
  3
Normal
350
F
100
AcDbDictionaryWithDefault
340
F
  0
DICTIONARY
  5
3D
102
{ACAD_REACTORS
330
C
102
}
330
C
100
AcDbDictionary
281
     1
  3
*A1
350
21F
  3
A0
350
3E
  3
A1
350
3F
  3
A2
350
40
  3
A3
350
41
  3
A4
350
42
  3
A5
350
43
  3
A6
350
44
  3
A7
350
45
  3
A8
350
46
  3
A9
350
47
  3
B0
350
48
  3
B1
350
49
  3
B2
350
4A
  3
B3
350
4B
  3
B4
350
4C
  3
B5
350
4D
  3
B6
350
4E
  3
B7
350
4F
  3
B8
350
50
  3
B9
350
51
  3
C0
350
52
  3
C1
350
53
  3
C2
350
54
  3
C3
350
55
  3
C4
350
56
  3
C5
350
57
  3
C6
350
58
  3
C7
350
59
  3
C8
350
5A
  3
C9
350
5B
  3
D0
350
5C
  3
D1
350
5D
  3
D2
350
5E
  0
DICTIONARY
  5
6E
102
{ACAD_REACTORS
330
C
102
}
330
C
100
AcDbDictionary
281
     1
  3
Standard
350
6F
  0
DICTIONARY
  5
29
102
{ACAD_REACTORS
330
C
102
}
330
C
100
AcDbDictionary
281
     1
  3
2dWireframe
350
2F
  3
3D Hidden
350
31
  3
3dWireframe
350
30
  3
Basic
350
2E
  3
Brighten
350
35
  3
ColorChange
350
39
  3
Conceptual
350
32
  3
Dim
350
34
  3
EdgeColorOff
350
3C
  3
Facepattern
350
38
  3
Flat
350
2A
  3
FlatWithEdges
350
2B
  3
Gouraud
350
2C
  3
GouraudWithEdges
350
2D
  3
JitterOff
350
3A
  3
Linepattern
350
37
  3
OverhangOff
350
3B
  3
Realistic
350
33
  3
Thicken
350
36
  0
XRECORD
  5
6FD
102
{ACAD_REACTORS
330
C
102
}
330
C
100
AcDbXrecord
280
     1
 90
        1
330
6F
  0
DICTIONARY
  5
6F2
102
{ACAD_REACTORS
330
C
102
}
330
C
100
AcDbDictionary
281
     1
  3
CANNOSCALE
350
6F6
  3
CMLEADERSTYLE
350
6F4
  3
CTABLESTYLE
350
6F3
  3
LAYEREVAL
350
6F8
  3
LAYERNOTIFY
350
6F9
  3
LIGHTINGUNITS
350
6F7
  3
MSLTSCALE
350
6F5
  3
XCLIPFRAME
350
6FA
  0
DICTIONARY
  5
252
102
{ACAD_REACTORS
330
C
102
}
330
C
100
AcDbDictionary
281
     1
  0
XRECORD
  5
6A5
102
{ACAD_REACTORS
330
6A4
102
}
330
6A4
100
AcDbXrecord
280
     1
290
     1
  0
XRECORD
  5
6A7
102
{ACAD_REACTORS
330
6A6
102
}
330
6A6
100
AcDbXrecord
280
     1
290
     1
  0
XRECORD
  5
6A9
102
{ACAD_REACTORS
330
6A8
102
}
330
6A8
100
AcDbXrecord
280
     1
290
     1
  0
XRECORD
  5
6AB
102
{ACAD_REACTORS
330
6AA
102
}
330
6AA
100
AcDbXrecord
280
     1
290
     1
  0
XRECORD
  5
6AD
102
{ACAD_REACTORS
330
6AC
102
}
330
6AC
100
AcDbXrecord
280
     1
290
     1
  0
XRECORD
  5
6AF
102
{ACAD_REACTORS
330
6AE
102
}
330
6AE
100
AcDbXrecord
280
     1
290
     1
  0
XRECORD
  5
6B1
102
{ACAD_REACTORS
330
6B0
102
}
330
6B0
100
AcDbXrecord
280
     1
290
     1
  0
XRECORD
  5
6B3
102
{ACAD_REACTORS
330
6B2
102
}
330
6B2
100
AcDbXrecord
280
     1
290
     1
  0
SORTENTSTABLE
  5
D8
102
{ACAD_REACTORS
330
D7
102
}
330
D7
100
AcDbSortentsTable
330
76
331
DF
  5
DD
331
86
  5
86
  0
LAYOUT
  5
79
102
{ACAD_REACTORS
330
6C
102
}
330
6C
100
AcDbPlotSettings
  1

  2
none_device
  4
Letter_(8.50_x_11.00_Inches)
  6

 40
6.349999904632568
 41
6.349999904632568
 42
6.350006103515625
 43
6.350006103515625
 44
215.8999938964844
 45
279.3999938964844
 46
0.0
 47
0.0
 48
0.0
 49
0.0
140
0.0
141
0.0
142
1.0
143
3.194310215089575
 70
 11952
 72
     0
 73
     1
 74
     0
  7

 75
     0
147
0.3130566327829114
 76
     0
 77
     2
 78
   300
148
-6855.265180491632
149
-696.9086995381025
100
AcDbLayout
  1
Model
 70
     1
 71
     0
 10
0.0
 20
0.0
 11
12.0
 21
9.0
 12
0.0
 22
0.0
 32
0.0
 14
0.0
 24
0.0
 34
0.0
 15
0.0
 25
0.0
 35
0.0
146
0.0
 13
0.0
 23
0.0
 33
0.0
 16
1.0
 26
0.0
 36
0.0
 17
0.0
 27
1.0
 37
0.0
 76
     0
330
76
331
83
1001
ACAD_PSEXT
1000
Ninguna
1000
Ninguna
1000
No aplicable
1000
La presentación no se trazará a menos que se seleccione un nuevo nombre de configuración de trazador.
1070
     0
  0
LAYOUT
  5
75
102
{ACAD_REACTORS
330
6C
102
}
330
6C
100
AcDbPlotSettings
  1

  2

  4

  6

 40
0.0
 41
0.0
 42
0.0
 43
0.0
 44
0.0
 45
0.0
 46
0.0
 47
0.0
 48
0.0
 49
0.0
140
0.0
141
0.0
142
1.0
143
1.0
 70
   688
 72
     0
 73
     0
 74
     5
  7

 75
    16
147
1.0
 76
     0
 77
     2
 78
   300
148
0.0
149
0.0
100
AcDbLayout
  1
Presentación1
 70
     1
 71
     1
 10
0.0
 20
0.0
 11
12.0
 21
9.0
 12
0.0
 22
0.0
 32
0.0
 14
1.000000000000000E+20
 24
1.000000000000000E+20
 34
1.000000000000000E+20
 15
-1.000000000000000E+20
 25
-1.000000000000000E+20
 35
-1.000000000000000E+20
146
0.0
 13
0.0
 23
0.0
 33
0.0
 16
1.0
 26
0.0
 36
0.0
 17
0.0
 27
1.0
 37
0.0
 76
     0
330
72
  0
MATERIAL
  5
19
102
{ACAD_XDICTIONARY
360
1A
102
}
102
{ACAD_REACTORS
330
10
102
}
330
10
100
AcDbMaterial
  1
ByBlock
 72
     0
 43
0.0208333333333333
 43
0.0
 43
0.0
 43
0.0
 43
0.0
 43
0.0208333333333333
 43
0.0
 43
0.0
 43
0.0
 43
0.0
 43
1.0
 43
0.0
 43
0.0
 43
0.0
 43
0.0
 43
1.0
 77
     0
 47
0.0208333333333333
 47
0.0
 47
0.0
 47
0.0
 47
0.0
 47
0.0208333333333333
 47
0.0
 47
0.0
 47
0.0
 47
0.0
 47
1.0
 47
0.0
 47
0.0
 47
0.0
 47
0.0
 47
1.0
171
     0
 49
0.0208333333333333
 49
0.0
 49
0.0
 49
0.0
 49
0.0
 49
0.0208333333333333
 49
0.0
 49
0.0
 49
0.0
 49
0.0
 49
1.0
 49
0.0
 49
0.0
 49
0.0
 49
0.0
 49
1.0
175
     0
142
0.0208333333333333
142
0.0
142
0.0
142
0.0
142
0.0
142
0.0208333333333333
142
0.0
142
0.0
142
0.0
142
0.0
142
1.0
142
0.0
142
0.0
142
0.0
142
0.0
142
1.0
179
     0
144
0.0208333333333333
144
0.0
144
0.0
144
0.0
144
0.0
144
0.0208333333333333
144
0.0
144
0.0
144
0.0
144
0.0
144
1.0
144
0.0
144
0.0
144
0.0
144
0.0
144
1.0
147
0.0208333333333333
147
0.0
147
0.0
147
0.0
147
0.0
147
0.0208333333333333
147
0.0
147
0.0
147
0.0
147
0.0
147
1.0
147
0.0
147
0.0
147
0.0
147
0.0
147
1.0
  0
MATERIAL
  5
11
102
{ACAD_XDICTIONARY
360
12
102
}
102
{ACAD_REACTORS
330
10
102
}
330
10
100
AcDbMaterial
  1
ByLayer
 72
     0
 43
0.0208333333333333
 43
0.0
 43
0.0
 43
0.0
 43
0.0
 43
0.0208333333333333
 43
0.0
 43
0.0
 43
0.0
 43
0.0
 43
1.0
 43
0.0
 43
0.0
 43
0.0
 43
0.0
 43
1.0
 77
     0
 47
0.0208333333333333
 47
0.0
 47
0.0
 47
0.0
 47
0.0
 47
0.0208333333333333
 47
0.0
 47
0.0
 47
0.0
 47
0.0
 47
1.0
 47
0.0
 47
0.0
 47
0.0
 47
0.0
 47
1.0
171
     0
 49
0.0208333333333333
 49
0.0
 49
0.0
 49
0.0
 49
0.0
 49
0.0208333333333333
 49
0.0
 49
0.0
 49
0.0
 49
0.0
 49
1.0
 49
0.0
 49
0.0
 49
0.0
 49
0.0
 49
1.0
175
     0
142
0.0208333333333333
142
0.0
142
0.0
142
0.0
142
0.0
142
0.0208333333333333
142
0.0
142
0.0
142
0.0
142
0.0
142
1.0
142
0.0
142
0.0
142
0.0
142
0.0
142
1.0
179
     0
144
0.0208333333333333
144
0.0
144
0.0
144
0.0
144
0.0
144
0.0208333333333333
144
0.0
144
0.0
144
0.0
144
0.0
144
1.0
144
0.0
144
0.0
144
0.0
144
0.0
144
1.0
147
0.0208333333333333
147
0.0
147
0.0
147
0.0
147
0.0
147
0.0208333333333333
147
0.0
147
0.0
147
0.0
147
0.0
147
1.0
147
0.0
147
0.0
147
0.0
147
0.0
147
1.0
  0
MATERIAL
  5
21
102
{ACAD_XDICTIONARY
360
22
102
}
102
{ACAD_REACTORS
330
10
102
}
330
10
100
AcDbMaterial
  1
Global
 72
     0
 43
0.0208333333333333
 43
0.0
 43
0.0
 43
0.0
 43
0.0
 43
0.0208333333333333
 43
0.0
 43
0.0
 43
0.0
 43
0.0
 43
1.0
 43
0.0
 43
0.0
 43
0.0
 43
0.0
 43
1.0
 77
     0
 47
0.0208333333333333
 47
0.0
 47
0.0
 47
0.0
 47
0.0
 47
0.0208333333333333
 47
0.0
 47
0.0
 47
0.0
 47
0.0
 47
1.0
 47
0.0
 47
0.0
 47
0.0
 47
0.0
 47
1.0
171
     0
 49
0.0208333333333333
 49
0.0
 49
0.0
 49
0.0
 49
0.0
 49
0.0208333333333333
 49
0.0
 49
0.0
 49
0.0
 49
0.0
 49
1.0
 49
0.0
 49
0.0
 49
0.0
 49
0.0
 49
1.0
175
     0
142
0.0208333333333333
142
0.0
142
0.0
142
0.0
142
0.0
142
0.0208333333333333
142
0.0
142
0.0
142
0.0
142
0.0
142
1.0
142
0.0
142
0.0
142
0.0
142
0.0
142
1.0
179
     0
144
0.0208333333333333
144
0.0
144
0.0
144
0.0
144
0.0
144
0.0208333333333333
144
0.0
144
0.0
144
0.0
144
0.0
144
1.0
144
0.0
144
0.0
144
0.0
144
0.0
144
1.0
147
0.0208333333333333
147
0.0
147
0.0
147
0.0
147
0.0
147
0.0208333333333333
147
0.0
147
0.0
147
0.0
147
0.0
147
1.0
147
0.0
147
0.0
147
0.0
147
0.0
147
1.0
  0
MLEADERSTYLE
  5
71
102
{ACAD_REACTORS
330
70
102
}
330
70
100
AcDbMLeaderStyle
170
     2
171
     1
172
     0
 90
        2
 40
0.0
 41
0.0
173
     1
 91
-1056964608
340
65
 92
       -2
290
     1
 42
0.09
291
     1
 43
0.36
  3
Standard
 44
0.18
300

342
60
174
     1
178
     6
175
     1
176
     0
 93
-1056964608
 45
0.18
292
     0
297
     0
 46
0.18
 94
-1056964608
 47
1.0
 49
1.0
140
1.0
293
     1
141
0.0
294
     1
177
     0
142
1.0
295
     0
296
     0
143
0.125
1001
ACAD_MLEADERVER
1070
     2
  0
MLINESTYLE
  5
6A
102
{ACAD_REACTORS
330
69
102
}
330
69
100
AcDbMlineStyle
  2
STANDARD
 70
     0
  3

 62
   256
 51
90.0
 52
90.0
 71
     2
 49
0.5
 62
   256
  6
BYLAYER
 49
-0.5
 62
   256
  6
BYLAYER
  0
ACDBPLACEHOLDER
  5
F
102
{ACAD_REACTORS
330
E
102
}
330
E
  0
SCALE
  5
21F
102
{ACAD_REACTORS
330
3D
102
}
330
3D
100
AcDbScale
 70
     0
300
1" = 1'
140
1.0
141
1.0
290
     0
  0
SCALE
  5
3E
102
{ACAD_REACTORS
330
3D
102
}
330
3D
100
AcDbScale
 70
     0
300
1:1
140
1.0
141
1.0
290
     1
  0
SCALE
  5
3F
102
{ACAD_REACTORS
330
3D
102
}
330
3D
100
AcDbScale
 70
     0
300
1:2
140
1.0
141
2.0
290
     0
  0
SCALE
  5
40
102
{ACAD_REACTORS
330
3D
102
}
330
3D
100
AcDbScale
 70
     0
300
1:4
140
1.0
141
4.0
290
     0
  0
SCALE
  5
41
102
{ACAD_REACTORS
330
3D
102
}
330
3D
100
AcDbScale
 70
     0
300
1:5
140
1.0
141
5.0
290
     0
  0
SCALE
  5
42
102
{ACAD_REACTORS
330
3D
102
}
330
3D
100
AcDbScale
 70
     0
300
1:8
140
1.0
141
8.0
290
     0
  0
SCALE
  5
43
102
{ACAD_REACTORS
330
3D
102
}
330
3D
100
AcDbScale
 70
     0
300
1:10
140
1.0
141
10.0
290
     0
  0
SCALE
  5
44
102
{ACAD_REACTORS
330
3D
102
}
330
3D
100
AcDbScale
 70
     0
300
1:16
140
1.0
141
16.0
290
     0
  0
SCALE
  5
45
102
{ACAD_REACTORS
330
3D
102
}
330
3D
100
AcDbScale
 70
     0
300
1:20
140
1.0
141
20.0
290
     0
  0
SCALE
  5
46
102
{ACAD_REACTORS
330
3D
102
}
330
3D
100
AcDbScale
 70
     0
300
1:30
140
1.0
141
30.0
290
     0
  0
SCALE
  5
47
102
{ACAD_REACTORS
330
3D
102
}
330
3D
100
AcDbScale
 70
     0
300
1:40
140
1.0
141
40.0
290
     0
  0
SCALE
  5
48
102
{ACAD_REACTORS
330
3D
102
}
330
3D
100
AcDbScale
 70
     0
300
1:50
140
1.0
141
50.0
290
     0
  0
SCALE
  5
49
102
{ACAD_REACTORS
330
3D
102
}
330
3D
100
AcDbScale
 70
     0
300
1:100
140
1.0
141
100.0
290
     0
  0
SCALE
  5
4A
102
{ACAD_REACTORS
330
3D
102
}
330
3D
100
AcDbScale
 70
     0
300
2:1
140
2.0
141
1.0
290
     0
  0
SCALE
  5
4B
102
{ACAD_REACTORS
330
3D
102
}
330
3D
100
AcDbScale
 70
     0
300
4:1
140
4.0
141
1.0
290
     0
  0
SCALE
  5
4C
102
{ACAD_REACTORS
330
3D
102
}
330
3D
100
AcDbScale
 70
     0
300
8:1
140
8.0
141
1.0
290
     0
  0
SCALE
  5
4D
102
{ACAD_REACTORS
330
3D
102
}
330
3D
100
AcDbScale
 70
     0
300
10:1
140
10.0
141
1.0
290
     0
  0
SCALE
  5
4E
102
{ACAD_REACTORS
330
3D
102
}
330
3D
100
AcDbScale
 70
     0
300
100:1
140
100.0
141
1.0
290
     0
  0
SCALE
  5
4F
102
{ACAD_REACTORS
330
3D
102
}
330
3D
100
AcDbScale
 70
     0
300
1/128" = 1'-0"
140
0.0078125
141
12.0
290
     0
  0
SCALE
  5
50
102
{ACAD_REACTORS
330
3D
102
}
330
3D
100
AcDbScale
 70
     0
300
1/64" = 1'-0"
140
0.015625
141
12.0
290
     0
  0
SCALE
  5
51
102
{ACAD_REACTORS
330
3D
102
}
330
3D
100
AcDbScale
 70
     0
300
1/32" = 1'-0"
140
0.03125
141
12.0
290
     0
  0
SCALE
  5
52
102
{ACAD_REACTORS
330
3D
102
}
330
3D
100
AcDbScale
 70
     0
300
1/16" = 1'-0"
140
0.0625
141
12.0
290
     0
  0
SCALE
  5
53
102
{ACAD_REACTORS
330
3D
102
}
330
3D
100
AcDbScale
 70
     0
300
3/32" = 1'-0"
140
0.09375
141
12.0
290
     0
  0
SCALE
  5
54
102
{ACAD_REACTORS
330
3D
102
}
330
3D
100
AcDbScale
 70
     0
300
1/8" = 1'-0"
140
0.125
141
12.0
290
     0
  0
SCALE
  5
55
102
{ACAD_REACTORS
330
3D
102
}
330
3D
100
AcDbScale
 70
     0
300
3/16" = 1'-0"
140
0.1875
141
12.0
290
     0
  0
SCALE
  5
56
102
{ACAD_REACTORS
330
3D
102
}
330
3D
100
AcDbScale
 70
     0
300
1/4" = 1'-0"
140
0.25
141
12.0
290
     0
  0
SCALE
  5
57
102
{ACAD_REACTORS
330
3D
102
}
330
3D
100
AcDbScale
 70
     0
300
3/8" = 1'-0"
140
0.375
141
12.0
290
     0
  0
SCALE
  5
58
102
{ACAD_REACTORS
330
3D
102
}
330
3D
100
AcDbScale
 70
     0
300
1/2" = 1'-0"
140
0.5
141
12.0
290
     0
  0
SCALE
  5
59
102
{ACAD_REACTORS
330
3D
102
}
330
3D
100
AcDbScale
 70
     0
300
3/4" = 1'-0"
140
0.75
141
12.0
290
     0
  0
SCALE
  5
5A
102
{ACAD_REACTORS
330
3D
102
}
330
3D
100
AcDbScale
 70
     0
300
1" = 1'-0"
140
1.0
141
12.0
290
     0
  0
SCALE
  5
5B
102
{ACAD_REACTORS
330
3D
102
}
330
3D
100
AcDbScale
 70
     0
300
1-1/2" = 1'-0"
140
1.5
141
12.0
290
     0
  0
SCALE
  5
5C
102
{ACAD_REACTORS
330
3D
102
}
330
3D
100
AcDbScale
 70
     0
300
3" = 1'-0"
140
3.0
141
12.0
290
     0
  0
SCALE
  5
5D
102
{ACAD_REACTORS
330
3D
102
}
330
3D
100
AcDbScale
 70
     0
300
6" = 1'-0"
140
6.0
141
12.0
290
     0
  0
SCALE
  5
5E
102
{ACAD_REACTORS
330
3D
102
}
330
3D
100
AcDbScale
 70
     0
300
1'-0" = 1'-0"
140
12.0
141
12.0
290
     0
  0
TABLESTYLE
  5
6F
102
{ACAD_XDICTIONARY
360
6FB
102
}
102
{ACAD_REACTORS
330
6E
102
}
330
6E
100
AcDbTableStyle
  3
Standard
 70
     0
 71
     0
 40
0.06
 41
0.06
280
     0
281
     0
  7
Standard
140
0.18
170
     2
 62
     0
 63
     7
283
     0
 90
      512
 91
        0
  1

274
    -2
284
     1
 64
     0
275
    -2
285
     1
 65
     0
276
    -2
286
     1
 66
     0
277
    -2
287
     1
 67
     0
278
    -2
288
     1
 68
     0
279
    -2
289
     1
 69
     0
  7
Standard
140
0.25
170
     5
 62
     0
 63
     7
283
     0
 90
      512
 91
        0
  1

274
    -2
284
     1
 64
     0
275
    -2
285
     1
 65
     0
276
    -2
286
     1
 66
     0
277
    -2
287
     1
 67
     0
278
    -2
288
     1
 68
     0
279
    -2
289
     1
 69
     0
  7
Standard
140
0.18
170
     5
 62
     0
 63
     7
283
     0
 90
      512
 91
        0
  1

274
    -2
284
     1
 64
     0
275
    -2
285
     1
 65
     0
276
    -2
286
     1
 66
     0
277
    -2
287
     1
 67
     0
278
    -2
288
     1
 68
     0
279
    -2
289
     1
 69
     0
  0
VISUALSTYLE
  5
2F
102
{ACAD_XDICTIONARY
360
708
102
}
102
{ACAD_REACTORS
330
29
102
}
330
29
100
AcDbVisualStyle
  2
2dWireframe
 70
     4
 71
     0
 72
     2
 73
     0
 90
        0
 40
-0.6
 41
-30.0
 62
     5
 63
     7
421
 16777215
 74
     1
 91
        4
 64
     7
 65
   257
 75
     1
175
     1
 42
1.0
 92
        0
 66
   257
 43
1.0
 76
     1
 77
     6
 78
     2
 67
     7
 79
     5
170
     0
171
     0
290
     0
174
     0
 93
        1
 44
0.0
173
     0
291
     0
 45
0.0
1001
ACAD
1000
AcDbSavedByObjectVersion
1070
     0
  0
VISUALSTYLE
  5
31
102
{ACAD_XDICTIONARY
360
70C
102
}
102
{ACAD_REACTORS
330
29
102
}
330
29
100
AcDbVisualStyle
  2
3D Hidden
 70
     6
 71
     1
 72
     2
 73
     2
 90
        0
 40
-0.6
 41
-30.0
 62
     5
 63
     7
421
 16777215
 74
     2
 91
        2
 64
     7
 65
   257
 75
     2
175
     1
 42
179.0
 92
        0
 66
   257
 43
1.0
 76
     1
 77
     6
 78
     2
 67
     7
 79
     3
170
     0
171
     0
290
     0
174
     0
 93
        1
 44
0.0
173
     0
291
     0
 45
0.0
1001
ACAD
1000
AcDbSavedByObjectVersion
1070
     0
  0
VISUALSTYLE
  5
30
102
{ACAD_XDICTIONARY
360
70A
102
}
102
{ACAD_REACTORS
330
29
102
}
330
29
100
AcDbVisualStyle
  2
3dWireframe
 70
     5
 71
     0
 72
     2
 73
     0
 90
        0
 40
-0.6
 41
-30.0
 62
     5
 63
     7
421
 16777215
 74
     1
 91
        4
 64
     7
 65
   257
 75
     1
175
     1
 42
1.0
 92
        0
 66
   257
 43
1.0
 76
     1
 77
     6
 78
     2
 67
     7
 79
     5
170
     0
171
     0
290
     0
174
     0
 93
        1
 44
0.0
173
     0
291
     0
 45
0.0
1001
ACAD
1000
AcDbSavedByObjectVersion
1070
     0
  0
VISUALSTYLE
  5
2E
102
{ACAD_XDICTIONARY
360
706
102
}
102
{ACAD_REACTORS
330
29
102
}
330
29
100
AcDbVisualStyle
  2
Basic
 70
     7
 71
     1
 72
     0
 73
     1
 90
        0
 40
-0.6
 41
-30.0
 62
     5
 63
     7
421
 16777215
 74
     0
 91
        4
 64
     7
 65
   257
 75
     1
175
     1
 42
1.0
 92
        8
 66
     7
 43
1.0
 76
     1
 77
     6
 78
     2
 67
     7
 79
     5
170
     0
171
     0
290
     0
174
     0
 93
        1
 44
0.0
173
     0
291
     1
 45
0.0
1001
ACAD
1000
AcDbSavedByObjectVersion
1070
     0
  0
VISUALSTYLE
  5
35
102
{ACAD_XDICTIONARY
360
714
102
}
102
{ACAD_REACTORS
330
29
102
}
330
29
100
AcDbVisualStyle
  2
Brighten
 70
    12
 71
     2
 72
     2
 73
     0
 90
        0
 40
-0.6
 41
-30.0
 62
     5
 63
     7
421
 16777215
 74
     1
 91
        4
 64
     7
 65
   257
 75
     1
175
     1
 42
1.0
 92
        8
 66
     7
 43
1.0
 76
     1
 77
     6
 78
     2
 67
     7
 79
     5
170
     0
171
     0
290
     0
174
     0
 93
        1
 44
50.0
173
     0
291
     1
 45
0.0
1001
ACAD
1000
AcDbSavedByObjectVersion
1070
     0
  0
VISUALSTYLE
  5
39
102
{ACAD_XDICTIONARY
360
71C
102
}
102
{ACAD_REACTORS
330
29
102
}
330
29
100
AcDbVisualStyle
  2
ColorChange
 70
    16
 71
     2
 72
     2
 73
     3
 90
        0
 40
-0.6
 41
-30.0
 62
     5
 63
     8
421
  8421504
 74
     1
 91
        4
 64
     7
 65
   257
 75
     1
175
     1
 42
1.0
 92
        8
 66
     8
424
  8421504
 43
1.0
 76
     1
 77
     6
 78
     2
 67
     7
 79
     5
170
     0
171
     0
290
     0
174
     0
 93
        1
 44
0.0
173
     0
291
     1
 45
0.0
1001
ACAD
1000
AcDbSavedByObjectVersion
1070
     0
  0
VISUALSTYLE
  5
32
102
{ACAD_XDICTIONARY
360
70E
102
}
102
{ACAD_REACTORS
330
29
102
}
330
29
100
AcDbVisualStyle
  2
Conceptual
 70
     9
 71
     3
 72
     2
 73
     0
 90
        0
 40
-0.6
 41
-30.0
 62
     5
 63
     7
421
 16777215
 74
     2
 91
        2
 64
     7
 65
   257
 75
     1
175
     1
 42
179.0
 92
        8
 66
     7
 43
1.0
 76
     1
 77
     6
 78
     2
 67
     7
 79
     3
170
     0
171
     0
290
     0
174
     0
 93
        1
 44
0.0
173
     0
291
     0
 45
0.0
1001
ACAD
1000
AcDbSavedByObjectVersion
1070
     0
  0
VISUALSTYLE
  5
34
102
{ACAD_XDICTIONARY
360
712
102
}
102
{ACAD_REACTORS
330
29
102
}
330
29
100
AcDbVisualStyle
  2
Dim
 70
    11
 71
     2
 72
     2
 73
     0
 90
        0
 40
-0.6
 41
-30.0
 62
     5
 63
     7
421
 16777215
 74
     1
 91
        4
 64
     7
 65
   257
 75
     1
175
     1
 42
1.0
 92
        8
 66
     7
 43
1.0
 76
     1
 77
     6
 78
     2
 67
     7
 79
     5
170
     0
171
     0
290
     0
174
     0
 93
        1
 44
-50.0
173
     0
291
     1
 45
0.0
1001
ACAD
1000
AcDbSavedByObjectVersion
1070
     0
  0
VISUALSTYLE
  5
3C
102
{ACAD_XDICTIONARY
360
722
102
}
102
{ACAD_REACTORS
330
29
102
}
330
29
100
AcDbVisualStyle
  2
EdgeColorOff
 70
    22
 71
     2
 72
     2
 73
     0
 90
        0
 40
-0.6
 41
-30.0
 62
     5
 63
     7
421
 16777215
 74
     1
 91
        4
 64
     7
 65
   257
 75
     1
175
     1
 42
1.0
 92
        8
 66
     7
 43
1.0
 76
     1
 77
     6
 78
     2
 67
     7
 79
     5
170
     0
171
     0
290
     0
174
     0
 93
        1
 44
0.0
173
     0
291
     1
 45
0.0
1001
ACAD
1000
AcDbSavedByObjectVersion
1070
     0
  0
VISUALSTYLE
  5
38
102
{ACAD_XDICTIONARY
360
71A
102
}
102
{ACAD_REACTORS
330
29
102
}
330
29
100
AcDbVisualStyle
  2
Facepattern
 70
    15
 71
     2
 72
     2
 73
     0
 90
        0
 40
-0.6
 41
-30.0
 62
     5
 63
     7
421
 16777215
 74
     1
 91
        4
 64
     7
 65
   257
 75
     1
175
     1
 42
1.0
 92
        8
 66
     7
 43
1.0
 76
     1
 77
     6
 78
     2
 67
     7
 79
     5
170
     0
171
     0
290
     0
174
     0
 93
        1
 44
0.0
173
     0
291
     1
 45
0.0
1001
ACAD
1000
AcDbSavedByObjectVersion
1070
     0
  0
VISUALSTYLE
  5
2A
102
{ACAD_XDICTIONARY
360
6FE
102
}
102
{ACAD_REACTORS
330
29
102
}
330
29
100
AcDbVisualStyle
  2
Flat
 70
     0
 71
     2
 72
     1
 73
     1
 90
        2
 40
-0.6
 41
30.0
 62
     5
 63
     7
421
 16777215
 74
     0
 91
        4
 64
     7
 65
   257
 75
     1
175
     1
 42
1.0
 92
        8
 66
     7
 43
1.0
 76
     1
 77
     6
 78
     2
 67
     7
 79
     5
170
     0
171
     0
290
     0
174
     0
 93
       13
 44
0.0
173
     0
291
     1
 45
0.0
1001
ACAD
1000
AcDbSavedByObjectVersion
1070
     0
  0
VISUALSTYLE
  5
2B
102
{ACAD_XDICTIONARY
360
700
102
}
102
{ACAD_REACTORS
330
29
102
}
330
29
100
AcDbVisualStyle
  2
FlatWithEdges
 70
     1
 71
     2
 72
     1
 73
     1
 90
        2
 40
-0.6
 41
30.0
 62
     5
 63
     7
421
 16777215
 74
     1
 91
        4
 64
     7
 65
   257
 75
     1
175
     1
 42
1.0
 92
        0
 66
   257
 43
1.0
 76
     1
 77
     6
 78
     2
 67
     7
 79
     5
170
     0
171
     0
290
     0
174
     0
 93
       13
 44
0.0
173
     0
291
     1
 45
0.0
1001
ACAD
1000
AcDbSavedByObjectVersion
1070
     0
  0
VISUALSTYLE
  5
2C
102
{ACAD_XDICTIONARY
360
702
102
}
102
{ACAD_REACTORS
330
29
102
}
330
29
100
AcDbVisualStyle
  2
Gouraud
 70
     2
 71
     2
 72
     2
 73
     1
 90
        2
 40
-0.6
 41
30.0
 62
     5
 63
     7
421
 16777215
 74
     0
 91
        4
 64
     7
 65
   257
 75
     1
175
     1
 42
1.0
 92
        0
 66
     7
 43
1.0
 76
     1
 77
     6
 78
     2
 67
     7
 79
     5
170
     0
171
     0
290
     0
174
     0
 93
       13
 44
0.0
173
     0
291
     1
 45
0.0
1001
ACAD
1000
AcDbSavedByObjectVersion
1070
     0
  0
VISUALSTYLE
  5
2D
102
{ACAD_XDICTIONARY
360
704
102
}
102
{ACAD_REACTORS
330
29
102
}
330
29
100
AcDbVisualStyle
  2
GouraudWithEdges
 70
     3
 71
     2
 72
     2
 73
     1
 90
        2
 40
-0.6
 41
30.0
 62
     5
 63
     7
421
 16777215
 74
     1
 91
        4
 64
     7
 65
   257
 75
     1
175
     1
 42
1.0
 92
        0
 66
   257
 43
1.0
 76
     1
 77
     6
 78
     2
 67
     7
 79
     5
170
     0
171
     0
290
     0
174
     0
 93
       13
 44
0.0
173
     0
291
     1
 45
0.0
1001
ACAD
1000
AcDbSavedByObjectVersion
1070
     0
  0
VISUALSTYLE
  5
3A
102
{ACAD_XDICTIONARY
360
71E
102
}
102
{ACAD_REACTORS
330
29
102
}
330
29
100
AcDbVisualStyle
  2
JitterOff
 70
    20
 71
     2
 72
     2
 73
     0
 90
        0
 40
-0.6
 41
-30.0
 62
     5
 63
     7
421
 16777215
 74
     1
 91
        4
 64
     7
 65
   257
 75
     1
175
     1
 42
1.0
 92
       10
 66
     7
 43
1.0
 76
     1
 77
     6
 78
     2
 67
     7
 79
     5
170
     0
171
     0
290
     0
174
     0
 93
        1
 44
0.0
173
     0
291
     1
 45
0.0
1001
ACAD
1000
AcDbSavedByObjectVersion
1070
     0
  0
VISUALSTYLE
  5
37
102
{ACAD_XDICTIONARY
360
718
102
}
102
{ACAD_REACTORS
330
29
102
}
330
29
100
AcDbVisualStyle
  2
Linepattern
 70
    14
 71
     2
 72
     2
 73
     0
 90
        0
 40
-0.6
 41
-30.0
 62
     5
 63
     7
421
 16777215
 74
     1
 91
        4
 64
     7
 65
   257
 75
     7
175
     7
 42
1.0
 92
        8
 66
     7
 43
1.0
 76
     1
 77
     6
 78
     2
 67
     7
 79
     5
170
     0
171
     0
290
     0
174
     0
 93
        1
 44
0.0
173
     0
291
     1
 45
0.0
1001
ACAD
1000
AcDbSavedByObjectVersion
1070
     0
  0
VISUALSTYLE
  5
3B
102
{ACAD_XDICTIONARY
360
720
102
}
102
{ACAD_REACTORS
330
29
102
}
330
29
100
AcDbVisualStyle
  2
OverhangOff
 70
    21
 71
     2
 72
     2
 73
     0
 90
        0
 40
-0.6
 41
-30.0
 62
     5
 63
     7
421
 16777215
 74
     1
 91
        4
 64
     7
 65
   257
 75
     1
175
     1
 42
1.0
 92
        9
 66
     7
 43
1.0
 76
     1
 77
     6
 78
     2
 67
     7
 79
     5
170
     0
171
     0
290
     0
174
     0
 93
        1
 44
0.0
173
     0
291
     1
 45
0.0
1001
ACAD
1000
AcDbSavedByObjectVersion
1070
     0
  0
VISUALSTYLE
  5
33
102
{ACAD_XDICTIONARY
360
710
102
}
102
{ACAD_REACTORS
330
29
102
}
330
29
100
AcDbVisualStyle
  2
Realistic
 70
     8
 71
     2
 72
     2
 73
     0
 90
        0
 40
-0.6
 41
-30.0
 62
     5
 63
     7
421
 16777215
 74
     1
 91
        0
 64
     7
 65
   257
 75
     1
175
     1
 42
1.0
 92
        8
 66
     8
424
  7895160
 43
1.0
 76
     1
 77
     6
 78
     2
 67
     7
 79
     5
170
     0
171
     0
290
     0
174
     0
 93
       13
 44
0.0
173
     0
291
     0
 45
0.0
1001
ACAD
1000
AcDbSavedByObjectVersion
1070
     0
  0
VISUALSTYLE
  5
36
102
{ACAD_XDICTIONARY
360
716
102
}
102
{ACAD_REACTORS
330
29
102
}
330
29
100
AcDbVisualStyle
  2
Thicken
 70
    13
 71
     2
 72
     2
 73
     0
 90
        0
 40
-0.6
 41
-30.0
 62
     5
 63
     7
421
 16777215
 74
     1
 91
        4
 64
     7
 65
   257
 75
     1
175
     1
 42
1.0
 92
       12
 66
     7
 43
1.0
 76
     1
 77
     6
 78
     2
 67
     7
 79
     5
170
     0
171
     0
290
     0
174
     0
 93
        1
 44
0.0
173
     0
291
     1
 45
0.0
1001
ACAD
1000
AcDbSavedByObjectVersion
1070
     0
  0
DICTIONARYVAR
  5
6F6
102
{ACAD_REACTORS
330
6F2
102
}
330
6F2
100
DictionaryVariables
280
     0
  1
1:1
  0
DICTIONARYVAR
  5
6F4
102
{ACAD_REACTORS
330
6F2
102
}
330
6F2
100
DictionaryVariables
280
     0
  1
STANDARD
  0
DICTIONARYVAR
  5
6F3
102
{ACAD_REACTORS
330
6F2
102
}
330
6F2
100
DictionaryVariables
280
     0
  1
STANDARD
  0
DICTIONARYVAR
  5
6F8
102
{ACAD_REACTORS
330
6F2
102
}
330
6F2
100
DictionaryVariables
280
     0
  1
1
  0
DICTIONARYVAR
  5
6F9
102
{ACAD_REACTORS
330
6F2
102
}
330
6F2
100
DictionaryVariables
280
     0
  1
15
  0
DICTIONARYVAR
  5
6F7
102
{ACAD_REACTORS
330
6F2
102
}
330
6F2
100
DictionaryVariables
280
     0
  1
0
  0
DICTIONARYVAR
  5
6F5
102
{ACAD_REACTORS
330
6F2
102
}
330
6F2
100
DictionaryVariables
280
     0
  1
0
  0
DICTIONARYVAR
  5
6FA
102
{ACAD_REACTORS
330
6F2
102
}
330
6F2
100
DictionaryVariables
280
     0
  1
2
  0
DICTIONARY
  5
1A
330
19
100
AcDbDictionary
280
     1
281
     1
  3
BUMPTILE
360
1C
  3
DIFFUSETILE
360
1B
  3
OPACITYTILE
360
1F
  3
REFLECTIONTILE
360
1E
  3
REFRACTIONTILE
360
20
  3
SPECULARTILE
360
1D
  0
DICTIONARY
  5
12
330
11
100
AcDbDictionary
280
     1
281
     1
  3
BUMPTILE
360
14
  3
DIFFUSETILE
360
13
  3
OPACITYTILE
360
17
  3
REFLECTIONTILE
360
16
  3
REFRACTIONTILE
360
18
  3
SPECULARTILE
360
15
  0
DICTIONARY
  5
22
330
21
100
AcDbDictionary
280
     1
281
     1
  3
BUMPTILE
360
24
  3
DIFFUSETILE
360
23
  3
OPACITYTILE
360
27
  3
REFLECTIONTILE
360
26
  3
REFRACTIONTILE
360
28
  3
SPECULARTILE
360
25
  0
DICTIONARY
  5
6FB
330
6F
100
AcDbDictionary
280
     1
281
     1
  3
ACAD_ROUNDTRIP_2008_TABLESTYLE_CELLSTYLEMAP
360
6FC
  0
DICTIONARY
  5
708
330
2F
100
AcDbDictionary
280
     1
281
     1
  3
ACAD_XREC_ROUNDTRIP
360
709
  0
DICTIONARY
  5
70C
330
31
100
AcDbDictionary
280
     1
281
     1
  3
ACAD_XREC_ROUNDTRIP
360
70D
  0
DICTIONARY
  5
70A
330
30
100
AcDbDictionary
280
     1
281
     1
  3
ACAD_XREC_ROUNDTRIP
360
70B
  0
DICTIONARY
  5
706
330
2E
100
AcDbDictionary
280
     1
281
     1
  3
ACAD_XREC_ROUNDTRIP
360
707
  0
DICTIONARY
  5
714
330
35
100
AcDbDictionary
280
     1
281
     1
  3
ACAD_XREC_ROUNDTRIP
360
715
  0
DICTIONARY
  5
71C
330
39
100
AcDbDictionary
280
     1
281
     1
  3
ACAD_XREC_ROUNDTRIP
360
71D
  0
DICTIONARY
  5
70E
330
32
100
AcDbDictionary
280
     1
281
     1
  3
ACAD_XREC_ROUNDTRIP
360
70F
  0
DICTIONARY
  5
712
330
34
100
AcDbDictionary
280
     1
281
     1
  3
ACAD_XREC_ROUNDTRIP
360
713
  0
DICTIONARY
  5
722
330
3C
100
AcDbDictionary
280
     1
281
     1
  3
ACAD_XREC_ROUNDTRIP
360
723
  0
DICTIONARY
  5
71A
330
38
100
AcDbDictionary
280
     1
281
     1
  3
ACAD_XREC_ROUNDTRIP
360
71B
  0
DICTIONARY
  5
6FE
330
2A
100
AcDbDictionary
280
     1
281
     1
  3
ACAD_XREC_ROUNDTRIP
360
6FF
  0
DICTIONARY
  5
700
330
2B
100
AcDbDictionary
280
     1
281
     1
  3
ACAD_XREC_ROUNDTRIP
360
701
  0
DICTIONARY
  5
702
330
2C
100
AcDbDictionary
280
     1
281
     1
  3
ACAD_XREC_ROUNDTRIP
360
703
  0
DICTIONARY
  5
704
330
2D
100
AcDbDictionary
280
     1
281
     1
  3
ACAD_XREC_ROUNDTRIP
360
705
  0
DICTIONARY
  5
71E
330
3A
100
AcDbDictionary
280
     1
281
     1
  3
ACAD_XREC_ROUNDTRIP
360
71F
  0
DICTIONARY
  5
718
330
37
100
AcDbDictionary
280
     1
281
     1
  3
ACAD_XREC_ROUNDTRIP
360
719
  0
DICTIONARY
  5
720
330
3B
100
AcDbDictionary
280
     1
281
     1
  3
ACAD_XREC_ROUNDTRIP
360
721
  0
DICTIONARY
  5
710
330
33
100
AcDbDictionary
280
     1
281
     1
  3
ACAD_XREC_ROUNDTRIP
360
711
  0
DICTIONARY
  5
716
330
36
100
AcDbDictionary
280
     1
281
     1
  3
ACAD_XREC_ROUNDTRIP
360
717
  0
XRECORD
  5
1C
102
{ACAD_REACTORS
330
1A
102
}
330
1A
100
AcDbXrecord
280
     1
270
     1
271
     1
  0
XRECORD
  5
1B
102
{ACAD_REACTORS
330
1A
102
}
330
1A
100
AcDbXrecord
280
     1
270
     1
271
     1
  0
XRECORD
  5
1F
102
{ACAD_REACTORS
330
1A
102
}
330
1A
100
AcDbXrecord
280
     1
270
     1
271
     1
  0
XRECORD
  5
1E
102
{ACAD_REACTORS
330
1A
102
}
330
1A
100
AcDbXrecord
280
     1
270
     1
271
     1
  0
XRECORD
  5
20
102
{ACAD_REACTORS
330
1A
102
}
330
1A
100
AcDbXrecord
280
     1
270
     1
271
     1
  0
XRECORD
  5
1D
102
{ACAD_REACTORS
330
1A
102
}
330
1A
100
AcDbXrecord
280
     1
270
     1
271
     1
  0
XRECORD
  5
14
102
{ACAD_REACTORS
330
12
102
}
330
12
100
AcDbXrecord
280
     1
270
     1
271
     1
  0
XRECORD
  5
13
102
{ACAD_REACTORS
330
12
102
}
330
12
100
AcDbXrecord
280
     1
270
     1
271
     1
  0
XRECORD
  5
17
102
{ACAD_REACTORS
330
12
102
}
330
12
100
AcDbXrecord
280
     1
270
     1
271
     1
  0
XRECORD
  5
16
102
{ACAD_REACTORS
330
12
102
}
330
12
100
AcDbXrecord
280
     1
270
     1
271
     1
  0
XRECORD
  5
18
102
{ACAD_REACTORS
330
12
102
}
330
12
100
AcDbXrecord
280
     1
270
     1
271
     1
  0
XRECORD
  5
15
102
{ACAD_REACTORS
330
12
102
}
330
12
100
AcDbXrecord
280
     1
270
     1
271
     1
  0
XRECORD
  5
24
102
{ACAD_REACTORS
330
22
102
}
330
22
100
AcDbXrecord
280
     1
270
     1
271
     1
  0
XRECORD
  5
23
102
{ACAD_REACTORS
330
22
102
}
330
22
100
AcDbXrecord
280
     1
270
     1
271
     1
  0
XRECORD
  5
27
102
{ACAD_REACTORS
330
22
102
}
330
22
100
AcDbXrecord
280
     1
270
     1
271
     1
  0
XRECORD
  5
26
102
{ACAD_REACTORS
330
22
102
}
330
22
100
AcDbXrecord
280
     1
270
     1
271
     1
  0
XRECORD
  5
28
102
{ACAD_REACTORS
330
22
102
}
330
22
100
AcDbXrecord
280
     1
270
     1
271
     1
  0
XRECORD
  5
25
102
{ACAD_REACTORS
330
22
102
}
330
22
100
AcDbXrecord
280
     1
270
     1
271
     1
  0
CELLSTYLEMAP
  5
6FC
102
{ACAD_REACTORS
330
6FB
102
}
330
6FB
100
AcDbCellStyleMap
 90
        3
300
CELLSTYLE
  1
TABLEFORMAT_BEGIN
 90
        5
170
     1
 91
        0
 92
    32768
 62
   257
 93
        1
300
CONTENTFORMAT
  1
CONTENTFORMAT_BEGIN
 90
        0
 91
        0
 92
      512
 93
        0
300

 40
0.0
140
1.0
 94
        5
 62
     0
340
60
144
0.25
309
CONTENTFORMAT_END
171
     0
 94
        0
309
TABLEFORMAT_END
  1
CELLSTYLE_BEGIN
 90
        1
 91
        1
300
_TITLE
309
CELLSTYLE_END
300
CELLSTYLE
  1
TABLEFORMAT_BEGIN
 90
        5
170
     1
 91
        0
 92
        0
 62
   257
 93
        1
300
CONTENTFORMAT
  1
CONTENTFORMAT_BEGIN
 90
        0
 91
        0
 92
      512
 93
        0
300

 40
0.0
140
1.0
 94
        5
 62
     0
340
60
144
0.18
309
CONTENTFORMAT_END
171
     0
 94
        0
309
TABLEFORMAT_END
  1
CELLSTYLE_BEGIN
 90
        2
 91
        1
300
_HEADER
309
CELLSTYLE_END
300
CELLSTYLE
  1
TABLEFORMAT_BEGIN
 90
        5
170
     1
 91
        0
 92
        0
 62
   257
 93
        1
300
CONTENTFORMAT
  1
CONTENTFORMAT_BEGIN
 90
        0
 91
        0
 92
      512
 93
        0
300

 40
0.0
140
1.0
 94
        2
 62
     0
340
60
144
0.18
309
CONTENTFORMAT_END
171
     0
 94
        0
309
TABLEFORMAT_END
  1
CELLSTYLE_BEGIN
 90
        3
 91
        2
300
_DATA
309
CELLSTYLE_END
  0
XRECORD
  5
709
102
{ACAD_REACTORS
330
708
102
}
330
708
100
AcDbXrecord
280
     1
102
RTVSPropertyOp0
 70
     1
102
RTVSPropertyOp1
 70
     1
102
RTVSPropertyOp2
 70
     1
102
RTVSPropertyOp3
 70
     1
102
RTVSPropertyOp4
 70
     1
102
RTVSPropertyOp5
 70
     1
102
RTVSPropertyOp6
 70
     1
102
RTVSPropertyOp7
 70
     1
102
RTVSPropertyOp8
 70
     1
102
RTVSPropertyOp9
 70
     1
102
RTVSPropertyOp10
 70
     1
102
RTVSPropertyOp11
 70
     1
102
RTVSPropertyOp12
 70
     1
102
RTVSPropertyOp13
 70
     1
102
RTVSPropertyOp14
 70
     1
102
RTVSPropertyOp15
 70
     1
102
RTVSPropertyOp16
 70
     1
102
RTVSPropertyOp17
 70
     1
102
RTVSPropertyOp18
 70
     1
102
RTVSPropertyOp19
 70
     1
102
RTVSPropertyOp20
 70
     1
102
RTVSPropertyOp21
 70
     1
102
RTVSPropertyOp22
 70
     1
102
RTVSPropertyOp23
 70
     1
102
RTVSPropertyOp24
 70
     1
102
RTVSPropertyOp25
 70
     1
102
RTVSPropertyOp26
 70
     1
102
RTVSPropertyOp27
 70
     1
  0
XRECORD
  5
70D
102
{ACAD_REACTORS
330
70C
102
}
330
70C
100
AcDbXrecord
280
     1
102
RTVSPropertyOp0
 70
     1
102
RTVSPropertyOp1
 70
     1
102
RTVSPropertyOp2
 70
     1
102
RTVSPropertyOp3
 70
     1
102
RTVSPropertyOp4
 70
     1
102
RTVSPropertyOp5
 70
     1
102
RTVSPropertyOp6
 70
     1
102
RTVSPropertyOp7
 70
     1
102
RTVSPropertyOp8
 70
     1
102
RTVSPropertyOp9
 70
     1
102
RTVSPropertyOp10
 70
     1
102
RTVSPropertyOp11
 70
     1
102
RTVSPropertyOp12
 70
     1
102
RTVSPropertyOp13
 70
     1
102
RTVSPropertyOp14
 70
     1
102
RTVSPropertyOp15
 70
     1
102
RTVSPropertyOp16
 70
     1
102
RTVSPropertyOp17
 70
     1
102
RTVSPropertyOp18
 70
     1
102
RTVSPropertyOp19
 70
     1
102
RTVSPropertyOp20
 70
     1
102
RTVSPropertyOp21
 70
     1
102
RTVSPropertyOp22
 70
     1
102
RTVSPropertyOp23
 70
     1
102
RTVSPropertyOp24
 70
     1
102
RTVSPropertyOp25
 70
     1
102
RTVSPropertyOp26
 70
     1
102
RTVSPropertyOp27
 70
     1
  0
XRECORD
  5
70B
102
{ACAD_REACTORS
330
70A
102
}
330
70A
100
AcDbXrecord
280
     1
102
RTVSPropertyOp0
 70
     1
102
RTVSPropertyOp1
 70
     1
102
RTVSPropertyOp2
 70
     1
102
RTVSPropertyOp3
 70
     1
102
RTVSPropertyOp4
 70
     1
102
RTVSPropertyOp5
 70
     1
102
RTVSPropertyOp6
 70
     1
102
RTVSPropertyOp7
 70
     1
102
RTVSPropertyOp8
 70
     1
102
RTVSPropertyOp9
 70
     1
102
RTVSPropertyOp10
 70
     1
102
RTVSPropertyOp11
 70
     1
102
RTVSPropertyOp12
 70
     1
102
RTVSPropertyOp13
 70
     1
102
RTVSPropertyOp14
 70
     1
102
RTVSPropertyOp15
 70
     1
102
RTVSPropertyOp16
 70
     1
102
RTVSPropertyOp17
 70
     1
102
RTVSPropertyOp18
 70
     1
102
RTVSPropertyOp19
 70
     1
102
RTVSPropertyOp20
 70
     1
102
RTVSPropertyOp21
 70
     1
102
RTVSPropertyOp22
 70
     1
102
RTVSPropertyOp23
 70
     1
102
RTVSPropertyOp24
 70
     1
102
RTVSPropertyOp25
 70
     1
102
RTVSPropertyOp26
 70
     1
102
RTVSPropertyOp27
 70
     1
  0
XRECORD
  5
707
102
{ACAD_REACTORS
330
706
102
}
330
706
100
AcDbXrecord
280
     1
102
RTVSPropertyOp0
 70
     1
102
RTVSPropertyOp1
 70
     1
102
RTVSPropertyOp2
 70
     1
102
RTVSPropertyOp3
 70
     1
102
RTVSPropertyOp4
 70
     1
102
RTVSPropertyOp5
 70
     1
102
RTVSPropertyOp6
 70
     1
102
RTVSPropertyOp7
 70
     1
102
RTVSPropertyOp8
 70
     1
102
RTVSPropertyOp9
 70
     1
102
RTVSPropertyOp10
 70
     1
102
RTVSPropertyOp11
 70
     1
102
RTVSPropertyOp12
 70
     1
102
RTVSPropertyOp13
 70
     1
102
RTVSPropertyOp14
 70
     1
102
RTVSPropertyOp15
 70
     1
102
RTVSPropertyOp16
 70
     1
102
RTVSPropertyOp17
 70
     1
102
RTVSPropertyOp18
 70
     1
102
RTVSPropertyOp19
 70
     1
102
RTVSPropertyOp20
 70
     1
102
RTVSPropertyOp21
 70
     1
102
RTVSPropertyOp22
 70
     1
102
RTVSPropertyOp23
 70
     1
102
RTVSPropertyOp24
 70
     1
102
RTVSPropertyOp25
 70
     1
102
RTVSPropertyOp26
 70
     1
102
RTVSPropertyOp27
 70
     1
  0
XRECORD
  5
715
102
{ACAD_REACTORS
330
714
102
}
330
714
100
AcDbXrecord
280
     1
102
RTVSPropertyOp0
 70
     1
102
RTVSPropertyOp1
 70
     1
102
RTVSPropertyOp2
 70
     1
102
RTVSPropertyOp3
 70
     1
102
RTVSPropertyOp4
 70
     1
102
RTVSPropertyOp5
 70
     1
102
RTVSPropertyOp6
 70
     1
102
RTVSPropertyOp7
 70
     1
102
RTVSPropertyOp8
 70
     1
102
RTVSPropertyOp9
 70
     1
102
RTVSPropertyOp10
 70
     1
102
RTVSPropertyOp11
 70
     1
102
RTVSPropertyOp12
 70
     1
102
RTVSPropertyOp13
 70
     1
102
RTVSPropertyOp14
 70
     1
102
RTVSPropertyOp15
 70
     1
102
RTVSPropertyOp16
 70
     1
102
RTVSPropertyOp17
 70
     1
102
RTVSPropertyOp18
 70
     1
102
RTVSPropertyOp19
 70
     1
102
RTVSPropertyOp20
 70
     1
102
RTVSPropertyOp21
 70
     1
102
RTVSPropertyOp22
 70
     1
102
RTVSPropertyOp23
 70
     1
102
RTVSPropertyOp24
 70
     1
102
RTVSPropertyOp25
 70
     1
102
RTVSPropertyOp26
 70
     1
102
RTVSPropertyOp27
 70
     1
  0
XRECORD
  5
71D
102
{ACAD_REACTORS
330
71C
102
}
330
71C
100
AcDbXrecord
280
     1
102
RTVSPropertyOp0
 70
     1
102
RTVSPropertyOp1
 70
     1
102
RTVSPropertyOp2
 70
     1
102
RTVSPropertyOp3
 70
     1
102
RTVSPropertyOp4
 70
     1
102
RTVSPropertyOp5
 70
     1
102
RTVSPropertyOp6
 70
     1
102
RTVSPropertyOp7
 70
     1
102
RTVSPropertyOp8
 70
     1
102
RTVSPropertyOp9
 70
     1
102
RTVSPropertyOp10
 70
     1
102
RTVSPropertyOp11
 70
     1
102
RTVSPropertyOp12
 70
     1
102
RTVSPropertyOp13
 70
     1
102
RTVSPropertyOp14
 70
     1
102
RTVSPropertyOp15
 70
     1
102
RTVSPropertyOp16
 70
     1
102
RTVSPropertyOp17
 70
     1
102
RTVSPropertyOp18
 70
     1
102
RTVSPropertyOp19
 70
     1
102
RTVSPropertyOp20
 70
     1
102
RTVSPropertyOp21
 70
     1
102
RTVSPropertyOp22
 70
     1
102
RTVSPropertyOp23
 70
     1
102
RTVSPropertyOp24
 70
     1
102
RTVSPropertyOp25
 70
     1
102
RTVSPropertyOp26
 70
     1
102
RTVSPropertyOp27
 70
     1
  0
XRECORD
  5
70F
102
{ACAD_REACTORS
330
70E
102
}
330
70E
100
AcDbXrecord
280
     1
102
RTVSPropertyOp0
 70
     1
102
RTVSPropertyOp1
 70
     1
102
RTVSPropertyOp2
 70
     1
102
RTVSPropertyOp3
 70
     1
102
RTVSPropertyOp4
 70
     1
102
RTVSPropertyOp5
 70
     1
102
RTVSPropertyOp6
 70
     1
102
RTVSPropertyOp7
 70
     1
102
RTVSPropertyOp8
 70
     1
102
RTVSPropertyOp9
 70
     1
102
RTVSPropertyOp10
 70
     1
102
RTVSPropertyOp11
 70
     1
102
RTVSPropertyOp12
 70
     1
102
RTVSPropertyOp13
 70
     1
102
RTVSPropertyOp14
 70
     1
102
RTVSPropertyOp15
 70
     1
102
RTVSPropertyOp16
 70
     1
102
RTVSPropertyOp17
 70
     1
102
RTVSPropertyOp18
 70
     1
102
RTVSPropertyOp19
 70
     1
102
RTVSPropertyOp20
 70
     1
102
RTVSPropertyOp21
 70
     1
102
RTVSPropertyOp22
 70
     1
102
RTVSPropertyOp23
 70
     1
102
RTVSPropertyOp24
 70
     1
102
RTVSPropertyOp25
 70
     1
102
RTVSPropertyOp26
 70
     1
102
RTVSPropertyOp27
 70
     1
  0
XRECORD
  5
713
102
{ACAD_REACTORS
330
712
102
}
330
712
100
AcDbXrecord
280
     1
102
RTVSPropertyOp0
 70
     1
102
RTVSPropertyOp1
 70
     1
102
RTVSPropertyOp2
 70
     1
102
RTVSPropertyOp3
 70
     1
102
RTVSPropertyOp4
 70
     1
102
RTVSPropertyOp5
 70
     1
102
RTVSPropertyOp6
 70
     1
102
RTVSPropertyOp7
 70
     1
102
RTVSPropertyOp8
 70
     1
102
RTVSPropertyOp9
 70
     1
102
RTVSPropertyOp10
 70
     1
102
RTVSPropertyOp11
 70
     1
102
RTVSPropertyOp12
 70
     1
102
RTVSPropertyOp13
 70
     1
102
RTVSPropertyOp14
 70
     1
102
RTVSPropertyOp15
 70
     1
102
RTVSPropertyOp16
 70
     1
102
RTVSPropertyOp17
 70
     1
102
RTVSPropertyOp18
 70
     1
102
RTVSPropertyOp19
 70
     1
102
RTVSPropertyOp20
 70
     1
102
RTVSPropertyOp21
 70
     1
102
RTVSPropertyOp22
 70
     1
102
RTVSPropertyOp23
 70
     1
102
RTVSPropertyOp24
 70
     1
102
RTVSPropertyOp25
 70
     1
102
RTVSPropertyOp26
 70
     1
102
RTVSPropertyOp27
 70
     1
  0
XRECORD
  5
723
102
{ACAD_REACTORS
330
722
102
}
330
722
100
AcDbXrecord
280
     1
102
RTVSPropertyOp0
 70
     0
102
RTVSPropertyOp1
 70
     0
102
RTVSPropertyOp2
 70
     0
102
RTVSPropertyOp3
 70
     0
102
RTVSPropertyOp4
 70
     0
102
RTVSPropertyOp5
 70
     0
102
RTVSPropertyOp6
 70
     0
102
RTVSPropertyOp7
 70
     0
102
RTVSPropertyOp8
 70
     0
102
RTVSPropertyOp9
 70
     0
102
RTVSPropertyOp10
 70
     0
102
RTVSPropertyOp11
 70
     0
102
RTVSPropertyOp12
 70
     0
102
RTVSPropertyOp13
 70
     0
102
RTVSPropertyOp14
 70
     2
102
RTVSPropertyOp15
 70
     0
102
RTVSPropertyOp16
 70
     0
102
RTVSPropertyOp17
 70
     0
102
RTVSPropertyOp18
 70
     0
102
RTVSPropertyOp19
 70
     0
102
RTVSPropertyOp20
 70
     0
102
RTVSPropertyOp21
 70
     0
102
RTVSPropertyOp22
 70
     0
102
RTVSPropertyOp23
 70
     0
102
RTVSPropertyOp24
 70
     0
102
RTVSPropertyOp25
 70
     0
102
RTVSPropertyOp26
 70
     0
102
RTVSPropertyOp27
 70
     0
  0
XRECORD
  5
71B
102
{ACAD_REACTORS
330
71A
102
}
330
71A
100
AcDbXrecord
280
     1
102
RTVSPropertyOp0
 70
     1
102
RTVSPropertyOp1
 70
     1
102
RTVSPropertyOp2
 70
     1
102
RTVSPropertyOp3
 70
     1
102
RTVSPropertyOp4
 70
     1
102
RTVSPropertyOp5
 70
     1
102
RTVSPropertyOp6
 70
     1
102
RTVSPropertyOp7
 70
     1
102
RTVSPropertyOp8
 70
     1
102
RTVSPropertyOp9
 70
     1
102
RTVSPropertyOp10
 70
     1
102
RTVSPropertyOp11
 70
     1
102
RTVSPropertyOp12
 70
     1
102
RTVSPropertyOp13
 70
     1
102
RTVSPropertyOp14
 70
     1
102
RTVSPropertyOp15
 70
     1
102
RTVSPropertyOp16
 70
     1
102
RTVSPropertyOp17
 70
     1
102
RTVSPropertyOp18
 70
     1
102
RTVSPropertyOp19
 70
     1
102
RTVSPropertyOp20
 70
     1
102
RTVSPropertyOp21
 70
     1
102
RTVSPropertyOp22
 70
     1
102
RTVSPropertyOp23
 70
     1
102
RTVSPropertyOp24
 70
     1
102
RTVSPropertyOp25
 70
     1
102
RTVSPropertyOp26
 70
     1
102
RTVSPropertyOp27
 70
     1
  0
XRECORD
  5
6FF
102
{ACAD_REACTORS
330
6FE
102
}
330
6FE
100
AcDbXrecord
280
     1
102
RTVSPropertyOp0
 70
     1
102
RTVSPropertyOp1
 70
     1
102
RTVSPropertyOp2
 70
     1
102
RTVSPropertyOp3
 70
     1
102
RTVSPropertyOp4
 70
     1
102
RTVSPropertyOp5
 70
     1
102
RTVSPropertyOp6
 70
     1
102
RTVSPropertyOp7
 70
     1
102
RTVSPropertyOp8
 70
     1
102
RTVSPropertyOp9
 70
     1
102
RTVSPropertyOp10
 70
     1
102
RTVSPropertyOp11
 70
     1
102
RTVSPropertyOp12
 70
     1
102
RTVSPropertyOp13
 70
     1
102
RTVSPropertyOp14
 70
     1
102
RTVSPropertyOp15
 70
     1
102
RTVSPropertyOp16
 70
     1
102
RTVSPropertyOp17
 70
     1
102
RTVSPropertyOp18
 70
     1
102
RTVSPropertyOp19
 70
     1
102
RTVSPropertyOp20
 70
     1
102
RTVSPropertyOp21
 70
     1
102
RTVSPropertyOp22
 70
     1
102
RTVSPropertyOp23
 70
     1
102
RTVSPropertyOp24
 70
     1
102
RTVSPropertyOp25
 70
     1
102
RTVSPropertyOp26
 70
     1
102
RTVSPropertyOp27
 70
     1
  0
XRECORD
  5
701
102
{ACAD_REACTORS
330
700
102
}
330
700
100
AcDbXrecord
280
     1
102
RTVSPropertyOp0
 70
     1
102
RTVSPropertyOp1
 70
     1
102
RTVSPropertyOp2
 70
     1
102
RTVSPropertyOp3
 70
     1
102
RTVSPropertyOp4
 70
     1
102
RTVSPropertyOp5
 70
     1
102
RTVSPropertyOp6
 70
     1
102
RTVSPropertyOp7
 70
     1
102
RTVSPropertyOp8
 70
     1
102
RTVSPropertyOp9
 70
     1
102
RTVSPropertyOp10
 70
     1
102
RTVSPropertyOp11
 70
     1
102
RTVSPropertyOp12
 70
     1
102
RTVSPropertyOp13
 70
     1
102
RTVSPropertyOp14
 70
     1
102
RTVSPropertyOp15
 70
     1
102
RTVSPropertyOp16
 70
     1
102
RTVSPropertyOp17
 70
     1
102
RTVSPropertyOp18
 70
     1
102
RTVSPropertyOp19
 70
     1
102
RTVSPropertyOp20
 70
     1
102
RTVSPropertyOp21
 70
     1
102
RTVSPropertyOp22
 70
     1
102
RTVSPropertyOp23
 70
     1
102
RTVSPropertyOp24
 70
     1
102
RTVSPropertyOp25
 70
     1
102
RTVSPropertyOp26
 70
     1
102
RTVSPropertyOp27
 70
     1
  0
XRECORD
  5
703
102
{ACAD_REACTORS
330
702
102
}
330
702
100
AcDbXrecord
280
     1
102
RTVSPropertyOp0
 70
     1
102
RTVSPropertyOp1
 70
     1
102
RTVSPropertyOp2
 70
     1
102
RTVSPropertyOp3
 70
     1
102
RTVSPropertyOp4
 70
     1
102
RTVSPropertyOp5
 70
     1
102
RTVSPropertyOp6
 70
     1
102
RTVSPropertyOp7
 70
     1
102
RTVSPropertyOp8
 70
     1
102
RTVSPropertyOp9
 70
     1
102
RTVSPropertyOp10
 70
     1
102
RTVSPropertyOp11
 70
     1
102
RTVSPropertyOp12
 70
     1
102
RTVSPropertyOp13
 70
     1
102
RTVSPropertyOp14
 70
     1
102
RTVSPropertyOp15
 70
     1
102
RTVSPropertyOp16
 70
     1
102
RTVSPropertyOp17
 70
     1
102
RTVSPropertyOp18
 70
     1
102
RTVSPropertyOp19
 70
     1
102
RTVSPropertyOp20
 70
     1
102
RTVSPropertyOp21
 70
     1
102
RTVSPropertyOp22
 70
     1
102
RTVSPropertyOp23
 70
     1
102
RTVSPropertyOp24
 70
     1
102
RTVSPropertyOp25
 70
     1
102
RTVSPropertyOp26
 70
     1
102
RTVSPropertyOp27
 70
     1
  0
XRECORD
  5
705
102
{ACAD_REACTORS
330
704
102
}
330
704
100
AcDbXrecord
280
     1
102
RTVSPropertyOp0
 70
     1
102
RTVSPropertyOp1
 70
     1
102
RTVSPropertyOp2
 70
     1
102
RTVSPropertyOp3
 70
     1
102
RTVSPropertyOp4
 70
     1
102
RTVSPropertyOp5
 70
     1
102
RTVSPropertyOp6
 70
     1
102
RTVSPropertyOp7
 70
     1
102
RTVSPropertyOp8
 70
     1
102
RTVSPropertyOp9
 70
     1
102
RTVSPropertyOp10
 70
     1
102
RTVSPropertyOp11
 70
     1
102
RTVSPropertyOp12
 70
     1
102
RTVSPropertyOp13
 70
     1
102
RTVSPropertyOp14
 70
     1
102
RTVSPropertyOp15
 70
     1
102
RTVSPropertyOp16
 70
     1
102
RTVSPropertyOp17
 70
     1
102
RTVSPropertyOp18
 70
     1
102
RTVSPropertyOp19
 70
     1
102
RTVSPropertyOp20
 70
     1
102
RTVSPropertyOp21
 70
     1
102
RTVSPropertyOp22
 70
     1
102
RTVSPropertyOp23
 70
     1
102
RTVSPropertyOp24
 70
     1
102
RTVSPropertyOp25
 70
     1
102
RTVSPropertyOp26
 70
     1
102
RTVSPropertyOp27
 70
     1
  0
XRECORD
  5
71F
102
{ACAD_REACTORS
330
71E
102
}
330
71E
100
AcDbXrecord
280
     1
102
RTVSPropertyOp0
 70
     0
102
RTVSPropertyOp1
 70
     0
102
RTVSPropertyOp2
 70
     0
102
RTVSPropertyOp3
 70
     0
102
RTVSPropertyOp4
 70
     0
102
RTVSPropertyOp5
 70
     0
102
RTVSPropertyOp6
 70
     0
102
RTVSPropertyOp7
 70
     0
102
RTVSPropertyOp8
 70
     0
102
RTVSPropertyOp9
 70
     0
102
RTVSPropertyOp10
 70
     0
102
RTVSPropertyOp11
 70
     0
102
RTVSPropertyOp12
 70
     0
102
RTVSPropertyOp13
 70
     0
102
RTVSPropertyOp14
 70
     2
102
RTVSPropertyOp15
 70
     0
102
RTVSPropertyOp16
 70
     0
102
RTVSPropertyOp17
 70
     0
102
RTVSPropertyOp18
 70
     0
102
RTVSPropertyOp19
 70
     0
102
RTVSPropertyOp20
 70
     0
102
RTVSPropertyOp21
 70
     0
102
RTVSPropertyOp22
 70
     0
102
RTVSPropertyOp23
 70
     0
102
RTVSPropertyOp24
 70
     0
102
RTVSPropertyOp25
 70
     0
102
RTVSPropertyOp26
 70
     0
102
RTVSPropertyOp27
 70
     0
  0
XRECORD
  5
719
102
{ACAD_REACTORS
330
718
102
}
330
718
100
AcDbXrecord
280
     1
102
RTVSPropertyOp0
 70
     1
102
RTVSPropertyOp1
 70
     1
102
RTVSPropertyOp2
 70
     1
102
RTVSPropertyOp3
 70
     1
102
RTVSPropertyOp4
 70
     1
102
RTVSPropertyOp5
 70
     1
102
RTVSPropertyOp6
 70
     1
102
RTVSPropertyOp7
 70
     1
102
RTVSPropertyOp8
 70
     1
102
RTVSPropertyOp9
 70
     1
102
RTVSPropertyOp10
 70
     1
102
RTVSPropertyOp11
 70
     1
102
RTVSPropertyOp12
 70
     1
102
RTVSPropertyOp13
 70
     1
102
RTVSPropertyOp14
 70
     1
102
RTVSPropertyOp15
 70
     1
102
RTVSPropertyOp16
 70
     1
102
RTVSPropertyOp17
 70
     1
102
RTVSPropertyOp18
 70
     1
102
RTVSPropertyOp19
 70
     1
102
RTVSPropertyOp20
 70
     1
102
RTVSPropertyOp21
 70
     1
102
RTVSPropertyOp22
 70
     1
102
RTVSPropertyOp23
 70
     1
102
RTVSPropertyOp24
 70
     1
102
RTVSPropertyOp25
 70
     1
102
RTVSPropertyOp26
 70
     1
102
RTVSPropertyOp27
 70
     1
  0
XRECORD
  5
721
102
{ACAD_REACTORS
330
720
102
}
330
720
100
AcDbXrecord
280
     1
102
RTVSPropertyOp0
 70
     0
102
RTVSPropertyOp1
 70
     0
102
RTVSPropertyOp2
 70
     0
102
RTVSPropertyOp3
 70
     0
102
RTVSPropertyOp4
 70
     0
102
RTVSPropertyOp5
 70
     0
102
RTVSPropertyOp6
 70
     0
102
RTVSPropertyOp7
 70
     0
102
RTVSPropertyOp8
 70
     0
102
RTVSPropertyOp9
 70
     0
102
RTVSPropertyOp10
 70
     0
102
RTVSPropertyOp11
 70
     0
102
RTVSPropertyOp12
 70
     0
102
RTVSPropertyOp13
 70
     0
102
RTVSPropertyOp14
 70
     2
102
RTVSPropertyOp15
 70
     0
102
RTVSPropertyOp16
 70
     0
102
RTVSPropertyOp17
 70
     0
102
RTVSPropertyOp18
 70
     0
102
RTVSPropertyOp19
 70
     0
102
RTVSPropertyOp20
 70
     0
102
RTVSPropertyOp21
 70
     0
102
RTVSPropertyOp22
 70
     0
102
RTVSPropertyOp23
 70
     0
102
RTVSPropertyOp24
 70
     0
102
RTVSPropertyOp25
 70
     0
102
RTVSPropertyOp26
 70
     0
102
RTVSPropertyOp27
 70
     0
  0
XRECORD
  5
711
102
{ACAD_REACTORS
330
710
102
}
330
710
100
AcDbXrecord
280
     1
102
RTVSPropertyOp0
 70
     1
102
RTVSPropertyOp1
 70
     1
102
RTVSPropertyOp2
 70
     1
102
RTVSPropertyOp3
 70
     1
102
RTVSPropertyOp4
 70
     1
102
RTVSPropertyOp5
 70
     1
102
RTVSPropertyOp6
 70
     1
102
RTVSPropertyOp7
 70
     1
102
RTVSPropertyOp8
 70
     1
102
RTVSPropertyOp9
 70
     1
102
RTVSPropertyOp10
 70
     1
102
RTVSPropertyOp11
 70
     1
102
RTVSPropertyOp12
 70
     1
102
RTVSPropertyOp13
 70
     1
102
RTVSPropertyOp14
 70
     1
102
RTVSPropertyOp15
 70
     1
102
RTVSPropertyOp16
 70
     1
102
RTVSPropertyOp17
 70
     1
102
RTVSPropertyOp18
 70
     1
102
RTVSPropertyOp19
 70
     1
102
RTVSPropertyOp20
 70
     1
102
RTVSPropertyOp21
 70
     1
102
RTVSPropertyOp22
 70
     1
102
RTVSPropertyOp23
 70
     1
102
RTVSPropertyOp24
 70
     1
102
RTVSPropertyOp25
 70
     1
102
RTVSPropertyOp26
 70
     1
102
RTVSPropertyOp27
 70
     1
  0
XRECORD
  5
717
102
{ACAD_REACTORS
330
716
102
}
330
716
100
AcDbXrecord
280
     1
102
RTVSPropertyOp0
 70
     1
102
RTVSPropertyOp1
 70
     1
102
RTVSPropertyOp2
 70
     1
102
RTVSPropertyOp3
 70
     1
102
RTVSPropertyOp4
 70
     1
102
RTVSPropertyOp5
 70
     1
102
RTVSPropertyOp6
 70
     1
102
RTVSPropertyOp7
 70
     1
102
RTVSPropertyOp8
 70
     1
102
RTVSPropertyOp9
 70
     1
102
RTVSPropertyOp10
 70
     1
102
RTVSPropertyOp11
 70
     1
102
RTVSPropertyOp12
 70
     1
102
RTVSPropertyOp13
 70
     1
102
RTVSPropertyOp14
 70
     1
102
RTVSPropertyOp15
 70
     1
102
RTVSPropertyOp16
 70
     1
102
RTVSPropertyOp17
 70
     1
102
RTVSPropertyOp18
 70
     1
102
RTVSPropertyOp19
 70
     1
102
RTVSPropertyOp20
 70
     1
102
RTVSPropertyOp21
 70
     1
102
RTVSPropertyOp22
 70
     1
102
RTVSPropertyOp23
 70
     1
102
RTVSPropertyOp24
 70
     1
102
RTVSPropertyOp25
 70
     1
102
RTVSPropertyOp26
 70
     1
102
RTVSPropertyOp27
 70
     1
  0
ENDSEC
  0
EOF
