  0
SECTION
  2
HEADER
  9
$ACADVER
  1
AC1014
  9
$ACADMAINTVER
 70
     0
  9
$DWGCODEPAGE
  3
ANSI_1252
  9
$INSBASE
 10
0.0
 20
0.0
 30
0.0
  9
$EXTMIN
 10
318.829805
 20
29.85788
 30
-0.001526
  9
$EXTMAX
 10
329.371339
 20
44.72551
 30
0.0
  9
$LIMMIN
 10
0.0
 20
0.0
  9
$LIMMAX
 10
410.0
 20
287.0
  9
$ORTHOMODE
 70
     1
  9
$REGENMODE
 70
     1
  9
$FILLMODE
 70
     1
  9
$QTEXTMODE
 70
     0
  9
$MIRRTEXT
 70
     1
  9
$DRAGMODE
 70
     2
  9
$LTSCALE
 40
25.0
  9
$OSMODE
 70
     0
  9
$ATTMODE
 70
     1
  9
$TEXTSIZE
 40
0.1
  9
$TRACEWID
 40
1.0
  9
$TEXTSTYLE
  7
ROMANC
  9
$CLAYER
  8
0
  9
$CELTYPE
  6
BYLAYER
  9
$CECOLOR
 62
   256
  9
$CELTSCALE
 40
1.0
  9
$DELOBJ
 70
     1
  9
$DISPSILH
 70
     0
  9
$DIMSCALE
 40
1.5
  9
$DIMASZ
 40
0.1
  9
$DIMEXO
 40
0.01
  9
$DIMDLI
 40
7.0
  9
$DIMRND
 40
0.0
  9
$DIMDLE
 40
0.0
  9
$DIMEXE
 40
0.01
  9
$DIMTP
 40
0.0
  9
$DIMTM
 40
0.0
  9
$DIMTXT
 40
0.05
  9
$DIMCEN
 40
0.0
  9
$DIMTSZ
 40
0.0
  9
$DIMTOL
 70
     0
  9
$DIMLIM
 70
     0
  9
$DIMTIH
 70
     0
  9
$DIMTOH
 70
     0
  9
$DIMSE1
 70
     0
  9
$DIMSE2
 70
     0
  9
$DIMTAD
 70
     1
  9
$DIMZIN
 70
     0
  9
$DIMBLK
  1

  9
$DIMASO
 70
     1
  9
$DIMSHO
 70
     0
  9
$DIMPOST
  1

  9
$DIMAPOST
  1

  9
$DIMALT
 70
     0
  9
$DIMALTD
 70
     2
  9
$DIMALTF
 40
25.4
  9
$DIMLFAC
 40
1.0
  9
$DIMTOFL
 70
     1
  9
$DIMTVP
 40
0.0
  9
$DIMTIX
 70
     1
  9
$DIMSOXD
 70
     0
  9
$DIMSAH
 70
     0
  9
$DIMBLK1
  1

  9
$DIMBLK2
  1

  9
$DIMSTYLE
  2
MERITXELL
  9
$DIMCLRD
 70
     0
  9
$DIMCLRE
 70
     0
  9
$DIMCLRT
 70
     0
  9
$DIMTFAC
 40
70.0
  9
$DIMGAP
 40
0.025
  9
$DIMJUST
 70
     0
  9
$DIMSD1
 70
     0
  9
$DIMSD2
 70
     0
  9
$DIMTOLJ
 70
     1
  9
$DIMTZIN
 70
     0
  9
$DIMALTZ
 70
     0
  9
$DIMALTTZ
 70
     0
  9
$DIMFIT
 70
     5
  9
$DIMUPT
 70
     0
  9
$DIMUNIT
 70
     2
  9
$DIMDEC
 70
     2
  9
$DIMTDEC
 70
     2
  9
$DIMALTU
 70
     2
  9
$DIMALTTD
 70
     2
  9
$DIMTXSTY
  7
ROMANC
  9
$DIMAUNIT
 70
     0
  9
$LUNITS
 70
     2
  9
$LUPREC
 70
     2
  9
$SKETCHINC
 40
1.0
  9
$FILLETRAD
 40
0.0
  9
$AUNITS
 70
     0
  9
$AUPREC
 70
     0
  9
$MENU
  1
acad
  9
$ELEVATION
 40
0.0
  9
$PELEVATION
 40
0.0
  9
$THICKNESS
 40
0.0
  9
$LIMCHECK
 70
     0
  9
$BLIPMODE
 70
     0
  9
$CHAMFERA
 40
0.0
  9
$CHAMFERB
 40
0.0
  9
$CHAMFERC
 40
0.0
  9
$CHAMFERD
 40
0.0
  9
$SKPOLY
 70
     0
  9
$TDCREATE
 40
2450927.461950000
  9
$TDUPDATE
 40
2451541.674031377
  9
$TDINDWG
 40
0.2040675463
  9
$TDUSRTIMER
 40
0.2040675463
  9
$USRTIMER
 70
     1
  9
$ANGBASE
 50
0.0
  9
$ANGDIR
 70
     0
  9
$PDMODE
 70
     0
  9
$PDSIZE
 40
0.0
  9
$PLINEWID
 40
0.0
  9
$COORDS
 70
     2
  9
$SPLFRAME
 70
     0
  9
$SPLINETYPE
 70
     6
  9
$SPLINESEGS
 70
     8
  9
$ATTDIA
 70
     0
  9
$ATTREQ
 70
     1
  9
$HANDLING
 70
     1
  9
$HANDSEED
  5
106A
  9
$SURFTAB1
 70
     6
  9
$SURFTAB2
 70
     6
  9
$SURFTYPE
 70
     6
  9
$SURFU
 70
     6
  9
$SURFV
 70
     6
  9
$UCSNAME
  2

  9
$UCSORG
 10
0.0
 20
0.0
 30
0.0
  9
$UCSXDIR
 10
1.0
 20
0.0
 30
0.0
  9
$UCSYDIR
 10
0.0
 20
1.0
 30
0.0
  9
$PUCSNAME
  2

  9
$PUCSORG
 10
0.0
 20
0.0
 30
0.0
  9
$PUCSXDIR
 10
1.0
 20
0.0
 30
0.0
  9
$PUCSYDIR
 10
0.0
 20
1.0
 30
0.0
  9
$USERI1
 70
     0
  9
$USERI2
 70
     0
  9
$USERI3
 70
     0
  9
$USERI4
 70
     0
  9
$USERI5
 70
     0
  9
$USERR1
 40
0.0
  9
$USERR2
 40
0.0
  9
$USERR3
 40
0.0
  9
$USERR4
 40
0.0
  9
$USERR5
 40
0.0
  9
$WORLDVIEW
 70
     1
  9
$SHADEDGE
 70
     3
  9
$SHADEDIF
 70
    70
  9
$TILEMODE
 70
     1
  9
$MAXACTVP
 70
    16
  9
$PINSBASE
 10
0.0
 20
0.0
 30
0.0
  9
$PLIMCHECK
 70
     0
  9
$PEXTMIN
 10
1.000000E+20
 20
1.000000E+20
 30
1.000000E+20
  9
$PEXTMAX
 10
-1.000000E+20
 20
-1.000000E+20
 30
-1.000000E+20
  9
$PLIMMIN
 10
0.0
 20
0.0
  9
$PLIMMAX
 10
12.0
 20
9.0
  9
$UNITMODE
 70
     0
  9
$VISRETAIN
 70
     0
  9
$PLINEGEN
 70
     0
  9
$PSLTSCALE
 70
     0
  9
$TREEDEPTH
 70
  3020
  9
$PICKSTYLE
 70
     1
  9
$CMLSTYLE
  2
STANDARD
  9
$CMLJUST
 70
     0
  9
$CMLSCALE
 40
1.0
  9
$PROXYGRAPHICS
 70
     1
  9
$MEASUREMENT
 70
     0
  0
ENDSEC
  0
SECTION
  2
CLASSES
  0
CLASS
  1
DICTIONARYVAR
  2
AcDbDictionaryVar
  3
"AutoCAD"
 90
        0
280
     0
281
     0
  0
CLASS
  1
LWPOLYLINE
  2
AcDbPolyline
  3
"AutoCAD"
 90
        0
280
     0
281
     1
  0
ENDSEC
  0
SECTION
  2
TABLES
  0
TABLE
  2
VPORT
  5
8
100
AcDbSymbolTable
 70
     6
  0
VPORT
  5
1069
100
AcDbSymbolTableRecord
100
AcDbViewportTableRecord
  2
*ACTIVE
 70
     0
 10
0.0
 20
0.0
 11
1.0
 21
1.0
 12
324.100572
 22
37.291695
 13
0.0
 23
0.0
 14
1.0
 24
1.0
 15
10.0
 25
10.0
 16
0.0
 26
0.0
 36
1.0
 17
0.0
 27
0.0
 37
0.0
 40
14.997857
 41
1.676901
 42
50.0
 43
0.0
 44
0.0
 50
0.0
 51
0.0
 71
     0
 72
   100
 73
     1
 74
     0
 75
     0
 76
     0
 77
     0
 78
     1
  0
ENDTAB
  0
TABLE
  2
LTYPE
  5
5
100
AcDbSymbolTable
 70
     1
  0
LTYPE
  5
11
100
AcDbSymbolTableRecord
100
AcDbLinetypeTableRecord
  2
BYBLOCK
 70
     0
  3

 72
    65
 73
     0
 40
0.0
  0
LTYPE
  5
12
100
AcDbSymbolTableRecord
100
AcDbLinetypeTableRecord
  2
BYLAYER
 70
     0
  3

 72
    65
 73
     0
 40
0.0
  0
LTYPE
  5
13
100
AcDbSymbolTableRecord
100
AcDbLinetypeTableRecord
  2
CONTINUOUS
 70
     0
  3
Solid line
 72
    65
 73
     0
 40
0.0
  0
ENDTAB
  0
TABLE
  2
LAYER
  5
2
100
AcDbSymbolTable
 70
     4
  0
LAYER
  5
E
100
AcDbSymbolTableRecord
100
AcDbLayerTableRecord
  2
0
 70
     0
 62
     7
  6
CONTINUOUS
  0
LAYER
  5
70C
100
AcDbSymbolTableRecord
100
AcDbLayerTableRecord
  2
DEFPOINTS
 70
     0
 62
     7
  6
CONTINUOUS
  0
LAYER
  5
908
100
AcDbSymbolTableRecord
100
AcDbLayerTableRecord
  2
COTES
 70
     0
 62
     4
  6
CONTINUOUS
  0
LAYER
  5
909
100
AcDbSymbolTableRecord
100
AcDbLayerTableRecord
  2
SECCIO
 70
     0
 62
    30
  6
CONTINUOUS
  0
ENDTAB
  0
TABLE
  2
STYLE
  5
3
100
AcDbSymbolTable
 70
     2
  0
STYLE
  5
F
100
AcDbSymbolTableRecord
100
AcDbTextStyleTableRecord
  2
STANDARD
 70
     0
 40
0.0
 41
1.0
 50
0.0
 71
     0
 42
0.1
  3
txt
  4

  0
STYLE
  5
1C
100
AcDbSymbolTableRecord
100
AcDbTextStyleTableRecord
  2
ROMANC
 70
     0
 40
0.0
 41
1.0
 50
0.0
 71
     0
 42
0.1
  3
romanc
  4

  0
ENDTAB
  0
TABLE
  2
VIEW
  5
6
100
AcDbSymbolTable
 70
     0
  0
ENDTAB
  0
TABLE
  2
UCS
  5
7
100
AcDbSymbolTable
 70
     0
  0
ENDTAB
  0
TABLE
  2
APPID
  5
9
100
AcDbSymbolTable
 70
     1
  0
APPID
  5
10
100
AcDbSymbolTableRecord
100
AcDbRegAppTableRecord
  2
ACAD
 70
     0
  0
ENDTAB
  0
TABLE
  2
DIMSTYLE
  5
A
100
AcDbSymbolTable
 70
     2
  0
DIMSTYLE
105
1F
100
AcDbSymbolTableRecord
100
AcDbDimStyleTableRecord
  2
MERITXELL
 70
     0
  3

  4

  5

  6

  7

 40
1.5
 41
0.1
 42
0.01
 43
7.0
 44
0.01
 45
0.0
 46
0.0
 47
0.0
 48
0.0
140
0.05
141
0.1
142
0.0
143
25.4
144
1.0
145
0.0
146
70.0
147
0.09
 71
     0
 72
     0
 73
     0
 74
     0
 75
     0
 76
     0
 77
     1
 78
     0
170
     0
171
     2
172
     1
173
     0
174
     1
175
     0
176
     0
177
     0
178
     0
270
     2
271
     2
272
     2
273
     2
274
     2
340
1C
275
     0
280
     0
281
     0
282
     0
283
     1
284
     0
285
     0
286
     0
287
     5
288
     0
  0
DIMSTYLE
105
90A
102
{ACAD_REACTORS
330
91D
330
91C
330
91B
330
91A
330
910
330
90F
330
90E
330
90D
330
90C
330
919
330
918
330
92B
330
92A
330
929
330
928
330
927
330
926
330
925
330
924
330
923
330
922
330
921
102
}
100
AcDbSymbolTableRecord
100
AcDbDimStyleTableRecord
  2
STANDARD
 70
     0
  3

  4

  5
TICK
  6

  7

 40
1.0
 41
0.05
 42
0.08
 43
0.08
 44
0.08
 45
0.0
 46
1.25
 47
0.0
 48
0.0
140
0.08
141
-0.08
142
0.0
143
0.039
144
1.0
145
1.0
146
1.0
147
0.08
 71
     0
 72
     0
 73
     0
 74
     0
 75
     0
 76
     0
 77
     0
 78
     0
170
     0
171
     2
172
     0
173
     0
174
     0
175
     0
176
    71
177
    71
178
     7
270
     2
271
     2
272
     2
273
     2
274
     2
340
F
275
     0
280
     0
281
     0
282
     0
283
     1
284
     0
285
     0
286
     0
287
     5
288
     0
  0
ENDTAB
  0
TABLE
  2
BLOCK_RECORD
  5
1
100
AcDbSymbolTable
 70
    31
  0
BLOCK_RECORD
  5
17
100
AcDbSymbolTableRecord
100
AcDbBlockTableRecord
  2
*MODEL_SPACE
  0
BLOCK_RECORD
  5
14
100
AcDbSymbolTableRecord
100
AcDbBlockTableRecord
  2
*PAPER_SPACE
  0
BLOCK_RECORD
  5
386
100
AcDbSymbolTableRecord
100
AcDbBlockTableRecord
  2
TICK
  0
BLOCK_RECORD
  5
7FF
100
AcDbSymbolTableRecord
100
AcDbBlockTableRecord
  2
*D1
  0
BLOCK_RECORD
  5
80B
100
AcDbSymbolTableRecord
100
AcDbBlockTableRecord
  2
*D2
  0
BLOCK_RECORD
  5
817
100
AcDbSymbolTableRecord
100
AcDbBlockTableRecord
  2
*D3
  0
BLOCK_RECORD
  5
820
100
AcDbSymbolTableRecord
100
AcDbBlockTableRecord
  2
*D4
  0
BLOCK_RECORD
  5
82D
100
AcDbSymbolTableRecord
100
AcDbBlockTableRecord
  2
*D5
  0
BLOCK_RECORD
  5
83A
100
AcDbSymbolTableRecord
100
AcDbBlockTableRecord
  2
*D6
  0
BLOCK_RECORD
  5
846
100
AcDbSymbolTableRecord
100
AcDbBlockTableRecord
  2
*D7
  0
BLOCK_RECORD
  5
852
100
AcDbSymbolTableRecord
100
AcDbBlockTableRecord
  2
*D8
  0
BLOCK_RECORD
  5
85E
100
AcDbSymbolTableRecord
100
AcDbBlockTableRecord
  2
*D9
  0
BLOCK_RECORD
  5
86B
100
AcDbSymbolTableRecord
100
AcDbBlockTableRecord
  2
*D10
  0
BLOCK_RECORD
  5
877
100
AcDbSymbolTableRecord
100
AcDbBlockTableRecord
  2
*D11
  0
BLOCK_RECORD
  5
884
100
AcDbSymbolTableRecord
100
AcDbBlockTableRecord
  2
*D12
  0
BLOCK_RECORD
  5
890
100
AcDbSymbolTableRecord
100
AcDbBlockTableRecord
  2
*D13
  0
BLOCK_RECORD
  5
89C
100
AcDbSymbolTableRecord
100
AcDbBlockTableRecord
  2
*D14
  0
BLOCK_RECORD
  5
8A8
100
AcDbSymbolTableRecord
100
AcDbBlockTableRecord
  2
*D15
  0
BLOCK_RECORD
  5
8B5
100
AcDbSymbolTableRecord
100
AcDbBlockTableRecord
  2
*D16
  0
BLOCK_RECORD
  5
8C1
100
AcDbSymbolTableRecord
100
AcDbBlockTableRecord
  2
*D17
  0
BLOCK_RECORD
  5
8CE
100
AcDbSymbolTableRecord
100
AcDbBlockTableRecord
  2
*D18
  0
BLOCK_RECORD
  5
8DA
100
AcDbSymbolTableRecord
100
AcDbBlockTableRecord
  2
*D19
  0
BLOCK_RECORD
  5
8E6
100
AcDbSymbolTableRecord
100
AcDbBlockTableRecord
  2
*D20
  0
BLOCK_RECORD
  5
8F2
100
AcDbSymbolTableRecord
100
AcDbBlockTableRecord
  2
*D21
  0
BLOCK_RECORD
  5
8FF
100
AcDbSymbolTableRecord
100
AcDbBlockTableRecord
  2
*D22
  0
BLOCK_RECORD
  5
90B
100
AcDbSymbolTableRecord
100
AcDbBlockTableRecord
  2
VILADOMAT
  0
BLOCK_RECORD
  5
F96
100
AcDbSymbolTableRecord
100
AcDbBlockTableRecord
  2
*D24
  0
BLOCK_RECORD
  5
FA3
100
AcDbSymbolTableRecord
100
AcDbBlockTableRecord
  2
*D25
  0
BLOCK_RECORD
  5
FCB
100
AcDbSymbolTableRecord
100
AcDbBlockTableRecord
  2
*D26
  0
BLOCK_RECORD
  5
FD8
100
AcDbSymbolTableRecord
100
AcDbBlockTableRecord
  2
*D27
  0
BLOCK_RECORD
  5
FF5
100
AcDbSymbolTableRecord
100
AcDbBlockTableRecord
  2
*D28
  0
BLOCK_RECORD
  5
1002
100
AcDbSymbolTableRecord
100
AcDbBlockTableRecord
  2
*D29
  0
BLOCK_RECORD
  5
100F
100
AcDbSymbolTableRecord
100
AcDbBlockTableRecord
  2
*D30
  0
ENDTAB
  0
ENDSEC
  0
SECTION
  2
BLOCKS
  0
BLOCK
  5
23
100
AcDbEntity
  8
0
100
AcDbBlockBegin
  2
*MODEL_SPACE
 70
     0
 10
0.0
 20
0.0
 30
0.0
  3
*MODEL_SPACE
  1

  0
ENDBLK
  5
24
100
AcDbEntity
  8
0
100
AcDbBlockEnd
  0
BLOCK
  5
21
100
AcDbEntity
 67
     1
  8
0
100
AcDbBlockBegin
  2
*PAPER_SPACE
 70
     0
 10
0.0
 20
0.0
 30
0.0
  3
*PAPER_SPACE
  1

  0
ENDBLK
  5
22
100
AcDbEntity
 67
     1
  8
0
100
AcDbBlockEnd
  0
BLOCK
  5
389
100
AcDbEntity
  8
0
100
AcDbBlockBegin
  2
TICK
 70
     0
 10
0.0
 20
0.0
 30
0.0
  3
TICK
  1

  0
LINE
  5
387
100
AcDbEntity
  8
0
  6
BYBLOCK
 62
     6
100
AcDbLine
 10
-1.0
 20
-1.0
 30
0.0
 11
1.0
 21
1.0
 31
0.0
  0
LINE
  5
388
100
AcDbEntity
  8
0
  6
BYBLOCK
 62
    71
100
AcDbLine
 10
0.0
 20
0.0
 30
0.0
 11
-1.0
 21
0.0
 31
0.0
  0
ENDBLK
  5
38A
100
AcDbEntity
  8
0
100
AcDbBlockEnd
  0
BLOCK
  5
809
100
AcDbEntity
  8
0
100
AcDbBlockBegin
  2
*D1
 70
     1
 10
0.0
 20
0.0
 30
0.0
  3
*D1
  1

  0
LINE
  5
800
100
AcDbEntity
  8
0
  6
BYBLOCK
 62
    71
100
AcDbLine
 10
142.056455
 20
122.778217
 30
0.0
 11
142.056455
 21
123.002231
 31
0.0
  0
LINE
  5
801
100
AcDbEntity
  8
0
  6
BYBLOCK
 62
    71
100
AcDbLine
 10
143.056455
 20
122.778217
 30
0.0
 11
143.056455
 21
123.002231
 31
0.0
  0
LINE
  5
802
100
AcDbEntity
  8
0
  6
BYBLOCK
 62
    71
100
AcDbLine
 10
142.106455
 20
122.922231
 30
0.0
 11
143.006455
 21
122.922231
 31
0.0
  0
INSERT
  5
803
100
AcDbEntity
  8
0
  6
BYBLOCK
 62
    71
100
AcDbBlockReference
  2
TICK
 10
142.056455
 20
122.922231
 30
0.0
 41
0.05
 42
0.05
 43
0.05
 50
180.0
  0
INSERT
  5
804
100
AcDbEntity
  8
0
  6
BYBLOCK
 62
    71
100
AcDbBlockReference
  2
TICK
 10
143.056455
 20
122.922231
 30
0.0
 41
0.05
 42
0.05
 43
0.05
  0
TEXT
  5
805
100
AcDbEntity
  8
0
  6
BYBLOCK
 62
     7
100
AcDbText
 10
142.463121
 20
122.962231
 30
0.0
 40
0.08
  1
1.00
 72
     1
 11
142.556455
 21
123.002231
 31
0.0
100
AcDbText
 73
     2
  0
POINT
  5
806
100
AcDbEntity
  8
DEFPOINTS
  6
BYBLOCK
 62
     0
100
AcDbPoint
 10
142.056455
 20
122.698217
 30
0.0
  0
POINT
  5
807
100
AcDbEntity
  8
DEFPOINTS
  6
BYBLOCK
 62
     0
100
AcDbPoint
 10
143.056455
 20
122.698217
 30
0.0
  0
POINT
  5
808
100
AcDbEntity
  8
DEFPOINTS
  6
BYBLOCK
 62
     0
100
AcDbPoint
 10
143.056455
 20
122.922231
 30
0.0
  0
ENDBLK
  5
80A
100
AcDbEntity
  8
0
100
AcDbBlockEnd
  0
BLOCK
  5
815
100
AcDbEntity
  8
0
100
AcDbBlockBegin
  2
*D2
 70
     1
 10
0.0
 20
0.0
 30
0.0
  3
*D2
  1

  0
LINE
  5
80C
100
AcDbEntity
  8
0
  6
BYBLOCK
 62
    71
100
AcDbLine
 10
143.056455
 20
122.778217
 30
0.0
 11
143.056455
 21
123.002231
 31
0.0
  0
LINE
  5
80D
100
AcDbEntity
  8
0
  6
BYBLOCK
 62
    71
100
AcDbLine
 10
144.056455
 20
122.478217
 30
0.0
 11
144.056455
 21
123.002231
 31
0.0
  0
LINE
  5
80E
100
AcDbEntity
  8
0
  6
BYBLOCK
 62
    71
100
AcDbLine
 10
143.106455
 20
122.922231
 30
0.0
 11
144.006455
 21
122.922231
 31
0.0
  0
INSERT
  5
80F
100
AcDbEntity
  8
0
  6
BYBLOCK
 62
    71
100
AcDbBlockReference
  2
TICK
 10
143.056455
 20
122.922231
 30
0.0
 41
0.05
 42
0.05
 43
0.05
 50
180.0
  0
INSERT
  5
810
100
AcDbEntity
  8
0
  6
BYBLOCK
 62
    71
100
AcDbBlockReference
  2
TICK
 10
144.056455
 20
122.922231
 30
0.0
 41
0.05
 42
0.05
 43
0.05
  0
TEXT
  5
811
100
AcDbEntity
  8
0
  6
BYBLOCK
 62
     7
100
AcDbText
 10
143.463121
 20
122.962231
 30
0.0
 40
0.08
  1
1.00
 72
     1
 11
143.556455
 21
123.002231
 31
0.0
100
AcDbText
 73
     2
  0
POINT
  5
812
100
AcDbEntity
  8
DEFPOINTS
  6
BYBLOCK
 62
     0
100
AcDbPoint
 10
143.056455
 20
122.698217
 30
0.0
  0
POINT
  5
813
100
AcDbEntity
  8
DEFPOINTS
  6
BYBLOCK
 62
     0
100
AcDbPoint
 10
144.056455
 20
122.398217
 30
0.0
  0
POINT
  5
814
100
AcDbEntity
  8
DEFPOINTS
  6
BYBLOCK
 62
     0
100
AcDbPoint
 10
144.056455
 20
122.922231
 30
0.0
  0
ENDBLK
  5
816
100
AcDbEntity
  8
0
100
AcDbBlockEnd
  0
BLOCK
  5
81E
100
AcDbEntity
  8
0
100
AcDbBlockBegin
  2
*D3
 70
     1
 10
0.0
 20
0.0
 30
0.0
  3
*D3
  1

  0
LINE
  5
818
100
AcDbEntity
  8
0
  6
BYBLOCK
 62
    71
100
AcDbLine
 10
143.056455
 20
124.948217
 30
0.0
 11
143.056455
 21
124.513095
 31
0.0
  0
LINE
  5
819
100
AcDbEntity
  8
0
  6
BYBLOCK
 62
    71
100
AcDbLine
 10
143.056455
 20
124.513095
 30
0.0
 11
143.056455
 21
124.113095
 31
0.0
  0
INSERT
  5
81A
100
AcDbEntity
  8
0
  6
BYBLOCK
 62
    71
100
AcDbBlockReference
  2
TICK
 10
143.056455
 20
124.998217
 30
0.0
 41
0.05
 42
0.05
 43
0.05
 50
90.0
  0
TEXT
  5
81B
100
AcDbEntity
  8
0
  6
BYBLOCK
 62
     7
100
AcDbText
 10
143.016455
 20
124.139762
 30
0.0
 40
0.08
  1
R1.00
 50
90.0
 72
     1
 11
142.976455
 21
124.273095
 31
0.0
100
AcDbText
 73
     2
  0
POINT
  5
81C
100
AcDbEntity
  8
DEFPOINTS
  6
BYBLOCK
 62
     0
100
AcDbPoint
 10
143.056455
 20
124.998217
 30
0.0
  0
POINT
  5
81D
100
AcDbEntity
  8
DEFPOINTS
  6
BYBLOCK
 62
     0
100
AcDbPoint
 10
143.056455
 20
123.998217
 30
0.0
  0
ENDBLK
  5
81F
100
AcDbEntity
  8
0
100
AcDbBlockEnd
  0
BLOCK
  5
82B
100
AcDbEntity
  8
0
100
AcDbBlockBegin
  2
*D4
 70
     1
 10
0.0
 20
0.0
 30
0.0
  3
*D4
  1

  0
LINE
  5
821
100
AcDbEntity
  8
0
  6
BYBLOCK
 62
    71
100
AcDbLine
 10
141.806455
 20
122.018217
 30
0.0
 11
141.806455
 21
121.65475
 31
0.0
  0
LINE
  5
822
100
AcDbEntity
  8
0
  6
BYBLOCK
 62
    71
100
AcDbLine
 10
142.056455
 20
122.016422
 30
0.0
 11
142.056455
 21
121.65475
 31
0.0
  0
LINE
  5
823
100
AcDbEntity
  8
0
  6
BYBLOCK
 62
    71
100
AcDbLine
 10
141.756455
 20
121.73475
 30
0.0
 11
141.706455
 21
121.73475
 31
0.0
  0
LINE
  5
824
100
AcDbEntity
  8
0
  6
BYBLOCK
 62
    71
100
AcDbLine
 10
142.106455
 20
121.73475
 30
0.0
 11
142.156455
 21
121.73475
 31
0.0
  0
INSERT
  5
825
100
AcDbEntity
  8
0
  6
BYBLOCK
 62
    71
100
AcDbBlockReference
  2
TICK
 10
141.806455
 20
121.73475
 30
0.0
 41
0.05
 42
0.05
 43
0.05
  0
INSERT
  5
826
100
AcDbEntity
  8
0
  6
BYBLOCK
 62
    71
100
AcDbBlockReference
  2
TICK
 10
142.056455
 20
121.73475
 30
0.0
 41
0.05
 42
0.05
 43
0.05
 50
180.0
  0
TEXT
  5
827
100
AcDbEntity
  8
0
  6
BYBLOCK
 62
     7
100
AcDbText
 10
141.812907
 20
121.515081
 30
0.0
 40
0.08
  1
0.25
 72
     1
 11
141.926241
 21
121.555081
 31
0.0
100
AcDbText
 73
     2
  0
POINT
  5
828
100
AcDbEntity
  8
DEFPOINTS
  6
BYBLOCK
 62
     0
100
AcDbPoint
 10
141.806455
 20
122.098217
 30
0.0
  0
POINT
  5
829
100
AcDbEntity
  8
DEFPOINTS
  6
BYBLOCK
 62
     0
100
AcDbPoint
 10
142.056455
 20
122.096422
 30
0.0
  0
POINT
  5
82A
100
AcDbEntity
  8
DEFPOINTS
  6
BYBLOCK
 62
     0
100
AcDbPoint
 10
142.056455
 20
121.73475
 30
0.0
  0
ENDBLK
  5
82C
100
AcDbEntity
  8
0
100
AcDbBlockEnd
  0
BLOCK
  5
838
100
AcDbEntity
  8
0
100
AcDbBlockBegin
  2
*D5
 70
     1
 10
0.0
 20
0.0
 30
0.0
  3
*D5
  1

  0
LINE
  5
82E
100
AcDbEntity
  8
0
  6
BYBLOCK
 62
    71
100
AcDbLine
 10
144.056455
 20
122.01894
 30
0.0
 11
144.056455
 21
121.655685
 31
0.0
  0
LINE
  5
82F
100
AcDbEntity
  8
0
  6
BYBLOCK
 62
    71
100
AcDbLine
 10
144.306455
 20
122.018217
 30
0.0
 11
144.306455
 21
121.655685
 31
0.0
  0
LINE
  5
830
100
AcDbEntity
  8
0
  6
BYBLOCK
 62
    71
100
AcDbLine
 10
144.006455
 20
121.735685
 30
0.0
 11
143.956455
 21
121.735685
 31
0.0
  0
LINE
  5
831
100
AcDbEntity
  8
0
  6
BYBLOCK
 62
    71
100
AcDbLine
 10
144.356455
 20
121.735685
 30
0.0
 11
144.406455
 21
121.735685
 31
0.0
  0
INSERT
  5
832
100
AcDbEntity
  8
0
  6
BYBLOCK
 62
    71
100
AcDbBlockReference
  2
TICK
 10
144.056455
 20
121.735685
 30
0.0
 41
0.05
 42
0.05
 43
0.05
  0
INSERT
  5
833
100
AcDbEntity
  8
0
  6
BYBLOCK
 62
    71
100
AcDbBlockReference
  2
TICK
 10
144.306455
 20
121.735685
 30
0.0
 41
0.05
 42
0.05
 43
0.05
 50
180.0
  0
TEXT
  5
834
100
AcDbEntity
  8
0
  6
BYBLOCK
 62
     7
100
AcDbText
 10
144.084034
 20
121.515081
 30
0.0
 40
0.08
  1
0.25
 72
     1
 11
144.197367
 21
121.555081
 31
0.0
100
AcDbText
 73
     2
  0
POINT
  5
835
100
AcDbEntity
  8
DEFPOINTS
  6
BYBLOCK
 62
     0
100
AcDbPoint
 10
144.056455
 20
122.09894
 30
0.0
  0
POINT
  5
836
100
AcDbEntity
  8
DEFPOINTS
  6
BYBLOCK
 62
     0
100
AcDbPoint
 10
144.306455
 20
122.098217
 30
0.0
  0
POINT
  5
837
100
AcDbEntity
  8
DEFPOINTS
  6
BYBLOCK
 62
     0
100
AcDbPoint
 10
144.306455
 20
121.735685
 30
0.0
  0
ENDBLK
  5
839
100
AcDbEntity
  8
0
100
AcDbBlockEnd
  0
BLOCK
  5
844
100
AcDbEntity
  8
0
100
AcDbBlockBegin
  2
*D6
 70
     1
 10
0.0
 20
0.0
 30
0.0
  3
*D6
  1

  0
LINE
  5
83B
100
AcDbEntity
  8
0
  6
BYBLOCK
 62
    71
100
AcDbLine
 10
144.386455
 20
122.098217
 30
0.0
 11
144.973154
 21
122.098217
 31
0.0
  0
LINE
  5
83C
100
AcDbEntity
  8
0
  6
BYBLOCK
 62
    71
100
AcDbLine
 10
144.385022
 20
122.398217
 30
0.0
 11
144.973154
 21
122.398217
 31
0.0
  0
LINE
  5
83D
100
AcDbEntity
  8
0
  6
BYBLOCK
 62
    71
100
AcDbLine
 10
144.893154
 20
122.148217
 30
0.0
 11
144.893154
 21
122.348217
 31
0.0
  0
INSERT
  5
83E
100
AcDbEntity
  8
0
  6
BYBLOCK
 62
    71
100
AcDbBlockReference
  2
TICK
 10
144.893154
 20
122.098217
 30
0.0
 41
0.05
 42
0.05
 43
0.05
 50
270.0
  0
INSERT
  5
83F
100
AcDbEntity
  8
0
  6
BYBLOCK
 62
    71
100
AcDbBlockReference
  2
TICK
 10
144.893154
 20
122.398217
 30
0.0
 41
0.05
 42
0.05
 43
0.05
 50
90.0
  0
TEXT
  5
840
100
AcDbEntity
  8
0
  6
BYBLOCK
 62
     7
100
AcDbText
 10
145.08328
 20
122.15045
 30
0.0
 40
0.08
  1
0.30
 50
90.0
 72
     1
 11
145.04328
 21
122.257116
 31
0.0
100
AcDbText
 73
     2
  0
POINT
  5
841
100
AcDbEntity
  8
DEFPOINTS
  6
BYBLOCK
 62
     0
100
AcDbPoint
 10
144.306455
 20
122.098217
 30
0.0
  0
POINT
  5
842
100
AcDbEntity
  8
DEFPOINTS
  6
BYBLOCK
 62
     0
100
AcDbPoint
 10
144.305022
 20
122.398217
 30
0.0
  0
POINT
  5
843
100
AcDbEntity
  8
DEFPOINTS
  6
BYBLOCK
 62
     0
100
AcDbPoint
 10
144.893154
 20
122.398217
 30
0.0
  0
ENDBLK
  5
845
100
AcDbEntity
  8
0
100
AcDbBlockEnd
  0
BLOCK
  5
850
100
AcDbEntity
  8
0
100
AcDbBlockBegin
  2
*D7
 70
     1
 10
0.0
 20
0.0
 30
0.0
  3
*D7
  1

  0
LINE
  5
847
100
AcDbEntity
  8
0
  6
BYBLOCK
 62
    71
100
AcDbLine
 10
144.385022
 20
122.398217
 30
0.0
 11
144.973154
 21
122.398217
 31
0.0
  0
LINE
  5
848
100
AcDbEntity
  8
0
  6
BYBLOCK
 62
    71
100
AcDbLine
 10
144.387149
 20
124.00198
 30
0.0
 11
144.973154
 21
124.00198
 31
0.0
  0
LINE
  5
849
100
AcDbEntity
  8
0
  6
BYBLOCK
 62
    71
100
AcDbLine
 10
144.893154
 20
122.448217
 30
0.0
 11
144.893154
 21
123.95198
 31
0.0
  0
INSERT
  5
84A
100
AcDbEntity
  8
0
  6
BYBLOCK
 62
    71
100
AcDbBlockReference
  2
TICK
 10
144.893154
 20
122.398217
 30
0.0
 41
0.05
 42
0.05
 43
0.05
 50
270.0
  0
INSERT
  5
84B
100
AcDbEntity
  8
0
  6
BYBLOCK
 62
    71
100
AcDbBlockReference
  2
TICK
 10
144.893154
 20
124.00198
 30
0.0
 41
0.05
 42
0.05
 43
0.05
 50
90.0
  0
TEXT
  5
84C
100
AcDbEntity
  8
0
  6
BYBLOCK
 62
     7
100
AcDbText
 10
144.853154
 20
123.100098
 30
0.0
 40
0.08
  1
1.60
 50
90.0
 72
     1
 11
144.813154
 21
123.200098
 31
0.0
100
AcDbText
 73
     2
  0
POINT
  5
84D
100
AcDbEntity
  8
DEFPOINTS
  6
BYBLOCK
 62
     0
100
AcDbPoint
 10
144.305022
 20
122.398217
 30
0.0
  0
POINT
  5
84E
100
AcDbEntity
  8
DEFPOINTS
  6
BYBLOCK
 62
     0
100
AcDbPoint
 10
144.307149
 20
124.00198
 30
0.0
  0
POINT
  5
84F
100
AcDbEntity
  8
DEFPOINTS
  6
BYBLOCK
 62
     0
100
AcDbPoint
 10
144.893154
 20
124.00198
 30
0.0
  0
ENDBLK
  5
851
100
AcDbEntity
  8
0
100
AcDbBlockEnd
  0
BLOCK
  5
85C
100
AcDbEntity
  8
0
100
AcDbBlockBegin
  2
*D8
 70
     1
 10
0.0
 20
0.0
 30
0.0
  3
*D8
  1

  0
LINE
  5
853
100
AcDbEntity
  8
0
  6
BYBLOCK
 62
    71
100
AcDbLine
 10
144.385022
 20
124.00198
 30
0.0
 11
144.973154
 21
124.00198
 31
0.0
  0
LINE
  5
854
100
AcDbEntity
  8
0
  6
BYBLOCK
 62
    71
100
AcDbLine
 10
143.971522
 20
124.998217
 30
0.0
 11
144.973154
 21
124.998217
 31
0.0
  0
LINE
  5
855
100
AcDbEntity
  8
0
  6
BYBLOCK
 62
    71
100
AcDbLine
 10
144.893154
 20
124.05198
 30
0.0
 11
144.893154
 21
124.948217
 31
0.0
  0
INSERT
  5
856
100
AcDbEntity
  8
0
  6
BYBLOCK
 62
    71
100
AcDbBlockReference
  2
TICK
 10
144.893154
 20
124.00198
 30
0.0
 41
0.05
 42
0.05
 43
0.05
 50
270.0
  0
INSERT
  5
857
100
AcDbEntity
  8
0
  6
BYBLOCK
 62
    71
100
AcDbBlockReference
  2
TICK
 10
144.893154
 20
124.998217
 30
0.0
 41
0.05
 42
0.05
 43
0.05
 50
90.0
  0
TEXT
  5
858
100
AcDbEntity
  8
0
  6
BYBLOCK
 62
     7
100
AcDbText
 10
144.853154
 20
124.406765
 30
0.0
 40
0.08
  1
1.00
 50
90.0
 72
     1
 11
144.813154
 21
124.500098
 31
0.0
100
AcDbText
 73
     2
  0
POINT
  5
859
100
AcDbEntity
  8
DEFPOINTS
  6
BYBLOCK
 62
     0
100
AcDbPoint
 10
144.305022
 20
124.00198
 30
0.0
  0
POINT
  5
85A
100
AcDbEntity
  8
DEFPOINTS
  6
BYBLOCK
 62
     0
100
AcDbPoint
 10
143.891522
 20
124.998217
 30
0.0
  0
POINT
  5
85B
100
AcDbEntity
  8
DEFPOINTS
  6
BYBLOCK
 62
     0
100
AcDbPoint
 10
144.893154
 20
124.998217
 30
0.0
  0
ENDBLK
  5
85D
100
AcDbEntity
  8
0
100
AcDbBlockEnd
  0
BLOCK
  5
869
100
AcDbEntity
  8
0
100
AcDbBlockBegin
  2
*D9
 70
     1
 10
0.0
 20
0.0
 30
0.0
  3
*D9
  1

  0
LINE
  5
85F
100
AcDbEntity
  8
0
  6
BYBLOCK
 62
    71
100
AcDbLine
 10
143.884655
 20
124.998217
 30
0.0
 11
144.973154
 21
124.998217
 31
0.0
  0
LINE
  5
860
100
AcDbEntity
  8
0
  6
BYBLOCK
 62
    71
100
AcDbLine
 10
143.392253
 20
125.248217
 30
0.0
 11
144.973154
 21
125.248217
 31
0.0
  0
LINE
  5
861
100
AcDbEntity
  8
0
  6
BYBLOCK
 62
    71
100
AcDbLine
 10
144.893154
 20
124.948217
 30
0.0
 11
144.893154
 21
124.898217
 31
0.0
  0
LINE
  5
862
100
AcDbEntity
  8
0
  6
BYBLOCK
 62
    71
100
AcDbLine
 10
144.893154
 20
125.298217
 30
0.0
 11
144.893154
 21
125.348217
 31
0.0
  0
INSERT
  5
863
100
AcDbEntity
  8
0
  6
BYBLOCK
 62
    71
100
AcDbBlockReference
  2
TICK
 10
144.893154
 20
124.998217
 30
0.0
 41
0.05
 42
0.05
 43
0.05
 50
90.0
  0
INSERT
  5
864
100
AcDbEntity
  8
0
  6
BYBLOCK
 62
    71
100
AcDbBlockReference
  2
TICK
 10
144.893154
 20
125.248217
 30
0.0
 41
0.05
 42
0.05
 43
0.05
 50
270.0
  0
TEXT
  5
865
100
AcDbEntity
  8
0
  6
BYBLOCK
 62
     7
100
AcDbText
 10
145.076459
 20
125.026897
 30
0.0
 40
0.08
  1
0.25
 50
90.0
 72
     1
 11
145.036459
 21
125.140231
 31
0.0
100
AcDbText
 73
     2
  0
POINT
  5
866
100
AcDbEntity
  8
DEFPOINTS
  6
BYBLOCK
 62
     0
100
AcDbPoint
 10
143.804655
 20
124.998217
 30
0.0
  0
POINT
  5
867
100
AcDbEntity
  8
DEFPOINTS
  6
BYBLOCK
 62
     0
100
AcDbPoint
 10
143.312253
 20
125.248217
 30
0.0
  0
POINT
  5
868
100
AcDbEntity
  8
DEFPOINTS
  6
BYBLOCK
 62
     0
100
AcDbPoint
 10
144.893154
 20
125.248217
 30
0.0
  0
ENDBLK
  5
86A
100
AcDbEntity
  8
0
100
AcDbBlockEnd
  0
BLOCK
  5
875
100
AcDbEntity
  8
0
100
AcDbBlockBegin
  2
*D10
 70
     1
 10
0.0
 20
0.0
 30
0.0
  3
*D10
  1

  0
LINE
  5
86C
100
AcDbEntity
  8
0
  6
BYBLOCK
 62
    71
100
AcDbLine
 10
143.136455
 20
122.398217
 30
0.0
 11
143.356559
 21
122.398217
 31
0.0
  0
LINE
  5
86D
100
AcDbEntity
  8
0
  6
BYBLOCK
 62
    71
100
AcDbLine
 10
143.136455
 20
122.698217
 30
0.0
 11
143.356559
 21
122.698217
 31
0.0
  0
LINE
  5
86E
100
AcDbEntity
  8
0
  6
BYBLOCK
 62
    71
100
AcDbLine
 10
143.276559
 20
122.448217
 30
0.0
 11
143.276559
 21
122.648217
 31
0.0
  0
INSERT
  5
86F
100
AcDbEntity
  8
0
  6
BYBLOCK
 62
    71
100
AcDbBlockReference
  2
TICK
 10
143.276559
 20
122.398217
 30
0.0
 41
0.05
 42
0.05
 43
0.05
 50
270.0
  0
INSERT
  5
870
100
AcDbEntity
  8
0
  6
BYBLOCK
 62
    71
100
AcDbBlockReference
  2
TICK
 10
143.276559
 20
122.698217
 30
0.0
 41
0.05
 42
0.05
 43
0.05
 50
90.0
  0
TEXT
  5
871
100
AcDbEntity
  8
0
  6
BYBLOCK
 62
     7
100
AcDbText
 10
143.218673
 20
122.446849
 30
0.0
 40
0.08
  1
0.30
 50
90.0
 72
     1
 11
143.178673
 21
122.553516
 31
0.0
100
AcDbText
 73
     2
  0
POINT
  5
872
100
AcDbEntity
  8
DEFPOINTS
  6
BYBLOCK
 62
     0
100
AcDbPoint
 10
143.056455
 20
122.398217
 30
0.0
  0
POINT
  5
873
100
AcDbEntity
  8
DEFPOINTS
  6
BYBLOCK
 62
     0
100
AcDbPoint
 10
143.056455
 20
122.698217
 30
0.0
  0
POINT
  5
874
100
AcDbEntity
  8
DEFPOINTS
  6
BYBLOCK
 62
     0
100
AcDbPoint
 10
143.276559
 20
122.698217
 30
0.0
  0
ENDBLK
  5
876
100
AcDbEntity
  8
0
100
AcDbBlockEnd
  0
BLOCK
  5
882
100
AcDbEntity
  8
0
100
AcDbBlockBegin
  2
*D11
 70
     1
 10
0.0
 20
0.0
 30
0.0
  3
*D11
  1

  0
LINE
  5
878
100
AcDbEntity
  8
0
  6
BYBLOCK
 62
    71
100
AcDbLine
 10
142.056455
 20
122.016422
 30
0.0
 11
142.056455
 21
121.655685
 31
0.0
  0
LINE
  5
879
100
AcDbEntity
  8
0
  6
BYBLOCK
 62
    71
100
AcDbLine
 10
144.056455
 20
122.01894
 30
0.0
 11
144.056455
 21
121.655685
 31
0.0
  0
LINE
  5
87A
100
AcDbEntity
  8
0
  6
BYBLOCK
 62
    71
100
AcDbLine
 10
142.106455
 20
121.735685
 30
0.0
 11
142.88377
 21
121.735685
 31
0.0
  0
LINE
  5
87B
100
AcDbEntity
  8
0
  6
BYBLOCK
 62
    71
100
AcDbLine
 10
144.006455
 20
121.735685
 30
0.0
 11
143.28758
 21
121.735685
 31
0.0
  0
INSERT
  5
87C
100
AcDbEntity
  8
0
  6
BYBLOCK
 62
    71
100
AcDbBlockReference
  2
TICK
 10
142.056455
 20
121.735685
 30
0.0
 41
0.05
 42
0.05
 43
0.05
 50
180.0
  0
INSERT
  5
87D
100
AcDbEntity
  8
0
  6
BYBLOCK
 62
    71
100
AcDbBlockReference
  2
TICK
 10
144.056455
 20
121.735685
 30
0.0
 41
0.05
 42
0.05
 43
0.05
  0
TEXT
  5
87E
100
AcDbEntity
  8
0
  6
BYBLOCK
 62
     7
100
AcDbText
 10
142.979008
 20
121.692294
 30
0.0
 40
0.08
  1
2.00
 72
     1
 11
143.085675
 21
121.732294
 31
0.0
100
AcDbText
 73
     2
  0
POINT
  5
87F
100
AcDbEntity
  8
DEFPOINTS
  6
BYBLOCK
 62
     0
100
AcDbPoint
 10
142.056455
 20
122.096422
 30
0.0
  0
POINT
  5
880
100
AcDbEntity
  8
DEFPOINTS
  6
BYBLOCK
 62
     0
100
AcDbPoint
 10
144.056455
 20
122.09894
 30
0.0
  0
POINT
  5
881
100
AcDbEntity
  8
DEFPOINTS
  6
BYBLOCK
 62
     0
100
AcDbPoint
 10
144.056455
 20
121.735685
 30
0.0
  0
ENDBLK
  5
883
100
AcDbEntity
  8
0
100
AcDbBlockEnd
  0
BLOCK
  5
88E
100
AcDbEntity
  8
0
100
AcDbBlockBegin
  2
*D12
 70
     1
 10
0.0
 20
0.0
 30
0.0
  3
*D12
  1

  0
LINE
  5
885
100
AcDbEntity
  8
0
  6
BYBLOCK
 62
    71
100
AcDbLine
 10
153.702968
 20
123.059563
 30
0.0
 11
153.702968
 21
123.328779
 31
0.0
  0
LINE
  5
886
100
AcDbEntity
  8
0
  6
BYBLOCK
 62
    71
100
AcDbLine
 10
154.702968
 20
123.059563
 30
0.0
 11
154.702968
 21
123.328779
 31
0.0
  0
LINE
  5
887
100
AcDbEntity
  8
0
  6
BYBLOCK
 62
    71
100
AcDbLine
 10
153.752968
 20
123.248779
 30
0.0
 11
154.652968
 21
123.248779
 31
0.0
  0
INSERT
  5
888
100
AcDbEntity
  8
0
  6
BYBLOCK
 62
    71
100
AcDbBlockReference
  2
TICK
 10
153.702968
 20
123.248779
 30
0.0
 41
0.05
 42
0.05
 43
0.05
 50
180.0
  0
INSERT
  5
889
100
AcDbEntity
  8
0
  6
BYBLOCK
 62
    71
100
AcDbBlockReference
  2
TICK
 10
154.702968
 20
123.248779
 30
0.0
 41
0.05
 42
0.05
 43
0.05
  0
TEXT
  5
88A
100
AcDbEntity
  8
0
  6
BYBLOCK
 62
     7
100
AcDbText
 10
154.109635
 20
123.288779
 30
0.0
 40
0.08
  1
1.00
 72
     1
 11
154.202968
 21
123.328779
 31
0.0
100
AcDbText
 73
     2
  0
POINT
  5
88B
100
AcDbEntity
  8
DEFPOINTS
  6
BYBLOCK
 62
     0
100
AcDbPoint
 10
153.702968
 20
122.979563
 30
0.0
  0
POINT
  5
88C
100
AcDbEntity
  8
DEFPOINTS
  6
BYBLOCK
 62
     0
100
AcDbPoint
 10
154.702968
 20
122.979563
 30
0.0
  0
POINT
  5
88D
100
AcDbEntity
  8
DEFPOINTS
  6
BYBLOCK
 62
     0
100
AcDbPoint
 10
154.702968
 20
123.248779
 30
0.0
  0
ENDBLK
  5
88F
100
AcDbEntity
  8
0
100
AcDbBlockEnd
  0
BLOCK
  5
89A
100
AcDbEntity
  8
0
100
AcDbBlockBegin
  2
*D13
 70
     1
 10
0.0
 20
0.0
 30
0.0
  3
*D13
  1

  0
LINE
  5
891
100
AcDbEntity
  8
0
  6
BYBLOCK
 62
    71
100
AcDbLine
 10
154.702968
 20
123.059563
 30
0.0
 11
154.702968
 21
123.328779
 31
0.0
  0
LINE
  5
892
100
AcDbEntity
  8
0
  6
BYBLOCK
 62
    71
100
AcDbLine
 10
155.502968
 20
122.759563
 30
0.0
 11
155.502968
 21
123.328779
 31
0.0
  0
LINE
  5
893
100
AcDbEntity
  8
0
  6
BYBLOCK
 62
    71
100
AcDbLine
 10
154.752968
 20
123.248779
 30
0.0
 11
155.452968
 21
123.248779
 31
0.0
  0
INSERT
  5
894
100
AcDbEntity
  8
0
  6
BYBLOCK
 62
    71
100
AcDbBlockReference
  2
TICK
 10
154.702968
 20
123.248779
 30
0.0
 41
0.05
 42
0.05
 43
0.05
 50
180.0
  0
INSERT
  5
895
100
AcDbEntity
  8
0
  6
BYBLOCK
 62
    71
100
AcDbBlockReference
  2
TICK
 10
155.502968
 20
123.248779
 30
0.0
 41
0.05
 42
0.05
 43
0.05
  0
TEXT
  5
896
100
AcDbEntity
  8
0
  6
BYBLOCK
 62
     7
100
AcDbText
 10
154.996301
 20
123.288779
 30
0.0
 40
0.08
  1
0.80
 72
     1
 11
155.102968
 21
123.328779
 31
0.0
100
AcDbText
 73
     2
  0
POINT
  5
897
100
AcDbEntity
  8
DEFPOINTS
  6
BYBLOCK
 62
     0
100
AcDbPoint
 10
154.702968
 20
122.979563
 30
0.0
  0
POINT
  5
898
100
AcDbEntity
  8
DEFPOINTS
  6
BYBLOCK
 62
     0
100
AcDbPoint
 10
155.502968
 20
122.679563
 30
0.0
  0
POINT
  5
899
100
AcDbEntity
  8
DEFPOINTS
  6
BYBLOCK
 62
     0
100
AcDbPoint
 10
155.502968
 20
123.248779
 30
0.0
  0
ENDBLK
  5
89B
100
AcDbEntity
  8
0
100
AcDbBlockEnd
  0
BLOCK
  5
8A6
100
AcDbEntity
  8
0
100
AcDbBlockBegin
  2
*D14
 70
     1
 10
0.0
 20
0.0
 30
0.0
  3
*D14
  1

  0
LINE
  5
89D
100
AcDbEntity
  8
0
  6
BYBLOCK
 62
    71
100
AcDbLine
 10
154.782968
 20
122.679563
 30
0.0
 11
155.079849
 21
122.679563
 31
0.0
  0
LINE
  5
89E
100
AcDbEntity
  8
0
  6
BYBLOCK
 62
    71
100
AcDbLine
 10
154.782968
 20
122.979563
 30
0.0
 11
155.079849
 21
122.979563
 31
0.0
  0
LINE
  5
89F
100
AcDbEntity
  8
0
  6
BYBLOCK
 62
    71
100
AcDbLine
 10
154.999849
 20
122.729563
 30
0.0
 11
154.999849
 21
122.929563
 31
0.0
  0
INSERT
  5
8A0
100
AcDbEntity
  8
0
  6
BYBLOCK
 62
    71
100
AcDbBlockReference
  2
TICK
 10
154.999849
 20
122.679563
 30
0.0
 41
0.05
 42
0.05
 43
0.05
 50
270.0
  0
INSERT
  5
8A1
100
AcDbEntity
  8
0
  6
BYBLOCK
 62
    71
100
AcDbBlockReference
  2
TICK
 10
154.999849
 20
122.979563
 30
0.0
 41
0.05
 42
0.05
 43
0.05
 50
90.0
  0
TEXT
  5
8A2
100
AcDbEntity
  8
0
  6
BYBLOCK
 62
     7
100
AcDbText
 10
154.959849
 20
122.731909
 30
0.0
 40
0.08
  1
0.30
 50
90.0
 72
     1
 11
154.919849
 21
122.838576
 31
0.0
100
AcDbText
 73
     2
  0
POINT
  5
8A3
100
AcDbEntity
  8
DEFPOINTS
  6
BYBLOCK
 62
     0
100
AcDbPoint
 10
154.702968
 20
122.679563
 30
0.0
  0
POINT
  5
8A4
100
AcDbEntity
  8
DEFPOINTS
  6
BYBLOCK
 62
     0
100
AcDbPoint
 10
154.702968
 20
122.979563
 30
0.0
  0
POINT
  5
8A5
100
AcDbEntity
  8
DEFPOINTS
  6
BYBLOCK
 62
     0
100
AcDbPoint
 10
154.999849
 20
122.979563
 30
0.0
  0
ENDBLK
  5
8A7
100
AcDbEntity
  8
0
100
AcDbBlockEnd
  0
BLOCK
  5
8B3
100
AcDbEntity
  8
0
100
AcDbBlockBegin
  2
*D15
 70
     1
 10
0.0
 20
0.0
 30
0.0
  3
*D15
  1

  0
LINE
  5
8A9
100
AcDbEntity
  8
0
  6
BYBLOCK
 62
    71
100
AcDbLine
 10
153.452968
 20
122.299563
 30
0.0
 11
153.452968
 21
121.963135
 31
0.0
  0
LINE
  5
8AA
100
AcDbEntity
  8
0
  6
BYBLOCK
 62
    71
100
AcDbLine
 10
153.702968
 20
122.296741
 30
0.0
 11
153.702968
 21
121.963135
 31
0.0
  0
LINE
  5
8AB
100
AcDbEntity
  8
0
  6
BYBLOCK
 62
    71
100
AcDbLine
 10
153.402968
 20
122.043135
 30
0.0
 11
153.352968
 21
122.043135
 31
0.0
  0
LINE
  5
8AC
100
AcDbEntity
  8
0
  6
BYBLOCK
 62
    71
100
AcDbLine
 10
153.752968
 20
122.043135
 30
0.0
 11
153.802968
 21
122.043135
 31
0.0
  0
INSERT
  5
8AD
100
AcDbEntity
  8
0
  6
BYBLOCK
 62
    71
100
AcDbBlockReference
  2
TICK
 10
153.452968
 20
122.043135
 30
0.0
 41
0.05
 42
0.05
 43
0.05
  0
INSERT
  5
8AE
100
AcDbEntity
  8
0
  6
BYBLOCK
 62
    71
100
AcDbBlockReference
  2
TICK
 10
153.702968
 20
122.043135
 30
0.0
 41
0.05
 42
0.05
 43
0.05
 50
180.0
  0
TEXT
  5
8AF
100
AcDbEntity
  8
0
  6
BYBLOCK
 62
     7
100
AcDbText
 10
153.147767
 20
122.083135
 30
0.0
 40
0.08
  1
0.25
 72
     1
 11
153.2611
 21
122.123135
 31
0.0
100
AcDbText
 73
     2
  0
POINT
  5
8B0
100
AcDbEntity
  8
DEFPOINTS
  6
BYBLOCK
 62
     0
100
AcDbPoint
 10
153.452968
 20
122.379563
 30
0.0
  0
POINT
  5
8B1
100
AcDbEntity
  8
DEFPOINTS
  6
BYBLOCK
 62
     0
100
AcDbPoint
 10
153.702968
 20
122.376741
 30
0.0
  0
POINT
  5
8B2
100
AcDbEntity
  8
DEFPOINTS
  6
BYBLOCK
 62
     0
100
AcDbPoint
 10
153.702968
 20
122.043135
 30
0.0
  0
ENDBLK
  5
8B4
100
AcDbEntity
  8
0
100
AcDbBlockEnd
  0
BLOCK
  5
8BF
100
AcDbEntity
  8
0
100
AcDbBlockBegin
  2
*D16
 70
     1
 10
0.0
 20
0.0
 30
0.0
  3
*D16
  1

  0
LINE
  5
8B6
100
AcDbEntity
  8
0
  6
BYBLOCK
 62
    71
100
AcDbLine
 10
153.702968
 20
122.296741
 30
0.0
 11
153.702968
 21
121.963135
 31
0.0
  0
LINE
  5
8B7
100
AcDbEntity
  8
0
  6
BYBLOCK
 62
    71
100
AcDbLine
 10
155.502968
 20
122.300209
 30
0.0
 11
155.502968
 21
121.963135
 31
0.0
  0
LINE
  5
8B8
100
AcDbEntity
  8
0
  6
BYBLOCK
 62
    71
100
AcDbLine
 10
153.752968
 20
122.043135
 30
0.0
 11
155.452968
 21
122.043135
 31
0.0
  0
INSERT
  5
8B9
100
AcDbEntity
  8
0
  6
BYBLOCK
 62
    71
100
AcDbBlockReference
  2
TICK
 10
153.702968
 20
122.043135
 30
0.0
 41
0.05
 42
0.05
 43
0.05
 50
180.0
  0
INSERT
  5
8BA
100
AcDbEntity
  8
0
  6
BYBLOCK
 62
    71
100
AcDbBlockReference
  2
TICK
 10
155.502968
 20
122.043135
 30
0.0
 41
0.05
 42
0.05
 43
0.05
  0
TEXT
  5
8BB
100
AcDbEntity
  8
0
  6
BYBLOCK
 62
     7
100
AcDbText
 10
154.502968
 20
122.083135
 30
0.0
 40
0.08
  1
1.80
 72
     1
 11
154.602968
 21
122.123135
 31
0.0
100
AcDbText
 73
     2
  0
POINT
  5
8BC
100
AcDbEntity
  8
DEFPOINTS
  6
BYBLOCK
 62
     0
100
AcDbPoint
 10
153.702968
 20
122.376741
 30
0.0
  0
POINT
  5
8BD
100
AcDbEntity
  8
DEFPOINTS
  6
BYBLOCK
 62
     0
100
AcDbPoint
 10
155.502968
 20
122.380209
 30
0.0
  0
POINT
  5
8BE
100
AcDbEntity
  8
DEFPOINTS
  6
BYBLOCK
 62
     0
100
AcDbPoint
 10
155.502968
 20
122.043135
 30
0.0
  0
ENDBLK
  5
8C0
100
AcDbEntity
  8
0
100
AcDbBlockEnd
  0
BLOCK
  5
8CC
100
AcDbEntity
  8
0
100
AcDbBlockBegin
  2
*D17
 70
     1
 10
0.0
 20
0.0
 30
0.0
  3
*D17
  1

  0
LINE
  5
8C2
100
AcDbEntity
  8
0
  6
BYBLOCK
 62
    71
100
AcDbLine
 10
155.502968
 20
122.300209
 30
0.0
 11
155.502968
 21
121.963135
 31
0.0
  0
LINE
  5
8C3
100
AcDbEntity
  8
0
  6
BYBLOCK
 62
    71
100
AcDbLine
 10
155.752968
 20
122.299563
 30
0.0
 11
155.752968
 21
121.963135
 31
0.0
  0
LINE
  5
8C4
100
AcDbEntity
  8
0
  6
BYBLOCK
 62
    71
100
AcDbLine
 10
155.452968
 20
122.043135
 30
0.0
 11
155.402968
 21
122.043135
 31
0.0
  0
LINE
  5
8C5
100
AcDbEntity
  8
0
  6
BYBLOCK
 62
    71
100
AcDbLine
 10
155.802968
 20
122.043135
 30
0.0
 11
155.852968
 21
122.043135
 31
0.0
  0
INSERT
  5
8C6
100
AcDbEntity
  8
0
  6
BYBLOCK
 62
    71
100
AcDbBlockReference
  2
TICK
 10
155.502968
 20
122.043135
 30
0.0
 41
0.05
 42
0.05
 43
0.05
  0
INSERT
  5
8C7
100
AcDbEntity
  8
0
  6
BYBLOCK
 62
    71
100
AcDbBlockReference
  2
TICK
 10
155.752968
 20
122.043135
 30
0.0
 41
0.05
 42
0.05
 43
0.05
 50
180.0
  0
TEXT
  5
8C8
100
AcDbEntity
  8
0
  6
BYBLOCK
 62
     7
100
AcDbText
 10
155.846548
 20
122.083135
 30
0.0
 40
0.08
  1
0.25
 72
     1
 11
155.959882
 21
122.123135
 31
0.0
100
AcDbText
 73
     2
  0
POINT
  5
8C9
100
AcDbEntity
  8
DEFPOINTS
  6
BYBLOCK
 62
     0
100
AcDbPoint
 10
155.502968
 20
122.380209
 30
0.0
  0
POINT
  5
8CA
100
AcDbEntity
  8
DEFPOINTS
  6
BYBLOCK
 62
     0
100
AcDbPoint
 10
155.752968
 20
122.379563
 30
0.0
  0
POINT
  5
8CB
100
AcDbEntity
  8
DEFPOINTS
  6
BYBLOCK
 62
     0
100
AcDbPoint
 10
155.752968
 20
122.043135
 30
0.0
  0
ENDBLK
  5
8CD
100
AcDbEntity
  8
0
100
AcDbBlockEnd
  0
BLOCK
  5
8D8
100
AcDbEntity
  8
0
100
AcDbBlockBegin
  2
*D18
 70
     1
 10
0.0
 20
0.0
 30
0.0
  3
*D18
  1

  0
LINE
  5
8CF
100
AcDbEntity
  8
0
  6
BYBLOCK
 62
    71
100
AcDbLine
 10
155.832968
 20
122.379563
 30
0.0
 11
156.231073
 21
122.379563
 31
0.0
  0
LINE
  5
8D0
100
AcDbEntity
  8
0
  6
BYBLOCK
 62
    71
100
AcDbLine
 10
155.833831
 20
122.679563
 30
0.0
 11
156.231073
 21
122.679563
 31
0.0
  0
LINE
  5
8D1
100
AcDbEntity
  8
0
  6
BYBLOCK
 62
    71
100
AcDbLine
 10
156.151073
 20
122.429563
 30
0.0
 11
156.151073
 21
122.629563
 31
0.0
  0
INSERT
  5
8D2
100
AcDbEntity
  8
0
  6
BYBLOCK
 62
    71
100
AcDbBlockReference
  2
TICK
 10
156.151073
 20
122.379563
 30
0.0
 41
0.05
 42
0.05
 43
0.05
 50
270.0
  0
INSERT
  5
8D3
100
AcDbEntity
  8
0
  6
BYBLOCK
 62
    71
100
AcDbBlockReference
  2
TICK
 10
156.151073
 20
122.679563
 30
0.0
 41
0.05
 42
0.05
 43
0.05
 50
90.0
  0
TEXT
  5
8D4
100
AcDbEntity
  8
0
  6
BYBLOCK
 62
     7
100
AcDbText
 10
156.111073
 20
122.426864
 30
0.0
 40
0.08
  1
0.30
 50
90.0
 72
     1
 11
156.071073
 21
122.53353
 31
0.0
100
AcDbText
 73
     2
  0
POINT
  5
8D5
100
AcDbEntity
  8
DEFPOINTS
  6
BYBLOCK
 62
     0
100
AcDbPoint
 10
155.752968
 20
122.379563
 30
0.0
  0
POINT
  5
8D6
100
AcDbEntity
  8
DEFPOINTS
  6
BYBLOCK
 62
     0
100
AcDbPoint
 10
155.753831
 20
122.679563
 30
0.0
  0
POINT
  5
8D7
100
AcDbEntity
  8
DEFPOINTS
  6
BYBLOCK
 62
     0
100
AcDbPoint
 10
156.151073
 20
122.679563
 30
0.0
  0
ENDBLK
  5
8D9
100
AcDbEntity
  8
0
100
AcDbBlockEnd
  0
BLOCK
  5
8E4
100
AcDbEntity
  8
0
100
AcDbBlockBegin
  2
*D19
 70
     1
 10
0.0
 20
0.0
 30
0.0
  3
*D19
  1

  0
LINE
  5
8DB
100
AcDbEntity
  8
0
  6
BYBLOCK
 62
    71
100
AcDbLine
 10
155.833831
 20
122.679563
 30
0.0
 11
156.231073
 21
122.679563
 31
0.0
  0
LINE
  5
8DC
100
AcDbEntity
  8
0
  6
BYBLOCK
 62
    71
100
AcDbLine
 10
155.833831
 20
123.579563
 30
0.0
 11
156.231073
 21
123.579563
 31
0.0
  0
LINE
  5
8DD
100
AcDbEntity
  8
0
  6
BYBLOCK
 62
    71
100
AcDbLine
 10
156.151073
 20
122.729563
 30
0.0
 11
156.151073
 21
123.529563
 31
0.0
  0
INSERT
  5
8DE
100
AcDbEntity
  8
0
  6
BYBLOCK
 62
    71
100
AcDbBlockReference
  2
TICK
 10
156.151073
 20
122.679563
 30
0.0
 41
0.05
 42
0.05
 43
0.05
 50
270.0
  0
INSERT
  5
8DF
100
AcDbEntity
  8
0
  6
BYBLOCK
 62
    71
100
AcDbBlockReference
  2
TICK
 10
156.151073
 20
123.579563
 30
0.0
 41
0.05
 42
0.05
 43
0.05
 50
90.0
  0
TEXT
  5
8E0
100
AcDbEntity
  8
0
  6
BYBLOCK
 62
     7
100
AcDbText
 10
156.111073
 20
123.022896
 30
0.0
 40
0.08
  1
0.90
 50
90.0
 72
     1
 11
156.071073
 21
123.129563
 31
0.0
100
AcDbText
 73
     2
  0
POINT
  5
8E1
100
AcDbEntity
  8
DEFPOINTS
  6
BYBLOCK
 62
     0
100
AcDbPoint
 10
155.753831
 20
122.679563
 30
0.0
  0
POINT
  5
8E2
100
AcDbEntity
  8
DEFPOINTS
  6
BYBLOCK
 62
     0
100
AcDbPoint
 10
155.753831
 20
123.579563
 30
0.0
  0
POINT
  5
8E3
100
AcDbEntity
  8
DEFPOINTS
  6
BYBLOCK
 62
     0
100
AcDbPoint
 10
156.151073
 20
123.579563
 30
0.0
  0
ENDBLK
  5
8E5
100
AcDbEntity
  8
0
100
AcDbBlockEnd
  0
BLOCK
  5
8F0
100
AcDbEntity
  8
0
100
AcDbBlockBegin
  2
*D20
 70
     1
 10
0.0
 20
0.0
 30
0.0
  3
*D20
  1

  0
LINE
  5
8E7
100
AcDbEntity
  8
0
  6
BYBLOCK
 62
    71
100
AcDbLine
 10
155.833831
 20
123.579563
 30
0.0
 11
156.231073
 21
123.579563
 31
0.0
  0
LINE
  5
8E8
100
AcDbEntity
  8
0
  6
BYBLOCK
 62
    71
100
AcDbLine
 10
155.398257
 20
124.479563
 30
0.0
 11
156.231073
 21
124.479563
 31
0.0
  0
LINE
  5
8E9
100
AcDbEntity
  8
0
  6
BYBLOCK
 62
    71
100
AcDbLine
 10
156.151073
 20
123.629563
 30
0.0
 11
156.151073
 21
124.429563
 31
0.0
  0
INSERT
  5
8EA
100
AcDbEntity
  8
0
  6
BYBLOCK
 62
    71
100
AcDbBlockReference
  2
TICK
 10
156.151073
 20
123.579563
 30
0.0
 41
0.05
 42
0.05
 43
0.05
 50
270.0
  0
INSERT
  5
8EB
100
AcDbEntity
  8
0
  6
BYBLOCK
 62
    71
100
AcDbBlockReference
  2
TICK
 10
156.151073
 20
124.479563
 30
0.0
 41
0.05
 42
0.05
 43
0.05
 50
90.0
  0
TEXT
  5
8EC
100
AcDbEntity
  8
0
  6
BYBLOCK
 62
     7
100
AcDbText
 10
156.111073
 20
123.922896
 30
0.0
 40
0.08
  1
0.90
 50
90.0
 72
     1
 11
156.071073
 21
124.029563
 31
0.0
100
AcDbText
 73
     2
  0
POINT
  5
8ED
100
AcDbEntity
  8
DEFPOINTS
  6
BYBLOCK
 62
     0
100
AcDbPoint
 10
155.753831
 20
123.579563
 30
0.0
  0
POINT
  5
8EE
100
AcDbEntity
  8
DEFPOINTS
  6
BYBLOCK
 62
     0
100
AcDbPoint
 10
155.318257
 20
124.479563
 30
0.0
  0
POINT
  5
8EF
100
AcDbEntity
  8
DEFPOINTS
  6
BYBLOCK
 62
     0
100
AcDbPoint
 10
156.151073
 20
124.479563
 30
0.0
  0
ENDBLK
  5
8F1
100
AcDbEntity
  8
0
100
AcDbBlockEnd
  0
BLOCK
  5
8FD
100
AcDbEntity
  8
0
100
AcDbBlockBegin
  2
*D21
 70
     1
 10
0.0
 20
0.0
 30
0.0
  3
*D21
  1

  0
LINE
  5
8F3
100
AcDbEntity
  8
0
  6
BYBLOCK
 62
    71
100
AcDbLine
 10
155.398257
 20
124.479563
 30
0.0
 11
156.231073
 21
124.479563
 31
0.0
  0
LINE
  5
8F4
100
AcDbEntity
  8
0
  6
BYBLOCK
 62
    71
100
AcDbLine
 10
154.851857
 20
124.729563
 30
0.0
 11
156.231073
 21
124.729563
 31
0.0
  0
LINE
  5
8F5
100
AcDbEntity
  8
0
  6
BYBLOCK
 62
    71
100
AcDbLine
 10
156.151073
 20
124.429563
 30
0.0
 11
156.151073
 21
124.379563
 31
0.0
  0
LINE
  5
8F6
100
AcDbEntity
  8
0
  6
BYBLOCK
 62
    71
100
AcDbLine
 10
156.151073
 20
124.779563
 30
0.0
 11
156.151073
 21
124.829563
 31
0.0
  0
INSERT
  5
8F7
100
AcDbEntity
  8
0
  6
BYBLOCK
 62
    71
100
AcDbBlockReference
  2
TICK
 10
156.151073
 20
124.479563
 30
0.0
 41
0.05
 42
0.05
 43
0.05
 50
90.0
  0
INSERT
  5
8F8
100
AcDbEntity
  8
0
  6
BYBLOCK
 62
    71
100
AcDbBlockReference
  2
TICK
 10
156.151073
 20
124.729563
 30
0.0
 41
0.05
 42
0.05
 43
0.05
 50
270.0
  0
TEXT
  5
8F9
100
AcDbEntity
  8
0
  6
BYBLOCK
 62
     7
100
AcDbText
 10
156.111073
 20
124.831595
 30
0.0
 40
0.08
  1
0.25
 50
90.0
 72
     1
 11
156.071073
 21
124.944928
 31
0.0
100
AcDbText
 73
     2
  0
POINT
  5
8FA
100
AcDbEntity
  8
DEFPOINTS
  6
BYBLOCK
 62
     0
100
AcDbPoint
 10
155.318257
 20
124.479563
 30
0.0
  0
POINT
  5
8FB
100
AcDbEntity
  8
DEFPOINTS
  6
BYBLOCK
 62
     0
100
AcDbPoint
 10
154.771857
 20
124.729563
 30
0.0
  0
POINT
  5
8FC
100
AcDbEntity
  8
DEFPOINTS
  6
BYBLOCK
 62
     0
100
AcDbPoint
 10
156.151073
 20
124.729563
 30
0.0
  0
ENDBLK
  5
8FE
100
AcDbEntity
  8
0
100
AcDbBlockEnd
  0
BLOCK
  5
906
100
AcDbEntity
  8
0
100
AcDbBlockBegin
  2
*D22
 70
     1
 10
0.0
 20
0.0
 30
0.0
  3
*D22
  1

  0
LINE
  5
900
100
AcDbEntity
  8
0
  6
BYBLOCK
 62
    71
100
AcDbLine
 10
154.399015
 20
124.404732
 30
0.0
 11
154.50153
 21
123.989971
 31
0.0
  0
LINE
  5
901
100
AcDbEntity
  8
0
  6
BYBLOCK
 62
    71
100
AcDbLine
 10
154.50153
 20
123.989971
 30
0.0
 11
154.597507
 21
123.601656
 31
0.0
  0
INSERT
  5
902
100
AcDbEntity
  8
0
  6
BYBLOCK
 62
    71
100
AcDbBlockReference
  2
TICK
 10
154.387018
 20
124.453271
 30
0.0
 41
0.05
 42
0.05
 43
0.05
 50
103.883238
  0
TEXT
  5
903
100
AcDbEntity
  8
0
  6
BYBLOCK
 62
     7
100
AcDbText
 10
154.562756
 20
123.908962
 30
0.0
 40
0.08
  1
R0.90
 50
283.883238
 72
     1
 11
154.636779
 21
123.776177
 31
0.0
100
AcDbText
 73
     2
  0
POINT
  5
904
100
AcDbEntity
  8
DEFPOINTS
  6
BYBLOCK
 62
     0
100
AcDbPoint
 10
154.387018
 20
124.453271
 30
0.0
  0
POINT
  5
905
100
AcDbEntity
  8
DEFPOINTS
  6
BYBLOCK
 62
     0
100
AcDbPoint
 10
154.602968
 20
123.579563
 30
0.0
  0
ENDBLK
  5
907
100
AcDbEntity
  8
0
100
AcDbBlockEnd
  0
BLOCK
  5
936
100
AcDbEntity
  8
0
100
AcDbBlockBegin
  2
VILADOMAT
 70
     0
 10
0.0
 20
0.0
 30
0.0
  3
VILADOMAT
  1

  0
DIMENSION
  5
90C
100
AcDbEntity
  8
COTES
100
AcDbDimension
  2
*D9
 10
-5.873182
 20
3.756356
 30
0.0
 11
-5.729876
 21
3.648369
 31
0.0
 12
-150.766336
 22
-121.491862
 32
0.0
 70
   128
  3
STANDARD
100
AcDbAlignedDimension
 13
-6.961681
 23
3.506356
 33
0.0
 14
-7.454083
 24
3.756356
 34
0.0
 50
90.0
100
AcDbRotatedDimension
  0
DIMENSION
  5
90D
100
AcDbEntity
  8
COTES
100
AcDbDimension
  2
*D8
 10
-5.873182
 20
3.506356
 30
0.0
 11
-5.953182
 21
3.008237
 31
0.0
 12
-150.766336
 22
-121.491862
 32
0.0
  3
STANDARD
100
AcDbAlignedDimension
 13
-6.461314
 23
2.510118
 33
0.0
 14
-6.874814
 24
3.506356
 34
0.0
 50
90.0
100
AcDbRotatedDimension
  0
DIMENSION
  5
90E
100
AcDbEntity
  8
COTES
100
AcDbDimension
  2
*D7
 10
-5.873182
 20
2.510118
 30
0.0
 11
-5.953182
 21
1.708237
 31
0.0
 12
-150.766336
 22
-121.491862
 32
0.0
  3
STANDARD
100
AcDbAlignedDimension
 13
-6.461314
 23
0.906356
 33
0.0
 14
-6.459187
 24
2.510118
 34
0.0
 50
90.0
100
AcDbRotatedDimension
  0
DIMENSION
  5
90F
100
AcDbEntity
  8
COTES
100
AcDbDimension
  2
*D6
 10
-5.873182
 20
0.906356
 30
0.0
 11
-5.723056
 21
0.765255
 31
0.0
 12
-150.766336
 22
-121.491862
 32
0.0
 70
   128
  3
STANDARD
100
AcDbAlignedDimension
 13
-6.459881
 23
0.606356
 33
0.0
 14
-6.461314
 24
0.906356
 34
0.0
 50
90.0
100
AcDbRotatedDimension
  0
DIMENSION
  5
910
100
AcDbEntity
  8
COTES
100
AcDbDimension
  2
*D5
 10
-6.459881
 20
0.243823
 30
0.0
 11
-6.568968
 21
0.06322
 31
0.0
 12
-150.766336
 22
-121.491862
 32
0.0
 70
   128
  3
STANDARD
100
AcDbAlignedDimension
 13
-6.709881
 23
0.607079
 33
0.0
 14
-6.459881
 24
0.606356
 34
0.0
100
AcDbRotatedDimension
  0
ARC
  5
911
100
AcDbEntity
  8
SECCIO
100
AcDbCircle
 10
-7.709881
 20
2.506356
 30
0.0
 40
1.25
100
AcDbArc
 50
0.0
 51
180.0
  0
ARC
  5
912
100
AcDbEntity
  8
SECCIO
100
AcDbCircle
 10
-7.709881
 20
2.506356
 30
0.0
 40
1.0
100
AcDbArc
 50
0.0
 51
180.0
  0
LINE
  5
913
100
AcDbEntity
  8
SECCIO
100
AcDbLine
 10
-6.459881
 20
0.606356
 30
0.0
 11
-6.459881
 21
2.506356
 31
0.0
  0
LINE
  5
914
100
AcDbEntity
  8
SECCIO
100
AcDbLine
 10
-8.709881
 20
2.506356
 30
0.0
 11
-8.709881
 21
1.206356
 31
0.0
  0
LINE
  5
915
100
AcDbEntity
  8
SECCIO
100
AcDbLine
 10
-6.709881
 20
0.906356
 30
0.0
 11
-6.709881
 21
2.506356
 31
0.0
  0
LINE
  5
916
100
AcDbEntity
  8
SECCIO
100
AcDbLine
 10
-8.959881
 20
2.506356
 30
0.0
 11
-8.959881
 21
0.606356
 31
0.0
  0
LINE
  5
917
100
AcDbEntity
  8
SECCIO
100
AcDbLine
 10
-8.959881
 20
0.606356
 30
0.0
 11
-6.459881
 21
0.606356
 31
0.0
  0
DIMENSION
  5
918
100
AcDbEntity
  8
COTES
100
AcDbDimension
  2
*D11
 10
-6.709881
 20
0.243823
 30
0.0
 11
-7.680661
 21
0.240433
 31
0.0
 12
-150.766336
 22
-121.491862
 32
0.0
 70
   128
  3
STANDARD
100
AcDbAlignedDimension
 13
-8.709881
 23
0.60456
 33
0.0
 14
-6.709881
 24
0.607079
 34
0.0
100
AcDbRotatedDimension
  0
DIMENSION
  5
919
100
AcDbEntity
  8
COTES
100
AcDbDimension
  2
*D10
 10
-7.489777
 20
1.206356
 30
0.0
 11
-7.587663
 21
1.061654
 31
0.0
 12
-150.766336
 22
-121.491862
 32
0.0
 70
   128
  3
STANDARD
100
AcDbAlignedDimension
 13
-7.709881
 23
0.906356
 33
0.0
 14
-7.709881
 24
1.206356
 34
0.0
 50
90.0
100
AcDbRotatedDimension
  0
DIMENSION
  5
91A
100
AcDbEntity
  8
COTES
100
AcDbDimension
  2
*D4
 10
-8.709881
 20
0.242889
 30
0.0
 11
-8.840095
 21
0.06322
 31
0.0
 12
-150.766336
 22
-121.491862
 32
0.0
 70
   128
  3
STANDARD
100
AcDbAlignedDimension
 13
-8.959881
 23
0.606356
 33
0.0
 14
-8.709881
 24
0.60456
 34
0.0
100
AcDbRotatedDimension
  0
DIMENSION
  5
91B
100
AcDbEntity
  8
COTES
100
AcDbDimension
  2
*D3
 10
-7.709881
 20
2.506356
 30
0.0
 11
-7.789881
 21
2.781234
 31
0.0
 12
-150.766336
 22
-121.491862
 32
0.0
 70
     4
  3
STANDARD
100
AcDbRadialDimension
 15
-7.709881
 25
3.506356
 35
0.0
 40
-0.485122
  0
DIMENSION
  5
91C
100
AcDbEntity
  8
COTES
100
AcDbDimension
  2
*D2
 10
-6.709881
 20
1.430369
 30
0.0
 11
-7.209881
 21
1.510369
 31
0.0
 12
-150.766336
 22
-121.491862
 32
0.0
  3
STANDARD
100
AcDbAlignedDimension
 13
-7.709881
 23
1.206356
 33
0.0
 14
-6.709881
 24
0.906356
 34
0.0
100
AcDbRotatedDimension
  0
DIMENSION
  5
91D
100
AcDbEntity
  8
COTES
100
AcDbDimension
  2
*D1
 10
-7.709881
 20
1.430369
 30
0.0
 11
-8.209881
 21
1.510369
 31
0.0
 12
-150.766336
 22
-121.491862
 32
0.0
  3
STANDARD
100
AcDbAlignedDimension
 13
-8.709881
 23
1.206356
 33
0.0
 14
-7.709881
 24
1.206356
 34
0.0
100
AcDbRotatedDimension
  0
LINE
  5
91E
100
AcDbEntity
  8
SECCIO
100
AcDbLine
 10
-7.709881
 20
0.906356
 30
0.0
 11
-6.709881
 21
0.906356
 31
0.0
  0
LINE
  5
91F
100
AcDbEntity
  8
SECCIO
100
AcDbLine
 10
-7.709881
 20
1.206356
 30
0.0
 11
-8.709881
 21
1.206356
 31
0.0
  0
LINE
  5
920
100
AcDbEntity
  8
SECCIO
100
AcDbLine
 10
-7.709881
 20
0.906356
 30
0.0
 11
-7.709881
 21
1.206356
 31
0.0
  0
DIMENSION
  5
921
100
AcDbEntity
  8
COTES
100
AcDbDimension
  2
*D22
 10
-3.301087
 20
2.087702
 30
0.0
 11
-3.267276
 21
2.284316
 31
0.0
 12
-157.904055
 22
-121.491862
 32
0.0
 70
     4
  3
STANDARD
100
AcDbRadialDimension
 15
-3.517037
 25
2.96141
 35
0.0
 40
-0.477242
  0
DIMENSION
  5
922
100
AcDbEntity
  8
COTES
100
AcDbDimension
  2
*D21
 10
-1.752982
 20
3.237702
 30
0.0
 11
-1.832982
 21
3.453066
 31
0.0
 12
-157.904055
 22
-121.491862
 32
0.0
 70
   128
  3
STANDARD
100
AcDbAlignedDimension
 13
-2.585798
 23
2.987702
 33
0.0
 14
-3.132198
 24
3.237702
 34
0.0
 50
90.0
100
AcDbRotatedDimension
  0
DIMENSION
  5
923
100
AcDbEntity
  8
COTES
100
AcDbDimension
  2
*D20
 10
-1.752982
 20
2.987702
 30
0.0
 11
-1.832982
 21
2.537702
 31
0.0
 12
-157.904055
 22
-121.491862
 32
0.0
  3
STANDARD
100
AcDbAlignedDimension
 13
-2.150224
 23
2.087702
 33
0.0
 14
-2.585798
 24
2.987702
 34
0.0
 50
90.0
100
AcDbRotatedDimension
  0
DIMENSION
  5
924
100
AcDbEntity
  8
COTES
100
AcDbDimension
  2
*D19
 10
-1.752982
 20
2.087702
 30
0.0
 11
-1.832982
 21
1.637702
 31
0.0
 12
-157.904055
 22
-121.491862
 32
0.0
  3
STANDARD
100
AcDbAlignedDimension
 13
-2.150224
 23
1.187702
 33
0.0
 14
-2.150224
 24
2.087702
 34
0.0
 50
90.0
100
AcDbRotatedDimension
  0
DIMENSION
  5
925
100
AcDbEntity
  8
COTES
100
AcDbDimension
  2
*D18
 10
-1.752982
 20
1.187702
 30
0.0
 11
-1.832982
 21
1.041669
 31
0.0
 12
-157.904055
 22
-121.491862
 32
0.0
 70
   128
  3
STANDARD
100
AcDbAlignedDimension
 13
-2.151087
 23
0.887702
 33
0.0
 14
-2.150224
 24
1.187702
 34
0.0
 50
90.0
100
AcDbRotatedDimension
  0
DIMENSION
  5
926
100
AcDbEntity
  8
COTES
100
AcDbDimension
  2
*D17
 10
-2.151087
 20
0.551273
 30
0.0
 11
-1.944173
 21
0.631273
 31
0.0
 12
-157.904055
 22
-121.491862
 32
0.0
 70
   128
  3
STANDARD
100
AcDbAlignedDimension
 13
-2.401087
 23
0.888348
 33
0.0
 14
-2.151087
 24
0.887702
 34
0.0
100
AcDbRotatedDimension
  0
DIMENSION
  5
927
100
AcDbEntity
  8
COTES
100
AcDbDimension
  2
*D16
 10
-2.401087
 20
0.551273
 30
0.0
 11
-3.301087
 21
0.631273
 31
0.0
 12
-157.904055
 22
-121.491862
 32
0.0
  3
STANDARD
100
AcDbAlignedDimension
 13
-4.201087
 23
0.88488
 33
0.0
 14
-2.401087
 24
0.888348
 34
0.0
100
AcDbRotatedDimension
  0
DIMENSION
  5
928
100
AcDbEntity
  8
COTES
100
AcDbDimension
  2
*D15
 10
-4.201087
 20
0.551273
 30
0.0
 11
-4.642955
 21
0.631273
 31
0.0
 12
-157.904055
 22
-121.491862
 32
0.0
 70
   128
  3
STANDARD
100
AcDbAlignedDimension
 13
-4.451087
 23
0.887702
 33
0.0
 14
-4.201087
 24
0.88488
 34
0.0
100
AcDbRotatedDimension
  0
DIMENSION
  5
929
100
AcDbEntity
  8
COTES
100
AcDbDimension
  2
*D14
 10
-2.904206
 20
1.487702
 30
0.0
 11
-2.984206
 21
1.346714
 31
0.0
 12
-157.904055
 22
-121.491862
 32
0.0
 70
   128
  3
STANDARD
100
AcDbAlignedDimension
 13
-3.201087
 23
1.187702
 33
0.0
 14
-3.201087
 24
1.487702
 34
0.0
 50
90.0
100
AcDbRotatedDimension
  0
DIMENSION
  5
92A
100
AcDbEntity
  8
COTES
100
AcDbDimension
  2
*D13
 10
-2.401087
 20
1.756918
 30
0.0
 11
-2.801087
 21
1.836918
 31
0.0
 12
-157.904055
 22
-121.491862
 32
0.0
  3
STANDARD
100
AcDbAlignedDimension
 13
-3.201087
 23
1.487702
 33
0.0
 14
-2.401087
 24
1.187702
 34
0.0
100
AcDbRotatedDimension
  0
DIMENSION
  5
92B
100
AcDbEntity
  8
COTES
100
AcDbDimension
  2
*D12
 10
-3.201087
 20
1.756918
 30
0.0
 11
-3.701087
 21
1.836918
 31
0.0
 12
-157.904055
 22
-121.491862
 32
0.0
  3
STANDARD
100
AcDbAlignedDimension
 13
-4.201087
 23
1.487702
 33
0.0
 14
-3.201087
 24
1.487702
 34
0.0
100
AcDbRotatedDimension
  0
LINE
  5
92C
100
AcDbEntity
  8
SECCIO
100
AcDbLine
 10
-3.201087
 20
1.187702
 30
0.0
 11
-3.201087
 21
1.487702
 31
0.0
  0
LINE
  5
92D
100
AcDbEntity
  8
SECCIO
100
AcDbLine
 10
-4.201087
 20
1.487702
 30
0.0
 11
-3.201087
 21
1.487702
 31
0.0
  0
LINE
  5
92E
100
AcDbEntity
  8
SECCIO
100
AcDbLine
 10
-4.451087
 20
0.887702
 30
0.0
 11
-4.451087
 21
2.087702
 31
0.0
  0
ARC
  5
92F
100
AcDbEntity
  8
SECCIO
100
AcDbCircle
 10
-3.301087
 20
2.087702
 30
0.0
 40
1.15
100
AcDbArc
 50
0.0
 51
180.0
  0
LINE
  5
930
100
AcDbEntity
  8
SECCIO
100
AcDbLine
 10
-2.151087
 20
0.887702
 30
0.0
 11
-2.151087
 21
2.087702
 31
0.0
  0
LINE
  5
931
100
AcDbEntity
  8
SECCIO
100
AcDbLine
 10
-3.201087
 20
1.187702
 30
0.0
 11
-2.401087
 21
1.187702
 31
0.0
  0
ARC
  5
932
100
AcDbEntity
  8
SECCIO
100
AcDbCircle
 10
-3.301087
 20
2.087702
 30
0.0
 40
0.9
100
AcDbArc
 50
0.0
 51
180.0
  0
LINE
  5
933
100
AcDbEntity
  8
SECCIO
100
AcDbLine
 10
-4.201087
 20
1.487702
 30
0.0
 11
-4.201087
 21
2.087702
 31
0.0
  0
LINE
  5
934
100
AcDbEntity
  8
SECCIO
100
AcDbLine
 10
-2.401087
 20
1.187702
 30
0.0
 11
-2.401087
 21
2.087702
 31
0.0
  0
LINE
  5
935
100
AcDbEntity
  8
SECCIO
100
AcDbLine
 10
-4.451087
 20
0.887702
 30
0.0
 11
-2.151087
 21
0.887702
 31
0.0
  0
ENDBLK
  5
937
100
AcDbEntity
  8
0
100
AcDbBlockEnd
  0
BLOCK
  5
F97
100
AcDbEntity
  8
0
100
AcDbBlockBegin
  2
*D24
 70
     1
 10
0.0
 20
0.0
 30
0.0
  3
*D24
  1

  0
LINE
  5
F98
100
AcDbEntity
  8
0
  6
BYBLOCK
 62
     0
100
AcDbLine
 10
321.836594
 20
34.213227
 30
0.0
 11
321.836594
 21
33.90192
 31
0.0
  0
LINE
  5
F99
100
AcDbEntity
  8
0
  6
BYBLOCK
 62
     0
100
AcDbLine
 10
324.286594
 20
34.213227
 30
0.0
 11
324.286594
 21
33.90192
 31
0.0
  0
LINE
  5
F9A
100
AcDbEntity
  8
0
  6
BYBLOCK
 62
     0
100
AcDbLine
 10
321.986594
 20
33.91692
 30
0.0
 11
324.136594
 21
33.91692
 31
0.0
  0
SOLID
  5
F9B
100
AcDbEntity
  8
0
  6
BYBLOCK
 62
     0
100
AcDbTrace
 10
321.986594
 20
33.94192
 30
0.0
 11
321.986594
 21
33.89192
 31
0.0
 12
321.836594
 22
33.91692
 32
0.0
 13
321.836594
 23
33.91692
 33
0.0
  0
SOLID
  5
F9C
100
AcDbEntity
  8
0
  6
BYBLOCK
 62
     0
100
AcDbTrace
 10
324.136594
 20
33.94192
 30
0.0
 11
324.136594
 21
33.89192
 31
0.0
 12
324.286594
 22
33.91692
 32
0.0
 13
324.286594
 23
33.91692
 33
0.0
  0
MTEXT
  5
F9D
100
AcDbEntity
  8
0
  6
BYBLOCK
 62
     0
100
AcDbMText
 10
323.061594
 20
33.99192
 30
0.0
 40
0.075
 41
0.0
 71
     5
 72
     1
  1
\A1;2.45
  7
ROMANC
  0
POINT
  5
F9E
100
AcDbEntity
  8
DEFPOINTS
  6
BYBLOCK
 62
     0
100
AcDbPoint
 10
321.836594
 20
34.228227
 30
0.0
  0
POINT
  5
F9F
100
AcDbEntity
  8
DEFPOINTS
  6
BYBLOCK
 62
     0
100
AcDbPoint
 10
324.286594
 20
34.228227
 30
0.0
  0
POINT
  5
FA0
100
AcDbEntity
  8
DEFPOINTS
  6
BYBLOCK
 62
     0
100
AcDbPoint
 10
324.286594
 20
33.91692
 30
0.0
  0
ENDBLK
  5
FA1
100
AcDbEntity
  8
0
100
AcDbBlockEnd
  0
BLOCK
  5
FA4
100
AcDbEntity
  8
0
100
AcDbBlockBegin
  2
*D25
 70
     1
 10
0.0
 20
0.0
 30
0.0
  3
*D25
  1

  0
LINE
  5
FA5
100
AcDbEntity
  8
0
  6
BYBLOCK
 62
     0
100
AcDbLine
 10
324.301594
 20
35.828227
 30
0.0
 11
324.614696
 21
35.828227
 31
0.0
  0
LINE
  5
FA6
100
AcDbEntity
  8
0
  6
BYBLOCK
 62
     0
100
AcDbLine
 10
324.301594
 20
34.228227
 30
0.0
 11
324.614696
 21
34.228227
 31
0.0
  0
LINE
  5
FA7
100
AcDbEntity
  8
0
  6
BYBLOCK
 62
     0
100
AcDbLine
 10
324.599696
 20
35.678227
 30
0.0
 11
324.599696
 21
34.378227
 31
0.0
  0
SOLID
  5
FA8
100
AcDbEntity
  8
0
  6
BYBLOCK
 62
     0
100
AcDbTrace
 10
324.574696
 20
35.678227
 30
0.0
 11
324.624696
 21
35.678227
 31
0.0
 12
324.599696
 22
35.828227
 32
0.0
 13
324.599696
 23
35.828227
 33
0.0
  0
SOLID
  5
FA9
100
AcDbEntity
  8
0
  6
BYBLOCK
 62
     0
100
AcDbTrace
 10
324.574696
 20
34.378227
 30
0.0
 11
324.624696
 21
34.378227
 31
0.0
 12
324.599696
 22
34.228227
 32
0.0
 13
324.599696
 23
34.228227
 33
0.0
  0
MTEXT
  5
FAA
100
AcDbEntity
  8
0
  6
BYBLOCK
 62
     0
100
AcDbMText
 10
324.524696
 20
35.028227
 30
0.0
 40
0.075
 41
0.0
 71
     5
 72
     1
  1
\A1;1.60
  7
ROMANC
 11
0.0
 21
1.0
 31
0.0
  0
POINT
  5
FAB
100
AcDbEntity
  8
DEFPOINTS
  6
BYBLOCK
 62
     0
100
AcDbPoint
 10
324.286594
 20
35.828227
 30
0.0
  0
POINT
  5
FAC
100
AcDbEntity
  8
DEFPOINTS
  6
BYBLOCK
 62
     0
100
AcDbPoint
 10
324.286594
 20
34.228227
 30
0.0
  0
POINT
  5
FAD
100
AcDbEntity
  8
DEFPOINTS
  6
BYBLOCK
 62
     0
100
AcDbPoint
 10
324.599696
 20
34.228227
 30
0.0
  0
ENDBLK
  5
FAE
100
AcDbEntity
  8
0
100
AcDbBlockEnd
  0
BLOCK
  5
FCC
100
AcDbEntity
  8
0
100
AcDbBlockBegin
  2
*D26
 70
     1
 10
0.0
 20
0.0
 30
0.0
  3
*D26
  1

  0
LINE
  5
FCD
100
AcDbEntity
  8
0
  6
BYBLOCK
 62
     0
100
AcDbLine
 10
324.704684
 20
34.384141
 30
0.0
 11
324.955824
 21
34.384141
 31
0.0
  0
LINE
  5
FCE
100
AcDbEntity
  8
0
  6
BYBLOCK
 62
     0
100
AcDbLine
 10
324.704684
 20
34.864141
 30
0.0
 11
324.955824
 21
34.864141
 31
0.0
  0
LINE
  5
FCF
100
AcDbEntity
  8
0
  6
BYBLOCK
 62
     0
100
AcDbLine
 10
324.940824
 20
34.534141
 30
0.0
 11
324.940824
 21
34.714141
 31
0.0
  0
SOLID
  5
FD0
100
AcDbEntity
  8
0
  6
BYBLOCK
 62
     0
100
AcDbTrace
 10
324.915824
 20
34.534141
 30
0.0
 11
324.965824
 21
34.534141
 31
0.0
 12
324.940824
 22
34.384141
 32
0.0
 13
324.940824
 23
34.384141
 33
0.0
  0
SOLID
  5
FD1
100
AcDbEntity
  8
0
  6
BYBLOCK
 62
     0
100
AcDbTrace
 10
324.915824
 20
34.714141
 30
0.0
 11
324.965824
 21
34.714141
 31
0.0
 12
324.940824
 22
34.864141
 32
0.0
 13
324.940824
 23
34.864141
 33
0.0
  0
MTEXT
  5
FD2
100
AcDbEntity
  8
0
  6
BYBLOCK
 62
     0
100
AcDbMText
 10
324.865824
 20
34.624141
 30
0.0
 40
0.075
 41
0.0
 71
     5
 72
     1
  1
\A1;0.48
  7
ROMANC
 11
0.0
 21
1.0
 31
0.0
  0
POINT
  5
FD3
100
AcDbEntity
  8
DEFPOINTS
  6
BYBLOCK
 62
     0
100
AcDbPoint
 10
324.689684
 20
34.384141
 30
0.0
  0
POINT
  5
FD4
100
AcDbEntity
  8
DEFPOINTS
  6
BYBLOCK
 62
     0
100
AcDbPoint
 10
324.689684
 20
34.864141
 30
0.0
  0
POINT
  5
FD5
100
AcDbEntity
  8
DEFPOINTS
  6
BYBLOCK
 62
     0
100
AcDbPoint
 10
324.940824
 20
34.864141
 30
0.0
  0
ENDBLK
  5
FD6
100
AcDbEntity
  8
0
100
AcDbBlockEnd
  0
BLOCK
  5
FE7
100
AcDbEntity
  8
0
100
AcDbBlockBegin
  2
*D27
 70
     1
 10
0.0
 20
0.0
 30
0.0
  3
*D27
  1

  0
LINE
  5
FE8
100
AcDbEntity
  8
0
  6
BYBLOCK
 62
     0
100
AcDbLine
 10
324.284684
 20
34.384141
 30
0.0
 11
324.955824
 21
34.384141
 31
0.0
  0
LINE
  5
FE9
100
AcDbEntity
  8
0
  6
BYBLOCK
 62
     0
100
AcDbLine
 10
324.084684
 20
34.234141
 30
0.0
 11
324.955824
 21
34.234141
 31
0.0
  0
LINE
  5
FEA
100
AcDbEntity
  8
0
  6
BYBLOCK
 62
     0
100
AcDbLine
 10
324.940824
 20
34.534141
 30
0.0
 11
324.940824
 21
34.684141
 31
0.0
  0
LINE
  5
FEB
100
AcDbEntity
  8
0
  6
BYBLOCK
 62
     0
100
AcDbLine
 10
324.940824
 20
34.084141
 30
0.0
 11
324.940824
 21
33.934141
 31
0.0
  0
MTEXT
  5
FEC
100
AcDbEntity
  8
0
  6
BYBLOCK
 62
     0
100
AcDbMText
 10
324.865824
 20
34.100996
 30
0.0
 40
0.075
 41
0.0
 71
     5
 72
     1
  1
\A1;0.15
  7
ROMANC
 11
0.0
 21
1.0
 31
0.0
  0
LINE
  5
FED
100
AcDbEntity
  8
0
  6
BYBLOCK
 62
     0
100
AcDbLine
 10
324.940824
 20
34.384141
 30
0.0
 11
324.940824
 21
34.234141
 31
0.0
  0
LINE
  5
FEE
100
AcDbEntity
  8
0
  6
BYBLOCK
 62
     0
100
AcDbLine
 10
324.940824
 20
34.384141
 30
0.0
 11
324.940824
 21
34.234141
 31
0.0
  0
SOLID
  5
FEF
100
AcDbEntity
  8
0
  6
BYBLOCK
 62
     0
100
AcDbTrace
 10
324.915824
 20
34.534141
 30
0.0
 11
324.965824
 21
34.534141
 31
0.0
 12
324.940824
 22
34.384141
 32
0.0
 13
324.940824
 23
34.384141
 33
0.0
  0
SOLID
  5
FF0
100
AcDbEntity
  8
0
  6
BYBLOCK
 62
     0
100
AcDbTrace
 10
324.915824
 20
34.084141
 30
0.0
 11
324.965824
 21
34.084141
 31
0.0
 12
324.940824
 22
34.234141
 32
0.0
 13
324.940824
 23
34.234141
 33
0.0
  0
POINT
  5
FF1
100
AcDbEntity
  8
DEFPOINTS
  6
BYBLOCK
 62
     0
100
AcDbPoint
 10
324.269684
 20
34.384141
 30
0.0
  0
POINT
  5
FF2
100
AcDbEntity
  8
DEFPOINTS
  6
BYBLOCK
 62
     0
100
AcDbPoint
 10
324.069684
 20
34.234141
 30
0.0
  0
POINT
  5
FF3
100
AcDbEntity
  8
DEFPOINTS
  6
BYBLOCK
 62
     0
100
AcDbPoint
 10
324.940824
 20
34.234141
 30
0.0
  0
ENDBLK
  5
FF4
100
AcDbEntity
  8
0
100
AcDbBlockEnd
  0
BLOCK
  5
FF6
100
AcDbEntity
  8
0
100
AcDbBlockBegin
  2
*D28
 70
     1
 10
0.0
 20
0.0
 30
0.0
  3
*D28
  1

  0
LINE
  5
FF7
100
AcDbEntity
  8
0
  6
BYBLOCK
 62
     0
100
AcDbLine
 10
323.869684
 20
34.369141
 30
0.0
 11
323.869684
 21
34.010549
 31
0.0
  0
LINE
  5
FF8
100
AcDbEntity
  8
0
  6
BYBLOCK
 62
     0
100
AcDbLine
 10
324.269684
 20
34.369141
 30
0.0
 11
324.269684
 21
34.010549
 31
0.0
  0
LINE
  5
FF9
100
AcDbEntity
  8
0
  6
BYBLOCK
 62
     0
100
AcDbLine
 10
324.019684
 20
34.025549
 30
0.0
 11
324.119684
 21
34.025549
 31
0.0
  0
SOLID
  5
FFA
100
AcDbEntity
  8
0
  6
BYBLOCK
 62
     0
100
AcDbTrace
 10
324.019684
 20
34.050549
 30
0.0
 11
324.019684
 21
34.000549
 31
0.0
 12
323.869684
 22
34.025549
 32
0.0
 13
323.869684
 23
34.025549
 33
0.0
  0
SOLID
  5
FFB
100
AcDbEntity
  8
0
  6
BYBLOCK
 62
     0
100
AcDbTrace
 10
324.119684
 20
34.050549
 30
0.0
 11
324.119684
 21
34.000549
 31
0.0
 12
324.269684
 22
34.025549
 32
0.0
 13
324.269684
 23
34.025549
 33
0.0
  0
MTEXT
  5
FFC
100
AcDbEntity
  8
0
  6
BYBLOCK
 62
     0
100
AcDbMText
 10
324.069684
 20
34.100549
 30
0.0
 40
0.075
 41
0.0
 71
     5
 72
     1
  1
\A1;0.40
  7
ROMANC
  0
POINT
  5
FFD
100
AcDbEntity
  8
DEFPOINTS
  6
BYBLOCK
 62
     0
100
AcDbPoint
 10
323.869684
 20
34.384141
 30
0.0
  0
POINT
  5
FFE
100
AcDbEntity
  8
DEFPOINTS
  6
BYBLOCK
 62
     0
100
AcDbPoint
 10
324.269684
 20
34.384141
 30
0.0
  0
POINT
  5
FFF
100
AcDbEntity
  8
DEFPOINTS
  6
BYBLOCK
 62
     0
100
AcDbPoint
 10
324.269684
 20
34.025549
 30
0.0
  0
ENDBLK
  5
1000
100
AcDbEntity
  8
0
100
AcDbBlockEnd
  0
BLOCK
  5
1003
100
AcDbEntity
  8
0
100
AcDbBlockBegin
  2
*D29
 70
     1
 10
0.0
 20
0.0
 30
0.0
  3
*D29
  1

  0
LINE
  5
1004
100
AcDbEntity
  8
0
  6
BYBLOCK
 62
     0
100
AcDbLine
 10
323.449684
 20
34.369141
 30
0.0
 11
323.449684
 21
33.79585
 31
0.0
  0
LINE
  5
1005
100
AcDbEntity
  8
0
  6
BYBLOCK
 62
     0
100
AcDbLine
 10
324.689684
 20
34.369141
 30
0.0
 11
324.689684
 21
33.79585
 31
0.0
  0
LINE
  5
1006
100
AcDbEntity
  8
0
  6
BYBLOCK
 62
     0
100
AcDbLine
 10
323.599684
 20
33.81085
 30
0.0
 11
324.539684
 21
33.81085
 31
0.0
  0
SOLID
  5
1007
100
AcDbEntity
  8
0
  6
BYBLOCK
 62
     0
100
AcDbTrace
 10
323.599684
 20
33.83585
 30
0.0
 11
323.599684
 21
33.78585
 31
0.0
 12
323.449684
 22
33.81085
 32
0.0
 13
323.449684
 23
33.81085
 33
0.0
  0
SOLID
  5
1008
100
AcDbEntity
  8
0
  6
BYBLOCK
 62
     0
100
AcDbTrace
 10
324.539684
 20
33.83585
 30
0.0
 11
324.539684
 21
33.78585
 31
0.0
 12
324.689684
 22
33.81085
 32
0.0
 13
324.689684
 23
33.81085
 33
0.0
  0
MTEXT
  5
1009
100
AcDbEntity
  8
0
  6
BYBLOCK
 62
     0
100
AcDbMText
 10
324.069684
 20
33.88585
 30
0.0
 40
0.075
 41
0.0
 71
     5
 72
     1
  1
\A1;1.24
  7
ROMANC
  0
POINT
  5
100A
100
AcDbEntity
  8
DEFPOINTS
  6
BYBLOCK
 62
     0
100
AcDbPoint
 10
323.449684
 20
34.384141
 30
0.0
  0
POINT
  5
100B
100
AcDbEntity
  8
DEFPOINTS
  6
BYBLOCK
 62
     0
100
AcDbPoint
 10
324.689684
 20
34.384141
 30
0.0
  0
POINT
  5
100C
100
AcDbEntity
  8
DEFPOINTS
  6
BYBLOCK
 62
     0
100
AcDbPoint
 10
324.689684
 20
33.81085
 30
0.0
  0
ENDBLK
  5
100D
100
AcDbEntity
  8
0
100
AcDbBlockEnd
  0
BLOCK
  5
1010
100
AcDbEntity
  8
0
100
AcDbBlockBegin
  2
*D30
 70
     1
 10
0.0
 20
0.0
 30
0.0
  3
*D30
  1

  0
LINE
  5
1011
100
AcDbEntity
  8
0
  6
BYBLOCK
 62
     0
100
AcDbLine
 10
324.704684
 20
34.864141
 30
0.0
 11
325.180005
 21
34.864141
 31
0.0
  0
LINE
  5
1012
100
AcDbEntity
  8
0
  6
BYBLOCK
 62
     0
100
AcDbLine
 10
324.084684
 20
34.234141
 30
0.0
 11
325.180005
 21
34.234141
 31
0.0
  0
LINE
  5
1013
100
AcDbEntity
  8
0
  6
BYBLOCK
 62
     0
100
AcDbLine
 10
325.165005
 20
34.714141
 30
0.0
 11
325.165005
 21
34.384141
 31
0.0
  0
SOLID
  5
1014
100
AcDbEntity
  8
0
  6
BYBLOCK
 62
     0
100
AcDbTrace
 10
325.140005
 20
34.714141
 30
0.0
 11
325.190005
 21
34.714141
 31
0.0
 12
325.165005
 22
34.864141
 32
0.0
 13
325.165005
 23
34.864141
 33
0.0
  0
SOLID
  5
1015
100
AcDbEntity
  8
0
  6
BYBLOCK
 62
     0
100
AcDbTrace
 10
325.140005
 20
34.384141
 30
0.0
 11
325.190005
 21
34.384141
 31
0.0
 12
325.165005
 22
34.234141
 32
0.0
 13
325.165005
 23
34.234141
 33
0.0
  0
MTEXT
  5
1016
100
AcDbEntity
  8
0
  6
BYBLOCK
 62
     0
100
AcDbMText
 10
325.090005
 20
34.549141
 30
0.0
 40
0.075
 41
0.0
 71
     5
 72
     1
  1
\A1;0.63
  7
ROMANC
 11
0.0
 21
1.0
 31
0.0
  0
POINT
  5
1017
100
AcDbEntity
  8
DEFPOINTS
  6
BYBLOCK
 62
     0
100
AcDbPoint
 10
324.689684
 20
34.864141
 30
0.0
  0
POINT
  5
1018
100
AcDbEntity
  8
DEFPOINTS
  6
BYBLOCK
 62
     0
100
AcDbPoint
 10
324.069684
 20
34.234141
 30
0.0
  0
POINT
  5
1019
100
AcDbEntity
  8
DEFPOINTS
  6
BYBLOCK
 62
     0
100
AcDbPoint
 10
325.165005
 20
34.234141
 30
0.0
  0
ENDBLK
  5
101A
100
AcDbEntity
  8
0
100
AcDbBlockEnd
  0
ENDSEC
  0
SECTION
  2
ENTITIES
  0
TEXT
  5
2A
100
AcDbEntity
  8
0
100
AcDbText
 10
321.773149
 20
42.309482
 30
0.0
 40
0.3
  1
TIPUS   NT64E
  7
ROMANC
100
AcDbText
  0
TEXT
  5
2D
100
AcDbEntity
  8
0
100
AcDbText
 10
321.781963
 20
40.49646
 30
0.0
 40
0.3
  1
P = 35,8 dm
  7
ROMANC
100
AcDbText
  0
TEXT
  5
2E
100
AcDbEntity
  8
0
100
AcDbText
 10
321.760278
 20
41.105813
 30
0.0
 40
0.3
  1
S = 64 dm
  7
ROMANC
100
AcDbText
  0
TEXT
  5
2F
100
AcDbEntity
  8
0
100
AcDbText
 10
321.773149
 20
41.704403
 30
0.0
 40
0.3
  1
ESCALA  1:50
  7
ROMANC
100
AcDbText
  0
TEXT
  5
30
100
AcDbEntity
  8
0
100
AcDbText
 10
324.694626
 20
41.411729
 30
0.0
 40
0.1
  1
2
  7
ROMANC
100
AcDbText
  0
LINE
  5
1023
100
AcDbEntity
  8
0
100
AcDbLine
 10
323.311044
 20
34.982192
 30
0.0
 11
322.886994
 21
34.982192
 31
0.0
  0
LINE
  5
1024
100
AcDbEntity
  8
0
100
AcDbLine
 10
322.886994
 20
34.982192
 30
0.0
 11
322.886994
 21
35.492192
 31
0.0
  0
LINE
  5
1025
100
AcDbEntity
  8
0
100
AcDbLine
 10
322.886994
 20
35.492192
 30
0.0
 11
324.156994
 21
35.492192
 31
0.0
  0
LINE
  5
1026
100
AcDbEntity
  8
0
100
AcDbLine
 10
324.156994
 20
35.492192
 30
0.0
 11
324.156994
 21
34.982192
 31
0.0
  0
LINE
  5
1027
100
AcDbEntity
  8
0
100
AcDbLine
 10
324.156994
 20
34.982192
 30
0.0
 11
323.732944
 21
34.982192
 31
0.0
  0
ARC
  5
1028
100
AcDbEntity
  8
0
100
AcDbCircle
 10
323.521994
 20
35.055525
 30
0.0
 40
0.223333
100
AcDbArc
 50
199.169156
 51
340.830844
  0
LINE
  5
1029
100
AcDbEntity
  8
0
100
AcDbLine
 10
323.316446
 20
34.989692
 30
0.0
 11
322.894494
 21
34.989692
 31
0.0
  0
LINE
  5
102A
100
AcDbEntity
  8
0
100
AcDbLine
 10
322.894494
 20
34.989692
 30
0.0
 11
322.894494
 21
35.484692
 31
0.0
  0
LINE
  5
102B
100
AcDbEntity
  8
0
100
AcDbLine
 10
322.894494
 20
35.484692
 30
0.0
 11
324.149494
 21
35.484692
 31
0.0
  0
LINE
  5
102C
100
AcDbEntity
  8
0
100
AcDbLine
 10
324.149494
 20
35.484692
 30
0.0
 11
324.149494
 21
34.989692
 31
0.0
  0
LINE
  5
102D
100
AcDbEntity
  8
0
100
AcDbLine
 10
324.149494
 20
34.989692
 30
0.0
 11
323.727542
 21
34.989692
 31
0.0
  0
ARC
  5
102E
100
AcDbEntity
  8
0
100
AcDbCircle
 10
323.521994
 20
35.055525
 30
0.0
 40
0.215833
100
AcDbArc
 50
197.759325
 51
342.240675
  0
LINE
  5
102F
100
AcDbEntity
  8
0
100
AcDbLine
 10
323.321994
 20
34.997192
 30
0.0
 11
322.901994
 21
34.997192
 31
0.0
  0
LINE
  5
1030
100
AcDbEntity
  8
0
100
AcDbLine
 10
322.901994
 20
34.997192
 30
0.0
 11
322.901994
 21
35.477192
 31
0.0
  0
LINE
  5
1031
100
AcDbEntity
  8
0
100
AcDbLine
 10
322.901994
 20
35.477192
 30
0.0
 11
324.141994
 21
35.477192
 31
0.0
  0
LINE
  5
1032
100
AcDbEntity
  8
0
100
AcDbLine
 10
324.141994
 20
35.477192
 30
0.0
 11
324.141994
 21
34.997192
 31
0.0
  0
LINE
  5
1033
100
AcDbEntity
  8
0
100
AcDbLine
 10
324.141994
 20
34.997192
 30
0.0
 11
323.721994
 21
34.997192
 31
0.0
  0
ARC
  5
1034
100
AcDbEntity
  8
0
100
AcDbCircle
 10
323.521994
 20
35.055525
 30
0.0
 40
0.208333
100
AcDbArc
 50
196.260205
 51
343.739795
  0
LINE
  5
1035
100
AcDbEntity
  8
0
  6
BYBLOCK
 62
     0
100
AcDbLine
 10
324.156994
 20
35.477192
 30
0.0
 11
324.632315
 21
35.477192
 31
0.0
  0
LINE
  5
1036
100
AcDbEntity
  8
0
  6
BYBLOCK
 62
     0
100
AcDbLine
 10
323.536994
 20
34.847192
 30
0.0
 11
324.632315
 21
34.847192
 31
0.0
  0
LINE
  5
1037
100
AcDbEntity
  8
0
  6
BYBLOCK
 62
     0
100
AcDbLine
 10
324.617315
 20
35.327192
 30
0.0
 11
324.617315
 21
34.997192
 31
0.0
  0
SOLID
  5
1038
100
AcDbEntity
  8
0
  6
BYBLOCK
 62
     0
100
AcDbTrace
 10
324.592315
 20
35.327192
 30
0.0
 11
324.642315
 21
35.327192
 31
0.0
 12
324.617315
 22
35.477192
 32
0.0
 13
324.617315
 23
35.477192
 33
0.0
  0
SOLID
  5
1039
100
AcDbEntity
  8
0
  6
BYBLOCK
 62
     0
100
AcDbTrace
 10
324.592315
 20
34.997192
 30
0.0
 11
324.642315
 21
34.997192
 31
0.0
 12
324.617315
 22
34.847192
 32
0.0
 13
324.617315
 23
34.847192
 33
0.0
  0
MTEXT
  5
103A
100
AcDbEntity
  8
0
  6
BYBLOCK
 62
     0
100
AcDbMText
 10
324.542315
 20
35.162192
 30
0.0
 40
0.075
 41
0.0
 71
     5
 72
     1
  1
\A1;0.63
  7
ROMANC
 11
0.0
 21
1.0
 31
0.0
  0
POINT
  5
103B
100
AcDbEntity
  8
DEFPOINTS
  6
BYBLOCK
 62
     0
100
AcDbPoint
 10
324.141994
 20
35.477192
 30
0.0
  0
POINT
  5
103C
100
AcDbEntity
  8
DEFPOINTS
  6
BYBLOCK
 62
     0
100
AcDbPoint
 10
323.521994
 20
34.847192
 30
0.0
  0
POINT
  5
103D
100
AcDbEntity
  8
DEFPOINTS
  6
BYBLOCK
 62
     0
100
AcDbPoint
 10
324.617315
 20
34.847192
 30
0.0
  0
LINE
  5
103E
100
AcDbEntity
  8
0
  6
BYBLOCK
 62
     0
100
AcDbLine
 10
322.901994
 20
34.982192
 30
0.0
 11
322.901994
 21
34.408901
 31
0.0
  0
LINE
  5
103F
100
AcDbEntity
  8
0
  6
BYBLOCK
 62
     0
100
AcDbLine
 10
324.141994
 20
34.982192
 30
0.0
 11
324.141994
 21
34.408901
 31
0.0
  0
LINE
  5
1040
100
AcDbEntity
  8
0
  6
BYBLOCK
 62
     0
100
AcDbLine
 10
323.051994
 20
34.423901
 30
0.0
 11
323.991994
 21
34.423901
 31
0.0
  0
SOLID
  5
1041
100
AcDbEntity
  8
0
  6
BYBLOCK
 62
     0
100
AcDbTrace
 10
323.051994
 20
34.448901
 30
0.0
 11
323.051994
 21
34.398901
 31
0.0
 12
322.901994
 22
34.423901
 32
0.0
 13
322.901994
 23
34.423901
 33
0.0
  0
SOLID
  5
1042
100
AcDbEntity
  8
0
  6
BYBLOCK
 62
     0
100
AcDbTrace
 10
323.991994
 20
34.448901
 30
0.0
 11
323.991994
 21
34.398901
 31
0.0
 12
324.141994
 22
34.423901
 32
0.0
 13
324.141994
 23
34.423901
 33
0.0
  0
MTEXT
  5
1043
100
AcDbEntity
  8
0
  6
BYBLOCK
 62
     0
100
AcDbMText
 10
323.521994
 20
34.498901
 30
0.0
 40
0.075
 41
0.0
 71
     5
 72
     1
  1
\A1;1.24
  7
ROMANC
  0
POINT
  5
1044
100
AcDbEntity
  8
DEFPOINTS
  6
BYBLOCK
 62
     0
100
AcDbPoint
 10
322.901994
 20
34.997192
 30
0.0
  0
POINT
  5
1045
100
AcDbEntity
  8
DEFPOINTS
  6
BYBLOCK
 62
     0
100
AcDbPoint
 10
324.141994
 20
34.997192
 30
0.0
  0
POINT
  5
1046
100
AcDbEntity
  8
DEFPOINTS
  6
BYBLOCK
 62
     0
100
AcDbPoint
 10
324.141994
 20
34.423901
 30
0.0
  0
LINE
  5
1047
100
AcDbEntity
  8
0
  6
BYBLOCK
 62
     0
100
AcDbLine
 10
323.321994
 20
34.982192
 30
0.0
 11
323.321994
 21
34.6236
 31
0.0
  0
LINE
  5
1048
100
AcDbEntity
  8
0
  6
BYBLOCK
 62
     0
100
AcDbLine
 10
323.721994
 20
34.982192
 30
0.0
 11
323.721994
 21
34.6236
 31
0.0
  0
LINE
  5
1049
100
AcDbEntity
  8
0
  6
BYBLOCK
 62
     0
100
AcDbLine
 10
323.471994
 20
34.6386
 30
0.0
 11
323.571994
 21
34.6386
 31
0.0
  0
SOLID
  5
104A
100
AcDbEntity
  8
0
  6
BYBLOCK
 62
     0
100
AcDbTrace
 10
323.471994
 20
34.6636
 30
0.0
 11
323.471994
 21
34.6136
 31
0.0
 12
323.321994
 22
34.6386
 32
0.0
 13
323.321994
 23
34.6386
 33
0.0
  0
SOLID
  5
104B
100
AcDbEntity
  8
0
  6
BYBLOCK
 62
     0
100
AcDbTrace
 10
323.571994
 20
34.6636
 30
0.0
 11
323.571994
 21
34.6136
 31
0.0
 12
323.721994
 22
34.6386
 32
0.0
 13
323.721994
 23
34.6386
 33
0.0
  0
MTEXT
  5
104C
100
AcDbEntity
  8
0
  6
BYBLOCK
 62
     0
100
AcDbMText
 10
323.521994
 20
34.7136
 30
0.0
 40
0.075
 41
0.0
 71
     5
 72
     1
  1
\A1;0.40
  7
ROMANC
  0
POINT
  5
104D
100
AcDbEntity
  8
DEFPOINTS
  6
BYBLOCK
 62
     0
100
AcDbPoint
 10
323.321994
 20
34.997192
 30
0.0
  0
POINT
  5
104E
100
AcDbEntity
  8
DEFPOINTS
  6
BYBLOCK
 62
     0
100
AcDbPoint
 10
323.721994
 20
34.997192
 30
0.0
  0
POINT
  5
104F
100
AcDbEntity
  8
DEFPOINTS
  6
BYBLOCK
 62
     0
100
AcDbPoint
 10
323.721994
 20
34.6386
 30
0.0
  0
LINE
  5
1050
100
AcDbEntity
  8
0
  6
BYBLOCK
 62
     0
100
AcDbLine
 10
323.736994
 20
34.997192
 30
0.0
 11
324.408134
 21
34.997192
 31
0.0
  0
LINE
  5
1051
100
AcDbEntity
  8
0
  6
BYBLOCK
 62
     0
100
AcDbLine
 10
323.536994
 20
34.847192
 30
0.0
 11
324.408134
 21
34.847192
 31
0.0
  0
LINE
  5
1052
100
AcDbEntity
  8
0
  6
BYBLOCK
 62
     0
100
AcDbLine
 10
324.393134
 20
35.147192
 30
0.0
 11
324.393134
 21
35.297192
 31
0.0
  0
LINE
  5
1053
100
AcDbEntity
  8
0
  6
BYBLOCK
 62
     0
100
AcDbLine
 10
324.393134
 20
34.697192
 30
0.0
 11
324.393134
 21
34.547192
 31
0.0
  0
MTEXT
  5
1054
100
AcDbEntity
  8
0
  6
BYBLOCK
 62
     0
100
AcDbMText
 10
324.318134
 20
34.714047
 30
0.0
 40
0.075
 41
0.0
 71
     5
 72
     1
  1
\A1;0.15
  7
ROMANC
 11
0.0
 21
1.0
 31
0.0
  0
LINE
  5
1055
100
AcDbEntity
  8
0
  6
BYBLOCK
 62
     0
100
AcDbLine
 10
324.393134
 20
34.997192
 30
0.0
 11
324.393134
 21
34.847192
 31
0.0
  0
LINE
  5
1056
100
AcDbEntity
  8
0
  6
BYBLOCK
 62
     0
100
AcDbLine
 10
324.393134
 20
34.997192
 30
0.0
 11
324.393134
 21
34.847192
 31
0.0
  0
SOLID
  5
1057
100
AcDbEntity
  8
0
  6
BYBLOCK
 62
     0
100
AcDbTrace
 10
324.368134
 20
35.147192
 30
0.0
 11
324.418134
 21
35.147192
 31
0.0
 12
324.393134
 22
34.997192
 32
0.0
 13
324.393134
 23
34.997192
 33
0.0
  0
SOLID
  5
1058
100
AcDbEntity
  8
0
  6
BYBLOCK
 62
     0
100
AcDbTrace
 10
324.368134
 20
34.697192
 30
0.0
 11
324.418134
 21
34.697192
 31
0.0
 12
324.393134
 22
34.847192
 32
0.0
 13
324.393134
 23
34.847192
 33
0.0
  0
POINT
  5
1059
100
AcDbEntity
  8
DEFPOINTS
  6
BYBLOCK
 62
     0
100
AcDbPoint
 10
323.721994
 20
34.997192
 30
0.0
  0
POINT
  5
105A
100
AcDbEntity
  8
DEFPOINTS
  6
BYBLOCK
 62
     0
100
AcDbPoint
 10
323.521994
 20
34.847192
 30
0.0
  0
POINT
  5
105B
100
AcDbEntity
  8
DEFPOINTS
  6
BYBLOCK
 62
     0
100
AcDbPoint
 10
324.393134
 20
34.847192
 30
0.0
  0
LINE
  5
105C
100
AcDbEntity
  8
0
  6
BYBLOCK
 62
     0
100
AcDbLine
 10
324.156994
 20
34.997192
 30
0.0
 11
324.408134
 21
34.997192
 31
0.0
  0
LINE
  5
105D
100
AcDbEntity
  8
0
  6
BYBLOCK
 62
     0
100
AcDbLine
 10
324.156994
 20
35.477192
 30
0.0
 11
324.408134
 21
35.477192
 31
0.0
  0
LINE
  5
105E
100
AcDbEntity
  8
0
  6
BYBLOCK
 62
     0
100
AcDbLine
 10
324.393134
 20
35.147192
 30
0.0
 11
324.393134
 21
35.327192
 31
0.0
  0
SOLID
  5
105F
100
AcDbEntity
  8
0
  6
BYBLOCK
 62
     0
100
AcDbTrace
 10
324.368134
 20
35.147192
 30
0.0
 11
324.418134
 21
35.147192
 31
0.0
 12
324.393134
 22
34.997192
 32
0.0
 13
324.393134
 23
34.997192
 33
0.0
  0
SOLID
  5
1060
100
AcDbEntity
  8
0
  6
BYBLOCK
 62
     0
100
AcDbTrace
 10
324.368134
 20
35.327192
 30
0.0
 11
324.418134
 21
35.327192
 31
0.0
 12
324.393134
 22
35.477192
 32
0.0
 13
324.393134
 23
35.477192
 33
0.0
  0
MTEXT
  5
1061
100
AcDbEntity
  8
0
  6
BYBLOCK
 62
     0
100
AcDbMText
 10
324.318134
 20
35.237192
 30
0.0
 40
0.075
 41
0.0
 71
     5
 72
     1
  1
\A1;0.48
  7
ROMANC
 11
0.0
 21
1.0
 31
0.0
  0
POINT
  5
1062
100
AcDbEntity
  8
DEFPOINTS
  6
BYBLOCK
 62
     0
100
AcDbPoint
 10
324.141994
 20
34.997192
 30
0.0
  0
POINT
  5
1063
100
AcDbEntity
  8
DEFPOINTS
  6
BYBLOCK
 62
     0
100
AcDbPoint
 10
324.141994
 20
35.477192
 30
0.0
  0
POINT
  5
1064
100
AcDbEntity
  8
DEFPOINTS
  6
BYBLOCK
 62
     0
100
AcDbPoint
 10
324.393134
 20
35.477192
 30
0.0
  0
LINE
  5
1065
100
AcDbEntity
  8
0
100
AcDbLine
 10
329.348696
 20
29.863623
 30
0.0
 11
329.348696
 21
44.713623
 31
0.0
  0
LINE
  5
1066
100
AcDbEntity
  8
0
100
AcDbLine
 10
329.348696
 20
44.713623
 30
0.0
 11
318.848696
 21
44.713623
 31
0.0
  0
LINE
  5
1067
100
AcDbEntity
  8
0
100
AcDbLine
 10
318.848696
 20
44.713623
 30
0.0
 11
318.848696
 21
29.863623
 31
0.0
  0
LINE
  5
1068
100
AcDbEntity
  8
0
100
AcDbLine
 10
318.848696
 20
29.863623
 30
0.0
 11
329.348696
 21
29.863623
 31
0.0
  0
ENDSEC
  0
SECTION
  2
OBJECTS
  0
DICTIONARY
  5
C
100
AcDbDictionary
  3
ACAD_GROUP
350
D
  3
ACAD_MLINESTYLE
350
1A
  3
ACDBVARIABLEDICTIONARY
350
25
  0
DICTIONARY
  5
D
102
{ACAD_REACTORS
330
C
102
}
100
AcDbDictionary
  0
DICTIONARY
  5
1A
102
{ACAD_REACTORS
330
C
102
}
100
AcDbDictionary
  3
STANDARD
350
1B
  0
DICTIONARY
  5
25
102
{ACAD_REACTORS
330
C
102
}
100
AcDbDictionary
  3
DIMADEC
350
26
  0
MLINESTYLE
  5
1B
102
{ACAD_REACTORS
330
1A
102
}
100
AcDbMlineStyle
  2
STANDARD
 70
     0
  3

 62
   256
 51
90.0
 52
90.0
 71
     2
 49
0.5
 62
   256
  6
BYLAYER
 49
-0.5
 62
   256
  6
BYLAYER
  0
DICTIONARYVAR
  5
26
102
{ACAD_REACTORS
330
25
102
}
100
DictionaryVariables
280
     0
  1
0
  0
ENDSEC
  0
EOF
