  0
SECTION
  2
HEADER
  9
$ACADVER
  1
AC1014
  9
$ACADMAINTVER
 70
     9
  9
$DWGCODEPAGE
  3
ANSI_1252
  9
$INSBASE
 10
0.0
 20
0.0
 30
0.0
  9
$EXTMIN
 10
281.3950692441341
 20
29.89660406180441
 30
-0.0000000349181948
  9
$EXTMAX
 10
291.8969308140735
 20
44.74796749579871
 30
0.0000000814935746
  9
$LIMMIN
 10
280.396
 20
28.89699999999999
  9
$LIMMAX
 10
292.896
 20
43.74699999999999
  9
$ORTHOMODE
 70
     1
  9
$REGENMODE
 70
     1
  9
$FILLMODE
 70
     1
  9
$QTEXTMODE
 70
     0
  9
$MIRRTEXT
 70
     1
  9
$DRAGMODE
 70
     2
  9
$LTSCALE
 40
1.0
  9
$OSMODE
 70
   143
  9
$ATTMODE
 70
     1
  9
$TEXTSIZE
 40
0.2
  9
$TRACEWID
 40
0.05
  9
$TEXTSTYLE
  7
STANDARD
  9
$CLAYER
  8
0
  9
$CELTYPE
  6
BYLAYER
  9
$CECOLOR
 62
   256
  9
$CELTSCALE
 40
1.0
  9
$DELOBJ
 70
     1
  9
$DISPSILH
 70
     0
  9
$DIMSCALE
 40
1.0
  9
$DIMASZ
 40
0.18
  9
$DIMEXO
 40
0.0625
  9
$DIMDLI
 40
0.38
  9
$DIMRND
 40
0.0
  9
$DIMDLE
 40
0.0
  9
$DIMEXE
 40
0.18
  9
$DIMTP
 40
0.0
  9
$DIMTM
 40
0.0
  9
$DIMTXT
 40
0.15
  9
$DIMCEN
 40
0.09
  9
$DIMTSZ
 40
0.0
  9
$DIMTOL
 70
     0
  9
$DIMLIM
 70
     0
  9
$DIMTIH
 70
     1
  9
$DIMTOH
 70
     1
  9
$DIMSE1
 70
     0
  9
$DIMSE2
 70
     0
  9
$DIMTAD
 70
     0
  9
$DIMZIN
 70
     0
  9
$DIMBLK
  1

  9
$DIMASO
 70
     1
  9
$DIMSHO
 70
     1
  9
$DIMPOST
  1

  9
$DIMAPOST
  1

  9
$DIMALT
 70
     0
  9
$DIMALTD
 70
     2
  9
$DIMALTF
 40
25.4
  9
$DIMLFAC
 40
1.0
  9
$DIMTOFL
 70
     0
  9
$DIMTVP
 40
0.0
  9
$DIMTIX
 70
     0
  9
$DIMSOXD
 70
     0
  9
$DIMSAH
 70
     0
  9
$DIMBLK1
  1

  9
$DIMBLK2
  1

  9
$DIMSTYLE
  2
STANDARD
  9
$DIMCLRD
 70
     0
  9
$DIMCLRE
 70
     0
  9
$DIMCLRT
 70
     0
  9
$DIMTFAC
 40
1.0
  9
$DIMGAP
 40
0.09
  9
$DIMJUST
 70
     0
  9
$DIMSD1
 70
     0
  9
$DIMSD2
 70
     0
  9
$DIMTOLJ
 70
     1
  9
$DIMTZIN
 70
     0
  9
$DIMALTZ
 70
     0
  9
$DIMALTTZ
 70
     0
  9
$DIMFIT
 70
     3
  9
$DIMUPT
 70
     0
  9
$DIMUNIT
 70
     2
  9
$DIMDEC
 70
     2
  9
$DIMTDEC
 70
     2
  9
$DIMALTU
 70
     2
  9
$DIMALTTD
 70
     2
  9
$DIMTXSTY
  7
STANDARD
  9
$DIMAUNIT
 70
     0
  9
$LUNITS
 70
     2
  9
$LUPREC
 70
     4
  9
$SKETCHINC
 40
0.1
  9
$FILLETRAD
 40
0.0
  9
$AUNITS
 70
     0
  9
$AUPREC
 70
     0
  9
$MENU
  1
acad
  9
$ELEVATION
 40
0.0
  9
$PELEVATION
 40
0.0
  9
$THICKNESS
 40
0.0
  9
$LIMCHECK
 70
     0
  9
$BLIPMODE
 70
     0
  9
$CHAMFERA
 40
0.0
  9
$CHAMFERB
 40
0.0
  9
$CHAMFERC
 40
0.0
  9
$CHAMFERD
 40
0.0
  9
$SKPOLY
 70
     0
  9
$TDCREATE
 40
2448315.331741435
  9
$TDUPDATE
 40
2453081.491518819
  9
$TDINDWG
 40
0.0428277315
  9
$TDUSRTIMER
 40
0.0428273727
  9
$USRTIMER
 70
     1
  9
$ANGBASE
 50
0.0
  9
$ANGDIR
 70
     0
  9
$PDMODE
 70
     0
  9
$PDSIZE
 40
0.0
  9
$PLINEWID
 40
0.0
  9
$COORDS
 70
     1
  9
$SPLFRAME
 70
     0
  9
$SPLINETYPE
 70
     6
  9
$SPLINESEGS
 70
     8
  9
$ATTDIA
 70
     0
  9
$ATTREQ
 70
     1
  9
$HANDLING
 70
 22529
  9
$HANDSEED
  5
412
  9
$SURFTAB1
 70
     6
  9
$SURFTAB2
 70
     6
  9
$SURFTYPE
 70
     6
  9
$SURFU
 70
     6
  9
$SURFV
 70
     6
  9
$UCSNAME
  2

  9
$UCSORG
 10
0.0
 20
0.0
 30
0.0
  9
$UCSXDIR
 10
1.0
 20
0.0
 30
0.0
  9
$UCSYDIR
 10
0.0
 20
1.0
 30
0.0
  9
$PUCSNAME
  2

  9
$PUCSORG
 10
0.0
 20
0.0
 30
0.0
  9
$PUCSXDIR
 10
1.0
 20
0.0
 30
0.0
  9
$PUCSYDIR
 10
0.0
 20
1.0
 30
0.0
  9
$USERI1
 70
     0
  9
$USERI2
 70
     0
  9
$USERI3
 70
     0
  9
$USERI4
 70
     0
  9
$USERI5
 70
     0
  9
$USERR1
 40
0.0
  9
$USERR2
 40
0.0
  9
$USERR3
 40
0.0
  9
$USERR4
 40
0.0
  9
$USERR5
 40
0.0
  9
$WORLDVIEW
 70
     1
  9
$SHADEDGE
 70
     3
  9
$SHADEDIF
 70
    70
  9
$TILEMODE
 70
     1
  9
$MAXACTVP
 70
    16
  9
$PINSBASE
 10
0.0
 20
0.0
 30
0.0
  9
$PLIMCHECK
 70
     0
  9
$PEXTMIN
 10
1.000000000000000E+20
 20
1.000000000000000E+20
 30
1.000000000000000E+20
  9
$PEXTMAX
 10
-1.000000000000000E+20
 20
-1.000000000000000E+20
 30
-1.000000000000000E+20
  9
$PLIMMIN
 10
0.0
 20
0.0
  9
$PLIMMAX
 10
12.0
 20
9.0
  9
$UNITMODE
 70
     0
  9
$VISRETAIN
 70
     0
  9
$PLINEGEN
 70
     0
  9
$PSLTSCALE
 70
     1
  9
$TREEDEPTH
 70
  3020
  9
$PICKSTYLE
 70
     1
  9
$CMLSTYLE
  2
STANDARD
  9
$CMLJUST
 70
     0
  9
$CMLSCALE
 40
1.0
  9
$PROXYGRAPHICS
 70
     1
  9
$MEASUREMENT
 70
     0
  0
ENDSEC
  0
SECTION
  2
CLASSES
  0
CLASS
  1
ACDBDICTIONARYWDFLT
  2
AcDbDictionaryWithDefault
  3
AutoCAD 2000
 90
        0
280
     0
281
     0
  0
CLASS
  1
ACDBPLACEHOLDER
  2
AcDbPlaceHolder
  3
AutoCAD 2000
 90
        0
280
     0
281
     0
  0
CLASS
  1
LAYOUT
  2
AcDbLayout
  3
AutoCAD 2000
 90
        0
280
     0
281
     0
  0
CLASS
  1
DICTIONARYVAR
  2
AcDbDictionaryVar
  3
AutoCAD 2000
 90
        0
280
     0
281
     0
  0
CLASS
  1
LONG_TRANSACTION
  2
AcDbLongTransaction
  3
AutoCAD 2000
 90
        0
280
     0
281
     0
  0
CLASS
  1
LWPOLYLINE
  2
AcDbPolyline
  3
AutoCAD 2000
 90
        0
280
     0
281
     1
  0
CLASS
  1
HATCH
  2
AcDbHatch
  3
AutoCAD 2000
 90
        0
280
     0
281
     1
  0
CLASS
  1
XRECORD
  2
AcDbXrecord
  3
AutoCAD 2000
 90
        0
280
     0
281
     0
  0
CLASS
  1
LONG_TRANSACTION
  2
AcDbLongTransaction
  3
AutoCAD 2000
 90
        0
280
     0
281
     0
  0
CLASS
  1
LWPOLYLINE
  2
AcDbPolyline
  3
AutoCAD 2000
 90
        0
280
     0
281
     1
  0
CLASS
  1
HATCH
  2
AcDbHatch
  3
AutoCAD 2000
 90
        0
280
     0
281
     1
  0
CLASS
  1
XRECORD
  2
AcDbXrecord
  3
AutoCAD 2000
 90
        0
280
     0
281
     0
  0
ENDSEC
  0
SECTION
  2
TABLES
  0
TABLE
  2
VPORT
  5
8
330
0
100
AcDbSymbolTable
 70
     4
  0
VPORT
  5
3EF
330
8
100
AcDbSymbolTableRecord
100
AcDbViewportTableRecord
  2
*ACTIVE
 70
     0
 10
0.0
 20
0.0
 11
1.0
 21
1.0
 12
285.2583302272341
 22
37.55092851948447
 13
0.0
 23
0.0
 14
1.0
 24
1.0
 15
0.0
 25
0.0
 16
0.0
 26
0.0
 36
1.0
 17
0.0
 27
0.0
 37
0.0
 40
33.22705246843506
 41
1.520253164556962
 42
50.0
 43
0.0
 44
0.0
 50
0.0
 51
0.0
 71
     0
 72
   100
 73
     1
 74
     1
 75
     0
 76
     0
 77
     0
 78
     0
  0
ENDTAB
  0
TABLE
  2
LTYPE
  5
5
330
0
100
AcDbSymbolTable
 70
     1
  0
LTYPE
  5
13
330
5
100
AcDbSymbolTableRecord
100
AcDbLinetypeTableRecord
  2
BYBLOCK
 70
     0
  3

 72
    65
 73
     0
 40
0.0
  0
LTYPE
  5
14
330
5
100
AcDbSymbolTableRecord
100
AcDbLinetypeTableRecord
  2
BYLAYER
 70
     0
  3

 72
    65
 73
     0
 40
0.0
  0
LTYPE
  5
15
330
5
100
AcDbSymbolTableRecord
100
AcDbLinetypeTableRecord
  2
CONTINUOUS
 70
     0
  3
Solid line
 72
    65
 73
     0
 40
0.0
  0
ENDTAB
  0
TABLE
  2
LAYER
  5
2
330
0
100
AcDbSymbolTable
 70
     9
  0
LAYER
  5
10
330
2
100
AcDbSymbolTableRecord
100
AcDbLayerTableRecord
  2
0
 70
     0
 62
     7
  6
CONTINUOUS
  0
LAYER
  5
22
330
2
100
AcDbSymbolTableRecord
100
AcDbLayerTableRecord
  2
1
 70
     0
 62
     7
  6
CONTINUOUS
  0
LAYER
  5
23
330
2
100
AcDbSymbolTableRecord
100
AcDbLayerTableRecord
  2
7
 70
     0
 62
     7
  6
CONTINUOUS
  0
LAYER
  5
24
330
2
100
AcDbSymbolTableRecord
100
AcDbLayerTableRecord
  2
8
 70
     0
 62
     7
  6
CONTINUOUS
  0
LAYER
  5
25
330
2
100
AcDbSymbolTableRecord
100
AcDbLayerTableRecord
  2
9
 70
     0
 62
     7
  6
CONTINUOUS
  0
LAYER
  5
26
330
2
100
AcDbSymbolTableRecord
100
AcDbLayerTableRecord
  2
22
 70
     0
 62
     7
  6
CONTINUOUS
  0
LAYER
  5
27
330
2
100
AcDbSymbolTableRecord
100
AcDbLayerTableRecord
  2
25
 70
     0
 62
     7
  6
CONTINUOUS
  0
LAYER
  5
78
330
2
100
AcDbSymbolTableRecord
100
AcDbLayerTableRecord
  2
DEFPOINTS
 70
     0
 62
     7
  6
CONTINUOUS
  0
LAYER
  5
1E7
330
2
100
AcDbSymbolTableRecord
100
AcDbLayerTableRecord
  2
NO_PRINT
 70
     0
 62
     7
  6
CONTINUOUS
  0
ENDTAB
  0
TABLE
  2
STYLE
  5
3
330
0
100
AcDbSymbolTable
 70
     2
  0
STYLE
  5
11
330
3
100
AcDbSymbolTableRecord
100
AcDbTextStyleTableRecord
  2
STANDARD
 70
     0
 40
0.0
 41
1.0
 50
0.0
 71
     0
 42
0.2
  3
txt
  4

  0
STYLE
  5
28
330
3
100
AcDbSymbolTableRecord
100
AcDbTextStyleTableRecord
  2
ROMANC
 70
     0
 40
0.0
 41
1.0
 50
0.0
 71
     0
 42
0.2
  3
ROMANC
  4

  0
ENDTAB
  0
TABLE
  2
VIEW
  5
6
330
0
100
AcDbSymbolTable
 70
     0
  0
ENDTAB
  0
TABLE
  2
UCS
  5
7
330
0
100
AcDbSymbolTable
 70
     0
  0
ENDTAB
  0
TABLE
  2
APPID
  5
9
330
0
100
AcDbSymbolTable
 70
     1
  0
APPID
  5
12
330
9
100
AcDbSymbolTableRecord
100
AcDbRegAppTableRecord
  2
ACAD
 70
     0
  0
ENDTAB
  0
TABLE
  2
DIMSTYLE
  5
A
330
0
100
AcDbSymbolTable
 70
     1
  0
DIMSTYLE
105
6B
102
{ACAD_REACTORS
330
389
330
397
330
3A5
330
3B4
102
}
330
A
100
AcDbSymbolTableRecord
100
AcDbDimStyleTableRecord
  2
STANDARD
 70
     0
  3

  4

  5

  6

  7

 40
1.0
 41
0.18
 42
0.0625
 43
0.38
 44
0.18
 45
0.0
 46
0.0
 47
0.0
 48
0.0
140
0.15
141
0.09
142
0.0
143
25.4
144
1.0
145
0.0
146
1.0
147
0.09
 71
     0
 72
     0
 73
     1
 74
     1
 75
     0
 76
     0
 77
     0
 78
     0
170
     0
171
     2
172
     0
173
     0
174
     0
175
     0
176
     0
177
     0
178
     0
270
     2
271
     2
272
     2
273
     2
274
     2
340
11
275
     0
280
     0
281
     0
282
     0
283
     1
284
     0
285
     0
286
     0
287
     3
288
     0
  0
ENDTAB
  0
TABLE
  2
BLOCK_RECORD
  5
1
330
0
100
AcDbSymbolTable
 70
    11
  0
BLOCK_RECORD
  5
1E
102
{ACAD_XDICTIONARY
360
342
102
}
330
1
100
AcDbSymbolTableRecord
100
AcDbBlockTableRecord
  2
*MODEL_SPACE
  0
BLOCK_RECORD
  5
1A
102
{ACAD_XDICTIONARY
360
344
102
}
330
1
100
AcDbSymbolTableRecord
100
AcDbBlockTableRecord
  2
*PAPER_SPACE
  0
BLOCK_RECORD
  5
38A
330
1
100
AcDbSymbolTableRecord
100
AcDbBlockTableRecord
  2
*D7
  0
BLOCK_RECORD
  5
398
330
1
100
AcDbSymbolTableRecord
100
AcDbBlockTableRecord
  2
*D8
  0
BLOCK_RECORD
  5
3A6
330
1
100
AcDbSymbolTableRecord
100
AcDbBlockTableRecord
  2
*D9
  0
BLOCK_RECORD
  5
3B5
330
1
100
AcDbSymbolTableRecord
100
AcDbBlockTableRecord
  2
*D10
  0
ENDTAB
  0
ENDSEC
  0
SECTION
  2
BLOCKS
  0
BLOCK
  5
1F
330
1E
100
AcDbEntity
  8
0
100
AcDbBlockBegin
  2
*MODEL_SPACE
 70
     0
 10
0.0
 20
0.0
 30
0.0
  3
*MODEL_SPACE
  1

  0
ENDBLK
  5
20
330
1E
100
AcDbEntity
  8
0
100
AcDbBlockEnd
  0
BLOCK
  5
1B
330
1A
100
AcDbEntity
 67
     1
  8
0
100
AcDbBlockBegin
  2
*PAPER_SPACE
 70
     0
 10
0.0
 20
0.0
 30
0.0
  3
*PAPER_SPACE
  1

  0
ENDBLK
  5
1C
330
1A
100
AcDbEntity
 67
     1
  8
0
100
AcDbBlockEnd
  0
BLOCK
  5
395
330
38A
100
AcDbEntity
  8
0
100
AcDbBlockBegin
  2
*D7
 70
     1
 10
0.0
 20
0.0
 30
0.0
  3
*D7
  1

  0
LINE
  5
38B
330
38A
100
AcDbEntity
  8
0
 62
     0
100
AcDbLine
 10
284.4626200495819
 20
35.47852897037625
 30
0.0
 11
284.4626200495819
 21
34.71064622388368
 31
0.0
  0
LINE
  5
38C
330
38A
100
AcDbEntity
  8
0
 62
     0
100
AcDbLine
 10
287.4126200495819
 20
35.47852897037625
 30
0.0
 11
287.4126200495819
 21
34.71064622388368
 31
0.0
  0
LINE
  5
38D
330
38A
100
AcDbEntity
  8
0
 62
     0
100
AcDbLine
 10
284.6426200495819
 20
34.89064622388367
 30
0.0
 11
285.6226200495819
 21
34.89064622388367
 31
0.0
  0
LINE
  5
38E
330
38A
100
AcDbEntity
  8
0
 62
     0
100
AcDbLine
 10
287.2326200495819
 20
34.89064622388367
 30
0.0
 11
286.2526200495819
 21
34.89064622388367
 31
0.0
  0
SOLID
  5
38F
330
38A
100
AcDbEntity
  8
0
 62
     0
100
AcDbTrace
 10
284.6426200495819
 20
34.92064622388368
 30
0.0
 11
284.6426200495819
 21
34.86064622388367
 31
0.0
 12
284.4626200495819
 22
34.89064622388367
 32
0.0
 13
284.4626200495819
 23
34.89064622388367
 33
0.0
  0
SOLID
  5
390
330
38A
100
AcDbEntity
  8
0
 62
     0
100
AcDbTrace
 10
287.2326200495819
 20
34.92064622388368
 30
0.0
 11
287.2326200495819
 21
34.86064622388367
 31
0.0
 12
287.4126200495819
 22
34.89064622388367
 32
0.0
 13
287.4126200495819
 23
34.89064622388367
 33
0.0
  0
MTEXT
  5
391
330
38A
100
AcDbEntity
  8
0
 62
     0
100
AcDbMText
 10
285.9376200495819
 20
34.89064622388367
 30
0.0
 40
0.15
 41
0.0
 71
     5
 72
     1
  1
\A1;2.95
1001
ACAD
1000
MTEXTBEGIN
1070
    73
1070
     1
1070
    44
1040
1.0
1070
    74
1070
     0
1000
MTEXTEND
  0
POINT
  5
392
330
38A
100
AcDbEntity
  8
DEFPOINTS
 62
     0
100
AcDbPoint
 10
284.4626200495819
 20
35.54102897037625
 30
0.0
  0
POINT
  5
393
330
38A
100
AcDbEntity
  8
DEFPOINTS
 62
     0
100
AcDbPoint
 10
287.4126200495819
 20
35.54102897037625
 30
0.0
  0
POINT
  5
394
330
38A
100
AcDbEntity
  8
DEFPOINTS
 62
     0
100
AcDbPoint
 10
287.4126200495819
 20
34.89064622388367
 30
0.0
  0
ENDBLK
  5
396
330
38A
100
AcDbEntity
  8
0
100
AcDbBlockEnd
  0
BLOCK
  5
3A3
330
398
100
AcDbEntity
  8
0
100
AcDbBlockBegin
  2
*D8
 70
     1
 10
0.0
 20
0.0
 30
0.0
  3
*D8
  1

  0
LINE
  5
399
330
398
100
AcDbEntity
  8
0
 62
     0
100
AcDbLine
 10
287.4751200495818
 20
35.54102897037625
 30
0.0
 11
288.6227215209713
 21
35.54102897037625
 31
0.0
  0
LINE
  5
39A
330
398
100
AcDbEntity
  8
0
 62
     0
100
AcDbLine
 10
287.4751200495818
 20
37.74102897037625
 30
0.0
 11
288.6227215209713
 21
37.74102897037625
 31
0.0
  0
LINE
  5
39B
330
398
100
AcDbEntity
  8
0
 62
     0
100
AcDbLine
 10
288.4427215209713
 20
35.72102897037625
 30
0.0
 11
288.4427215209713
 21
36.47602897037625
 31
0.0
  0
LINE
  5
39C
330
398
100
AcDbEntity
  8
0
 62
     0
100
AcDbLine
 10
288.4427215209713
 20
37.56102897037625
 30
0.0
 11
288.4427215209713
 21
36.80602897037625
 31
0.0
  0
SOLID
  5
39D
330
398
100
AcDbEntity
  8
0
 62
     0
100
AcDbTrace
 10
288.4127215209714
 20
35.72102897037625
 30
0.0
 11
288.4727215209713
 21
35.72102897037625
 31
0.0
 12
288.4427215209713
 22
35.54102897037625
 32
0.0
 13
288.4427215209713
 23
35.54102897037625
 33
0.0
  0
SOLID
  5
39E
330
398
100
AcDbEntity
  8
0
 62
     0
100
AcDbTrace
 10
288.4127215209714
 20
37.56102897037625
 30
0.0
 11
288.4727215209713
 21
37.56102897037625
 31
0.0
 12
288.4427215209713
 22
37.74102897037625
 32
0.0
 13
288.4427215209713
 23
37.74102897037625
 33
0.0
  0
MTEXT
  5
39F
330
398
100
AcDbEntity
  8
0
 62
     0
100
AcDbMText
 10
288.4427215209713
 20
36.6410289703763
 30
0.0
 40
0.15
 41
0.0
 71
     5
 72
     1
  1
\A1;2.20
1001
ACAD
1000
MTEXTBEGIN
1070
    73
1070
     1
1070
    44
1040
1.0
1070
    74
1070
     0
1000
MTEXTEND
  0
POINT
  5
3A0
330
398
100
AcDbEntity
  8
DEFPOINTS
 62
     0
100
AcDbPoint
 10
287.4126200495819
 20
35.54102897037625
 30
0.0
  0
POINT
  5
3A1
330
398
100
AcDbEntity
  8
DEFPOINTS
 62
     0
100
AcDbPoint
 10
287.4126200495819
 20
37.74102897037625
 30
0.0
  0
POINT
  5
3A2
330
398
100
AcDbEntity
  8
DEFPOINTS
 62
     0
100
AcDbPoint
 10
288.4427215209713
 20
37.74102897037625
 30
0.0
  0
ENDBLK
  5
3A4
330
398
100
AcDbEntity
  8
0
100
AcDbBlockEnd
  0
BLOCK
  5
3B2
330
3A6
100
AcDbEntity
  8
0
100
AcDbBlockBegin
  2
*D9
 70
     1
 10
0.0
 20
0.0
 30
0.0
  3
*D9
  1

  0
LINE
  5
3E1
330
3A6
100
AcDbEntity
  8
0
 62
     0
100
AcDbLine
 10
284.9001200495819
 20
37.74102897037625
 30
0.0
 11
283.7467297248644
 21
37.74102897037625
 31
0.0
  0
LINE
  5
3E2
330
3A6
100
AcDbEntity
  8
0
 62
     0
100
AcDbLine
 10
284.4001200495819
 20
37.54102897037625
 30
0.0
 11
283.7467297248644
 21
37.54102897037625
 31
0.0
  0
LINE
  5
3E3
330
3A6
100
AcDbEntity
  8
0
 62
     0
100
AcDbLine
 10
283.9267297248644
 20
37.92102897037625
 30
0.0
 11
283.9267297248644
 21
38.10102897037625
 31
0.0
  0
LINE
  5
3E4
330
3A6
100
AcDbEntity
  8
0
 62
     0
100
AcDbLine
 10
283.9267297248644
 20
37.36102897037625
 30
0.0
 11
283.9267297248644
 21
37.18102897037625
 31
0.0
  0
SOLID
  5
3E5
330
3A6
100
AcDbEntity
  8
0
 62
     0
100
AcDbTrace
 10
283.8967297248645
 20
37.92102897037625
 30
0.0
 11
283.9567297248644
 21
37.92102897037625
 31
0.0
 12
283.9267297248644
 22
37.74102897037625
 32
0.0
 13
283.9267297248644
 23
37.74102897037625
 33
0.0
  0
SOLID
  5
3E6
330
3A6
100
AcDbEntity
  8
0
 62
     0
100
AcDbTrace
 10
283.8967297248645
 20
37.36102897037625
 30
0.0
 11
283.9567297248644
 21
37.36102897037625
 31
0.0
 12
283.9267297248644
 22
37.54102897037625
 32
0.0
 13
283.9267297248644
 23
37.54102897037625
 33
0.0
  0
MTEXT
  5
3E7
330
3A6
100
AcDbEntity
  8
0
 62
     0
100
AcDbMText
 10
283.9267297248644
 20
37.6410289703763
 30
0.0
 40
0.15
 41
0.0
 71
     5
 72
     1
  1
\A1;0.20
1001
ACAD
1000
MTEXTBEGIN
1070
    73
1070
     1
1070
    44
1040
1.0
1070
    74
1070
     0
1000
MTEXTEND
  0
POINT
  5
3E8
330
3A6
100
AcDbEntity
  8
DEFPOINTS
 62
     0
100
AcDbPoint
 10
284.9626200495819
 20
37.74102897037625
 30
0.0
  0
POINT
  5
3E9
330
3A6
100
AcDbEntity
  8
DEFPOINTS
 62
     0
100
AcDbPoint
 10
284.4626200495819
 20
37.54102897037625
 30
0.0
  0
POINT
  5
3EA
330
3A6
100
AcDbEntity
  8
DEFPOINTS
 62
     0
100
AcDbPoint
 10
283.9267297248644
 20
37.54102897037625
 30
0.0
  0
ENDBLK
  5
3B3
330
3A6
100
AcDbEntity
  8
0
100
AcDbBlockEnd
  0
BLOCK
  5
3C0
330
3B5
100
AcDbEntity
  8
0
100
AcDbBlockBegin
  2
*D10
 70
     1
 10
0.0
 20
0.0
 30
0.0
  3
*D10
  1

  0
LINE
  5
3CC
330
3B5
100
AcDbEntity
  8
0
 62
     0
100
AcDbLine
 10
284.4626200495819
 20
37.60352897037625
 30
0.0
 11
284.4626200495819
 21
38.51425976396746
 31
0.0
  0
LINE
  5
3CD
330
3B5
100
AcDbEntity
  8
0
 62
     0
100
AcDbLine
 10
284.9626200495819
 20
37.80352897037625
 30
0.0
 11
284.9626200495819
 21
38.51425976396746
 31
0.0
  0
LINE
  5
3CE
330
3B5
100
AcDbEntity
  8
0
 62
     0
100
AcDbLine
 10
284.2826200495819
 20
38.33425976396746
 30
0.0
 11
284.1026200495818
 21
38.33425976396746
 31
0.0
  0
LINE
  5
3CF
330
3B5
100
AcDbEntity
  8
0
 62
     0
100
AcDbLine
 10
285.1426200495819
 20
38.33425976396746
 30
0.0
 11
285.3226200495819
 21
38.33425976396746
 31
0.0
  0
SOLID
  5
3D0
330
3B5
100
AcDbEntity
  8
0
 62
     0
100
AcDbTrace
 10
284.2826200495819
 20
38.36425976396746
 30
0.0
 11
284.2826200495819
 21
38.30425976396746
 31
0.0
 12
284.4626200495819
 22
38.33425976396746
 32
0.0
 13
284.4626200495819
 23
38.33425976396746
 33
0.0
  0
SOLID
  5
3D1
330
3B5
100
AcDbEntity
  8
0
 62
     0
100
AcDbTrace
 10
285.1426200495819
 20
38.36425976396746
 30
0.0
 11
285.1426200495819
 21
38.30425976396746
 31
0.0
 12
284.9626200495819
 22
38.33425976396746
 32
0.0
 13
284.9626200495819
 23
38.33425976396746
 33
0.0
  0
MTEXT
  5
3D2
330
3B5
100
AcDbEntity
  8
0
 62
     0
100
AcDbMText
 10
284.7126200495819
 20
38.33425976396746
 30
0.0
 40
0.15
 41
0.0
 71
     5
 72
     1
  1
\A1;0.50
1001
ACAD
1000
MTEXTBEGIN
1070
    73
1070
     1
1070
    44
1040
1.0
1070
    74
1070
     0
1000
MTEXTEND
  0
POINT
  5
3D3
330
3B5
100
AcDbEntity
  8
DEFPOINTS
 62
     0
100
AcDbPoint
 10
284.4626200495819
 20
37.54102897037625
 30
0.0
  0
POINT
  5
3D4
330
3B5
100
AcDbEntity
  8
DEFPOINTS
 62
     0
100
AcDbPoint
 10
284.9626200495819
 20
37.74102897037625
 30
0.0
  0
POINT
  5
3D5
330
3B5
100
AcDbEntity
  8
DEFPOINTS
 62
     0
100
AcDbPoint
 10
284.9626200495819
 20
38.33425976396746
 30
0.0
  0
ENDBLK
  5
3C1
330
3B5
100
AcDbEntity
  8
0
100
AcDbBlockEnd
  0
ENDSEC
  0
SECTION
  2
ENTITIES
  0
TEXT
  5
2C
330
1E
100
AcDbEntity
  8
0
  6
CONTINUOUS
100
AcDbText
 10
287.1185593216529
 20
41.32981838511393
 30
0.0
 40
0.15
  1
2
  7
ROMANC
100
AcDbText
  0
TEXT
  5
2D
330
1E
100
AcDbEntity
  8
0
  6
CONTINUOUS
100
AcDbText
 10
283.9259999999999
 20
41.768
 30
0.0
 40
0.3
  1
ESCALA  1:50
  7
ROMANC
100
AcDbText
  0
LWPOLYLINE
  5
2E
330
1E
100
AcDbEntity
  8
NO_PRINT
  6
CONTINUOUS
100
AcDbPolyline
 90
        4
 70
     1
 43
0.0
 10
281.396
 20
44.747
 10
291.896
 20
44.747
 10
291.896
 20
29.897
 10
281.396
 20
29.897
  0
TEXT
  5
34
330
1E
100
AcDbEntity
  8
0
  6
CONTINUOUS
100
AcDbText
 10
283.9259999999999
 20
42.381
 30
0.0
 40
0.3
  1
TIPUS   NT644
  7
ROMANC
100
AcDbText
  0
TEXT
  5
36
330
1E
100
AcDbEntity
  8
0
  6
CONTINUOUS
100
AcDbText
 10
283.922
 20
40.529
 30
0.0
 40
0.3
  1
P = 101 dm
  7
ROMANC
100
AcDbText
  0
TEXT
  5
37
330
1E
100
AcDbEntity
  8
0
  6
CONTINUOUS
100
AcDbText
 10
283.9449999999999
 20
41.09899999999999
 30
0.0
 40
0.3
  1
S = 640 dm
  7
ROMANC
100
AcDbText
  0
LWPOLYLINE
  5
388
330
1E
100
AcDbEntity
  8
0
100
AcDbPolyline
 90
        5
 70
     1
 43
0.0
 10
284.9626200495819
 20
37.74102897037625
 10
284.4626200495819
 20
37.54102897037625
 10
284.4626200495819
 20
35.54102897037625
 10
287.4126200495819
 20
35.54102897037625
 10
287.4126200495819
 20
37.74102897037625
  0
DIMENSION
  5
389
330
1E
100
AcDbEntity
  8
0
100
AcDbDimension
  2
*D7
 10
287.4126200495819
 20
34.89064622388367
 30
0.0
 11
285.9376200495819
 21
34.89064622388367
 31
0.0
 70
    32
  3
STANDARD
100
AcDbAlignedDimension
 13
284.4626200495819
 23
35.54102897037625
 33
0.0
 14
287.4126200495819
 24
35.54102897037625
 34
0.0
100
AcDbRotatedDimension
  0
DIMENSION
  5
397
330
1E
100
AcDbEntity
  8
0
100
AcDbDimension
  2
*D8
 10
288.4427215209713
 20
37.74102897037625
 30
0.0
 11
288.4427215209713
 21
36.6410289703763
 31
0.0
 70
    32
  3
STANDARD
100
AcDbAlignedDimension
 13
287.4126200495819
 23
35.54102897037625
 33
0.0
 14
287.4126200495819
 24
37.74102897037625
 34
0.0
 50
90.0
100
AcDbRotatedDimension
  0
DIMENSION
  5
3A5
330
1E
100
AcDbEntity
  8
0
100
AcDbDimension
  2
*D9
 10
283.9267297248644
 20
37.54102897037625
 30
0.0
 11
283.9267297248644
 21
37.6410289703763
 31
0.0
 70
   160
  3
STANDARD
100
AcDbAlignedDimension
 13
284.9626200495819
 23
37.74102897037625
 33
0.0
 14
284.4626200495819
 24
37.54102897037625
 34
0.0
 50
90.0
100
AcDbRotatedDimension
  0
DIMENSION
  5
3B4
330
1E
100
AcDbEntity
  8
0
100
AcDbDimension
  2
*D10
 10
284.9626200495819
 20
38.33425976396746
 30
0.0
 11
284.7126200495819
 21
38.33425976396746
 31
0.0
 70
   160
  3
STANDARD
100
AcDbAlignedDimension
 13
284.4626200495819
 23
37.54102897037625
 33
0.0
 14
284.9626200495819
 24
37.74102897037625
 34
0.0
100
AcDbRotatedDimension
  0
LWPOLYLINE
  5
3EB
330
1E
100
AcDbEntity
  8
0
100
AcDbPolyline
 90
        5
 70
     1
 43
0.0
 10
284.9606942255462
 20
37.75102897037625
 10
284.4526200495819
 20
37.54779929999052
 10
284.4526200495819
 20
35.53102897037625
 10
287.4226200495818
 20
35.53102897037625
 10
287.4226200495818
 20
37.75102897037625
  0
LWPOLYLINE
  5
3EC
330
1E
100
AcDbEntity
  8
0
100
AcDbPolyline
 90
        5
 70
     1
 43
0.0
 10
284.9645458736176
 20
37.73102897037626
 10
284.4726200495819
 20
37.53425864076197
 10
284.4726200495819
 20
35.55102897037625
 10
287.4026200495819
 20
35.55102897037625
 10
287.4026200495819
 20
37.73102897037626
  0
ENDSEC
  0
SECTION
  2
OBJECTS
  0
DICTIONARY
  5
C
330
0
100
AcDbDictionary
  3
ACAD_GROUP
350
D
  3
ACAD_LAYOUT
350
19
  3
ACAD_MLINESTYLE
350
16
  3
ACAD_PLOTSETTINGS
350
18
  3
ACAD_PLOTSTYLENAME
350
E
  3
ACDBHEADERROUNDTRIPXREC
350
3F0
  3
ACDBVARIABLEDICTIONARY
350
6E
  3
DWGPROPS
350
271
  0
DICTIONARY
  5
342
330
1E
100
AcDbDictionary
280
     1
  3
ACAD_LAYOUTSELFREF
360
411
  0
DICTIONARY
  5
344
330
1A
100
AcDbDictionary
280
     1
  3
ACAD_LAYOUTSELFREF
360
410
  0
DICTIONARY
  5
D
102
{ACAD_REACTORS
330
C
102
}
330
C
100
AcDbDictionary
  0
DICTIONARY
  5
19
102
{ACAD_REACTORS
330
C
102
}
330
C
100
AcDbDictionary
  0
DICTIONARY
  5
16
102
{ACAD_REACTORS
330
C
102
}
330
C
100
AcDbDictionary
  3
STANDARD
350
17
  0
DICTIONARY
  5
18
102
{ACAD_REACTORS
330
C
102
}
330
C
100
AcDbDictionary
  0
ACDBDICTIONARYWDFLT
  5
E
102
{ACAD_REACTORS
330
C
102
}
330
C
100
AcDbDictionary
281
     1
  3
Normal
350
F
100
AcDbDictionaryWithDefault
340
F
  0
DICTIONARY
  5
3F0
102
{ACAD_REACTORS
330
C
102
}
330
C
100
AcDbDictionary
  3
CEPSNTYPE
350
3FA
  3
FINGERPRINTGUID
350
3FB
  3
HYPERLINKBASE
350
3F3
  3
INSUNITS
350
3F9
  3
LAYOUTDICT
350
3F5
  3
LWETCUNION
350
3F8
  3
PLOTSETDICT
350
3F6
  3
PLOTSTYLNAMDICT
350
3F7
  3
PSVPSCALE
350
3FD
  3
PUCSBASE
350
400
  3
PUCSORGBACK
350
406
  3
PUCSORGBOTTOM
350
402
  3
PUCSORGFRONT
350
405
  3
PUCSORGLEFT
350
403
  3
PUCSORGRIGHT
350
404
  3
PUCSORGTOP
350
401
  3
PUCSORTHOREF
350
3FE
  3
PUCSORTHOVIEW
350
3FF
  3
STYLESHEET
350
3F4
  3
TSTACKALIGN
350
3F1
  3
TSTACKSIZE
350
3F2
  3
UCSBASE
350
409
  3
UCSORGBACK
350
40F
  3
UCSORGBOTTOM
350
40B
  3
UCSORGFRONT
350
40E
  3
UCSORGLEFT
350
40C
  3
UCSORGRIGHT
350
40D
  3
UCSORGTOP
350
40A
  3
UCSORTHOREF
350
407
  3
UCSORTHOVIEW
350
408
  3
VERSIONGUID
350
3FC
  0
DICTIONARY
  5
6E
102
{ACAD_REACTORS
330
C
102
}
330
C
100
AcDbDictionary
  3
DIMASSOC
350
6F
  0
XRECORD
  5
271
102
{ACAD_REACTORS
330
C
102
}
330
C
100
AcDbXrecord
  1
DWGPROPS COOKIE
  2

  3

  4

  6

  7

  8
JaumeTrias
  9

300
=
301
=
302
=
303
=
304
=
305
=
306
=
307
=
308
=
309
=
 40
0.0195228587962963
 41
2448315.331741435
 42
2452943.48254824
  1

 90
        0
  0
XRECORD
  5
411
102
{ACAD_REACTORS
330
342
102
}
330
342
100
AcDbXrecord
340
1E
  0
XRECORD
  5
410
102
{ACAD_REACTORS
330
344
102
}
330
344
100
AcDbXrecord
340
1A
  0
MLINESTYLE
  5
17
102
{ACAD_REACTORS
330
16
102
}
330
16
100
AcDbMlineStyle
  2
STANDARD
 70
     0
  3

 62
   256
 51
90.0
 52
90.0
 71
     2
 49
0.5
 62
   256
  6
BYLAYER
 49
-0.5
 62
   256
  6
BYLAYER
  0
ACDBPLACEHOLDER
  5
F
102
{ACAD_REACTORS
330
E
102
}
330
E
100
AcDbPlaceHolder
280
     0
  0
XRECORD
  5
3FA
102
{ACAD_REACTORS
330
3F0
102
}
330
3F0
100
AcDbXrecord
 90
        0
  0
XRECORD
  5
3FB
102
{ACAD_REACTORS
330
3F0
102
}
330
3F0
100
AcDbXrecord
  1
{A6FCFFB5-5CE9-42DC-A06F-C5476E26D97B}
  0
XRECORD
  5
3F3
102
{ACAD_REACTORS
330
3F0
102
}
330
3F0
100
AcDbXrecord
  1

  0
XRECORD
  5
3F9
102
{ACAD_REACTORS
330
3F0
102
}
330
3F0
100
AcDbXrecord
 90
        0
  0
XRECORD
  5
3F5
102
{ACAD_REACTORS
330
3F0
102
}
330
3F0
100
AcDbXrecord
340
19
  0
XRECORD
  5
3F8
102
{ACAD_REACTORS
330
3F0
102
}
330
3F0
100
AcDbXrecord
 90
    10781
  0
XRECORD
  5
3F6
102
{ACAD_REACTORS
330
3F0
102
}
330
3F0
100
AcDbXrecord
340
18
  0
XRECORD
  5
3F7
102
{ACAD_REACTORS
330
3F0
102
}
330
3F0
100
AcDbXrecord
340
E
  0
XRECORD
  5
3FD
102
{ACAD_REACTORS
330
3F0
102
}
330
3F0
100
AcDbXrecord
 40
0.0
  0
XRECORD
  5
400
102
{ACAD_REACTORS
330
3F0
102
}
330
3F0
100
AcDbXrecord
340
0
  0
XRECORD
  5
406
102
{ACAD_REACTORS
330
3F0
102
}
330
3F0
100
AcDbXrecord
 10
0.0
 20
0.0
 30
0.0
  0
XRECORD
  5
402
102
{ACAD_REACTORS
330
3F0
102
}
330
3F0
100
AcDbXrecord
 10
0.0
 20
0.0
 30
0.0
  0
XRECORD
  5
405
102
{ACAD_REACTORS
330
3F0
102
}
330
3F0
100
AcDbXrecord
 10
0.0
 20
0.0
 30
0.0
  0
XRECORD
  5
403
102
{ACAD_REACTORS
330
3F0
102
}
330
3F0
100
AcDbXrecord
 10
0.0
 20
0.0
 30
0.0
  0
XRECORD
  5
404
102
{ACAD_REACTORS
330
3F0
102
}
330
3F0
100
AcDbXrecord
 10
0.0
 20
0.0
 30
0.0
  0
XRECORD
  5
401
102
{ACAD_REACTORS
330
3F0
102
}
330
3F0
100
AcDbXrecord
 10
0.0
 20
0.0
 30
0.0
  0
XRECORD
  5
3FE
102
{ACAD_REACTORS
330
3F0
102
}
330
3F0
100
AcDbXrecord
340
0
  0
XRECORD
  5
3FF
102
{ACAD_REACTORS
330
3F0
102
}
330
3F0
100
AcDbXrecord
 70
     0
  0
XRECORD
  5
3F4
102
{ACAD_REACTORS
330
3F0
102
}
330
3F0
100
AcDbXrecord
  1

  0
XRECORD
  5
3F1
102
{ACAD_REACTORS
330
3F0
102
}
330
3F0
100
AcDbXrecord
 90
        1
  0
XRECORD
  5
3F2
102
{ACAD_REACTORS
330
3F0
102
}
330
3F0
100
AcDbXrecord
 90
       70
  0
XRECORD
  5
409
102
{ACAD_REACTORS
330
3F0
102
}
330
3F0
100
AcDbXrecord
340
0
  0
XRECORD
  5
40F
102
{ACAD_REACTORS
330
3F0
102
}
330
3F0
100
AcDbXrecord
 10
0.0
 20
0.0
 30
0.0
  0
XRECORD
  5
40B
102
{ACAD_REACTORS
330
3F0
102
}
330
3F0
100
AcDbXrecord
 10
0.0
 20
0.0
 30
0.0
  0
XRECORD
  5
40E
102
{ACAD_REACTORS
330
3F0
102
}
330
3F0
100
AcDbXrecord
 10
0.0
 20
0.0
 30
0.0
  0
XRECORD
  5
40C
102
{ACAD_REACTORS
330
3F0
102
}
330
3F0
100
AcDbXrecord
 10
0.0
 20
0.0
 30
0.0
  0
XRECORD
  5
40D
102
{ACAD_REACTORS
330
3F0
102
}
330
3F0
100
AcDbXrecord
 10
0.0
 20
0.0
 30
0.0
  0
XRECORD
  5
40A
102
{ACAD_REACTORS
330
3F0
102
}
330
3F0
100
AcDbXrecord
 10
0.0
 20
0.0
 30
0.0
  0
XRECORD
  5
407
102
{ACAD_REACTORS
330
3F0
102
}
330
3F0
100
AcDbXrecord
340
0
  0
XRECORD
  5
408
102
{ACAD_REACTORS
330
3F0
102
}
330
3F0
100
AcDbXrecord
 70
     0
  0
XRECORD
  5
3FC
102
{ACAD_REACTORS
330
3F0
102
}
330
3F0
100
AcDbXrecord
  1
{31E291BD-89F3-4CC2-A369-F6442E085491}
  0
DICTIONARYVAR
  5
6F
102
{ACAD_REACTORS
330
6E
102
}
330
6E
100
DictionaryVariables
280
     0
  1
1
  0
ENDSEC
  0
EOF
