  0
SECTION
  2
HEADER
  9
$ACADVER
  1
AC1009
  9
$INSBASE
 10
286.17465146174158
 20
42.376959963002058
 30
0.0
  9
$EXTMIN
 10
281.39506924413388
 20
29.896573554913012
 30
-0.0000000000022887
  9
$EXTMAX
 10
291.89693081407341
 20
44.747483740517502
 30
0.0000000000000001
  9
$LIMMIN
 10
280.3959999999999
 20
28.896999999999991
  9
$LIMMAX
 10
292.8959999999999
 20
43.746999999999993
  9
$ORTHOMODE
 70
     1
  9
$REGENMODE
 70
     1
  9
$FILLMODE
 70
     1
  9
$QTEXTMODE
 70
     0
  9
$MIRRTEXT
 70
     1
  9
$DRAGMODE
 70
     2
  9
$LTSCALE
 40
1.0
  9
$OSMODE
 70
     1
  9
$ATTMODE
 70
     1
  9
$TEXTSIZE
 40
0.3
  9
$TRACEWID
 40
0.05
  9
$TEXTSTYLE
  7
ROMANC
  9
$CLAYER
  8
0
  9
$CELTYPE
  6
BYLAYER
  9
$CECOLOR
 62
   256
  9
$DIMSCALE
 40
1.0
  9
$DIMASZ
 40
0.18
  9
$DIMEXO
 40
0.0625
  9
$DIMDLI
 40
0.38
  9
$DIMRND
 40
0.0
  9
$DIMDLE
 40
0.0
  9
$DIMEXE
 40
0.18
  9
$DIMTP
 40
0.0
  9
$DIMTM
 40
0.0
  9
$DIMTXT
 40
0.18
  9
$DIMCEN
 40
0.09
  9
$DIMTSZ
 40
0.0
  9
$DIMTOL
 70
     0
  9
$DIMLIM
 70
     0
  9
$DIMTIH
 70
     1
  9
$DIMTOH
 70
     1
  9
$DIMSE1
 70
     0
  9
$DIMSE2
 70
     0
  9
$DIMTAD
 70
     0
  9
$DIMZIN
 70
     0
  9
$DIMBLK
  1

  9
$DIMASO
 70
     1
  9
$DIMSHO
 70
     1
  9
$DIMPOST
  1

  9
$DIMAPOST
  1

  9
$DIMALT
 70
     0
  9
$DIMALTD
 70
     2
  9
$DIMALTF
 40
25.399999999999999
  9
$DIMLFAC
 40
1.0
  9
$DIMTOFL
 70
     0
  9
$DIMTVP
 40
0.0
  9
$DIMTIX
 70
     0
  9
$DIMSOXD
 70
     0
  9
$DIMSAH
 70
     0
  9
$DIMBLK1
  1

  9
$DIMBLK2
  1

  9
$DIMSTYLE
  2
STANDARD
  9
$DIMCLRD
 70
     0
  9
$DIMCLRE
 70
     0
  9
$DIMCLRT
 70
     0
  9
$DIMTFAC
 40
1.0
  9
$DIMGAP
 40
0.09
  9
$LUNITS
 70
     2
  9
$LUPREC
 70
     4
  9
$SKETCHINC
 40
0.1
  9
$FILLETRAD
 40
0.0
  9
$AUNITS
 70
     0
  9
$AUPREC
 70
     0
  9
$MENU
  1
acad
  9
$ELEVATION
 40
0.0
  9
$PELEVATION
 40
0.0
  9
$THICKNESS
 40
0.0
  9
$LIMCHECK
 70
     0
  9
$BLIPMODE
 70
     0
  9
$CHAMFERA
 40
0.0
  9
$CHAMFERB
 40
0.0
  9
$SKPOLY
 70
     0
  9
$TDCREATE
 40
2448315.331741435
  9
$TDUPDATE
 40
2451858.390470474
  9
$TDINDWG
 40
0.1098210995
  9
$TDUSRTIMER
 40
0.109734294
  9
$USRTIMER
 70
     1
  9
$ANGBASE
 50
0.0
  9
$ANGDIR
 70
     0
  9
$PDMODE
 70
     0
  9
$PDSIZE
 40
0.0
  9
$PLINEWID
 40
0.0
  9
$COORDS
 70
     0
  9
$SPLFRAME
 70
     0
  9
$SPLINETYPE
 70
     6
  9
$SPLINESEGS
 70
     8
  9
$ATTDIA
 70
     0
  9
$ATTREQ
 70
     1
  9
$HANDLING
 70
 10241
  9
$HANDSEED
  5
57E
  9
$SURFTAB1
 70
     6
  9
$SURFTAB2
 70
     6
  9
$SURFTYPE
 70
     6
  9
$SURFU
 70
     6
  9
$SURFV
 70
     6
  9
$UCSNAME
  2

  9
$UCSORG
 10
0.0
 20
0.0
 30
0.0
  9
$UCSXDIR
 10
1.0
 20
0.0
 30
0.0
  9
$UCSYDIR
 10
0.0
 20
1.0
 30
0.0
  9
$PUCSNAME
  2

  9
$PUCSORG
 10
0.0
 20
0.0
 30
0.0
  9
$PUCSXDIR
 10
1.0
 20
0.0
 30
0.0
  9
$PUCSYDIR
 10
0.0
 20
1.0
 30
0.0
  9
$USERI1
 70
     0
  9
$USERI2
 70
     0
  9
$USERI3
 70
     0
  9
$USERI4
 70
     0
  9
$USERI5
 70
     0
  9
$USERR1
 40
0.0
  9
$USERR2
 40
0.0
  9
$USERR3
 40
0.0
  9
$USERR4
 40
0.0
  9
$USERR5
 40
0.0
  9
$WORLDVIEW
 70
     1
  9
$SHADEDGE
 70
     3
  9
$SHADEDIF
 70
    70
  9
$TILEMODE
 70
     1
  9
$MAXACTVP
 70
    16
  9
$PLIMCHECK
 70
     0
  9
$PEXTMIN
 10
0.3356100001950608
 20
0.467916977571349
 30
0.0
  9
$PEXTMAX
 10
199.6258939823488
 20
286.3192515252361
 30
0.0
  9
$PLIMMIN
 10
-5.0270833969116211
 20
-5.111741065979003
  9
$PLIMMAX
 10
204.9885873794554
 20
291.89890956878662
  9
$UNITMODE
 70
     0
  9
$VISRETAIN
 70
     0
  9
$PLINEGEN
 70
     0
  9
$PSLTSCALE
 70
     1
  0
ENDSEC
  0
SECTION
  2
TABLES
  0
TABLE
  2
VPORT
 70
     8
  0
VPORT
  2
*ACTIVE
 70
     0
 10
0.0
 20
0.0
 11
1.0
 21
1.0
 12
286.47477436927869
 22
37.338160465188921
 13
0.0
 23
0.0
 14
1.0
 24
1.0
 15
0.0
 25
0.0
 16
0.0
 26
0.0
 36
1.0
 17
0.0
 27
0.0
 37
0.0
 40
15.03725049649597
 41
1.1601866251944011
 42
50.0
 43
0.0
 44
0.0
 50
0.0
 51
0.0
 71
     0
 72
   100
 73
     1
 74
     1
 75
     0
 76
     0
 77
     0
 78
     0
  0
ENDTAB
  0
TABLE
  2
LTYPE
 70
     1
  0
LTYPE
  2
CONTINUOUS
 70
     0
  3
Solid line
 72
    65
 73
     0
 40
0.0
  0
ENDTAB
  0
TABLE
  2
LAYER
 70
     2
  0
LAYER
  2
0
 70
     0
 62
     7
  6
CONTINUOUS
  0
LAYER
  2
DEFPOINTS
 70
     0
 62
     7
  6
CONTINUOUS
  0
ENDTAB
  0
TABLE
  2
STYLE
 70
     2
  0
STYLE
  2
STANDARD
 70
     0
 40
0.0
 41
1.0
 50
0.0
 71
     0
 42
0.2
  3
txt
  4

  0
STYLE
  2
ROMANC
 70
     0
 40
0.0
 41
1.0
 50
0.0
 71
     0
 42
0.3
  3
ROMANC
  4

  0
ENDTAB
  0
TABLE
  2
VIEW
 70
     0
  0
ENDTAB
  0
TABLE
  2
UCS
 70
     0
  0
ENDTAB
  0
TABLE
  2
APPID
 70
     3
  0
APPID
  2
ACAD
 70
     0
  0
APPID
  2
CONTENTBLOCKDESCRIPTION
 70
     0
  0
APPID
  2
CONTENTBLOCKICON
 70
     0
  0
ENDTAB
  0
TABLE
  2
DIMSTYLE
 70
     1
  0
DIMSTYLE
  2
STANDARD
 70
     0
  3

  4

  5

  6

  7

 40
1.0
 41
0.18
 42
0.0625
 43
0.38
 44
0.18
 45
0.0
 46
0.0
 47
0.0
 48
0.0
140
0.18
141
0.09
142
0.0
143
25.399999999999999
144
1.0
145
0.0
146
1.0
147
0.09
 71
     0
 72
     0
 73
     1
 74
     1
 75
     0
 76
     0
 77
     0
 78
     0
170
     0
171
     2
172
     0
173
     0
174
     0
175
     0
176
     0
177
     0
178
     0
  0
ENDTAB
  0
ENDSEC
  0
SECTION
  2
BLOCKS
  0
BLOCK
  8
0
  2
$MODEL_SPACE
 70
     0
 10
0.0
 20
0.0
 30
0.0
  3
$MODEL_SPACE
  1

  0
ENDBLK
  5
20
  8
0
  0
BLOCK
 67
     1
  8
0
  2
$PAPER_SPACE
 70
     0
 10
0.0
 20
0.0
 30
0.0
  3
$PAPER_SPACE
  1

  0
ENDBLK
  5
1C
 67
     1
  8
0
  0
BLOCK
  8
0
  2
*D0
 70
     1
 10
0.0
 20
0.0
 30
0.0
  3
*D0
  1

  0
LINE
  5
17F
  8
0
 62
     0
 10
286.12421144765761
 20
36.24736563458589
 30
0.0
 11
288.1582790844173
 21
36.24736563458589
 31
0.0
  0
LINE
  5
180
  8
0
 62
     0
 10
286.12421144765761
 20
34.627365634585871
 30
0.0
 11
288.1582790844173
 21
34.627365634585871
 31
0.0
  0
LINE
  5
181
  8
0
 62
     0
 10
287.97827908441752
 20
36.06736563458589
 30
0.0
 11
287.97827908441752
 21
35.612166902036002
 31
0.0
  0
LINE
  5
182
  8
0
 62
     0
 10
287.97827908441752
 20
34.807365634585871
 30
0.0
 11
287.97827908441752
 21
35.252166902036009
 31
0.0
  0
SOLID
  5
183
  8
0
 62
     0
 10
287.94827908441732
 20
36.06736563458589
 30
0.0
 11
288.00827908441732
 21
36.06736563458589
 31
0.0
 12
287.97827908441752
 22
36.24736563458589
 32
0.0
 13
287.97827908441752
 23
36.24736563458589
 33
0.0
  0
SOLID
  5
184
  8
0
 62
     0
 10
287.94827908441732
 20
34.807365634585871
 30
0.0
 11
288.00827908441732
 21
34.807365634585871
 31
0.0
 12
287.97827908441752
 22
34.627365634585871
 32
0.0
 13
287.97827908441752
 23
34.627365634585871
 33
0.0
  0
TEXT
  5
185
  8
0
 62
     0
 10
287.58827908441748
 20
35.34216690203602
 30
0.0
 40
0.18
  1
1.6200
  0
POINT
  5
186
  8
DEFPOINTS
 62
     0
 10
286.06171144765761
 20
36.24736563458589
 30
0.0
  0
POINT
  5
187
  8
DEFPOINTS
 62
     0
 10
286.06171144765761
 20
34.627365634585871
 30
0.0
  0
POINT
  5
188
  8
DEFPOINTS
 62
     0
 10
287.97827908441752
 20
34.627365634585871
 30
0.0
  0
ENDBLK
  5
D4
  8
0
  0
BLOCK
  8
0
  2
*D1
 70
     1
 10
0.0
 20
0.0
 30
0.0
  3
*D1
  1

  0
LINE
  5
144
  8
0
 62
     0
 10
286.5742114476576
 20
34.777365634585891
 30
0.0
 11
287.84838533562259
 21
34.777365634585891
 31
0.0
  0
LINE
  5
145
  8
0
 62
     0
 10
286.18671144765761
 20
34.627365634585871
 30
0.0
 11
287.84838533562259
 21
34.627365634585871
 31
0.0
  0
LINE
  5
146
  8
0
 62
     0
 10
287.66838533562259
 20
34.957365634585891
 30
0.0
 11
287.66838533562259
 21
35.13736563458589
 31
0.0
  0
LINE
  5
147
  8
0
 62
     0
 10
287.66838533562259
 20
34.447365634585871
 30
0.0
 11
287.66838533562259
 21
34.267365634585822
 31
0.0
  0
LINE
  5
148
  8
0
 62
     0
 10
287.66838533562259
 20
34.267365634585822
 30
0.0
 11
287.48838533562258
 21
34.267365634585822
 31
0.0
  0
SOLID
  5
149
  8
0
 62
     0
 10
287.63838533562262
 20
34.957365634585891
 30
0.0
 11
287.69838533562262
 21
34.957365634585891
 31
0.0
 12
287.66838533562259
 22
34.777365634585891
 32
0.0
 13
287.66838533562259
 23
34.777365634585891
 33
0.0
  0
SOLID
  5
14A
  8
0
 62
     0
 10
287.63838533562262
 20
34.447365634585871
 30
0.0
 11
287.69838533562262
 21
34.447365634585871
 31
0.0
 12
287.66838533562259
 22
34.627365634585871
 32
0.0
 13
287.66838533562259
 23
34.627365634585871
 33
0.0
  0
TEXT
  5
14B
  8
0
 62
     0
 10
286.64838533562261
 20
34.177365634585868
 30
0.0
 40
0.18
  1
0.1500
  0
POINT
  5
14C
  8
DEFPOINTS
 62
     0
 10
286.51171144765749
 20
34.777365634585891
 30
0.0
  0
POINT
  5
14D
  8
DEFPOINTS
 62
     0
 10
286.12421144765761
 20
34.627365634585871
 30
0.0
  0
POINT
  5
14E
  8
DEFPOINTS
 62
     0
 10
287.66838533562259
 20
34.627365634585871
 30
0.0
  0
ENDBLK
  5
E3
  8
0
  0
BLOCK
  8
0
  2
*D2
 70
     1
 10
0.0
 20
0.0
 30
0.0
  3
*D2
  1

  0
LINE
  5
110
  8
0
 62
     0
 10
285.56171144765761
 20
35.739865634585883
 30
0.0
 11
285.56171144765761
 21
36.955564570242309
 31
0.0
  0
LINE
  5
111
  8
0
 62
     0
 10
286.56171144765761
 20
35.739865634586423
 30
0.0
 11
286.56171144765761
 21
36.955564570242309
 31
0.0
  0
LINE
  5
112
  8
0
 62
     0
 10
285.38171144765761
 20
36.775564570242288
 30
0.0
 11
285.2017114476576
 21
36.775564570242288
 31
0.0
  0
LINE
  5
113
  8
0
 62
     0
 10
286.74171144765762
 20
36.775564570242288
 30
0.0
 11
286.92171144765757
 21
36.775564570242288
 31
0.0
  0
SOLID
  5
114
  8
0
 62
     0
 10
285.38171144765761
 20
36.805564570242311
 30
0.0
 11
285.38171144765761
 21
36.745564570242287
 31
0.0
 12
285.56171144765761
 22
36.775564570242288
 32
0.0
 13
285.56171144765761
 23
36.775564570242288
 33
0.0
  0
SOLID
  5
115
  8
0
 62
     0
 10
286.74171144765762
 20
36.805564570242311
 30
0.0
 11
286.74171144765762
 21
36.745564570242287
 31
0.0
 12
286.56171144765761
 22
36.775564570242288
 32
0.0
 13
286.56171144765761
 23
36.775564570242288
 33
0.0
  0
TEXT
  5
116
  8
0
 62
     0
 10
285.7017114476576
 20
36.685564570242278
 30
0.0
 40
0.18
  1
1.0000
  0
POINT
  5
117
  8
DEFPOINTS
 62
     0
 10
285.56171144765761
 20
35.677365634585883
 30
0.0
  0
POINT
  5
118
  8
DEFPOINTS
 62
     0
 10
286.56171144765761
 20
35.67736563458643
 30
0.0
  0
POINT
  5
119
  8
DEFPOINTS
 62
     0
 10
286.56171144765761
 20
36.775564570242288
 30
0.0
  0
ENDBLK
  5
F1
  8
0
  0
BLOCK
  8
0
  2
*D3
 70
     1
 10
0.0
 20
0.0
 30
0.0
  3
*D3
  1

  0
LINE
  5
F4
  8
0
 62
     0
 10
285.81059259733809
 20
34.325938777115297
 30
0.0
 11
285.09968946552419
 21
34.325938777115297
 31
0.0
  0
LINE
  5
F5
  8
0
 62
     0
 10
285.7605925973383
 20
35.225938777115019
 30
0.0
 11
285.09968946552419
 21
35.225938777115019
 31
0.0
  0
LINE
  5
F6
  8
0
 62
     0
 10
285.27968946552409
 20
34.505938777115297
 30
0.0
 11
285.27968946552409
 21
35.045938777115012
 31
0.0
  0
LINE
  5
F7
  8
0
 62
     0
 10
285.27968946552409
 20
35.225938777115019
 30
0.0
 11
285.27968946552409
 21
35.405938777115018
 31
0.0
  0
LINE
  5
F8
  8
0
 62
     0
 10
285.27968946552409
 20
35.405938777115018
 30
0.0
 11
285.45968946552409
 21
35.405938777115018
 31
0.0
  0
SOLID
  5
F9
  8
0
 62
     0
 10
285.24968946552411
 20
34.505938777115297
 30
0.0
 11
285.30968946552412
 21
34.505938777115297
 31
0.0
 12
285.27968946552409
 22
34.325938777115297
 32
0.0
 13
285.27968946552409
 23
34.325938777115297
 33
0.0
  0
SOLID
  5
FA
  8
0
 62
     0
 10
285.24968946552411
 20
35.045938777115012
 30
0.0
 11
285.30968946552412
 21
35.045938777115012
 31
0.0
 12
285.27968946552409
 22
35.225938777115019
 32
0.0
 13
285.27968946552409
 23
35.225938777115019
 33
0.0
  0
TEXT
  5
FB
  8
0
 62
     0
 10
285.54968946552412
 20
35.315938777115058
 30
0.0
 40
0.18
  1
0.9000
  0
POINT
  5
FC
  8
DEFPOINTS
 62
     0
 10
285.87309259733809
 20
34.325938777115297
 30
0.0
  0
POINT
  5
FD
  8
DEFPOINTS
 62
     0
 10
285.8230925973383
 20
35.225938777115019
 30
0.0
  0
POINT
  5
FE
  8
DEFPOINTS
 62
     0
 10
285.27968946552409
 20
35.225938777115019
 30
0.0
  0
ENDBLK
  5
100
  8
0
  0
BLOCK
  8
0
  2
*D4
 70
     1
 10
0.0
 20
0.0
 30
0.0
  3
*D4
  1

  0
LINE
  5
12F
  8
0
 62
     0
 10
285.49921144765761
 20
35.677365634585883
 30
0.0
 11
284.86830831584331
 21
35.677365634585883
 31
0.0
  0
LINE
  5
130
  8
0
 62
     0
 10
285.54921144765768
 20
34.777365634585891
 30
0.0
 11
284.86830831584331
 21
34.777365634585891
 31
0.0
  0
LINE
  5
131
  8
0
 62
     0
 10
285.0483083158436
 20
35.497365634585883
 30
0.0
 11
285.0483083158436
 21
34.957365634585891
 31
0.0
  0
LINE
  5
132
  8
0
 62
     0
 10
285.0483083158436
 20
34.777365634585891
 30
0.0
 11
285.0483083158436
 21
34.597365634585891
 31
0.0
  0
LINE
  5
133
  8
0
 62
     0
 10
285.0483083158436
 20
34.597365634585891
 30
0.0
 11
284.86830831584331
 21
34.597365634585891
 31
0.0
  0
SOLID
  5
134
  8
0
 62
     0
 10
285.01830831584363
 20
35.497365634585883
 30
0.0
 11
285.07830831584363
 21
35.497365634585883
 31
0.0
 12
285.0483083158436
 22
35.677365634585883
 32
0.0
 13
285.0483083158436
 23
35.677365634585883
 33
0.0
  0
SOLID
  5
135
  8
0
 62
     0
 10
285.01830831584363
 20
34.957365634585891
 30
0.0
 11
285.07830831584363
 21
34.957365634585891
 31
0.0
 12
285.0483083158436
 22
34.777365634585891
 32
0.0
 13
285.0483083158436
 23
34.777365634585891
 33
0.0
  0
TEXT
  5
136
  8
0
 62
     0
 10
283.99830831584359
 20
34.507365634585938
 30
0.0
 40
0.18
  1
0.9000
  0
POINT
  5
137
  8
DEFPOINTS
 62
     0
 10
285.56171144765761
 20
35.677365634585883
 30
0.0
  0
POINT
  5
138
  8
DEFPOINTS
 62
     0
 10
285.61171144765763
 20
34.777365634585891
 30
0.0
  0
POINT
  5
139
  8
DEFPOINTS
 62
     0
 10
285.0483083158436
 20
34.777365634585891
 30
0.0
  0
ENDBLK
  5
10F
  8
0
  0
BLOCK
  8
0
  2
*D5
 70
     1
 10
0.0
 20
0.0
 30
0.0
  3
*D5
  1

  0
LINE
  5
151
  8
0
 62
     0
 10
286.51171144765749
 20
34.714865634585891
 30
0.0
 11
286.51171144765749
 21
33.559908204046323
 31
0.0
  0
LINE
  5
152
  8
0
 62
     0
 10
285.61171144765763
 20
34.714865634585891
 30
0.0
 11
285.61171144765763
 21
33.559908204046323
 31
0.0
  0
LINE
  5
153
  8
0
 62
     0
 10
286.3317114476576
 20
33.739908204046323
 30
0.0
 11
285.79171144765758
 21
33.739908204046323
 31
0.0
  0
LINE
  5
154
  8
0
 62
     0
 10
285.61171144765763
 20
33.739908204046323
 30
0.0
 11
285.43171144765762
 21
33.739908204046323
 31
0.0
  0
SOLID
  5
155
  8
0
 62
     0
 10
286.3317114476576
 20
33.769908204046317
 30
0.0
 11
286.3317114476576
 21
33.709908204046322
 31
0.0
 12
286.51171144765749
 22
33.739908204046323
 32
0.0
 13
286.51171144765749
 23
33.739908204046323
 33
0.0
  0
SOLID
  5
156
  8
0
 62
     0
 10
285.79171144765758
 20
33.769908204046317
 30
0.0
 11
285.79171144765758
 21
33.709908204046322
 31
0.0
 12
285.61171144765763
 22
33.739908204046323
 32
0.0
 13
285.61171144765763
 23
33.739908204046323
 33
0.0
  0
TEXT
  5
157
  8
0
 62
     0
 10
284.56171144765727
 20
33.649908204046312
 30
0.0
 40
0.18
  1
0.9000
  0
POINT
  5
158
  8
DEFPOINTS
 62
     0
 10
286.51171144765749
 20
34.777365634585891
 30
0.0
  0
POINT
  5
159
  8
DEFPOINTS
 62
     0
 10
285.61171144765763
 20
34.777365634585891
 30
0.0
  0
POINT
  5
15A
  8
DEFPOINTS
 62
     0
 10
285.61171144765763
 20
33.739908204046323
 30
0.0
  0
ENDBLK
  5
15C
  8
0
  0
BLOCK
  8
0
  2
*D6
 70
     1
 10
0.0
 20
0.0
 30
0.0
  3
*D6
  1

  0
LINE
  5
16B
  8
0
 62
     0
 10
286.22706772368758
 20
34.698723307844112
 30
0.0
 11
286.22706772368758
 21
33.841229947667529
 31
0.0
  0
LINE
  5
16C
  8
0
 62
     0
 10
285.89635517162748
 20
34.698723307844112
 30
0.0
 11
285.89635517162748
 21
33.841229947667529
 31
0.0
  0
LINE
  5
16D
  8
0
 62
     0
 10
286.40706772368759
 20
34.021229947667528
 30
0.0
 11
286.5870677236876
 21
34.021229947667528
 31
0.0
  0
LINE
  5
16E
  8
0
 62
     0
 10
285.71635517162753
 20
34.021229947667528
 30
0.0
 11
285.53635517162758
 21
34.021229947667528
 31
0.0
  0
SOLID
  5
16F
  8
0
 62
     0
 10
286.40706772368759
 20
34.051229947667508
 30
0.0
 11
286.40706772368759
 21
33.991229947667527
 31
0.0
 12
286.22706772368758
 22
34.021229947667528
 32
0.0
 13
286.22706772368758
 23
34.021229947667528
 33
0.0
  0
SOLID
  5
170
  8
0
 62
     0
 10
285.71635517162753
 20
34.051229947667508
 30
0.0
 11
285.71635517162753
 21
33.991229947667527
 31
0.0
 12
285.89635517162748
 22
34.021229947667528
 32
0.0
 13
285.89635517162748
 23
34.021229947667528
 33
0.0
  0
TEXT
  5
171
  8
0
 62
     0
 10
284.66635517162757
 20
33.931229947667532
 30
0.0
 40
0.18
  1
0.3000
  0
POINT
  5
172
  8
DEFPOINTS
 62
     0
 10
286.22706772368758
 20
34.761223307844112
 30
0.0
  0
POINT
  5
173
  8
DEFPOINTS
 62
     0
 10
285.89635517162748
 20
34.761223307844112
 30
0.0
  0
POINT
  5
174
  8
DEFPOINTS
 62
     0
 10
285.89635517162748
 20
34.021229947667528
 30
0.0
  0
ENDBLK
  5
16A
  8
0
  0
BLOCK
  8
0
  2
*D7
 70
     1
 10
0.0
 20
0.0
 30
0.0
  3
*D7
  1

  0
LINE
  5
1B9
  8
0
 62
     0
 10
286.13674176591769
 20
35.239816681258148
 30
0.0
 11
286.13674176591769
 21
34.385622005353042
 31
0.0
  0
LINE
  5
1BA
  8
0
 62
     0
 10
286.73674176591783
 20
35.239816681258148
 30
0.0
 11
286.73674176591783
 21
34.385622005353042
 31
0.0
  0
LINE
  5
1BB
  8
0
 62
     0
 10
286.31674176591781
 20
34.565622005353063
 30
0.0
 11
286.55674176591782
 21
34.565622005353063
 31
0.0
  0
LINE
  5
1BC
  8
0
 62
     0
 10
286.73674176591783
 20
34.565622005353063
 30
0.0
 11
286.91674176591778
 21
34.565622005353063
 31
0.0
  0
SOLID
  5
1BD
  8
0
 62
     0
 10
286.31674176591781
 20
34.59562200535305
 30
0.0
 11
286.31674176591781
 21
34.535622005353062
 31
0.0
 12
286.13674176591769
 22
34.565622005353063
 32
0.0
 13
286.13674176591769
 23
34.565622005353063
 33
0.0
  0
SOLID
  5
1BE
  8
0
 62
     0
 10
286.55674176591782
 20
34.59562200535305
 30
0.0
 11
286.55674176591782
 21
34.535622005353062
 31
0.0
 12
286.73674176591783
 22
34.565622005353063
 32
0.0
 13
286.73674176591783
 23
34.565622005353063
 33
0.0
  0
TEXT
  5
1BF
  8
0
 62
     0
 10
287.00674176591758
 20
34.47562200535306
 30
0.0
 40
0.18
  1
0.6000
  0
POINT
  5
1C0
  8
DEFPOINTS
 62
     0
 10
286.13674176591769
 20
35.302316681258169
 30
0.0
  0
POINT
  5
1C1
  8
DEFPOINTS
 62
     0
 10
286.73674176591783
 20
35.302316681258169
 30
0.0
  0
POINT
  5
1C2
  8
DEFPOINTS
 62
     0
 10
286.73674176591783
 20
34.565622005353063
 30
0.0
  0
ENDBLK
  5
1C4
  8
0
  0
BLOCK
  8
0
  2
*D8
 70
     1
 10
0.0
 20
0.0
 30
0.0
  3
*D8
  1

  0
LINE
  5
1C7
  8
0
 62
     0
 10
286.79924176591783
 20
35.302316681258169
 30
0.0
 11
287.52927538896949
 21
35.302316681258169
 31
0.0
  0
LINE
  5
1C8
  8
0
 62
     0
 10
286.79924176591783
 20
36.052316681258169
 30
0.0
 11
287.52927538896949
 21
36.052316681258169
 31
0.0
  0
LINE
  5
1C9
  8
0
 62
     0
 10
287.34927538896972
 20
35.482316681258169
 30
0.0
 11
287.34927538896972
 21
35.872316681258148
 31
0.0
  0
LINE
  5
1CA
  8
0
 62
     0
 10
287.34927538896972
 20
36.052316681258169
 30
0.0
 11
287.34927538896972
 21
36.232316681258141
 31
0.0
  0
LINE
  5
1CB
  8
0
 62
     0
 10
287.34927538896972
 20
36.232316681258141
 30
0.0
 11
287.52927538896949
 21
36.232316681258141
 31
0.0
  0
SOLID
  5
1CC
  8
0
 62
     0
 10
287.31927538896957
 20
35.482316681258169
 30
0.0
 11
287.37927538896957
 21
35.482316681258169
 31
0.0
 12
287.34927538896972
 22
35.302316681258169
 32
0.0
 13
287.34927538896972
 23
35.302316681258169
 33
0.0
  0
SOLID
  5
1CD
  8
0
 62
     0
 10
287.31927538896957
 20
35.872316681258148
 30
0.0
 11
287.37927538896957
 21
35.872316681258148
 31
0.0
 12
287.34927538896972
 22
36.052316681258169
 32
0.0
 13
287.34927538896972
 23
36.052316681258169
 33
0.0
  0
TEXT
  5
1CE
  8
0
 62
     0
 10
287.61927538896958
 20
36.142316681258208
 30
0.0
 40
0.18
  1
0.7500
  0
POINT
  5
1CF
  8
DEFPOINTS
 62
     0
 10
286.73674176591783
 20
35.302316681258169
 30
0.0
  0
POINT
  5
1D0
  8
DEFPOINTS
 62
     0
 10
286.73674176591783
 20
36.052316681258169
 30
0.0
  0
POINT
  5
1D1
  8
DEFPOINTS
 62
     0
 10
287.34927538896972
 20
36.052316681258169
 30
0.0
  0
ENDBLK
  5
1D3
  8
0
  0
BLOCK
  8
0
  2
TIPUS
 70
     0
 10
0.0
 20
0.0
 30
0.0
  3
TIPUS
  1

  0
TEXT
  5
293
  8
0
  6
CONTINUOUS
 10
286.11771802494133
 20
42.378754717376012
 30
0.0
 40
0.3
  1
NTXXXY
  7
ROMANC
  0
ENDBLK
  5
23D
  8
0
  0
BLOCK
  8
0
  2
SUPERFICIE
 70
     0
 10
0.0
 20
0.0
 30
0.0
  3
SUPERFICIE
  1

  0
TEXT
  5
291
  8
0
  6
CONTINUOUS
 10
285.15769743119989
 20
41.099131975844998
 30
0.0
 40
0.3
  1
XXX
  7
ROMANC
  0
ENDBLK
  5
242
  8
0
  0
BLOCK
  8
0
  2
PERIMETRE
 70
     0
 10
0.0
 20
0.0
 30
0.0
  3
PERIMETRE
  1

  0
TEXT
  5
248
  8
0
  6
CONTINUOUS
 10
-0.0273031851410224
 20
0.0018352306916185
 30
0.0
 40
0.3
  1
XXX
  7
ROMANC
  0
ENDBLK
  5
247
  8
0
  0
BLOCK
  8
0
  2
1
 70
     2
 10
0.0
 20
0.0
 30
0.0
  3
1
  1

  0
TEXT
  5
252
  8
0
  6
CONTINUOUS
 10
0.1822521001187169
 20
0.7599981843347125
 30
0.0
 40
0.3
  1
S =    dm
  7
ROMANC
  0
INSERT
  5
253
  8
0
  2
TIPUS
 10
2.3822733102012408
 20
2.026069320385409
 30
0.0
  0
TEXT
  5
254
  8
0
  6
CONTINUOUS
 10
0.1592521001188629
 20
0.1899981843347476
 30
0.0
 40
0.3
  1
P =    dm
  7
ROMANC
  0
TEXT
  5
255
  8
0
  6
CONTINUOUS
 10
0.1632521001187115
 20
1.4289981843347439
 30
0.0
 40
0.3
  1
ESCALA  1:50
  7
ROMANC
  0
INSERT
  5
256
  8
0
  2
PERIMETRE
 10
1.422252716459752
 20
0.2014221004675178
 30
0.0
  0
INSERT
  5
257
  8
0
  2
SUPERFICIE
 10
1.434104793966468
 20
0.7582949294881374
 30
0.0
  0
TEXT
  5
258
  8
0
  6
CONTINUOUS
 10
0.1632521001187115
 20
2.0419981843347439
 30
0.0
 40
0.3
  1
TIPUS   
  7
ROMANC
  0
ATTDEF
  5
259
  8
0
 10
3.579335975109017
 20
0.1777253642765615
 30
0.0
 40
0.2
  1
x
  3
tipus
  2
TIPUS
 70
     0
  0
ATTDEF
  5
25A
  8
0
 10
3.7334133879433571
 20
0.734598228220662
 30
0.0
 40
0.2
  1
x
  3
tipus
  2
TIPUS
 70
     0
  0
TEXT
  5
25B
  8
0
  6
CONTINUOUS
 10
3.1029771218841802
 20
1.0190943722210331
 30
0.0
 40
0.1
  1
2
  7
ROMANC
  0
ATTDEF
  5
25C
  8
0
 10
4.4800960655319946
 20
2.049766056576372
 30
0.0
 40
0.2
  1
x
  3
tipus
  2
TIPUS
 70
     0
  0
ENDBLK
  5
251
  8
0
  0
BLOCK
  8
0
  2
CARACTERISTIQUES
 70
     2
 10
0.0
 20
0.0
 30
0.0
  3
CARACTERISTIQUES
  1

  0
ATTDEF
  5
2F0
  8
0
 10
4.8762613402653301
 20
11.855735508001271
 30
0.0
 40
0.3
  1
1:50
  7
ROMANC
  3
Escala
  2
1:50
 70
     0
  0
ATTDEF
  5
2F1
  8
0
 10
4.8321292928557114
 20
12.488577414881821
 30
0.0
 40
0.3
  1
NTXXXY
  7
ROMANC
  3
Tipus de Seccio
  2
NTXXY
 70
     0
  0
ATTDEF
  5
2F2
  8
0
 10
3.630153591010354
 20
11.20370262236149
 30
0.0
 40
0.3
  1
XXX
  7
ROMANC
  3
Superficie de la seccio
  2
XXX
 70
     0
  0
ATTDEF
  5
2F3
  8
0
 10
3.6539548654212681
 20
10.63264709849685
 30
0.0
 40
0.3
  1
XX
  7
ROMANC
  3
Perimetre de la Seccio
  2
XX
 70
     0
  0
ENDBLK
  5
26F
  8
0
  0
BLOCK
  8
0
  2
PERIMETRO
 70
     0
 10
0.0
 20
0.0
 30
0.0
  3
PERIMETRO
  1

  0
TEXT
  5
28F
  8
0
  6
CONTINUOUS
 10
285.15769743119989
 20
40.542259146824378
 30
0.0
 40
0.3
  1
XXX
  7
ROMANC
  0
ENDBLK
  5
28E
  8
0
  0
BLOCK
  8
0
  2
PERSONA
 70
     2
 10
0.0
 20
0.0
 30
0.0
  3
PERSONA
  1

  0
ATTDEF
  5
2AE
  8
0
 10
0.3477492763984173
 20
1.891334330655126
 30
0.0
 40
0.2
  1
val:nombre
  7
ROMANC
  3
sol_nombre
  2
IDEN_NOMBRE
 70
     0
  0
ATTDEF
  5
2AF
  8
0
 10
0.2447312480355777
 20
1.2085991863971861
 30
0.0
 40
0.2
  1
val_apellido
  7
ROMANC
  3
sol_apellido
  2
IDEN_APELLIDO
 70
     0
  0
ATTDEF
  5
2B0
  8
0
 10
0.3651607346860146
 20
0.342229907808246
 30
0.0
 40
0.2
  1
val_2apellido
  7
ROMANC
  3
sol_2apellido
  2
IDEN_2APELLIDO
 70
     0
  0
ENDBLK
  5
2AD
  8
0
  0
BLOCK
  8
0
  2
PRUEVA
 70
     2
 10
0.0
 20
0.0
 30
0.0
  3
PRUEVA
  1

  0
ATTDEF
  5
2BB
  8
0
 10
-0.0238012744110847
 20
0.107073217119698
 30
0.0
 40
0.2
  1
val1
  7
ROMANC
  3
sol1
  2
IDEN1
 70
     0
  0
ATTDEF
  5
2BC
  8
0
 10
-0.0000000000000568
 20
-0.3093217193975377
 30
0.0
 40
0.2
  1
val2
  7
ROMANC
  3
sol2
  2
IDEN2
 70
     0
  0
ENDBLK
  5
2BA
  8
0
  0
BLOCK
  8
0
  2
*D17
 70
     1
 10
0.0
 20
0.0
 30
0.0
  3
*D17
  1

  0
LINE
  5
2CA
  8
0
 62
     0
 10
286.7684041969494
 20
35.771063514311649
 30
0.0
 11
287.79880525968662
 21
35.771063514311649
 31
0.0
  0
LINE
  5
2CB
  8
0
 62
     0
 10
286.7684041969494
 20
34.653113294609263
 30
0.0
 11
287.79880525968662
 21
34.653113294609263
 31
0.0
  0
LINE
  5
2CC
  8
0
 62
     0
 10
287.61880525968672
 20
35.591063514311642
 30
0.0
 11
287.61880525968672
 21
35.392088404460452
 31
0.0
  0
LINE
  5
2CD
  8
0
 62
     0
 10
287.61880525968672
 20
34.833113294609262
 30
0.0
 11
287.61880525968672
 21
35.032088404460453
 31
0.0
  0
SOLID
  5
2CE
  8
0
 62
     0
 10
287.58880525968669
 20
35.591063514311642
 30
0.0
 11
287.6488052596867
 21
35.591063514311642
 31
0.0
 12
287.61880525968672
 22
35.771063514311649
 32
0.0
 13
287.61880525968672
 23
35.771063514311649
 33
0.0
  0
SOLID
  5
2CF
  8
0
 62
     0
 10
287.58880525968669
 20
34.833113294609262
 30
0.0
 11
287.6488052596867
 21
34.833113294609262
 31
0.0
 12
287.61880525968672
 22
34.653113294609263
 32
0.0
 13
287.61880525968672
 23
34.653113294609263
 33
0.0
  0
TEXT
  5
2D0
  8
0
 62
     0
 10
287.27380525968658
 20
35.122088404460492
 30
0.0
 40
0.18
  1
1.1180
  0
POINT
  5
2D1
  8
DEFPOINTS
 62
     0
 10
286.70590419694929
 20
35.771063514311649
 30
0.0
  0
POINT
  5
2D2
  8
DEFPOINTS
 62
     0
 10
286.70590419694929
 20
34.653113294609263
 30
0.0
  0
POINT
  5
2D3
  8
DEFPOINTS
 62
     0
 10
287.61880525968672
 20
34.653113294609263
 30
0.0
  0
ENDBLK
  5
2D5
  8
0
  0
BLOCK
  8
0
  2
*D18
 70
     1
 10
0.0
 20
0.0
 30
0.0
  3
*D18
  1

  0
LINE
  5
342
  8
0
 62
     0
 10
286.2030653213435
 20
36.058569449167699
 30
0.0
 11
288.16140435996402
 21
36.058569449167699
 31
0.0
  0
LINE
  5
343
  8
0
 62
     0
 10
286.2030653213435
 20
34.308569449167742
 30
0.0
 11
288.16140435996402
 21
34.308569449167742
 31
0.0
  0
LINE
  5
344
  8
0
 62
     0
 10
287.98140435996402
 20
35.878569449167699
 30
0.0
 11
287.98140435996402
 21
35.36356944916772
 31
0.0
  0
LINE
  5
345
  8
0
 62
     0
 10
287.98140435996402
 20
34.488569449167748
 30
0.0
 11
287.98140435996402
 21
35.003569449167721
 31
0.0
  0
SOLID
  5
346
  8
0
 62
     0
 10
287.95140435996399
 20
35.878569449167699
 30
0.0
 11
288.01140435996388
 21
35.878569449167699
 31
0.0
 12
287.98140435996402
 22
36.058569449167699
 32
0.0
 13
287.98140435996402
 23
36.058569449167699
 33
0.0
  0
SOLID
  5
347
  8
0
 62
     0
 10
287.95140435996399
 20
34.488569449167748
 30
0.0
 11
288.01140435996388
 21
34.488569449167748
 31
0.0
 12
287.98140435996402
 22
34.308569449167742
 32
0.0
 13
287.98140435996402
 23
34.308569449167742
 33
0.0
  0
TEXT
  5
348
  8
0
 62
     0
 10
287.59140435996397
 20
35.093569449167767
 30
0.0
 40
0.18
  1
1.7500
  0
POINT
  5
349
  8
DEFPOINTS
 62
     0
 10
286.14056532134339
 20
36.058569449167699
 30
0.0
  0
POINT
  5
34A
  8
DEFPOINTS
 62
     0
 10
286.14056532134339
 20
34.308569449167742
 30
0.0
  0
POINT
  5
34B
  8
DEFPOINTS
 62
     0
 10
287.98140435996402
 20
34.308569449167742
 30
0.0
  0
ENDBLK
  5
31C
  8
0
  0
BLOCK
  8
0
  2
*D19
 70
     1
 10
0.0
 20
0.0
 30
0.0
  3
*D19
  1

  0
LINE
  5
337
  8
0
 62
     0
 10
286.52806532134349
 20
34.458569449167733
 30
0.0
 11
287.87795797217132
 21
34.458569449167733
 31
0.0
  0
LINE
  5
338
  8
0
 62
     0
 10
286.2030653213435
 20
34.308569449167742
 30
0.0
 11
287.87795797217132
 21
34.308569449167742
 31
0.0
  0
LINE
  5
339
  8
0
 62
     0
 10
287.69795797217131
 20
34.638569449167733
 30
0.0
 11
287.69795797217131
 21
34.818569449167732
 31
0.0
  0
LINE
  5
33A
  8
0
 62
     0
 10
287.69795797217131
 20
34.128569449167749
 30
0.0
 11
287.69795797217131
 21
33.948569449167742
 31
0.0
  0
LINE
  5
33B
  8
0
 62
     0
 10
287.69795797217131
 20
33.948569449167742
 30
0.0
 11
287.5179579721713
 21
33.948569449167742
 31
0.0
  0
SOLID
  5
33C
  8
0
 62
     0
 10
287.66795797217128
 20
34.638569449167733
 30
0.0
 11
287.72795797217128
 21
34.638569449167733
 31
0.0
 12
287.69795797217131
 22
34.458569449167733
 32
0.0
 13
287.69795797217131
 23
34.458569449167733
 33
0.0
  0
SOLID
  5
33D
  8
0
 62
     0
 10
287.66795797217128
 20
34.128569449167749
 30
0.0
 11
287.72795797217128
 21
34.128569449167749
 31
0.0
 12
287.69795797217131
 22
34.308569449167742
 32
0.0
 13
287.69795797217131
 23
34.308569449167742
 33
0.0
  0
TEXT
  5
33E
  8
0
 62
     0
 10
286.67795797217133
 20
33.858569449167788
 30
0.0
 40
0.18
  1
0.1500
  0
POINT
  5
33F
  8
DEFPOINTS
 62
     0
 10
286.46556532134338
 20
34.458569449167733
 30
0.0
  0
POINT
  5
340
  8
DEFPOINTS
 62
     0
 10
286.14056532134339
 20
34.308569449167742
 30
0.0
  0
POINT
  5
341
  8
DEFPOINTS
 62
     0
 10
287.69795797217131
 20
34.308569449167742
 30
0.0
  0
ENDBLK
  5
32B
  8
0
  0
BLOCK
  8
0
  2
*D20
 70
     1
 10
0.0
 20
0.0
 30
0.0
  3
*D20
  1

  0
LINE
  5
368
  8
0
 62
     0
 10
286.46556532134338
 20
34.396069449167733
 30
0.0
 11
286.46556532134338
 21
33.132706877359148
 31
0.0
  0
LINE
  5
369
  8
0
 62
     0
 10
285.81556532134351
 20
34.396069449167719
 30
0.0
 11
285.81556532134351
 21
33.132706877359148
 31
0.0
  0
LINE
  5
36A
  8
0
 62
     0
 10
286.28556532134348
 20
33.312706877359147
 30
0.0
 11
285.99556532134352
 21
33.312706877359147
 31
0.0
  0
LINE
  5
36B
  8
0
 62
     0
 10
285.81556532134351
 20
33.312706877359147
 30
0.0
 11
285.63556532134351
 21
33.312706877359147
 31
0.0
  0
SOLID
  5
36C
  8
0
 62
     0
 10
286.28556532134348
 20
33.342706877359149
 30
0.0
 11
286.28556532134348
 21
33.282706877359153
 31
0.0
 12
286.46556532134338
 22
33.312706877359147
 32
0.0
 13
286.46556532134338
 23
33.312706877359147
 33
0.0
  0
SOLID
  5
36D
  8
0
 62
     0
 10
285.99556532134352
 20
33.342706877359149
 30
0.0
 11
285.99556532134352
 21
33.282706877359153
 31
0.0
 12
285.81556532134351
 22
33.312706877359147
 32
0.0
 13
285.81556532134351
 23
33.312706877359147
 33
0.0
  0
TEXT
  5
36E
  8
0
 62
     0
 10
284.73556532134347
 20
33.222706877359151
 30
0.0
 40
0.18
  1
0.6500
  0
POINT
  5
36F
  8
DEFPOINTS
 62
     0
 10
286.46556532134338
 20
34.458569449167733
 30
0.0
  0
POINT
  5
370
  8
DEFPOINTS
 62
     0
 10
285.81556532134351
 20
34.458569449167719
 30
0.0
  0
POINT
  5
371
  8
DEFPOINTS
 62
     0
 10
285.81556532134351
 20
33.312706877359147
 30
0.0
  0
ENDBLK
  5
359
  8
0
  0
BLOCK
  8
0
  2
*D21
 70
     1
 10
0.0
 20
0.0
 30
0.0
  3
*D21
  1

  0
LINE
  5
35C
  8
0
 62
     0
 10
286.29056532134342
 20
34.396069449167733
 30
0.0
 11
286.29056532134342
 21
33.51078825775528
 31
0.0
  0
LINE
  5
35D
  8
0
 62
     0
 10
285.99056532134352
 20
34.396069449167733
 30
0.0
 11
285.99056532134352
 21
33.51078825775528
 31
0.0
  0
LINE
  5
35E
  8
0
 62
     0
 10
286.47056532134337
 20
33.690788257755273
 30
0.0
 11
286.65056532134349
 21
33.690788257755273
 31
0.0
  0
LINE
  5
35F
  8
0
 62
     0
 10
285.81056532134352
 20
33.690788257755273
 30
0.0
 11
285.63056532134351
 21
33.690788257755273
 31
0.0
  0
SOLID
  5
360
  8
0
 62
     0
 10
286.47056532134337
 20
33.720788257755281
 30
0.0
 11
286.47056532134337
 21
33.660788257755272
 31
0.0
 12
286.29056532134342
 22
33.690788257755273
 32
0.0
 13
286.29056532134342
 23
33.690788257755273
 33
0.0
  0
SOLID
  5
361
  8
0
 62
     0
 10
285.81056532134352
 20
33.720788257755281
 30
0.0
 11
285.81056532134352
 21
33.660788257755272
 31
0.0
 12
285.99056532134352
 22
33.690788257755273
 32
0.0
 13
285.99056532134352
 23
33.690788257755273
 33
0.0
  0
TEXT
  5
362
  8
0
 62
     0
 10
284.76056532134351
 20
33.600788257755269
 30
0.0
 40
0.18
  1
0.3000
  0
POINT
  5
363
  8
DEFPOINTS
 62
     0
 10
286.29056532134342
 20
34.458569449167733
 30
0.0
  0
POINT
  5
364
  8
DEFPOINTS
 62
     0
 10
285.99056532134352
 20
34.458569449167733
 30
0.0
  0
POINT
  5
365
  8
DEFPOINTS
 62
     0
 10
285.99056532134352
 20
33.690788257755273
 30
0.0
  0
ENDBLK
  5
367
  8
0
  0
BLOCK
  8
0
  2
*D22
 70
     1
 10
0.0
 20
0.0
 30
0.0
  3
*D22
  1

  0
LINE
  5
3B8
  8
0
 62
     0
 10
287.22154536034952
 20
33.982033685944032
 30
0.0
 11
289.05009942965052
 21
33.982033685944032
 31
0.0
  0
LINE
  5
3B9
  8
0
 62
     0
 10
286.72154536034952
 20
36.13203368594403
 30
0.0
 11
289.05009942965052
 21
36.13203368594403
 31
0.0
  0
LINE
  5
3BA
  8
0
 62
     0
 10
288.87009942965051
 20
34.162033685944031
 30
0.0
 11
288.87009942965051
 21
34.877033685944021
 31
0.0
  0
LINE
  5
3BB
  8
0
 62
     0
 10
288.87009942965051
 20
35.952033685944031
 30
0.0
 11
288.87009942965051
 21
35.23703368594402
 31
0.0
  0
SOLID
  5
3BC
  8
0
 62
     0
 10
288.84009942965048
 20
34.162033685944031
 30
0.0
 11
288.90009942965042
 21
34.162033685944031
 31
0.0
 12
288.87009942965051
 22
33.982033685944032
 32
0.0
 13
288.87009942965051
 23
33.982033685944032
 33
0.0
  0
SOLID
  5
3BD
  8
0
 62
     0
 10
288.84009942965048
 20
35.952033685944031
 30
0.0
 11
288.90009942965042
 21
35.952033685944031
 31
0.0
 12
288.87009942965051
 22
36.13203368594403
 32
0.0
 13
288.87009942965051
 23
36.13203368594403
 33
0.0
  0
TEXT
  5
3BE
  8
0
 62
     0
 10
288.48009942965052
 20
34.967033685944067
 30
0.0
 40
0.18
  1
2.1500
  0
POINT
  5
3BF
  8
DEFPOINTS
 62
     0
 10
287.15904536034952
 20
33.982033685944032
 30
0.0
  0
POINT
  5
3C0
  8
DEFPOINTS
 62
     0
 10
286.65904536034952
 20
36.13203368594403
 30
0.0
  0
POINT
  5
3C1
  8
DEFPOINTS
 62
     0
 10
288.87009942965051
 20
36.13203368594403
 30
0.0
  0
ENDBLK
  5
3C3
  8
0
  0
BLOCK
  8
0
  2
*D23
 70
     1
 10
0.0
 20
0.0
 30
0.0
  3
*D23
  1

  0
LINE
  5
3F8
  8
0
 62
     0
 10
287.34462298243011
 20
35.48501056868902
 30
0.0
 11
288.16511746456308
 21
35.48501056868902
 31
0.0
  0
LINE
  5
3F9
  8
0
 62
     0
 10
287.22154536034952
 20
33.982033685944032
 30
0.0
 11
288.16511746456308
 21
33.982033685944032
 31
0.0
  0
LINE
  5
3FA
  8
0
 62
     0
 10
287.98511746456307
 20
35.305010568689028
 30
0.0
 11
287.98511746456307
 21
34.913522127316519
 31
0.0
  0
LINE
  5
3FB
  8
0
 62
     0
 10
287.98511746456307
 20
34.162033685944031
 30
0.0
 11
287.98511746456307
 21
34.553522127316519
 31
0.0
  0
SOLID
  5
3FC
  8
0
 62
     0
 10
287.9551174645631
 20
35.305010568689028
 30
0.0
 11
288.01511746456299
 21
35.305010568689028
 31
0.0
 12
287.98511746456307
 22
35.48501056868902
 32
0.0
 13
287.98511746456307
 23
35.48501056868902
 33
0.0
  0
SOLID
  5
3FD
  8
0
 62
     0
 10
287.9551174645631
 20
34.162033685944031
 30
0.0
 11
288.01511746456299
 21
34.162033685944031
 31
0.0
 12
287.98511746456307
 22
33.982033685944032
 32
0.0
 13
287.98511746456307
 23
33.982033685944032
 33
0.0
  0
TEXT
  5
3FE
  8
0
 62
     0
 10
287.59511746456309
 20
34.643522127316572
 30
0.0
 40
0.18
  1
1.5500
  0
POINT
  5
3FF
  8
DEFPOINTS
 62
     0
 10
287.28212298243
 20
35.48501056868902
 30
0.0
  0
POINT
  5
400
  8
DEFPOINTS
 62
     0
 10
287.15904536034952
 20
33.982033685944032
 30
0.0
  0
POINT
  5
401
  8
DEFPOINTS
 62
     0
 10
287.98511746456307
 20
33.982033685944032
 30
0.0
  0
ENDBLK
  5
3D1
  8
0
  0
BLOCK
  8
0
  2
*D24
 70
     1
 10
0.0
 20
0.0
 30
0.0
  3
*D24
  1

  0
LINE
  5
3D4
  8
0
 62
     0
 10
287.15904536034952
 20
33.919533685944032
 30
0.0
 11
287.15904536034952
 21
33.266905358979429
 31
0.0
  0
LINE
  5
3D5
  8
0
 62
     0
 10
286.15904536034952
 20
33.919533685944032
 30
0.0
 11
286.15904536034952
 21
33.266905358979429
 31
0.0
  0
LINE
  5
3D6
  8
0
 62
     0
 10
287.33904536034947
 20
33.446905358979421
 30
0.0
 11
287.51904536034948
 21
33.446905358979421
 31
0.0
  0
LINE
  5
3D7
  8
0
 62
     0
 10
285.9790453603494
 20
33.446905358979421
 30
0.0
 11
285.79904536034951
 21
33.446905358979421
 31
0.0
  0
SOLID
  5
3D8
  8
0
 62
     0
 10
287.33904536034947
 20
33.476905358979423
 30
0.0
 11
287.33904536034947
 21
33.41690535897942
 31
0.0
 12
287.15904536034952
 22
33.446905358979421
 32
0.0
 13
287.15904536034952
 23
33.446905358979421
 33
0.0
  0
SOLID
  5
3D9
  8
0
 62
     0
 10
285.9790453603494
 20
33.476905358979423
 30
0.0
 11
285.9790453603494
 21
33.41690535897942
 31
0.0
 12
286.15904536034952
 22
33.446905358979421
 32
0.0
 13
286.15904536034952
 23
33.446905358979421
 33
0.0
  0
TEXT
  5
3DA
  8
0
 62
     0
 10
286.29904536034951
 20
33.356905358979418
 30
0.0
 40
0.18
  1
1.0000
  0
POINT
  5
3DB
  8
DEFPOINTS
 62
     0
 10
287.15904536034952
 20
33.982033685944032
 30
0.0
  0
POINT
  5
3DC
  8
DEFPOINTS
 62
     0
 10
286.15904536034952
 20
33.982033685944032
 30
0.0
  0
POINT
  5
3DD
  8
DEFPOINTS
 62
     0
 10
286.15904536034952
 20
33.446905358979421
 30
0.0
  0
ENDBLK
  5
3DF
  8
0
  0
BLOCK
  8
0
  2
*D25
 70
     1
 10
0.0
 20
0.0
 30
0.0
  3
*D25
  1

  0
LINE
  5
3EE
  8
0
 62
     0
 10
286.03552464224663
 20
35.57101296784117
 30
0.0
 11
286.03552464224663
 21
36.79214783952547
 31
0.0
  0
LINE
  5
3EF
  8
0
 62
     0
 10
287.28256607845231
 20
35.57101296784117
 30
0.0
 11
287.28256607845231
 21
36.79214783952547
 31
0.0
  0
LINE
  5
3F0
  8
0
 62
     0
 10
285.85552464224662
 20
36.61214783952547
 30
0.0
 11
285.67552464224661
 21
36.61214783952547
 31
0.0
  0
LINE
  5
3F1
  8
0
 62
     0
 10
287.46256607845231
 20
36.61214783952547
 30
0.0
 11
287.64256607845232
 21
36.61214783952547
 31
0.0
  0
SOLID
  5
3F2
  8
0
 62
     0
 10
285.85552464224662
 20
36.642147839525471
 30
0.0
 11
285.85552464224662
 21
36.582147839525462
 31
0.0
 12
286.03552464224663
 22
36.61214783952547
 32
0.0
 13
286.03552464224663
 23
36.61214783952547
 33
0.0
  0
SOLID
  5
3F3
  8
0
 62
     0
 10
287.46256607845231
 20
36.642147839525471
 30
0.0
 11
287.46256607845231
 21
36.582147839525462
 31
0.0
 12
287.28256607845231
 22
36.61214783952547
 32
0.0
 13
287.28256607845231
 23
36.61214783952547
 33
0.0
  0
TEXT
  5
3F4
  8
0
 62
     0
 10
286.26904536034948
 20
36.522147839525459
 30
0.0
 40
0.18
  1
1.2500
  0
POINT
  5
3F5
  8
DEFPOINTS
 62
     0
 10
286.03552464224663
 20
35.50851296784117
 30
0.0
  0
POINT
  5
3F6
  8
DEFPOINTS
 62
     0
 10
287.28256607845231
 20
35.50851296784117
 30
0.0
  0
POINT
  5
3F7
  8
DEFPOINTS
 62
     0
 10
287.28256607845231
 20
36.61214783952547
 30
0.0
  0
ENDBLK
  5
3ED
  8
0
  0
BLOCK
  8
0
  2
*D26
 70
     1
 10
0.0
 20
0.0
 30
0.0
  3
*D26
  1

  0
LINE
  5
480
  8
0
 62
     0
 10
287.00413694410162
 20
36.19317813732853
 30
0.0
 11
288.49114633519298
 21
36.19317813732853
 31
0.0
  0
LINE
  5
481
  8
0
 62
     0
 10
286.42913694410169
 20
34.953178137328521
 30
0.0
 11
288.49114633519298
 21
34.953178137328521
 31
0.0
  0
LINE
  5
482
  8
0
 62
     0
 10
288.31114633519297
 20
36.013178137328531
 30
0.0
 11
288.31114633519297
 21
35.547139786054352
 31
0.0
  0
LINE
  5
483
  8
0
 62
     0
 10
288.31114633519297
 20
35.133178137328521
 30
0.0
 11
288.31114633519297
 21
35.187139786054352
 31
0.0
  0
SOLID
  5
484
  8
0
 62
     0
 10
288.281146335193
 20
36.013178137328531
 30
0.0
 11
288.34114633519289
 21
36.013178137328531
 31
0.0
 12
288.31114633519297
 22
36.19317813732853
 32
0.0
 13
288.31114633519297
 23
36.19317813732853
 33
0.0
  0
SOLID
  5
485
  8
0
 62
     0
 10
288.281146335193
 20
35.133178137328521
 30
0.0
 11
288.34114633519289
 21
35.133178137328521
 31
0.0
 12
288.31114633519297
 22
34.953178137328521
 32
0.0
 13
288.31114633519297
 23
34.953178137328521
 33
0.0
  0
TEXT
  5
486
  8
0
 62
     0
 10
287.92114633519299
 20
35.277139786054398
 30
0.0
 40
0.18
  1
1.2400
  0
POINT
  5
487
  8
DEFPOINTS
 62
     0
 10
286.94163694410162
 20
36.19317813732853
 30
0.0
  0
POINT
  5
488
  8
DEFPOINTS
 62
     0
 10
286.36663694410157
 20
34.953178137328521
 30
0.0
  0
POINT
  5
489
  8
DEFPOINTS
 62
     0
 10
288.31114633519297
 20
34.953178137328521
 30
0.0
  0
ENDBLK
  5
45D
  8
0
  0
BLOCK
  8
0
  2
*D27
 70
     1
 10
0.0
 20
0.0
 30
0.0
  3
*D27
  1

  0
LINE
  5
460
  8
0
 62
     0
 10
286.75413694410167
 20
35.153178137328531
 30
0.0
 11
287.59424856142982
 21
35.153178137328531
 31
0.0
  0
LINE
  5
461
  8
0
 62
     0
 10
287.00413694410162
 20
36.19317813732853
 30
0.0
 11
287.59424856142982
 21
36.19317813732853
 31
0.0
  0
LINE
  5
462
  8
0
 62
     0
 10
287.41424856142982
 20
35.333178137328531
 30
0.0
 11
287.41424856142982
 21
35.49317813732852
 31
0.0
  0
LINE
  5
463
  8
0
 62
     0
 10
287.41424856142982
 20
36.013178137328531
 30
0.0
 11
287.41424856142982
 21
35.85317813732852
 31
0.0
  0
SOLID
  5
464
  8
0
 62
     0
 10
287.3842485614299
 20
35.333178137328531
 30
0.0
 11
287.44424856142979
 21
35.333178137328531
 31
0.0
 12
287.41424856142982
 22
35.153178137328531
 32
0.0
 13
287.41424856142982
 23
35.153178137328531
 33
0.0
  0
SOLID
  5
465
  8
0
 62
     0
 10
287.3842485614299
 20
36.013178137328531
 30
0.0
 11
287.44424856142979
 21
36.013178137328531
 31
0.0
 12
287.41424856142982
 22
36.19317813732853
 32
0.0
 13
287.41424856142982
 23
36.19317813732853
 33
0.0
  0
TEXT
  5
466
  8
0
 62
     0
 10
287.03924856142982
 20
35.583178137328566
 30
0.0
 40
0.18
  1
1.0400
  0
POINT
  5
467
  8
DEFPOINTS
 62
     0
 10
286.69163694410162
 20
35.153178137328531
 30
0.0
  0
POINT
  5
468
  8
DEFPOINTS
 62
     0
 10
286.94163694410162
 20
36.19317813732853
 30
0.0
  0
POINT
  5
469
  8
DEFPOINTS
 62
     0
 10
287.41424856142982
 20
36.19317813732853
 30
0.0
  0
ENDBLK
  5
46B
  8
0
  0
BLOCK
  8
0
  2
*D28
 70
     1
 10
0.0
 20
0.0
 30
0.0
  3
*D28
  1

  0
LINE
  5
498
  8
0
 62
     0
 10
286.0416369441017
 20
35.090678137328531
 30
0.0
 11
286.0416369441017
 21
33.98654722261427
 31
0.0
  0
LINE
  5
499
  8
0
 62
     0
 10
286.69163694410162
 20
35.090678137328531
 30
0.0
 11
286.69163694410162
 21
33.98654722261427
 31
0.0
  0
LINE
  5
49A
  8
0
 62
     0
 10
286.22163694410159
 20
34.166547222614263
 30
0.0
 11
286.51163694410161
 21
34.166547222614263
 31
0.0
  0
LINE
  5
49B
  8
0
 62
     0
 10
286.69163694410162
 20
34.166547222614263
 30
0.0
 11
286.87163694410168
 21
34.166547222614263
 31
0.0
  0
SOLID
  5
49C
  8
0
 62
     0
 10
286.22163694410159
 20
34.196547222614271
 30
0.0
 11
286.22163694410159
 21
34.136547222614261
 31
0.0
 12
286.0416369441017
 22
34.166547222614263
 32
0.0
 13
286.0416369441017
 23
34.166547222614263
 33
0.0
  0
SOLID
  5
49D
  8
0
 62
     0
 10
286.51163694410161
 20
34.196547222614271
 30
0.0
 11
286.51163694410161
 21
34.136547222614261
 31
0.0
 12
286.69163694410162
 22
34.166547222614263
 32
0.0
 13
286.69163694410162
 23
34.166547222614263
 33
0.0
  0
TEXT
  5
49E
  8
0
 62
     0
 10
286.96163694410171
 20
34.076547222614259
 30
0.0
 40
0.18
  1
0.6500
  0
POINT
  5
49F
  8
DEFPOINTS
 62
     0
 10
286.0416369441017
 20
35.153178137328531
 30
0.0
  0
POINT
  5
4A0
  8
DEFPOINTS
 62
     0
 10
286.69163694410162
 20
35.153178137328531
 30
0.0
  0
POINT
  5
4A1
  8
DEFPOINTS
 62
     0
 10
286.69163694410162
 20
34.166547222614263
 30
0.0
  0
ENDBLK
  5
497
  8
0
  0
BLOCK
  8
0
  2
*D29
 70
     1
 10
0.0
 20
0.0
 30
0.0
  3
*D29
  1

  0
LINE
  5
4A4
  8
0
 62
     0
 10
286.14163694410161
 20
35.090678137328531
 30
0.0
 11
286.14163694410161
 21
34.35596033784833
 31
0.0
  0
LINE
  5
4A5
  8
0
 62
     0
 10
286.59163694410171
 20
35.090678137328531
 30
0.0
 11
286.59163694410171
 21
34.35596033784833
 31
0.0
  0
LINE
  5
4A6
  8
0
 62
     0
 10
285.9616369441016
 20
34.53596033784833
 30
0.0
 11
285.78163694410159
 21
34.53596033784833
 31
0.0
  0
LINE
  5
4A7
  8
0
 62
     0
 10
286.77163694410172
 20
34.53596033784833
 30
0.0
 11
286.95163694410172
 21
34.53596033784833
 31
0.0
  0
SOLID
  5
4A8
  8
0
 62
     0
 10
285.9616369441016
 20
34.565960337848331
 30
0.0
 11
285.9616369441016
 21
34.505960337848329
 31
0.0
 12
286.14163694410161
 22
34.53596033784833
 32
0.0
 13
286.14163694410161
 23
34.53596033784833
 33
0.0
  0
SOLID
  5
4A9
  8
0
 62
     0
 10
286.77163694410172
 20
34.565960337848331
 30
0.0
 11
286.77163694410172
 21
34.505960337848329
 31
0.0
 12
286.59163694410171
 22
34.53596033784833
 32
0.0
 13
286.59163694410171
 23
34.53596033784833
 33
0.0
  0
TEXT
  5
4AA
  8
0
 62
     0
 10
287.0416369441017
 20
34.445960337848327
 30
0.0
 40
0.18
  1
0.4500
  0
POINT
  5
4AB
  8
DEFPOINTS
 62
     0
 10
286.14163694410161
 20
35.153178137328531
 30
0.0
  0
POINT
  5
4AC
  8
DEFPOINTS
 62
     0
 10
286.59163694410171
 20
35.153178137328531
 30
0.0
  0
POINT
  5
4AD
  8
DEFPOINTS
 62
     0
 10
286.59163694410171
 20
34.53596033784833
 30
0.0
  0
ENDBLK
  5
4AF
  8
0
  0
BLOCK
  8
0
  2
*D30
 70
     1
 10
0.0
 20
0.0
 30
0.0
  3
*D30
  1

  0
LINE
  5
50E
  8
0
 62
     0
 10
286.49056483275189
 20
36.810325516378889
 30
0.0
 11
289.15373527887868
 21
36.810325516378889
 31
0.0
  0
LINE
  5
50F
  8
0
 62
     0
 10
286.49056483275189
 20
33.310325516378903
 30
0.0
 11
289.15373527887868
 21
33.310325516378903
 31
0.0
  0
LINE
  5
510
  8
0
 62
     0
 10
288.97373527887879
 20
36.630325516378889
 30
0.0
 11
288.97373527887879
 21
35.240325516378903
 31
0.0
  0
LINE
  5
511
  8
0
 62
     0
 10
288.97373527887879
 20
33.490325516378903
 30
0.0
 11
288.97373527887879
 21
34.880325516378903
 31
0.0
  0
SOLID
  5
512
  8
0
 62
     0
 10
288.94373527887882
 20
36.630325516378889
 30
0.0
 11
289.00373527887871
 21
36.630325516378889
 31
0.0
 12
288.97373527887879
 22
36.810325516378889
 32
0.0
 13
288.97373527887879
 23
36.810325516378889
 33
0.0
  0
SOLID
  5
513
  8
0
 62
     0
 10
288.94373527887882
 20
33.490325516378903
 30
0.0
 11
289.00373527887871
 21
33.490325516378903
 31
0.0
 12
288.97373527887879
 22
33.310325516378903
 32
0.0
 13
288.97373527887879
 23
33.310325516378903
 33
0.0
  0
TEXT
  5
514
  8
0
 62
     0
 10
288.56873527887882
 20
34.970325516378949
 30
0.0
 40
0.18
  1
3.5000
  0
POINT
  5
515
  8
DEFPOINTS
 62
     0
 10
286.42806483275189
 20
36.810325516378889
 30
0.0
  0
POINT
  5
516
  8
DEFPOINTS
 62
     0
 10
286.42806483275189
 20
33.310325516378903
 30
0.0
  0
POINT
  5
517
  8
DEFPOINTS
 62
     0
 10
288.97373527887879
 20
33.310325516378903
 30
0.0
  0
ENDBLK
  5
4FE
  8
0
  0
BLOCK
  8
0
  2
*D31
 70
     1
 10
0.0
 20
0.0
 30
0.0
  3
*D31
  1

  0
LINE
  5
501
  8
0
 62
     0
 10
287.49056483275177
 20
33.510325516378892
 30
0.0
 11
288.78005885445492
 21
33.510325516378892
 31
0.0
  0
LINE
  5
502
  8
0
 62
     0
 10
286.49056483275189
 20
33.310325516378903
 30
0.0
 11
288.78005885445492
 21
33.310325516378903
 31
0.0
  0
LINE
  5
503
  8
0
 62
     0
 10
288.60005885445491
 20
33.690325516378891
 30
0.0
 11
288.60005885445491
 21
33.870325516378891
 31
0.0
  0
LINE
  5
504
  8
0
 62
     0
 10
288.60005885445491
 20
33.130325516378903
 30
0.0
 11
288.60005885445491
 21
32.950325516378904
 31
0.0
  0
LINE
  5
505
  8
0
 62
     0
 10
288.60005885445491
 20
32.950325516378904
 30
0.0
 11
288.42005885445491
 21
32.950325516378904
 31
0.0
  0
SOLID
  5
506
  8
0
 62
     0
 10
288.57005885445489
 20
33.690325516378891
 30
0.0
 11
288.63005885445489
 21
33.690325516378891
 31
0.0
 12
288.60005885445491
 22
33.510325516378892
 32
0.0
 13
288.60005885445491
 23
33.510325516378892
 33
0.0
  0
SOLID
  5
507
  8
0
 62
     0
 10
288.57005885445489
 20
33.130325516378903
 30
0.0
 11
288.63005885445489
 21
33.130325516378903
 31
0.0
 12
288.60005885445491
 22
33.310325516378903
 32
0.0
 13
288.60005885445491
 23
33.310325516378903
 33
0.0
  0
TEXT
  5
508
  8
0
 62
     0
 10
287.5500588544549
 20
32.860325516378943
 30
0.0
 40
0.18
  1
0.2000
  0
POINT
  5
509
  8
DEFPOINTS
 62
     0
 10
287.42806483275177
 20
33.510325516378892
 30
0.0
  0
POINT
  5
50A
  8
DEFPOINTS
 62
     0
 10
286.42806483275189
 20
33.310325516378903
 30
0.0
  0
POINT
  5
50B
  8
DEFPOINTS
 62
     0
 10
288.60005885445491
 20
33.310325516378903
 30
0.0
  0
ENDBLK
  5
50D
  8
0
  0
BLOCK
  8
0
  2
*D32
 70
     1
 10
0.0
 20
0.0
 30
0.0
  3
*D32
  1

  0
LINE
  5
53E
  8
0
 62
     0
 10
287.42806483275177
 20
33.447825516378892
 30
0.0
 11
287.42806483275177
 21
32.126285478001464
 31
0.0
  0
LINE
  5
53F
  8
0
 62
     0
 10
285.428064832752
 20
33.447825516378892
 30
0.0
 11
285.428064832752
 21
32.126285478001464
 31
0.0
  0
LINE
  5
540
  8
0
 62
     0
 10
287.24806483275182
 20
32.306285478001463
 30
0.0
 11
286.9080648327519
 21
32.306285478001463
 31
0.0
  0
LINE
  5
541
  8
0
 62
     0
 10
285.60806483275201
 20
32.306285478001463
 30
0.0
 11
285.94806483275192
 21
32.306285478001463
 31
0.0
  0
SOLID
  5
542
  8
0
 62
     0
 10
287.24806483275182
 20
32.336285478001457
 30
0.0
 11
287.24806483275182
 21
32.276285478001462
 31
0.0
 12
287.42806483275177
 22
32.306285478001463
 32
0.0
 13
287.42806483275177
 23
32.306285478001463
 33
0.0
  0
SOLID
  5
543
  8
0
 62
     0
 10
285.60806483275201
 20
32.336285478001457
 30
0.0
 11
285.60806483275201
 21
32.276285478001462
 31
0.0
 12
285.428064832752
 22
32.306285478001463
 32
0.0
 13
285.428064832752
 23
32.306285478001463
 33
0.0
  0
TEXT
  5
544
  8
0
 62
     0
 10
286.0380648327519
 20
32.21628547800146
 30
0.0
 40
0.18
  1
2.0000
  0
POINT
  5
545
  8
DEFPOINTS
 62
     0
 10
287.42806483275177
 20
33.510325516378892
 30
0.0
  0
POINT
  5
546
  8
DEFPOINTS
 62
     0
 10
285.428064832752
 20
33.510325516378892
 30
0.0
  0
POINT
  5
547
  8
DEFPOINTS
 62
     0
 10
285.428064832752
 20
32.306285478001463
 30
0.0
  0
ENDBLK
  5
525
  8
0
  0
BLOCK
  8
0
  2
*D33
 70
     1
 10
0.0
 20
0.0
 30
0.0
  3
*D33
  1

  0
LINE
  5
534
  8
0
 62
     0
 10
286.62806483275187
 20
33.447825516378892
 30
0.0
 11
286.62806483275187
 21
32.569931084469971
 31
0.0
  0
LINE
  5
535
  8
0
 62
     0
 10
286.2280648327519
 20
33.447825516378892
 30
0.0
 11
286.2280648327519
 21
32.569931084469971
 31
0.0
  0
LINE
  5
536
  8
0
 62
     0
 10
286.80806483275188
 20
32.749931084469971
 30
0.0
 11
286.98806483275189
 21
32.749931084469971
 31
0.0
  0
LINE
  5
537
  8
0
 62
     0
 10
286.04806483275189
 20
32.749931084469971
 30
0.0
 11
285.03968283079303
 21
32.749931084469971
 31
0.0
  0
SOLID
  5
538
  8
0
 62
     0
 10
286.80806483275188
 20
32.779931084469972
 30
0.0
 11
286.80806483275188
 21
32.71993108446997
 31
0.0
 12
286.62806483275187
 22
32.749931084469971
 32
0.0
 13
286.62806483275187
 23
32.749931084469971
 33
0.0
  0
SOLID
  5
539
  8
0
 62
     0
 10
286.04806483275189
 20
32.779931084469972
 30
0.0
 11
286.04806483275189
 21
32.71993108446997
 31
0.0
 12
286.2280648327519
 22
32.749931084469971
 32
0.0
 13
286.2280648327519
 23
32.749931084469971
 33
0.0
  0
TEXT
  5
53A
  8
0
 62
     0
 10
284.16968283079302
 20
32.659931084469967
 30
0.0
 40
0.18
  1
0.4000
  0
POINT
  5
53B
  8
DEFPOINTS
 62
     0
 10
286.62806483275187
 20
33.510325516378892
 30
0.0
  0
POINT
  5
53C
  8
DEFPOINTS
 62
     0
 10
286.2280648327519
 20
33.510325516378892
 30
0.0
  0
POINT
  5
53D
  8
DEFPOINTS
 62
     0
 10
286.2280648327519
 20
32.749931084469971
 30
0.0
  0
ENDBLK
  5
533
  8
0
  0
ENDSEC
  0
SECTION
  2
ENTITIES
  0
TEXT
  5
2C
  8
0
  6
CONTINUOUS
 10
286.86572502176529
 20
41.358096187886289
 30
0.0
 40
0.1
  1
2
  7
ROMANC
  0
TEXT
  5
2D
  8
0
  6
CONTINUOUS
 10
283.92599999999987
 20
41.768000000000001
 30
0.0
 40
0.3
  1
ESCALA  
  7
ROMANC
  0
POLYLINE
  5
2E
  8
0
  6
CONTINUOUS
 66
     1
 10
0.0
 20
0.0
 30
0.0
 70
     1
  0
VERTEX
  5
566
  8
0
  6
CONTINUOUS
 10
281.39599999999979
 20
44.747
 30
0.0
  0
VERTEX
  5
567
  8
0
  6
CONTINUOUS
 10
291.89599999999979
 20
44.747
 30
0.0
  0
VERTEX
  5
568
  8
0
  6
CONTINUOUS
 10
291.89599999999979
 20
29.896999999999998
 30
0.0
  0
VERTEX
  5
569
  8
0
  6
CONTINUOUS
 10
281.39599999999979
 20
29.896999999999998
 30
0.0
  0
SEQEND
  5
56A
  8
0
  6
CONTINUOUS
  0
TEXT
  5
34
  8
0
  6
CONTINUOUS
 10
283.92599999999987
 20
42.381
 30
0.0
 40
0.3
  1
TIPUS   
  7
ROMANC
  0
TEXT
  5
3C
  8
0
  6
CONTINUOUS
 10
283.94499999999988
 20
41.098999999999968
 30
0.0
 40
0.3
  1
S =    dm
  7
ROMANC
  0
TEXT
  5
3D
  8
0
  6
CONTINUOUS
 10
283.92200000000003
 20
40.529000000000003
 30
0.0
 40
0.3
  1
P =    dm
  7
ROMANC
  0
INSERT
  5
2F4
  8
0
 66
     1
  2
CARACTERISTIQUES
 10
281.39599999999979
 20
29.896999999999998
 30
0.0
  0
ATTRIB
  5
2F6
  8
0
 10
286.27226134026512
 20
41.752735508001273
 30
0.0
 40
0.3
  1
1:50
  7
ROMANC
  2
1:50
 70
     0
  0
ATTRIB
  5
2F7
  8
0
 10
286.2281292928555
 20
42.385577414881823
 30
0.0
 40
0.3
  1
NT623
  7
ROMANC
  2
NTXXY
 70
     0
  0
ATTRIB
  5
2F8
  8
0
 10
285.02615359101009
 20
41.100702622361482
 30
0.0
 40
0.3
  1
623
  7
ROMANC
  2
XXX
 70
     0
  0
ATTRIB
  5
2F9
  8
0
 10
285.049954865421
 20
40.529647098496852
 30
0.0
 40
0.3
  1
99
  7
ROMANC
  2
XX
 70
     0
  0
SEQEND
  5
2F5
  8
0
  0
POLYLINE
  5
4F0
  8
0
 66
     1
 10
0.0
 20
0.0
 30
0.0
 70
     1
  0
VERTEX
  5
577
  8
0
 10
286.2280648327519
 20
33.510325516378892
 30
0.0
 42
0.9999999999999998
  0
VERTEX
  5
578
  8
0
 10
286.62806483275187
 20
33.510325516378892
 30
0.0
  0
VERTEX
  5
579
  8
0
 10
287.42806483275177
 20
33.510325516378892
 30
0.0
  0
VERTEX
  5
57A
  8
0
 10
287.42806483275189
 20
35.810325516378889
 30
0.0
 42
1.0000000000000071
  0
VERTEX
  5
57B
  8
0
 10
285.42806483275189
 20
35.810325516378889
 30
0.0
  0
VERTEX
  5
57C
  8
0
 10
285.428064832752
 20
33.510325516378892
 30
0.0
  0
SEQEND
  5
57D
  8
0
  0
DIMENSION
  5
4F1
  8
0
  2
*D30
 10
288.97373527887879
 20
33.310325516378903
 30
0.0
 11
288.97373527887879
 21
35.060325516378953
 31
0.0
 70
   128
 13
286.42806483275189
 23
36.810325516378889
 33
0.0
 14
286.42806483275189
 24
33.310325516378903
 34
0.0
 50
90.0
  0
DIMENSION
  5
4FF
  8
0
  2
*D31
 10
288.60005885445491
 20
33.310325516378903
 30
0.0
 11
287.94005885445489
 21
32.950325516378953
 31
0.0
 70
     0
 13
287.42806483275177
 23
33.510325516378892
 33
0.0
 14
286.42806483275189
 24
33.310325516378903
 34
0.0
 50
90.0
  0
DIMENSION
  5
518
  8
0
  2
*D32
 10
285.428064832752
 20
32.306285478001463
 30
0.0
 11
286.42806483275189
 21
32.306285478001463
 31
0.0
 70
   128
 13
287.42806483275177
 23
33.510325516378892
 33
0.0
 14
285.428064832752
 24
33.510325516378892
 34
0.0
  0
DIMENSION
  5
526
  8
0
  2
*D33
 10
286.2280648327519
 20
32.749931084469971
 30
0.0
 11
284.55968283079301
 21
32.749931084469971
 31
0.0
 70
   128
 13
286.62806483275187
 23
33.510325516378892
 33
0.0
 14
286.2280648327519
 24
33.510325516378892
 34
0.0
  0
VIEWPORT
  5
1D9
 67
     1
  8
0
 10
99.980751991272001
 20
143.39358425140381
 30
0.0
 40
440.92975434996589
 41
314.23726837158188
 68
     1
 69
     1
1001
ACAD
1000
MVIEW
1002
{
1070
    16
1010
0.0
1020
0.0
1030
0.0
1010
0.0
1020
0.0
1030
1.0
1040
0.0
1040
314.23726837158188
1040
99.980751991272001
1040
143.39358425140381
1040
50.0
1040
0.0
1040
0.0
1070
     0
1070
   100
1070
     1
1070
     1
1070
     0
1070
     0
1070
     0
1070
     0
1040
0.0
1040
0.0
1040
0.0
1040
10.0
1040
10.0
1040
10.0
1040
10.0
1070
     0
1002
{
1002
}
1002
}
  0
VIEWPORT
  5
1DB
 67
     1
  8
0
 10
99.980751991272001
 20
143.39358425140361
 30
0.0
 40
199.2902839821538
 41
285.85133454766481
 68
     2
 69
     2
1001
ACAD
1000
MVIEW
1002
{
1070
    16
1010
0.0
1020
0.0
1030
0.0
1010
0.0
1020
0.0
1030
1.0
1040
0.0
1040
15.394501718752309
1040
286.64883227800061
1040
37.319167690011348
1040
50.0
1040
0.0
1040
0.0
1070
     0
1070
   100
1070
     1
1070
     1
1070
     0
1070
     0
1070
     0
1070
     0
1040
0.0
1040
0.0
1040
0.0
1040
1.0
1040
1.0
1040
0.0
1040
0.0
1070
     0
1002
{
1002
}
1002
}
  0
ENDSEC
  0
EOF
