  0
SECTION
  2
HEADER
  9
$ACADVER
  1
AC1015
  9
$ACADMAINTVER
 70
     6
  9
$DWGCODEPAGE
  3
ANSI_1252
  9
$INSBASE
 10
0.0
 20
0.0
 30
0.0
  9
$EXTMIN
 10
318.848696
 20
29.86362299999999
 30
0.0
  9
$EXTMAX
 10
329.348696
 20
44.713623
 30
0.0
  9
$LIMMIN
 10
0.0
 20
0.0
  9
$LIMMAX
 10
410.0
 20
287.0
  9
$ORTHOMODE
 70
     1
  9
$REGENMODE
 70
     1
  9
$FILLMODE
 70
     1
  9
$QTEXTMODE
 70
     0
  9
$MIRRTEXT
 70
     1
  9
$LTSCALE
 40
25.0
  9
$ATTMODE
 70
     1
  9
$TEXTSIZE
 40
0.1
  9
$TRACEWID
 40
1.0
  9
$TEXTSTYLE
  7
ROMANC
  9
$CLAYER
  8
0
  9
$CELTYPE
  6
BYLAYER
  9
$CECOLOR
 62
   256
  9
$CELTSCALE
 40
1.0
  9
$DISPSILH
 70
     0
  9
$DIMSCALE
 40
1.5
  9
$DIMASZ
 40
0.1
  9
$DIMEXO
 40
0.01
  9
$DIMDLI
 40
7.0
  9
$DIMRND
 40
0.0
  9
$DIMDLE
 40
0.0
  9
$DIMEXE
 40
0.01
  9
$DIMTP
 40
0.0
  9
$DIMTM
 40
0.0
  9
$DIMTXT
 40
0.05
  9
$DIMCEN
 40
0.0
  9
$DIMTSZ
 40
0.0
  9
$DIMTOL
 70
     0
  9
$DIMLIM
 70
     0
  9
$DIMTIH
 70
     0
  9
$DIMTOH
 70
     0
  9
$DIMSE1
 70
     0
  9
$DIMSE2
 70
     0
  9
$DIMTAD
 70
     1
  9
$DIMZIN
 70
     0
  9
$DIMBLK
  1

  9
$DIMASO
 70
     1
  9
$DIMSHO
 70
     0
  9
$DIMPOST
  1

  9
$DIMAPOST
  1

  9
$DIMALT
 70
     0
  9
$DIMALTD
 70
     2
  9
$DIMALTF
 40
25.4
  9
$DIMLFAC
 40
1.0
  9
$DIMTOFL
 70
     1
  9
$DIMTVP
 40
0.0
  9
$DIMTIX
 70
     1
  9
$DIMSOXD
 70
     0
  9
$DIMSAH
 70
     0
  9
$DIMBLK1
  1

  9
$DIMBLK2
  1

  9
$DIMSTYLE
  2
MERITXELL
  9
$DIMCLRD
 70
     0
  9
$DIMCLRE
 70
     0
  9
$DIMCLRT
 70
     0
  9
$DIMTFAC
 40
70.0
  9
$DIMGAP
 40
0.025
  9
$DIMJUST
 70
     0
  9
$DIMSD1
 70
     0
  9
$DIMSD2
 70
     0
  9
$DIMTOLJ
 70
     1
  9
$DIMTZIN
 70
     0
  9
$DIMALTZ
 70
     0
  9
$DIMALTTZ
 70
     0
  9
$DIMUPT
 70
     0
  9
$DIMDEC
 70
     2
  9
$DIMTDEC
 70
     2
  9
$DIMALTU
 70
     2
  9
$DIMALTTD
 70
     2
  9
$DIMTXSTY
  7
ROMANC
  9
$DIMAUNIT
 70
     0
  9
$DIMADEC
 70
     0
  9
$DIMALTRND
 40
0.0
  9
$DIMAZIN
 70
     0
  9
$DIMDSEP
 70
    46
  9
$DIMATFIT
 70
     3
  9
$DIMFRAC
 70
     0
  9
$DIMLDRBLK
  1

  9
$DIMLUNIT
 70
     2
  9
$DIMLWD
 70
    -2
  9
$DIMLWE
 70
    -2
  9
$DIMTMOVE
 70
     2
  9
$LUNITS
 70
     2
  9
$LUPREC
 70
     2
  9
$SKETCHINC
 40
1.0
  9
$FILLETRAD
 40
0.0
  9
$AUNITS
 70
     0
  9
$AUPREC
 70
     0
  9
$MENU
  1
acad
  9
$ELEVATION
 40
0.0
  9
$PELEVATION
 40
0.0
  9
$THICKNESS
 40
0.0
  9
$LIMCHECK
 70
     0
  9
$CHAMFERA
 40
0.0
  9
$CHAMFERB
 40
0.0
  9
$CHAMFERC
 40
0.0
  9
$CHAMFERD
 40
0.0
  9
$SKPOLY
 70
     0
  9
$TDCREATE
 40
2450927.461950000
  9
$TDUCREATE
 40
2450927.378616666
  9
$TDUPDATE
 40
2451674.709921400
  9
$TDUUPDATE
 40
2451674.626588067
  9
$TDINDWG
 40
0.2228210301
  9
$TDUSRTIMER
 40
0.2228210301
  9
$USRTIMER
 70
     1
  9
$ANGBASE
 50
0.0
  9
$ANGDIR
 70
     0
  9
$PDMODE
 70
     0
  9
$PDSIZE
 40
0.0
  9
$PLINEWID
 40
0.0
  9
$SPLFRAME
 70
     0
  9
$SPLINETYPE
 70
     6
  9
$SPLINESEGS
 70
     8
  9
$HANDSEED
  5
1141
  9
$SURFTAB1
 70
     6
  9
$SURFTAB2
 70
     6
  9
$SURFTYPE
 70
     6
  9
$SURFU
 70
     6
  9
$SURFV
 70
     6
  9
$UCSBASE
  2

  9
$UCSNAME
  2

  9
$UCSORG
 10
0.0
 20
0.0
 30
0.0
  9
$UCSXDIR
 10
1.0
 20
0.0
 30
0.0
  9
$UCSYDIR
 10
0.0
 20
1.0
 30
0.0
  9
$UCSORTHOREF
  2

  9
$UCSORTHOVIEW
 70
     0
  9
$UCSORGTOP
 10
0.0
 20
0.0
 30
0.0
  9
$UCSORGBOTTOM
 10
0.0
 20
0.0
 30
0.0
  9
$UCSORGLEFT
 10
0.0
 20
0.0
 30
0.0
  9
$UCSORGRIGHT
 10
0.0
 20
0.0
 30
0.0
  9
$UCSORGFRONT
 10
0.0
 20
0.0
 30
0.0
  9
$UCSORGBACK
 10
0.0
 20
0.0
 30
0.0
  9
$PUCSBASE
  2

  9
$PUCSNAME
  2

  9
$PUCSORG
 10
0.0
 20
0.0
 30
0.0
  9
$PUCSXDIR
 10
1.0
 20
0.0
 30
0.0
  9
$PUCSYDIR
 10
0.0
 20
1.0
 30
0.0
  9
$PUCSORTHOREF
  2

  9
$PUCSORTHOVIEW
 70
     0
  9
$PUCSORGTOP
 10
0.0
 20
0.0
 30
0.0
  9
$PUCSORGBOTTOM
 10
0.0
 20
0.0
 30
0.0
  9
$PUCSORGLEFT
 10
0.0
 20
0.0
 30
0.0
  9
$PUCSORGRIGHT
 10
0.0
 20
0.0
 30
0.0
  9
$PUCSORGFRONT
 10
0.0
 20
0.0
 30
0.0
  9
$PUCSORGBACK
 10
0.0
 20
0.0
 30
0.0
  9
$USERI1
 70
     0
  9
$USERI2
 70
     0
  9
$USERI3
 70
     0
  9
$USERI4
 70
     0
  9
$USERI5
 70
     0
  9
$USERR1
 40
0.0
  9
$USERR2
 40
0.0
  9
$USERR3
 40
0.0
  9
$USERR4
 40
0.0
  9
$USERR5
 40
0.0
  9
$WORLDVIEW
 70
     1
  9
$SHADEDGE
 70
     3
  9
$SHADEDIF
 70
    70
  9
$TILEMODE
 70
     1
  9
$MAXACTVP
 70
    16
  9
$PINSBASE
 10
0.0
 20
0.0
 30
0.0
  9
$PLIMCHECK
 70
     0
  9
$PEXTMIN
 10
3.934800455223182
 20
4.031011496907353
 30
-0.0000000000000058
  9
$PEXTMAX
 10
192.1779989945691
 20
281.7874829664755
 30
0.0000000000000104
  9
$PLIMMIN
 10
-6.043083190917968
 20
-6.720414161682128
  9
$PLIMMAX
 10
204.0149154663085
 20
290.2055807113647
  9
$UNITMODE
 70
     0
  9
$VISRETAIN
 70
     0
  9
$PLINEGEN
 70
     0
  9
$PSLTSCALE
 70
     0
  9
$TREEDEPTH
 70
  3020
  9
$CMLSTYLE
  2
STANDARD
  9
$CMLJUST
 70
     0
  9
$CMLSCALE
 40
1.0
  9
$PROXYGRAPHICS
 70
     1
  9
$MEASUREMENT
 70
     0
  9
$CELWEIGHT
370
    -1
  9
$ENDCAPS
280
     0
  9
$JOINSTYLE
280
     0
  9
$LWDISPLAY
290
     0
  9
$INSUNITS
 70
     0
  9
$HYPERLINKBASE
  1

  9
$STYLESHEET
  1

  9
$XEDIT
290
     1
  9
$CEPSNTYPE
380
     0
  9
$PSTYLEMODE
290
     1
  9
$FINGERPRINTGUID
  2
{2421DE50-0B03-11D4-A579-0008C769B1B5}
  9
$VERSIONGUID
  2
{7B065ADD-25B6-11D4-A595-0008C769B1B5}
  9
$EXTNAMES
290
     1
  9
$PSVPSCALE
 40
0.0
  9
$OLESTARTUP
290
     0
  0
ENDSEC
  0
SECTION
  2
CLASSES
  0
CLASS
  1
DICTIONARYVAR
  2
AcDbDictionaryVar
  3
AutoCAD 2000
 90
        0
280
     0
281
     0
  0
CLASS
  1
LWPOLYLINE
  2
AcDbPolyline
  3
AutoCAD 2000
 90
    32768
280
     0
281
     1
  0
CLASS
  1
ACDBDICTIONARYWDFLT
  2
AcDbDictionaryWithDefault
  3
AutoCAD 2000
 90
        0
280
     0
281
     0
  0
CLASS
  1
ACDBPLACEHOLDER
  2
AcDbPlaceHolder
  3
AutoCAD 2000
 90
        0
280
     0
281
     0
  0
CLASS
  1
LAYOUT
  2
AcDbLayout
  3
AutoCAD 2000
 90
        0
280
     0
281
     0
  0
CLASS
  1
PLOTSETTINGS
  2
AcDbPlotSettings
  3
AutoCAD 2000
 90
        0
280
     0
281
     0
  0
ENDSEC
  0
SECTION
  2
TABLES
  0
TABLE
  2
VPORT
  5
8
330
0
100
AcDbSymbolTable
 70
     5
  0
VPORT
  5
1140
330
8
100
AcDbSymbolTableRecord
100
AcDbViewportTableRecord
  2
*Active
 70
     0
 10
0.0
 20
0.0
 11
1.0
 21
1.0
 12
324.1005717719679
 22
37.29169518569444
 13
0.0
 23
0.0
 14
1.0
 24
1.0
 15
10.0
 25
10.0
 16
0.0
 26
0.0
 36
1.0
 17
0.0
 27
0.0
 37
0.0
 40
15.0001791355211
 41
1.706845238095238
 42
50.0
 43
0.0
 44
0.0
 50
0.0
 51
0.0
 71
     0
 72
   100
 73
     1
 74
     0
 75
     0
 76
     0
 77
     0
 78
     1
281
     0
 65
     1
110
0.0
120
0.0
130
0.0
111
1.0
121
0.0
131
0.0
112
0.0
122
1.0
132
0.0
 79
     0
146
0.0
  0
ENDTAB
  0
TABLE
  2
LTYPE
  5
5
330
0
100
AcDbSymbolTable
 70
     1
  0
LTYPE
  5
11
330
5
100
AcDbSymbolTableRecord
100
AcDbLinetypeTableRecord
  2
BYBLOCK
 70
     0
  3

 72
    65
 73
     0
 40
0.0
  0
LTYPE
  5
12
330
5
100
AcDbSymbolTableRecord
100
AcDbLinetypeTableRecord
  2
BYLAYER
 70
     0
  3

 72
    65
 73
     0
 40
0.0
  0
LTYPE
  5
13
330
5
100
AcDbSymbolTableRecord
100
AcDbLinetypeTableRecord
  2
CONTINUOUS
 70
     0
  3
Solid line
 72
    65
 73
     0
 40
0.0
  0
ENDTAB
  0
TABLE
  2
LAYER
  5
2
330
0
100
AcDbSymbolTable
 70
     3
  0
LAYER
  5
E
330
2
100
AcDbSymbolTableRecord
100
AcDbLayerTableRecord
  2
0
 70
     0
 62
     7
  6
CONTINUOUS
370
    -3
390
FBF
  0
LAYER
  5
70C
330
2
100
AcDbSymbolTableRecord
100
AcDbLayerTableRecord
  2
DEFPOINTS
 70
     0
 62
     7
  6
CONTINUOUS
290
     0
370
    -3
390
FBF
  0
LAYER
  5
1014
330
2
100
AcDbSymbolTableRecord
100
AcDbLayerTableRecord
  2
Finestra
 70
     0
 62
     7
  6
CONTINUOUS
290
     0
370
    -3
390
FBF
  0
ENDTAB
  0
TABLE
  2
STYLE
  5
3
330
0
100
AcDbSymbolTable
 70
     2
  0
STYLE
  5
F
330
3
100
AcDbSymbolTableRecord
100
AcDbTextStyleTableRecord
  2
STANDARD
 70
     0
 40
0.0
 41
1.0
 50
0.0
 71
     0
 42
0.1
  3
txt
  4

  0
STYLE
  5
1C
330
3
100
AcDbSymbolTableRecord
100
AcDbTextStyleTableRecord
  2
ROMANC
 70
     0
 40
0.0
 41
1.0
 50
0.0
 71
     0
 42
0.1
  3
romanc
  4

  0
ENDTAB
  0
TABLE
  2
VIEW
  5
6
330
0
100
AcDbSymbolTable
 70
     0
  0
ENDTAB
  0
TABLE
  2
UCS
  5
7
330
0
100
AcDbSymbolTable
 70
     0
  0
ENDTAB
  0
TABLE
  2
APPID
  5
9
330
0
100
AcDbSymbolTable
 70
     1
  0
APPID
  5
10
330
9
100
AcDbSymbolTableRecord
100
AcDbRegAppTableRecord
  2
ACAD
 70
     0
  0
ENDTAB
  0
TABLE
  2
DIMSTYLE
  5
A
330
0
100
AcDbSymbolTable
 70
     1
100
AcDbDimStyleTable
 71
     1
340
1F
  0
DIMSTYLE
105
1F
102
{ACAD_REACTORS
330
106A
330
1077
330
1084
330
1091
330
10B0
330
10BF
330
10D7
102
}
330
A
100
AcDbSymbolTableRecord
100
AcDbDimStyleTableRecord
  2
MERITXELL
 70
     0
 40
1.5
 41
0.1
 42
0.01
 43
7.0
 44
0.01
 73
     0
 74
     0
 77
     1
140
0.05
141
0.1
146
70.0
172
     1
174
     1
271
     2
272
     2
279
     2
340
1C
  0
ENDTAB
  0
TABLE
  2
BLOCK_RECORD
  5
1
330
0
100
AcDbSymbolTable
 70
     9
  0
BLOCK_RECORD
  5
17
330
1
100
AcDbSymbolTableRecord
100
AcDbBlockTableRecord
  2
*MODEL_SPACE
340
FC2
  0
BLOCK_RECORD
  5
14
330
1
100
AcDbSymbolTableRecord
100
AcDbBlockTableRecord
  2
*PAPER_SPACE
340
FC3
  0
BLOCK_RECORD
  5
106B
330
1
100
AcDbSymbolTableRecord
100
AcDbBlockTableRecord
  2
*D2
340
0
  0
BLOCK_RECORD
  5
1078
330
1
100
AcDbSymbolTableRecord
100
AcDbBlockTableRecord
  2
*D3
340
0
  0
BLOCK_RECORD
  5
1085
330
1
100
AcDbSymbolTableRecord
100
AcDbBlockTableRecord
  2
*D4
340
0
  0
BLOCK_RECORD
  5
1092
330
1
100
AcDbSymbolTableRecord
100
AcDbBlockTableRecord
  2
*D5
340
0
  0
BLOCK_RECORD
  5
10B1
330
1
100
AcDbSymbolTableRecord
100
AcDbBlockTableRecord
  2
*D6
340
0
  0
BLOCK_RECORD
  5
10C0
330
1
100
AcDbSymbolTableRecord
100
AcDbBlockTableRecord
  2
*D7
340
0
  0
BLOCK_RECORD
  5
10D8
330
1
100
AcDbSymbolTableRecord
100
AcDbBlockTableRecord
  2
*D8
340
0
  0
ENDTAB
  0
ENDSEC
  0
SECTION
  2
BLOCKS
  0
BLOCK
  5
23
330
17
100
AcDbEntity
  8
0
100
AcDbBlockBegin
  2
*MODEL_SPACE
 70
     0
 10
0.0
 20
0.0
 30
0.0
  3
*MODEL_SPACE
  1

  0
ENDBLK
  5
24
330
17
100
AcDbEntity
  8
0
100
AcDbBlockEnd
  0
BLOCK
  5
21
330
14
100
AcDbEntity
 67
     1
  8
0
100
AcDbBlockBegin
  2
*PAPER_SPACE
 70
     0
 10
0.0
 20
0.0
 30
0.0
  3
*PAPER_SPACE
  1

  0
ENDBLK
  5
22
330
14
100
AcDbEntity
 67
     1
  8
0
100
AcDbBlockEnd
  0
BLOCK
  5
1075
330
106B
100
AcDbEntity
  8
0
100
AcDbBlockBegin
  2
*D2
 70
     1
 10
0.0
 20
0.0
 30
0.0
  3
*D2
  1

  0
LINE
  5
1118
330
106B
100
AcDbEntity
  8
0
 62
     0
370
    -2
100
AcDbLine
 10
323.3530476584875
 20
34.5192599009223
 30
0.0
 11
323.3530476584875
 21
34.19690419016371
 31
0.0
  0
LINE
  5
1119
330
106B
100
AcDbEntity
  8
0
 62
     0
370
    -2
100
AcDbLine
 10
324.1530476584874
 20
34.5192599009223
 30
0.0
 11
324.1530476584874
 21
34.19690419016371
 31
0.0
  0
LINE
  5
111A
330
106B
100
AcDbEntity
  8
0
 62
     0
370
    -2
100
AcDbLine
 10
323.5030476584875
 20
34.21190419016371
 30
0.0
 11
324.0030476584874
 21
34.21190419016371
 31
0.0
  0
SOLID
  5
111B
330
106B
100
AcDbEntity
  8
0
 62
     0
100
AcDbTrace
 10
323.5030476584875
 20
34.23690419016371
 30
0.0
 11
323.5030476584875
 21
34.18690419016371
 31
0.0
 12
323.3530476584875
 22
34.21190419016371
 32
0.0
 13
323.3530476584875
 23
34.21190419016371
 33
0.0
  0
SOLID
  5
111C
330
106B
100
AcDbEntity
  8
0
 62
     0
100
AcDbTrace
 10
324.0030476584874
 20
34.23690419016371
 30
0.0
 11
324.0030476584874
 21
34.18690419016371
 31
0.0
 12
324.1530476584874
 22
34.21190419016371
 32
0.0
 13
324.1530476584874
 23
34.21190419016371
 33
0.0
  0
MTEXT
  5
111D
330
106B
100
AcDbEntity
  8
0
 62
     0
100
AcDbMText
 10
323.7530476584875
 20
34.28690419016371
 30
0.0
 40
0.075
 41
0.0
 71
     5
 72
     1
  1
\A1;0.80
  7
ROMANC
 73
     1
 44
1.0
  0
POINT
  5
111E
330
106B
100
AcDbEntity
  8
DEFPOINTS
 62
     0
100
AcDbPoint
 10
323.3530476584875
 20
34.5342599009223
 30
0.0
  0
POINT
  5
111F
330
106B
100
AcDbEntity
  8
DEFPOINTS
 62
     0
100
AcDbPoint
 10
324.1530476584874
 20
34.5342599009223
 30
0.0
  0
POINT
  5
1120
330
106B
100
AcDbEntity
  8
DEFPOINTS
 62
     0
100
AcDbPoint
 10
324.1530476584874
 20
34.21190419016371
 30
0.0
  0
ENDBLK
  5
1076
330
106B
100
AcDbEntity
  8
0
100
AcDbBlockEnd
  0
BLOCK
  5
1082
330
1078
100
AcDbEntity
  8
0
100
AcDbBlockBegin
  2
*D3
 70
     1
 10
0.0
 20
0.0
 30
0.0
  3
*D3
  1

  0
LINE
  5
1121
330
1078
100
AcDbEntity
  8
0
 62
     0
370
    -2
100
AcDbLine
 10
323.3530476584874
 20
34.5192599009223
 30
0.0
 11
323.3530476584874
 21
34.19690419016371
 31
0.0
  0
LINE
  5
1122
330
1078
100
AcDbEntity
  8
0
 62
     0
370
    -2
100
AcDbLine
 10
321.7530476584873
 20
34.7192599009223
 30
0.0
 11
321.7530476584873
 21
34.19690419016371
 31
0.0
  0
LINE
  5
1123
330
1078
100
AcDbEntity
  8
0
 62
     0
370
    -2
100
AcDbLine
 10
323.2030476584875
 20
34.21190419016371
 30
0.0
 11
321.9030476584873
 21
34.21190419016371
 31
0.0
  0
SOLID
  5
1124
330
1078
100
AcDbEntity
  8
0
 62
     0
100
AcDbTrace
 10
323.2030476584875
 20
34.23690419016371
 30
0.0
 11
323.2030476584875
 21
34.18690419016371
 31
0.0
 12
323.3530476584874
 22
34.21190419016371
 32
0.0
 13
323.3530476584874
 23
34.21190419016371
 33
0.0
  0
SOLID
  5
1125
330
1078
100
AcDbEntity
  8
0
 62
     0
100
AcDbTrace
 10
321.9030476584873
 20
34.23690419016371
 30
0.0
 11
321.9030476584873
 21
34.18690419016371
 31
0.0
 12
321.7530476584873
 22
34.21190419016371
 32
0.0
 13
321.7530476584873
 23
34.21190419016371
 33
0.0
  0
MTEXT
  5
1126
330
1078
100
AcDbEntity
  8
0
 62
     0
100
AcDbMText
 10
322.5530476584874
 20
34.28690419016371
 30
0.0
 40
0.075
 41
0.0
 71
     5
 72
     1
  1
\A1;1.60
  7
ROMANC
 73
     1
 44
1.0
  0
POINT
  5
1127
330
1078
100
AcDbEntity
  8
DEFPOINTS
 62
     0
100
AcDbPoint
 10
323.3530476584874
 20
34.5342599009223
 30
0.0
  0
POINT
  5
1128
330
1078
100
AcDbEntity
  8
DEFPOINTS
 62
     0
100
AcDbPoint
 10
321.7530476584873
 20
34.7342599009223
 30
0.0
  0
POINT
  5
1129
330
1078
100
AcDbEntity
  8
DEFPOINTS
 62
     0
100
AcDbPoint
 10
321.7530476584873
 20
34.21190419016371
 30
0.0
  0
ENDBLK
  5
1083
330
1078
100
AcDbEntity
  8
0
100
AcDbBlockEnd
  0
BLOCK
  5
108F
330
1085
100
AcDbEntity
  8
0
100
AcDbBlockBegin
  2
*D4
 70
     1
 10
0.0
 20
0.0
 30
0.0
  3
*D4
  1

  0
LINE
  5
1106
330
1085
100
AcDbEntity
  8
0
 62
     0
370
    -2
100
AcDbLine
 10
324.1530476584874
 20
34.5192599009223
 30
0.0
 11
324.1530476584874
 21
34.19690419016371
 31
0.0
  0
LINE
  5
1107
330
1085
100
AcDbEntity
  8
0
 62
     0
370
    -2
100
AcDbLine
 10
325.7530476584874
 20
34.7192599009223
 30
0.0
 11
325.7530476584874
 21
34.19690419016371
 31
0.0
  0
LINE
  5
1108
330
1085
100
AcDbEntity
  8
0
 62
     0
370
    -2
100
AcDbLine
 10
324.3030476584873
 20
34.21190419016371
 30
0.0
 11
325.6030476584874
 21
34.21190419016371
 31
0.0
  0
SOLID
  5
1109
330
1085
100
AcDbEntity
  8
0
 62
     0
100
AcDbTrace
 10
324.3030476584873
 20
34.23690419016371
 30
0.0
 11
324.3030476584873
 21
34.18690419016371
 31
0.0
 12
324.1530476584874
 22
34.21190419016371
 32
0.0
 13
324.1530476584874
 23
34.21190419016371
 33
0.0
  0
SOLID
  5
110A
330
1085
100
AcDbEntity
  8
0
 62
     0
100
AcDbTrace
 10
325.6030476584874
 20
34.23690419016371
 30
0.0
 11
325.6030476584874
 21
34.18690419016371
 31
0.0
 12
325.7530476584874
 22
34.21190419016371
 32
0.0
 13
325.7530476584874
 23
34.21190419016371
 33
0.0
  0
MTEXT
  5
110B
330
1085
100
AcDbEntity
  8
0
 62
     0
100
AcDbMText
 10
324.9530476584874
 20
34.28690419016371
 30
0.0
 40
0.075
 41
0.0
 71
     5
 72
     1
  1
\A1;1.60
  7
ROMANC
 73
     1
 44
1.0
  0
POINT
  5
110C
330
1085
100
AcDbEntity
  8
DEFPOINTS
 62
     0
100
AcDbPoint
 10
324.1530476584874
 20
34.5342599009223
 30
0.0
  0
POINT
  5
110D
330
1085
100
AcDbEntity
  8
DEFPOINTS
 62
     0
100
AcDbPoint
 10
325.7530476584874
 20
34.7342599009223
 30
0.0
  0
POINT
  5
110E
330
1085
100
AcDbEntity
  8
DEFPOINTS
 62
     0
100
AcDbPoint
 10
325.7530476584874
 20
34.21190419016371
 30
0.0
  0
ENDBLK
  5
1090
330
1085
100
AcDbEntity
  8
0
100
AcDbBlockEnd
  0
BLOCK
  5
109C
330
1092
100
AcDbEntity
  8
0
100
AcDbBlockBegin
  2
*D5
 70
     1
 10
0.0
 20
0.0
 30
0.0
  3
*D5
  1

  0
LINE
  5
1093
330
1092
100
AcDbEntity
  8
0
 62
     0
370
    -2
100
AcDbLine
 10
321.7530476584873
 20
34.7192599009223
 30
0.0
 11
321.7530476584873
 21
33.90354343529822
 31
0.0
  0
LINE
  5
1094
330
1092
100
AcDbEntity
  8
0
 62
     0
370
    -2
100
AcDbLine
 10
325.7530476584874
 20
34.7192599009223
 30
0.0
 11
325.7530476584874
 21
33.90354343529822
 31
0.0
  0
LINE
  5
1095
330
1092
100
AcDbEntity
  8
0
 62
     0
370
    -2
100
AcDbLine
 10
321.9030476584873
 20
33.91854343529822
 30
0.0
 11
325.6030476584874
 21
33.91854343529822
 31
0.0
  0
SOLID
  5
1096
330
1092
100
AcDbEntity
  8
0
 62
     0
100
AcDbTrace
 10
321.9030476584873
 20
33.94354343529822
 30
0.0
 11
321.9030476584873
 21
33.89354343529822
 31
0.0
 12
321.7530476584873
 22
33.91854343529822
 32
0.0
 13
321.7530476584873
 23
33.91854343529822
 33
0.0
  0
SOLID
  5
1097
330
1092
100
AcDbEntity
  8
0
 62
     0
100
AcDbTrace
 10
325.6030476584874
 20
33.94354343529822
 30
0.0
 11
325.6030476584874
 21
33.89354343529822
 31
0.0
 12
325.7530476584874
 22
33.91854343529822
 32
0.0
 13
325.7530476584874
 23
33.91854343529822
 33
0.0
  0
MTEXT
  5
1098
330
1092
100
AcDbEntity
  8
0
 62
     0
100
AcDbMText
 10
323.7530476584873
 20
33.99354343529823
 30
0.0
 40
0.075
 41
0.0
 71
     5
 72
     1
  1
\A1;4.00
  7
ROMANC
 73
     1
 44
1.0
  0
POINT
  5
1099
330
1092
100
AcDbEntity
  8
DEFPOINTS
 62
     0
100
AcDbPoint
 10
321.7530476584873
 20
34.7342599009223
 30
0.0
  0
POINT
  5
109A
330
1092
100
AcDbEntity
  8
DEFPOINTS
 62
     0
100
AcDbPoint
 10
325.7530476584874
 20
34.7342599009223
 30
0.0
  0
POINT
  5
109B
330
1092
100
AcDbEntity
  8
DEFPOINTS
 62
     0
100
AcDbPoint
 10
325.7530476584874
 20
33.91854343529822
 30
0.0
  0
ENDBLK
  5
109D
330
1092
100
AcDbEntity
  8
0
100
AcDbBlockEnd
  0
BLOCK
  5
10BD
330
10B1
100
AcDbEntity
  8
0
100
AcDbBlockBegin
  2
*D6
 70
     1
 10
0.0
 20
0.0
 30
0.0
  3
*D6
  1

  0
LINE
  5
10FB
330
10B1
100
AcDbEntity
  8
0
 62
     0
370
    -2
100
AcDbLine
 10
324.1680476584874
 20
34.5342599009223
 30
0.0
 11
326.1962591449935
 21
34.5342599009223
 31
0.0
  0
LINE
  5
10FC
330
10B1
100
AcDbEntity
  8
0
 62
     0
370
    -2
100
AcDbLine
 10
325.7680476584874
 20
34.73425990092229
 30
0.0
 11
326.1962591449935
 21
34.73425990092229
 31
0.0
  0
LINE
  5
10FD
330
10B1
100
AcDbEntity
  8
0
 62
     0
370
    -2
100
AcDbLine
 10
326.1812591449936
 20
34.3842599009223
 30
0.0
 11
326.1812591449936
 21
34.2342599009223
 31
0.0
  0
LINE
  5
10FE
330
10B1
100
AcDbEntity
  8
0
 62
     0
370
    -2
100
AcDbLine
 10
326.1812591449936
 20
34.88425990092229
 30
0.0
 11
326.1812591449936
 21
35.03425990092229
 31
0.0
  0
LINE
  5
10FF
330
10B1
100
AcDbEntity
  8
0
 62
     0
370
    -2
100
AcDbLine
 10
326.1812591449936
 20
34.5342599009223
 30
0.0
 11
326.1812591449936
 21
34.73425990092229
 31
0.0
  0
SOLID
  5
1100
330
10B1
100
AcDbEntity
  8
0
 62
     0
100
AcDbTrace
 10
326.1562591449936
 20
34.3842599009223
 30
0.0
 11
326.2062591449935
 21
34.3842599009223
 31
0.0
 12
326.1812591449936
 22
34.5342599009223
 32
0.0
 13
326.1812591449936
 23
34.5342599009223
 33
0.0
  0
SOLID
  5
1101
330
10B1
100
AcDbEntity
  8
0
 62
     0
100
AcDbTrace
 10
326.1562591449936
 20
34.88425990092229
 30
0.0
 11
326.2062591449935
 21
34.88425990092229
 31
0.0
 12
326.1812591449936
 22
34.73425990092229
 32
0.0
 13
326.1812591449936
 23
34.73425990092229
 33
0.0
  0
MTEXT
  5
1102
330
10B1
100
AcDbEntity
  8
0
 62
     0
100
AcDbMText
 10
326.1062591449936
 20
34.63425990092235
 30
0.0
 40
0.075
 41
0.0
 71
     5
 72
     1
  1
\A1;0.20
  7
ROMANC
 11
0.0000000000000001
 21
1.0
 31
0.0
 73
     1
 44
1.0
  0
POINT
  5
1103
330
10B1
100
AcDbEntity
  8
DEFPOINTS
 62
     0
100
AcDbPoint
 10
324.1530476584874
 20
34.5342599009223
 30
0.0
  0
POINT
  5
1104
330
10B1
100
AcDbEntity
  8
DEFPOINTS
 62
     0
100
AcDbPoint
 10
325.7530476584874
 20
34.73425990092229
 30
0.0
  0
POINT
  5
1105
330
10B1
100
AcDbEntity
  8
DEFPOINTS
 62
     0
100
AcDbPoint
 10
326.1812591449936
 20
34.73425990092229
 30
0.0
  0
ENDBLK
  5
10BE
330
10B1
100
AcDbEntity
  8
0
100
AcDbBlockEnd
  0
BLOCK
  5
10CA
330
10C0
100
AcDbEntity
  8
0
100
AcDbBlockBegin
  2
*D7
 70
     1
 10
0.0
 20
0.0
 30
0.0
  3
*D7
  1

  0
LINE
  5
1135
330
10C0
100
AcDbEntity
  8
0
 62
     0
370
    -2
100
AcDbLine
 10
325.7680476584874
 20
34.7342599009223
 30
0.0
 11
326.1962591449935
 21
34.7342599009223
 31
0.0
  0
LINE
  5
1136
330
10C0
100
AcDbEntity
  8
0
 62
     0
370
    -2
100
AcDbLine
 10
325.7680476584873
 20
36.23425990092229
 30
0.0
 11
326.1962591449935
 21
36.23425990092229
 31
0.0
  0
LINE
  5
1137
330
10C0
100
AcDbEntity
  8
0
 62
     0
370
    -2
100
AcDbLine
 10
326.1812591449936
 20
34.8842599009223
 30
0.0
 11
326.1812591449936
 21
36.08425990092229
 31
0.0
  0
SOLID
  5
1138
330
10C0
100
AcDbEntity
  8
0
 62
     0
100
AcDbTrace
 10
326.1562591449936
 20
34.8842599009223
 30
0.0
 11
326.2062591449935
 21
34.8842599009223
 31
0.0
 12
326.1812591449936
 22
34.7342599009223
 32
0.0
 13
326.1812591449936
 23
34.7342599009223
 33
0.0
  0
SOLID
  5
1139
330
10C0
100
AcDbEntity
  8
0
 62
     0
100
AcDbTrace
 10
326.1562591449936
 20
36.08425990092229
 30
0.0
 11
326.2062591449935
 21
36.08425990092229
 31
0.0
 12
326.1812591449936
 22
36.23425990092229
 32
0.0
 13
326.1812591449936
 23
36.23425990092229
 33
0.0
  0
MTEXT
  5
113A
330
10C0
100
AcDbEntity
  8
0
 62
     0
100
AcDbMText
 10
326.1062591449936
 20
35.48425990092234
 30
0.0
 40
0.075
 41
0.0
 71
     5
 72
     1
  1
\A1;1.50
  7
ROMANC
 11
0.0000000000000001
 21
1.0
 31
0.0
 73
     1
 44
1.0
  0
POINT
  5
113B
330
10C0
100
AcDbEntity
  8
DEFPOINTS
 62
     0
100
AcDbPoint
 10
325.7530476584874
 20
34.7342599009223
 30
0.0
  0
POINT
  5
113C
330
10C0
100
AcDbEntity
  8
DEFPOINTS
 62
     0
100
AcDbPoint
 10
325.7530476584873
 20
36.23425990092229
 30
0.0
  0
POINT
  5
113D
330
10C0
100
AcDbEntity
  8
DEFPOINTS
 62
     0
100
AcDbPoint
 10
326.1812591449936
 20
36.23425990092229
 30
0.0
  0
ENDBLK
  5
10CB
330
10C0
100
AcDbEntity
  8
0
100
AcDbBlockEnd
  0
BLOCK
  5
10E2
330
10D8
100
AcDbEntity
  8
0
100
AcDbBlockBegin
  2
*D8
 70
     1
 10
0.0
 20
0.0
 30
0.0
  3
*D8
  1

  0
LINE
  5
112C
330
10D8
100
AcDbEntity
  8
0
 62
     0
370
    -2
100
AcDbLine
 10
324.1830476584873
 20
34.5342599009223
 30
0.0
 11
326.4966270605378
 21
34.5342599009223
 31
0.0
  0
LINE
  5
112D
330
10D8
100
AcDbEntity
  8
0
 62
     0
370
    -2
100
AcDbLine
 10
325.7680476584873
 20
36.23425990092229
 30
0.0
 11
326.4966270605378
 21
36.23425990092229
 31
0.0
  0
LINE
  5
112E
330
10D8
100
AcDbEntity
  8
0
 62
     0
370
    -2
100
AcDbLine
 10
326.4816270605379
 20
34.6842599009223
 30
0.0
 11
326.4816270605379
 21
36.08425990092229
 31
0.0
  0
SOLID
  5
112F
330
10D8
100
AcDbEntity
  8
0
 62
     0
100
AcDbTrace
 10
326.4566270605379
 20
34.6842599009223
 30
0.0
 11
326.5066270605379
 21
34.6842599009223
 31
0.0
 12
326.4816270605379
 22
34.5342599009223
 32
0.0
 13
326.4816270605379
 23
34.5342599009223
 33
0.0
  0
SOLID
  5
1130
330
10D8
100
AcDbEntity
  8
0
 62
     0
100
AcDbTrace
 10
326.4566270605379
 20
36.08425990092229
 30
0.0
 11
326.5066270605379
 21
36.08425990092229
 31
0.0
 12
326.4816270605379
 22
36.23425990092229
 32
0.0
 13
326.4816270605379
 23
36.23425990092229
 33
0.0
  0
MTEXT
  5
1131
330
10D8
100
AcDbEntity
  8
0
 62
     0
100
AcDbMText
 10
326.4066270605379
 20
35.38425990092235
 30
0.0
 40
0.075
 41
0.0
 71
     5
 72
     1
  1
\A1;1.70
  7
ROMANC
 11
0.0000000000000001
 21
1.0
 31
0.0
 73
     1
 44
1.0
  0
POINT
  5
1132
330
10D8
100
AcDbEntity
  8
DEFPOINTS
 62
     0
100
AcDbPoint
 10
324.1680476584874
 20
34.5342599009223
 30
0.0
  0
POINT
  5
1133
330
10D8
100
AcDbEntity
  8
DEFPOINTS
 62
     0
100
AcDbPoint
 10
325.7530476584873
 20
36.23425990092229
 30
0.0
  0
POINT
  5
1134
330
10D8
100
AcDbEntity
  8
DEFPOINTS
 62
     0
100
AcDbPoint
 10
326.4816270605379
 20
36.23425990092229
 30
0.0
  0
ENDBLK
  5
10E3
330
10D8
100
AcDbEntity
  8
0
100
AcDbBlockEnd
  0
ENDSEC
  0
SECTION
  2
ENTITIES
  0
TEXT
  5
2A
330
17
100
AcDbEntity
  8
0
100
AcDbText
 10
321.7731487472426
 20
42.309482
 30
0.0
 40
0.3
  1
TIPUS   NT616
  7
ROMANC
100
AcDbText
  0
TEXT
  5
2D
330
17
100
AcDbEntity
  8
0
100
AcDbText
 10
321.7819632635875
 20
40.49646044792456
 30
0.0
 40
0.3
  1
P = 114 dm
  7
ROMANC
100
AcDbText
  0
TEXT
  5
2E
330
17
100
AcDbEntity
  8
0
100
AcDbText
 10
321.760277983087
 20
41.10581332917407
 30
0.0
 40
0.3
  1
S = 616 dm
  7
ROMANC
100
AcDbText
  0
TEXT
  5
2F
330
17
100
AcDbEntity
  8
0
100
AcDbText
 10
321.7731487472426
 20
41.70440332917407
 30
0.0
 40
0.3
  1
ESCALA  1:50
  7
ROMANC
100
AcDbText
  0
TEXT
  5
30
330
17
100
AcDbEntity
  8
0
100
AcDbText
 10
324.9356092856618
 20
41.41172932917407
 30
0.0
 40
0.1
  1
2
  7
ROMANC
100
AcDbText
  0
LWPOLYLINE
  5
ED8
330
17
100
AcDbEntity
  8
0
100
AcDbPolyline
 90
        4
 70
     1
 43
0.0
 10
329.348696
 20
29.86362299999999
 10
329.348696
 20
44.713623
 10
318.848696
 20
44.713623
 10
318.848696
 20
29.86362299999999
  0
DIMENSION
  5
106A
330
17
100
AcDbEntity
  8
0
100
AcDbDimension
  2
*D2
 10
324.1530476584874
 20
34.21190419016371
 30
0.0
 11
323.7530476584875
 21
34.28690419016371
 31
0.0
 70
    32
 71
     5
 42
0.7999999999998977
  3
MERITXELL
100
AcDbAlignedDimension
 13
323.3530476584875
 23
34.5342599009223
 33
0.0
 14
324.1530476584874
 24
34.5342599009223
 34
0.0
100
AcDbRotatedDimension
1001
ACAD
1000
DSTYLE
1002
{
1070
   141
1040
0.0
1070
   147
1040
0.025
1002
}
  0
DIMENSION
  5
1077
330
17
100
AcDbEntity
  8
0
100
AcDbDimension
  2
*D3
 10
321.7530476584873
 20
34.21190419016371
 30
0.0
 11
322.5530476584874
 21
34.28690419016371
 31
0.0
 70
    32
 71
     5
 42
1.600000000000079
  3
MERITXELL
100
AcDbAlignedDimension
 13
323.3530476584874
 23
34.5342599009223
 33
0.0
 14
321.7530476584873
 24
34.7342599009223
 34
0.0
100
AcDbRotatedDimension
1001
ACAD
1000
DSTYLE
1002
{
1070
   141
1040
0.0
1070
   147
1040
0.025
1002
}
  0
DIMENSION
  5
1084
330
17
100
AcDbEntity
  8
0
100
AcDbDimension
  2
*D4
 10
325.7530476584874
 20
34.21190419016371
 30
0.0
 11
324.9530476584874
 21
34.28690419016371
 31
0.0
 70
    32
 71
     5
 42
1.600000000000022
  3
MERITXELL
100
AcDbAlignedDimension
 13
324.1530476584874
 23
34.5342599009223
 33
0.0
 14
325.7530476584874
 24
34.7342599009223
 34
0.0
100
AcDbRotatedDimension
1001
ACAD
1000
DSTYLE
1002
{
1070
   141
1040
0.0
1070
   147
1040
0.025
1002
}
  0
DIMENSION
  5
1091
330
17
100
AcDbEntity
  8
0
100
AcDbDimension
  2
*D5
 10
325.7530476584874
 20
33.91854343529822
 30
0.0
 11
323.7530476584873
 21
33.99354343529823
 31
0.0
 70
    32
 71
     5
 42
4.000000000000056
  3
MERITXELL
100
AcDbAlignedDimension
 13
321.7530476584873
 23
34.7342599009223
 33
0.0
 14
325.7530476584874
 24
34.7342599009223
 34
0.0
100
AcDbRotatedDimension
1001
ACAD
1000
DSTYLE
1002
{
1070
   141
1040
0.0
1070
   147
1040
0.025
1002
}
  0
DIMENSION
  5
10B0
330
17
100
AcDbEntity
  8
0
100
AcDbDimension
  2
*D6
 10
326.1812591449936
 20
34.73425990092229
 30
0.0
 11
326.1062591449936
 21
34.63425990092235
 31
0.0
 70
    32
 71
     5
 42
0.1999999999999957
  3
MERITXELL
100
AcDbAlignedDimension
 13
324.1530476584874
 23
34.5342599009223
 33
0.0
 14
325.7530476584874
 24
34.73425990092229
 34
0.0
 50
90.0
100
AcDbRotatedDimension
1001
ACAD
1000
DSTYLE
1002
{
1070
   141
1040
0.0
1070
   147
1040
0.025
1002
}
  0
DIMENSION
  5
10BF
330
17
100
AcDbEntity
  8
0
100
AcDbDimension
  2
*D7
 10
326.1812591449936
 20
36.23425990092229
 30
0.0
 11
326.1062591449936
 21
35.48425990092234
 31
0.0
 70
    32
 71
     5
 42
1.499999999999992
  3
MERITXELL
100
AcDbAlignedDimension
 13
325.7530476584874
 23
34.7342599009223
 33
0.0
 14
325.7530476584873
 24
36.23425990092229
 34
0.0
 50
90.0
100
AcDbRotatedDimension
1001
ACAD
1000
DSTYLE
1002
{
1070
   141
1040
0.0
1070
   147
1040
0.025
1002
}
  0
DIMENSION
  5
10D7
330
17
100
AcDbEntity
  8
0
100
AcDbDimension
  2
*D8
 10
326.4816270605379
 20
36.23425990092229
 30
0.0
 11
326.4066270605379
 21
35.38425990092235
 31
0.0
 70
    32
 71
     5
 42
1.699999999999995
  3
MERITXELL
100
AcDbAlignedDimension
 13
324.1680476584874
 23
34.5342599009223
 33
0.0
 14
325.7530476584873
 24
36.23425990092229
 34
0.0
 50
90.0
100
AcDbRotatedDimension
1001
ACAD
1000
DSTYLE
1002
{
1070
   141
1040
0.0
1070
   147
1040
0.025
1002
}
  0
LWPOLYLINE
  5
10E4
330
17
100
AcDbEntity
  8
0
100
AcDbPolyline
 90
        8
 70
     1
 43
0.0
 10
323.3530476584875
 20
34.5342599009223
 10
323.3530476584874
 20
34.73425990092229
 10
321.7530476584873
 20
34.7342599009223
 10
321.7530476584874
 20
36.23425990092229
 10
325.7530476584873
 20
36.23425990092229
 10
325.7530476584874
 20
34.7342599009223
 10
324.1530476584874
 20
34.73425990092229
 10
324.1530476584874
 20
34.5342599009223
  0
LWPOLYLINE
  5
10E5
330
17
100
AcDbEntity
  8
0
100
AcDbPolyline
 90
        8
 70
     1
 43
0.0
 10
323.3455476584875
 20
34.5267599009223
 10
323.3455476584874
 20
34.72675990092229
 10
321.7455476584873
 20
34.7267599009223
 10
321.7455476584874
 20
36.24175990092229
 10
325.7605476584874
 20
36.24175990092229
 10
325.7605476584874
 20
34.7267599009223
 10
324.1605476584874
 20
34.72675990092229
 10
324.1605476584874
 20
34.5267599009223
  0
LWPOLYLINE
  5
10E6
330
17
100
AcDbEntity
  8
0
100
AcDbPolyline
 90
        8
 70
     1
 43
0.0
 10
323.3380476584875
 20
34.5192599009223
 10
323.3380476584875
 20
34.71925990092229
 10
321.7380476584874
 20
34.7192599009223
 10
321.7380476584874
 20
36.24925990092229
 10
325.7680476584873
 20
36.24925990092229
 10
325.7680476584874
 20
34.7192599009223
 10
324.1680476584874
 20
34.71925990092229
 10
324.1680476584874
 20
34.5192599009223
  0
VIEWPORT
  5
1011
330
14
100
AcDbEntity
 67
     1
  8
0
100
AcDbViewport
 10
98.98591613769532
 20
141.7425832748413
 30
0.0
 40
536.2015101998647
 41
314.1477025756836
 68
     1
 69
     1
 12
98.98591613769532
 22
141.7425832748413
 13
0.0
 23
0.0
 14
10.0
 24
10.0
 15
10.0
 25
10.0
 16
0.0
 26
0.0
 36
1.0
 17
0.0
 27
0.0
 37
0.0
 42
50.0
 43
0.0
 44
0.0
 45
314.1477025756836
 50
0.0
 51
0.0
 72
   100
 90
    32800
  1

281
     0
 71
     1
 74
     0
110
0.0
120
0.0
130
0.0
111
1.0
121
0.0
131
0.0
112
0.0
122
1.0
132
0.0
 79
     0
146
0.0
  0
VIEWPORT
  5
1013
330
14
100
AcDbEntity
 67
     1
  8
Finestra
100
AcDbViewport
 10
98.05176715372272
 20
142.9095510177477
 30
0.0
 40
188.2310181418715
 41
277.7383111740046
 68
     2
 69
     2
 12
324.1005717719679
 22
37.29169518569444
 13
0.0
 23
0.0
 14
1.0
 24
1.0
 15
10.0
 25
10.0
 16
0.0
 26
0.0
 36
1.0
 17
0.0
 27
0.0
 37
0.0
 42
50.0
 43
0.0
 44
0.0
 45
13.88691555870023
 50
0.0
 51
0.0
 72
   100
 90
    36864
  1

281
     0
 71
     1
 74
     0
110
0.0
120
0.0
130
0.0
111
1.0
121
0.0
131
0.0
112
0.0
122
1.0
132
0.0
 79
     0
146
0.0
  0
ENDSEC
  0
SECTION
  2
OBJECTS
  0
DICTIONARY
  5
C
330
0
100
AcDbDictionary
281
     1
  3
ACAD_GROUP
350
D
  3
ACAD_LAYOUT
350
FC0
  3
ACAD_MLINESTYLE
350
1A
  3
ACAD_PLOTSETTINGS
350
FC1
  3
ACAD_PLOTSTYLENAME
350
FBE
  3
ACDBVARIABLEDICTIONARY
350
25
  0
DICTIONARY
  5
D
102
{ACAD_REACTORS
330
C
102
}
330
C
100
AcDbDictionary
281
     1
  0
DICTIONARY
  5
FC0
102
{ACAD_REACTORS
330
C
102
}
330
C
100
AcDbDictionary
281
     1
  3
Model
350
FC2
  3
Presentación1
350
FC3
  0
DICTIONARY
  5
1A
102
{ACAD_REACTORS
330
C
102
}
330
C
100
AcDbDictionary
281
     1
  3
STANDARD
350
1B
  0
DICTIONARY
  5
FC1
102
{ACAD_REACTORS
330
C
102
}
330
C
100
AcDbDictionary
281
     1
  3
dei
350
1058
  0
ACDBDICTIONARYWDFLT
  5
FBE
102
{ACAD_REACTORS
330
C
102
}
330
C
100
AcDbDictionary
281
     1
  3
Normal
350
FBF
100
AcDbDictionaryWithDefault
340
FBF
  0
DICTIONARY
  5
25
102
{ACAD_REACTORS
330
C
102
}
330
C
100
AcDbDictionary
281
     1
  3
DIMADEC
350
26
  3
SORTENTS
350
FD1
  0
LAYOUT
  5
FC2
102
{ACAD_REACTORS
330
FC0
102
}
330
FC0
100
AcDbPlotSettings
  1

  2
\\SERVIDOR1\PLOTTER750
  4

  6

 40
0.0
 41
0.0
 42
0.0
 43
0.0
 44
0.0
 45
0.0
 46
0.0
 47
0.0
 48
0.0
 49
0.0
140
0.0
141
0.0
142
1.0
143
1.0
 70
  1712
 72
     0
 73
     0
 74
     0
  7
standard.ctb
 75
     0
147
1.0
148
0.0
149
0.0
100
AcDbLayout
  1
Model
 70
     1
 71
     0
 10
0.0
 20
0.0
 11
12.0
 21
9.0
 12
0.0
 22
0.0
 32
0.0
 14
0.0
 24
0.0
 34
0.0
 15
0.0
 25
0.0
 35
0.0
146
0.0
 13
0.0
 23
0.0
 33
0.0
 16
1.0
 26
0.0
 36
0.0
 17
0.0
 27
1.0
 37
0.0
 76
     0
330
17
  0
LAYOUT
  5
FC3
102
{ACAD_REACTORS
330
FC0
102
}
330
FC0
100
AcDbPlotSettings
  1

  2
\\SERVIDOR1\LS3_4DEI
  4
A4
  6

 40
6.043083190917968
 41
6.720414161682128
 42
7.821090698242187
 43
5.027069091796875
 44
210.0579986572265
 45
296.9259948730469
 46
0.0
 47
0.0
 48
0.0
 49
0.0
140
0.0
141
0.0
142
1.0
143
1.0
 70
   688
 72
     1
 73
     0
 74
     5
  7
standard.ctb
 75
    16
147
1.0
148
0.0
149
0.0
100
AcDbLayout
  1
Presentación1
 70
     0
 71
     1
 10
-6.043083190917968
 20
-6.720414161682128
 11
204.0149154663085
 21
290.2055807113647
 12
0.0
 22
0.0
 32
0.0
 14
3.934800455223182
 24
4.031011496907353
 34
-0.0000000000000058
 15
192.1779989945691
 25
281.7874829664755
 35
0.0000000000000104
146
0.0
 13
0.0
 23
0.0
 33
0.0
 16
1.0
 26
0.0
 36
0.0
 17
0.0
 27
1.0
 37
0.0
 76
     0
330
14
331
1011
  0
MLINESTYLE
  5
1B
102
{ACAD_REACTORS
330
1A
102
}
330
1A
100
AcDbMlineStyle
  2
STANDARD
 70
     0
  3

 62
   256
 51
90.0
 52
90.0
 71
     2
 49
0.5
 62
   256
  6
BYLAYER
 49
-0.5
 62
   256
  6
BYLAYER
  0
PLOTSETTINGS
  5
1058
102
{ACAD_REACTORS
330
FC1
102
}
330
FC1
100
AcDbPlotSettings
  1
dei
  2
LS3_4DEI.pc3
  4
User136
  6

 40
6.043083190917968
 41
6.720414161682128
 42
7.821090698242187
 43
5.027069091796875
 44
210.0579986572265
 45
296.9259948730469
 46
0.0
 47
0.0
 48
0.0
 49
0.0
140
0.0
141
0.0
142
1.0
143
1.0
 70
   688
 72
     1
 73
     0
 74
     5
  7
standard.ctb
 75
    16
147
1.0
148
0.0
149
0.0
  0
ACDBPLACEHOLDER
  5
FBF
102
{ACAD_REACTORS
330
FBE
102
}
330
FBE
  0
DICTIONARYVAR
  5
26
102
{ACAD_REACTORS
330
25
102
}
330
25
100
DictionaryVariables
280
     0
  1
0
  0
DICTIONARYVAR
  5
FD1
102
{ACAD_REACTORS
330
25
102
}
330
25
100
DictionaryVariables
280
     0
  1
96
  0
ENDSEC
  0
EOF
