  0
SECTION
  2
HEADER
  9
$ACADVER
  1
AC1015
  9
$ACADMAINTVER
 70
     6
  9
$DWGCODEPAGE
  3
ANSI_1252
  9
$INSBASE
 10
0.0
 20
0.0
 30
0.0
  9
$EXTMIN
 10
318.848696
 20
29.86362299999999
 30
0.0
  9
$EXTMAX
 10
329.348696
 20
44.713623
 30
0.0
  9
$LIMMIN
 10
0.0
 20
0.0
  9
$LIMMAX
 10
410.0
 20
287.0
  9
$ORTHOMODE
 70
     0
  9
$REGENMODE
 70
     1
  9
$FILLMODE
 70
     1
  9
$QTEXTMODE
 70
     0
  9
$MIRRTEXT
 70
     1
  9
$LTSCALE
 40
25.0
  9
$ATTMODE
 70
     1
  9
$TEXTSIZE
 40
0.1
  9
$TRACEWID
 40
1.0
  9
$TEXTSTYLE
  7
ROMANC
  9
$CLAYER
  8
0
  9
$CELTYPE
  6
BYLAYER
  9
$CECOLOR
 62
   256
  9
$CELTSCALE
 40
1.0
  9
$DISPSILH
 70
     0
  9
$DIMSCALE
 40
1.5
  9
$DIMASZ
 40
0.1
  9
$DIMEXO
 40
0.01
  9
$DIMDLI
 40
7.0
  9
$DIMRND
 40
0.0
  9
$DIMDLE
 40
0.0
  9
$DIMEXE
 40
0.01
  9
$DIMTP
 40
0.0
  9
$DIMTM
 40
0.0
  9
$DIMTXT
 40
0.05
  9
$DIMCEN
 40
0.0
  9
$DIMTSZ
 40
0.0
  9
$DIMTOL
 70
     0
  9
$DIMLIM
 70
     0
  9
$DIMTIH
 70
     0
  9
$DIMTOH
 70
     0
  9
$DIMSE1
 70
     0
  9
$DIMSE2
 70
     0
  9
$DIMTAD
 70
     1
  9
$DIMZIN
 70
     0
  9
$DIMBLK
  1

  9
$DIMASO
 70
     1
  9
$DIMSHO
 70
     0
  9
$DIMPOST
  1

  9
$DIMAPOST
  1

  9
$DIMALT
 70
     0
  9
$DIMALTD
 70
     2
  9
$DIMALTF
 40
25.4
  9
$DIMLFAC
 40
1.0
  9
$DIMTOFL
 70
     1
  9
$DIMTVP
 40
0.0
  9
$DIMTIX
 70
     1
  9
$DIMSOXD
 70
     0
  9
$DIMSAH
 70
     0
  9
$DIMBLK1
  1

  9
$DIMBLK2
  1

  9
$DIMSTYLE
  2
MERITXELL
  9
$DIMCLRD
 70
     0
  9
$DIMCLRE
 70
     0
  9
$DIMCLRT
 70
     0
  9
$DIMTFAC
 40
70.0
  9
$DIMGAP
 40
0.025
  9
$DIMJUST
 70
     0
  9
$DIMSD1
 70
     0
  9
$DIMSD2
 70
     0
  9
$DIMTOLJ
 70
     1
  9
$DIMTZIN
 70
     0
  9
$DIMALTZ
 70
     0
  9
$DIMALTTZ
 70
     0
  9
$DIMUPT
 70
     0
  9
$DIMDEC
 70
     2
  9
$DIMTDEC
 70
     2
  9
$DIMALTU
 70
     2
  9
$DIMALTTD
 70
     2
  9
$DIMTXSTY
  7
ROMANC
  9
$DIMAUNIT
 70
     0
  9
$DIMADEC
 70
     0
  9
$DIMALTRND
 40
0.0
  9
$DIMAZIN
 70
     0
  9
$DIMDSEP
 70
    46
  9
$DIMATFIT
 70
     3
  9
$DIMFRAC
 70
     0
  9
$DIMLDRBLK
  1

  9
$DIMLUNIT
 70
     2
  9
$DIMLWD
 70
    -2
  9
$DIMLWE
 70
    -2
  9
$DIMTMOVE
 70
     2
  9
$LUNITS
 70
     2
  9
$LUPREC
 70
     2
  9
$SKETCHINC
 40
1.0
  9
$FILLETRAD
 40
0.0
  9
$AUNITS
 70
     0
  9
$AUPREC
 70
     0
  9
$MENU
  1
acad
  9
$ELEVATION
 40
0.0
  9
$PELEVATION
 40
0.0
  9
$THICKNESS
 40
0.0
  9
$LIMCHECK
 70
     0
  9
$CHAMFERA
 40
0.0
  9
$CHAMFERB
 40
0.0
  9
$CHAMFERC
 40
0.0
  9
$CHAMFERD
 40
0.0
  9
$SKPOLY
 70
     0
  9
$TDCREATE
 40
2450927.461950000
  9
$TDUCREATE
 40
2450927.378616666
  9
$TDUPDATE
 40
2451640.740486192
  9
$TDUUPDATE
 40
2451640.657152859
  9
$TDINDWG
 40
0.2049186690
  9
$TDUSRTIMER
 40
0.2049186690
  9
$USRTIMER
 70
     1
  9
$ANGBASE
 50
0.0
  9
$ANGDIR
 70
     0
  9
$PDMODE
 70
     0
  9
$PDSIZE
 40
0.0
  9
$PLINEWID
 40
0.0
  9
$SPLFRAME
 70
     0
  9
$SPLINETYPE
 70
     6
  9
$SPLINESEGS
 70
     8
  9
$HANDSEED
  5
1044
  9
$SURFTAB1
 70
     6
  9
$SURFTAB2
 70
     6
  9
$SURFTYPE
 70
     6
  9
$SURFU
 70
     6
  9
$SURFV
 70
     6
  9
$UCSBASE
  2

  9
$UCSNAME
  2

  9
$UCSORG
 10
0.0
 20
0.0
 30
0.0
  9
$UCSXDIR
 10
1.0
 20
0.0
 30
0.0
  9
$UCSYDIR
 10
0.0
 20
1.0
 30
0.0
  9
$UCSORTHOREF
  2

  9
$UCSORTHOVIEW
 70
     0
  9
$UCSORGTOP
 10
0.0
 20
0.0
 30
0.0
  9
$UCSORGBOTTOM
 10
0.0
 20
0.0
 30
0.0
  9
$UCSORGLEFT
 10
0.0
 20
0.0
 30
0.0
  9
$UCSORGRIGHT
 10
0.0
 20
0.0
 30
0.0
  9
$UCSORGFRONT
 10
0.0
 20
0.0
 30
0.0
  9
$UCSORGBACK
 10
0.0
 20
0.0
 30
0.0
  9
$PUCSBASE
  2

  9
$PUCSNAME
  2

  9
$PUCSORG
 10
0.0
 20
0.0
 30
0.0
  9
$PUCSXDIR
 10
1.0
 20
0.0
 30
0.0
  9
$PUCSYDIR
 10
0.0
 20
1.0
 30
0.0
  9
$PUCSORTHOREF
  2

  9
$PUCSORTHOVIEW
 70
     0
  9
$PUCSORGTOP
 10
0.0
 20
0.0
 30
0.0
  9
$PUCSORGBOTTOM
 10
0.0
 20
0.0
 30
0.0
  9
$PUCSORGLEFT
 10
0.0
 20
0.0
 30
0.0
  9
$PUCSORGRIGHT
 10
0.0
 20
0.0
 30
0.0
  9
$PUCSORGFRONT
 10
0.0
 20
0.0
 30
0.0
  9
$PUCSORGBACK
 10
0.0
 20
0.0
 30
0.0
  9
$USERI1
 70
     0
  9
$USERI2
 70
     0
  9
$USERI3
 70
     0
  9
$USERI4
 70
     0
  9
$USERI5
 70
     0
  9
$USERR1
 40
0.0
  9
$USERR2
 40
0.0
  9
$USERR3
 40
0.0
  9
$USERR4
 40
0.0
  9
$USERR5
 40
0.0
  9
$WORLDVIEW
 70
     1
  9
$SHADEDGE
 70
     3
  9
$SHADEDIF
 70
    70
  9
$TILEMODE
 70
     1
  9
$MAXACTVP
 70
    16
  9
$PINSBASE
 10
0.0
 20
0.0
 30
0.0
  9
$PLIMCHECK
 70
     0
  9
$PEXTMIN
 10
3.930167465879094
 20
4.031011496907353
 30
-0.0015258207003583
  9
$PEXTMAX
 10
192.1712532210956
 20
281.7874829664755
 30
0.0000000349246037
  9
$PLIMMIN
 10
-6.043083190917968
 20
-6.720414161682128
  9
$PLIMMAX
 10
204.0149154663085
 20
290.2055807113647
  9
$UNITMODE
 70
     0
  9
$VISRETAIN
 70
     0
  9
$PLINEGEN
 70
     0
  9
$PSLTSCALE
 70
     0
  9
$TREEDEPTH
 70
  3020
  9
$CMLSTYLE
  2
STANDARD
  9
$CMLJUST
 70
     0
  9
$CMLSCALE
 40
1.0
  9
$PROXYGRAPHICS
 70
     1
  9
$MEASUREMENT
 70
     0
  9
$CELWEIGHT
370
    -1
  9
$ENDCAPS
280
     0
  9
$JOINSTYLE
280
     0
  9
$LWDISPLAY
290
     0
  9
$INSUNITS
 70
     0
  9
$HYPERLINKBASE
  1

  9
$STYLESHEET
  1

  9
$XEDIT
290
     1
  9
$CEPSNTYPE
380
     0
  9
$PSTYLEMODE
290
     1
  9
$FINGERPRINTGUID
  2
{2421DE50-0B03-11D4-A579-0008C769B1B5}
  9
$VERSIONGUID
  2
{2421DE6A-0B03-11D4-A579-0008C769B1B5}
  9
$EXTNAMES
290
     1
  9
$PSVPSCALE
 40
0.0
  9
$OLESTARTUP
290
     0
  0
ENDSEC
  0
SECTION
  2
CLASSES
  0
CLASS
  1
DICTIONARYVAR
  2
AcDbDictionaryVar
  3
AutoCAD 2000
 90
        0
280
     0
281
     0
  0
CLASS
  1
LWPOLYLINE
  2
AcDbPolyline
  3
AutoCAD 2000
 90
    32768
280
     0
281
     1
  0
CLASS
  1
ACDBDICTIONARYWDFLT
  2
AcDbDictionaryWithDefault
  3
AutoCAD 2000
 90
        0
280
     0
281
     0
  0
CLASS
  1
ACDBPLACEHOLDER
  2
AcDbPlaceHolder
  3
AutoCAD 2000
 90
        0
280
     0
281
     0
  0
CLASS
  1
LAYOUT
  2
AcDbLayout
  3
AutoCAD 2000
 90
        0
280
     0
281
     0
  0
ENDSEC
  0
SECTION
  2
TABLES
  0
TABLE
  2
VPORT
  5
8
330
0
100
AcDbSymbolTable
 70
     5
  0
VPORT
  5
1043
330
8
100
AcDbSymbolTableRecord
100
AcDbViewportTableRecord
  2
*Active
 70
     0
 10
0.0
 20
0.0
 11
1.0
 21
1.0
 12
324.1005717719679
 22
37.29169518569444
 13
0.0
 23
0.0
 14
1.0
 24
1.0
 15
10.0
 25
10.0
 16
0.0
 26
0.0
 36
1.0
 17
0.0
 27
0.0
 37
0.0
 40
15.0001791355211
 41
1.706845238095238
 42
50.0
 43
0.0
 44
0.0
 50
0.0
 51
0.0
 71
     0
 72
   100
 73
     1
 74
     0
 75
     0
 76
     0
 77
     0
 78
     1
281
     0
 65
     1
110
0.0
120
0.0
130
0.0
111
1.0
121
0.0
131
0.0
112
0.0
122
1.0
132
0.0
 79
     0
146
0.0
  0
ENDTAB
  0
TABLE
  2
LTYPE
  5
5
330
0
100
AcDbSymbolTable
 70
     1
  0
LTYPE
  5
11
330
5
100
AcDbSymbolTableRecord
100
AcDbLinetypeTableRecord
  2
BYBLOCK
 70
     0
  3

 72
    65
 73
     0
 40
0.0
  0
LTYPE
  5
12
330
5
100
AcDbSymbolTableRecord
100
AcDbLinetypeTableRecord
  2
BYLAYER
 70
     0
  3

 72
    65
 73
     0
 40
0.0
  0
LTYPE
  5
13
330
5
100
AcDbSymbolTableRecord
100
AcDbLinetypeTableRecord
  2
CONTINUOUS
 70
     0
  3
Solid line
 72
    65
 73
     0
 40
0.0
  0
ENDTAB
  0
TABLE
  2
LAYER
  5
2
330
0
100
AcDbSymbolTable
 70
     3
  0
LAYER
  5
E
330
2
100
AcDbSymbolTableRecord
100
AcDbLayerTableRecord
  2
0
 70
     0
 62
     7
  6
CONTINUOUS
370
    -3
390
FBF
  0
LAYER
  5
70C
330
2
100
AcDbSymbolTableRecord
100
AcDbLayerTableRecord
  2
DEFPOINTS
 70
     0
 62
     7
  6
CONTINUOUS
290
     0
370
    -3
390
FBF
  0
LAYER
  5
1014
330
2
100
AcDbSymbolTableRecord
100
AcDbLayerTableRecord
  2
Finestra
 70
     0
 62
     7
  6
CONTINUOUS
290
     0
370
    -3
390
FBF
  0
ENDTAB
  0
TABLE
  2
STYLE
  5
3
330
0
100
AcDbSymbolTable
 70
     2
  0
STYLE
  5
F
330
3
100
AcDbSymbolTableRecord
100
AcDbTextStyleTableRecord
  2
STANDARD
 70
     0
 40
0.0
 41
1.0
 50
0.0
 71
     0
 42
0.1
  3
txt
  4

  0
STYLE
  5
1C
330
3
100
AcDbSymbolTableRecord
100
AcDbTextStyleTableRecord
  2
ROMANC
 70
     0
 40
0.0
 41
1.0
 50
0.0
 71
     0
 42
0.1
  3
romanc
  4

  0
ENDTAB
  0
TABLE
  2
VIEW
  5
6
330
0
100
AcDbSymbolTable
 70
     0
  0
ENDTAB
  0
TABLE
  2
UCS
  5
7
330
0
100
AcDbSymbolTable
 70
     0
  0
ENDTAB
  0
TABLE
  2
APPID
  5
9
330
0
100
AcDbSymbolTable
 70
     1
  0
APPID
  5
10
330
9
100
AcDbSymbolTableRecord
100
AcDbRegAppTableRecord
  2
ACAD
 70
     0
  0
ENDTAB
  0
TABLE
  2
DIMSTYLE
  5
A
330
0
100
AcDbSymbolTable
 70
     1
100
AcDbDimStyleTable
 71
     1
340
1F
  0
DIMSTYLE
105
1F
102
{ACAD_REACTORS
330
FFD
330
FF0
330
FE5
330
FD8
330
1024
330
1031
102
}
330
A
100
AcDbSymbolTableRecord
100
AcDbDimStyleTableRecord
  2
MERITXELL
 70
     0
 40
1.5
 41
0.1
 42
0.01
 43
7.0
 44
0.01
 73
     0
 74
     0
 77
     1
140
0.05
141
0.1
146
70.0
172
     1
174
     1
271
     2
272
     2
279
     2
340
1C
  0
ENDTAB
  0
TABLE
  2
BLOCK_RECORD
  5
1
330
0
100
AcDbSymbolTable
 70
     6
  0
BLOCK_RECORD
  5
17
330
1
100
AcDbSymbolTableRecord
100
AcDbBlockTableRecord
  2
*MODEL_SPACE
340
FC2
  0
BLOCK_RECORD
  5
14
330
1
100
AcDbSymbolTableRecord
100
AcDbBlockTableRecord
  2
*PAPER_SPACE
340
FC3
  0
BLOCK_RECORD
  5
FD9
330
1
100
AcDbSymbolTableRecord
100
AcDbBlockTableRecord
  2
*D0
340
0
  0
BLOCK_RECORD
  5
FE6
330
1
100
AcDbSymbolTableRecord
100
AcDbBlockTableRecord
  2
*D1
340
0
  0
BLOCK_RECORD
  5
FF1
330
1
100
AcDbSymbolTableRecord
100
AcDbBlockTableRecord
  2
*D2
340
0
  0
BLOCK_RECORD
  5
FFE
330
1
100
AcDbSymbolTableRecord
100
AcDbBlockTableRecord
  2
*D3
340
0
  0
BLOCK_RECORD
  5
1025
330
1
100
AcDbSymbolTableRecord
100
AcDbBlockTableRecord
  2
*D4
340
0
  0
BLOCK_RECORD
  5
1032
330
1
100
AcDbSymbolTableRecord
100
AcDbBlockTableRecord
  2
*D5
340
0
  0
ENDTAB
  0
ENDSEC
  0
SECTION
  2
BLOCKS
  0
BLOCK
  5
23
330
17
100
AcDbEntity
  8
0
100
AcDbBlockBegin
  2
*MODEL_SPACE
 70
     0
 10
0.0
 20
0.0
 30
0.0
  3
*MODEL_SPACE
  1

  0
ENDBLK
  5
24
330
17
100
AcDbEntity
  8
0
100
AcDbBlockEnd
  0
BLOCK
  5
21
330
14
100
AcDbEntity
 67
     1
  8
0
100
AcDbBlockBegin
  2
*PAPER_SPACE
 70
     0
 10
0.0
 20
0.0
 30
0.0
  3
*PAPER_SPACE
  1

  0
ENDBLK
  5
22
330
14
100
AcDbEntity
 67
     1
  8
0
100
AcDbBlockEnd
  0
BLOCK
  5
FE3
330
FD9
100
AcDbEntity
  8
0
100
AcDbBlockBegin
  2
*D0
 70
     1
 10
0.0
 20
0.0
 30
0.0
  3
*D0
  1

  0
LINE
  5
FDA
330
FD9
100
AcDbEntity
  8
0
 62
     0
370
    -2
100
AcDbLine
 10
323.0126124344324
 20
34.31542667550309
 30
0.0
 11
323.0126124344324
 21
34.02066581568184
 31
0.0
  0
LINE
  5
FDB
330
FD9
100
AcDbEntity
  8
0
 62
     0
370
    -2
100
AcDbLine
 10
323.7126124344325
 20
34.31542667550309
 30
0.0
 11
323.7126124344325
 21
34.02066581568184
 31
0.0
  0
LINE
  5
FDC
330
FD9
100
AcDbEntity
  8
0
 62
     0
370
    -2
100
AcDbLine
 10
323.1626124344324
 20
34.03566581568184
 30
0.0
 11
323.5626124344325
 21
34.03566581568184
 31
0.0
  0
SOLID
  5
FDD
330
FD9
100
AcDbEntity
  8
0
 62
     0
100
AcDbTrace
 10
323.1626124344324
 20
34.06066581568184
 30
0.0
 11
323.1626124344324
 21
34.01066581568184
 31
0.0
 12
323.0126124344324
 22
34.03566581568184
 32
0.0
 13
323.0126124344324
 23
34.03566581568184
 33
0.0
  0
SOLID
  5
FDE
330
FD9
100
AcDbEntity
  8
0
 62
     0
100
AcDbTrace
 10
323.5626124344325
 20
34.06066581568184
 30
0.0
 11
323.5626124344325
 21
34.01066581568184
 31
0.0
 12
323.7126124344325
 22
34.03566581568184
 32
0.0
 13
323.7126124344325
 23
34.03566581568184
 33
0.0
  0
MTEXT
  5
FDF
330
FD9
100
AcDbEntity
  8
0
 62
     0
100
AcDbMText
 10
323.3626124344325
 20
34.11066581568185
 30
0.0
 40
0.075
 41
0.0
 71
     5
 72
     1
  1
\A1;0.70
  7
ROMANC
 73
     1
 44
1.0
  0
POINT
  5
FE0
330
FD9
100
AcDbEntity
  8
DEFPOINTS
 62
     0
100
AcDbPoint
 10
323.0126124344324
 20
34.33042667550309
 30
0.0
  0
POINT
  5
FE1
330
FD9
100
AcDbEntity
  8
DEFPOINTS
 62
     0
100
AcDbPoint
 10
323.7126124344325
 20
34.33042667550309
 30
0.0
  0
POINT
  5
FE2
330
FD9
100
AcDbEntity
  8
DEFPOINTS
 62
     0
100
AcDbPoint
 10
323.7126124344325
 20
34.03566581568184
 30
0.0
  0
ENDBLK
  5
FE4
330
FD9
100
AcDbEntity
  8
0
100
AcDbBlockEnd
  0
BLOCK
  5
FEE
330
FE6
100
AcDbEntity
  8
0
100
AcDbBlockBegin
  2
*D1
 70
     1
 10
0.0
 20
0.0
 30
0.0
  3
*D1
  1

  0
LINE
  5
FE7
330
FE6
100
AcDbEntity
  8
0
 62
     0
370
    -2
100
AcDbLine
 10
323.0626124344325
 20
35.33042667550309
 30
0.0
 11
323.6626124344325
 21
35.33042667550309
 31
0.0
  0
SOLID
  5
FE8
330
FE6
100
AcDbEntity
  8
0
 62
     0
100
AcDbTrace
 10
323.0626124344325
 20
35.35542667550309
 30
0.0
 11
323.0626124344325
 21
35.30542667550309
 31
0.0
 12
322.9126124344325
 22
35.33042667550309
 32
0.0
 13
322.9126124344325
 23
35.33042667550309
 33
0.0
  0
SOLID
  5
FE9
330
FE6
100
AcDbEntity
  8
0
 62
     0
100
AcDbTrace
 10
323.6626124344325
 20
35.35542667550309
 30
0.0
 11
323.6626124344325
 21
35.30542667550309
 31
0.0
 12
323.8126124344325
 22
35.33042667550309
 32
0.0
 13
323.8126124344325
 23
35.33042667550309
 33
0.0
  0
MTEXT
  5
FEA
330
FE6
100
AcDbEntity
  8
0
 62
     0
100
AcDbMText
 10
323.3626124344325
 20
35.40542667550309
 30
0.0
 40
0.075
 41
0.0
 71
     5
 72
     1
  1
\A1;0.90
  7
ROMANC
 73
     1
 44
1.0
  0
POINT
  5
FEB
330
FE6
100
AcDbEntity
  8
DEFPOINTS
 62
     0
100
AcDbPoint
 10
322.9126124344325
 20
35.33042667550309
 30
0.0
  0
POINT
  5
FEC
330
FE6
100
AcDbEntity
  8
DEFPOINTS
 62
     0
100
AcDbPoint
 10
323.8126124344325
 20
35.33042667550309
 30
0.0
  0
POINT
  5
FED
330
FE6
100
AcDbEntity
  8
DEFPOINTS
 62
     0
100
AcDbPoint
 10
323.8126124344325
 20
35.33042667550309
 30
0.0
  0
ENDBLK
  5
FEF
330
FE6
100
AcDbEntity
  8
0
100
AcDbBlockEnd
  0
BLOCK
  5
FFB
330
FF1
100
AcDbEntity
  8
0
100
AcDbBlockBegin
  2
*D2
 70
     1
 10
0.0
 20
0.0
 30
0.0
  3
*D2
  1

  0
LINE
  5
FF2
330
FF1
100
AcDbEntity
  8
0
 62
     0
370
    -2
100
AcDbLine
 10
323.7276124344325
 20
34.33042667550309
 30
0.0
 11
324.0341680773874
 21
34.33042667550309
 31
0.0
  0
LINE
  5
FF3
330
FF1
100
AcDbEntity
  8
0
 62
     0
370
    -2
100
AcDbLine
 10
323.8276124344325
 20
35.33042667550309
 30
0.0
 11
324.0341680773874
 21
35.33042667550309
 31
0.0
  0
LINE
  5
FF4
330
FF1
100
AcDbEntity
  8
0
 62
     0
370
    -2
100
AcDbLine
 10
324.0191680773874
 20
34.48042667550309
 30
0.0
 11
324.0191680773874
 21
35.18042667550309
 31
0.0
  0
SOLID
  5
FF5
330
FF1
100
AcDbEntity
  8
0
 62
     0
100
AcDbTrace
 10
323.9941680773875
 20
34.48042667550309
 30
0.0
 11
324.0441680773874
 21
34.48042667550309
 31
0.0
 12
324.0191680773874
 22
34.33042667550309
 32
0.0
 13
324.0191680773874
 23
34.33042667550309
 33
0.0
  0
SOLID
  5
FF6
330
FF1
100
AcDbEntity
  8
0
 62
     0
100
AcDbTrace
 10
323.9941680773875
 20
35.18042667550309
 30
0.0
 11
324.0441680773874
 21
35.18042667550309
 31
0.0
 12
324.0191680773874
 22
35.33042667550309
 32
0.0
 13
324.0191680773874
 23
35.33042667550309
 33
0.0
  0
MTEXT
  5
FF7
330
FF1
100
AcDbEntity
  8
0
 62
     0
100
AcDbMText
 10
323.9441680773874
 20
34.83042667550314
 30
0.0
 40
0.075
 41
0.0
 71
     5
 72
     1
  1
\A1;1.00
  7
ROMANC
 11
0.0000000000000001
 21
1.0
 31
0.0
 73
     1
 44
1.0
  0
POINT
  5
FF8
330
FF1
100
AcDbEntity
  8
DEFPOINTS
 62
     0
100
AcDbPoint
 10
323.7126124344325
 20
34.33042667550309
 30
0.0
  0
POINT
  5
FF9
330
FF1
100
AcDbEntity
  8
DEFPOINTS
 62
     0
100
AcDbPoint
 10
323.8126124344325
 20
35.33042667550309
 30
0.0
  0
POINT
  5
FFA
330
FF1
100
AcDbEntity
  8
DEFPOINTS
 62
     0
100
AcDbPoint
 10
324.0191680773874
 20
35.33042667550309
 30
0.0
  0
ENDBLK
  5
FFC
330
FF1
100
AcDbEntity
  8
0
100
AcDbBlockEnd
  0
BLOCK
  5
1008
330
FFE
100
AcDbEntity
  8
0
100
AcDbBlockBegin
  2
*D3
 70
     1
 10
0.0
 20
0.0
 30
0.0
  3
*D3
  1

  0
LINE
  5
FFF
330
FFE
100
AcDbEntity
  8
0
 62
     0
370
    -2
100
AcDbLine
 10
323.3984431754283
 20
35.97903084917815
 30
0.0
 11
324.293392771148
 21
35.97903084917815
 31
0.0
  0
LINE
  5
1000
330
FFE
100
AcDbEntity
  8
0
 62
     0
370
    -2
100
AcDbLine
 10
323.7276124344325
 20
34.33042667550309
 30
0.0
 11
324.293392771148
 21
34.33042667550309
 31
0.0
  0
LINE
  5
1001
330
FFE
100
AcDbEntity
  8
0
 62
     0
370
    -2
100
AcDbLine
 10
324.2783927711481
 20
35.82903084917816
 30
0.0
 11
324.2783927711481
 21
34.48042667550309
 31
0.0
  0
SOLID
  5
1002
330
FFE
100
AcDbEntity
  8
0
 62
     0
100
AcDbTrace
 10
324.2533927711481
 20
35.82903084917816
 30
0.0
 11
324.3033927711481
 21
35.82903084917816
 31
0.0
 12
324.2783927711481
 22
35.97903084917815
 32
0.0
 13
324.2783927711481
 23
35.97903084917815
 33
0.0
  0
SOLID
  5
1003
330
FFE
100
AcDbEntity
  8
0
 62
     0
100
AcDbTrace
 10
324.2533927711481
 20
34.48042667550309
 30
0.0
 11
324.3033927711481
 21
34.48042667550309
 31
0.0
 12
324.2783927711481
 22
34.33042667550309
 32
0.0
 13
324.2783927711481
 23
34.33042667550309
 33
0.0
  0
MTEXT
  5
1004
330
FFE
100
AcDbEntity
  8
0
 62
     0
100
AcDbMText
 10
324.2033927711481
 20
35.15472876234067
 30
0.0
 40
0.075
 41
0.0
 71
     5
 72
     1
  1
\A1;1.65
  7
ROMANC
 11
0.0000000000000001
 21
1.0
 31
0.0
 73
     1
 44
1.0
  0
POINT
  5
1005
330
FFE
100
AcDbEntity
  8
DEFPOINTS
 62
     0
100
AcDbPoint
 10
323.3834431754284
 20
35.97903084917815
 30
0.0
  0
POINT
  5
1006
330
FFE
100
AcDbEntity
  8
DEFPOINTS
 62
     0
100
AcDbPoint
 10
323.7126124344325
 20
34.33042667550309
 30
0.0
  0
POINT
  5
1007
330
FFE
100
AcDbEntity
  8
DEFPOINTS
 62
     0
100
AcDbPoint
 10
324.2783927711481
 20
34.33042667550309
 30
0.0
  0
ENDBLK
  5
1009
330
FFE
100
AcDbEntity
  8
0
100
AcDbBlockEnd
  0
BLOCK
  5
102F
330
1025
100
AcDbEntity
  8
0
100
AcDbBlockBegin
  2
*D4
 70
     1
 10
0.0
 20
0.0
 30
0.0
  3
*D4
  1

  0
LINE
  5
1026
330
1025
100
AcDbEntity
  8
0
 62
     0
370
    -2
100
AcDbLine
 10
322.2553632761557
 20
34.13243169953524
 30
0.0
 11
322.2553632761557
 21
33.80841149540784
 31
0.0
  0
LINE
  5
1027
330
1025
100
AcDbEntity
  8
0
 62
     0
370
    -2
100
AcDbLine
 10
324.8053632761557
 20
34.13243169953524
 30
0.0
 11
324.8053632761557
 21
33.80841149540784
 31
0.0
  0
LINE
  5
1028
330
1025
100
AcDbEntity
  8
0
 62
     0
370
    -2
100
AcDbLine
 10
322.4053632761557
 20
33.82341149540784
 30
0.0
 11
324.6553632761558
 21
33.82341149540784
 31
0.0
  0
SOLID
  5
1029
330
1025
100
AcDbEntity
  8
0
 62
     0
100
AcDbTrace
 10
322.4053632761557
 20
33.84841149540784
 30
0.0
 11
322.4053632761557
 21
33.79841149540784
 31
0.0
 12
322.2553632761557
 22
33.82341149540784
 32
0.0
 13
322.2553632761557
 23
33.82341149540784
 33
0.0
  0
SOLID
  5
102A
330
1025
100
AcDbEntity
  8
0
 62
     0
100
AcDbTrace
 10
324.6553632761558
 20
33.84841149540784
 30
0.0
 11
324.6553632761558
 21
33.79841149540784
 31
0.0
 12
324.8053632761557
 22
33.82341149540784
 32
0.0
 13
324.8053632761557
 23
33.82341149540784
 33
0.0
  0
MTEXT
  5
102B
330
1025
100
AcDbEntity
  8
0
 62
     0
100
AcDbMText
 10
323.5303632761557
 20
33.89841149540785
 30
0.0
 40
0.075
 41
0.0
 71
     5
 72
     1
  1
\A1;2.55
  7
ROMANC
 73
     1
 44
1.0
  0
POINT
  5
102C
330
1025
100
AcDbEntity
  8
DEFPOINTS
 62
     0
100
AcDbPoint
 10
322.2553632761557
 20
34.14743169953524
 30
0.0
  0
POINT
  5
102D
330
1025
100
AcDbEntity
  8
DEFPOINTS
 62
     0
100
AcDbPoint
 10
324.8053632761557
 20
34.14743169953524
 30
0.0
  0
POINT
  5
102E
330
1025
100
AcDbEntity
  8
DEFPOINTS
 62
     0
100
AcDbPoint
 10
324.8053632761557
 20
33.82341149540784
 30
0.0
  0
ENDBLK
  5
1030
330
1025
100
AcDbEntity
  8
0
100
AcDbBlockEnd
  0
BLOCK
  5
103C
330
1032
100
AcDbEntity
  8
0
100
AcDbBlockBegin
  2
*D5
 70
     1
 10
0.0
 20
0.0
 30
0.0
  3
*D5
  1

  0
LINE
  5
1033
330
1032
100
AcDbEntity
  8
0
 62
     0
370
    -2
100
AcDbLine
 10
324.8203632761557
 20
34.14743169953524
 30
0.0
 11
325.1864775143192
 21
34.14743169953524
 31
0.0
  0
LINE
  5
1034
330
1032
100
AcDbEntity
  8
0
 62
     0
370
    -2
100
AcDbLine
 10
324.8203632761557
 20
36.54743169953523
 30
0.0
 11
325.1864775143192
 21
36.54743169953523
 31
0.0
  0
LINE
  5
1035
330
1032
100
AcDbEntity
  8
0
 62
     0
370
    -2
100
AcDbLine
 10
325.1714775143192
 20
34.29743169953523
 30
0.0
 11
325.1714775143192
 21
36.39743169953524
 31
0.0
  0
SOLID
  5
1036
330
1032
100
AcDbEntity
  8
0
 62
     0
100
AcDbTrace
 10
325.1464775143192
 20
34.29743169953523
 30
0.0
 11
325.1964775143192
 21
34.29743169953523
 31
0.0
 12
325.1714775143192
 22
34.14743169953524
 32
0.0
 13
325.1714775143192
 23
34.14743169953524
 33
0.0
  0
SOLID
  5
1037
330
1032
100
AcDbEntity
  8
0
 62
     0
100
AcDbTrace
 10
325.1464775143192
 20
36.39743169953524
 30
0.0
 11
325.1964775143192
 21
36.39743169953524
 31
0.0
 12
325.1714775143192
 22
36.54743169953523
 32
0.0
 13
325.1714775143192
 23
36.54743169953523
 33
0.0
  0
MTEXT
  5
1038
330
1032
100
AcDbEntity
  8
0
 62
     0
100
AcDbMText
 10
325.0964775143192
 20
35.34743169953528
 30
0.0
 40
0.075
 41
0.0
 71
     5
 72
     1
  1
\A1;2.40
  7
ROMANC
 11
0.0000000000000001
 21
1.0
 31
0.0
 73
     1
 44
1.0
  0
POINT
  5
1039
330
1032
100
AcDbEntity
  8
DEFPOINTS
 62
     0
100
AcDbPoint
 10
324.8053632761557
 20
34.14743169953524
 30
0.0
  0
POINT
  5
103A
330
1032
100
AcDbEntity
  8
DEFPOINTS
 62
     0
100
AcDbPoint
 10
324.8053632761557
 20
36.54743169953523
 30
0.0
  0
POINT
  5
103B
330
1032
100
AcDbEntity
  8
DEFPOINTS
 62
     0
100
AcDbPoint
 10
325.1714775143192
 20
36.54743169953523
 30
0.0
  0
ENDBLK
  5
103D
330
1032
100
AcDbEntity
  8
0
100
AcDbBlockEnd
  0
ENDSEC
  0
SECTION
  2
ENTITIES
  0
TEXT
  5
2A
330
17
100
AcDbEntity
  8
0
100
AcDbText
 10
321.7731487472426
 20
42.309482
 30
0.0
 40
0.3
  1
TIPUS   NT612B
  7
ROMANC
100
AcDbText
  0
TEXT
  5
2D
330
17
100
AcDbEntity
  8
0
100
AcDbText
 10
321.7819632635875
 20
40.49646044792456
 30
0.0
 40
0.3
  1
P = 99 dm
  7
ROMANC
100
AcDbText
  0
TEXT
  5
2E
330
17
100
AcDbEntity
  8
0
100
AcDbText
 10
321.760277983087
 20
41.10581332917407
 30
0.0
 40
0.3
  1
S = 612 dm
  7
ROMANC
100
AcDbText
  0
TEXT
  5
2F
330
17
100
AcDbEntity
  8
0
100
AcDbText
 10
321.7731487472426
 20
41.70440332917407
 30
0.0
 40
0.3
  1
ESCALA  1:50
  7
ROMANC
100
AcDbText
  0
TEXT
  5
30
330
17
100
AcDbEntity
  8
0
100
AcDbText
 10
324.9356092856618
 20
41.41172932917407
 30
0.0
 40
0.1
  1
2
  7
ROMANC
100
AcDbText
  0
LWPOLYLINE
  5
ED8
330
17
100
AcDbEntity
  8
0
100
AcDbPolyline
 90
        4
 70
     1
 43
0.0
 10
329.348696
 20
29.86362299999999
 10
329.348696
 20
44.713623
 10
318.848696
 20
44.713623
 10
318.848696
 20
29.86362299999999
  0
LWPOLYLINE
  5
1023
330
17
100
AcDbEntity
  8
0
100
AcDbPolyline
 90
        4
 70
     1
 43
0.0
 10
322.2553632761557
 20
34.14743169953524
 10
324.8053632761557
 20
34.14743169953524
 10
324.8053632761557
 20
36.54743169953523
 10
322.2553632761557
 20
36.54743169953523
  0
DIMENSION
  5
1024
330
17
100
AcDbEntity
  8
0
100
AcDbDimension
  2
*D4
 10
324.8053632761557
 20
33.82341149540784
 30
0.0
 11
323.5303632761557
 21
33.89841149540785
 31
0.0
 70
    32
 71
     5
 42
2.550000000000011
  3
MERITXELL
100
AcDbAlignedDimension
 13
322.2553632761557
 23
34.14743169953524
 33
0.0
 14
324.8053632761557
 24
34.14743169953524
 34
0.0
100
AcDbRotatedDimension
1001
ACAD
1000
DSTYLE
1002
{
1070
   141
1040
0.0
1070
   147
1040
0.025
1002
}
  0
DIMENSION
  5
1031
330
17
100
AcDbEntity
  8
0
100
AcDbDimension
  2
*D5
 10
325.1714775143192
 20
36.54743169953523
 30
0.0
 11
325.0964775143192
 21
35.34743169953528
 31
0.0
 70
    32
 71
     5
 42
2.399999999999998
  3
MERITXELL
100
AcDbAlignedDimension
 13
324.8053632761557
 23
34.14743169953524
 33
0.0
 14
324.8053632761557
 24
36.54743169953523
 34
0.0
 50
90.0
100
AcDbRotatedDimension
1001
ACAD
1000
DSTYLE
1002
{
1070
   141
1040
0.0
1070
   147
1040
0.025
1002
}
  0
LWPOLYLINE
  5
103E
330
17
100
AcDbEntity
  8
0
100
AcDbPolyline
 90
        4
 70
     1
 43
0.0
 10
322.2478632761557
 20
34.13993169953524
 10
324.8128632761557
 20
34.13993169953524
 10
324.8128632761557
 20
36.55493169953524
 10
322.2478632761557
 20
36.55493169953524
  0
LWPOLYLINE
  5
103F
330
17
100
AcDbEntity
  8
0
100
AcDbPolyline
 90
        4
 70
     1
 43
0.0
 10
322.2403632761558
 20
34.13243169953524
 10
324.8203632761557
 20
34.13243169953524
 10
324.8203632761557
 20
36.56243169953524
 10
322.2403632761558
 20
36.56243169953524
  0
VIEWPORT
  5
1011
330
14
100
AcDbEntity
 67
     1
  8
0
100
AcDbViewport
 10
98.98591613769532
 20
141.7425832748413
 30
0.0
 40
536.2015101998647
 41
314.1477025756836
 68
     1
 69
     1
 12
98.98591613769532
 22
141.7425832748413
 13
0.0
 23
0.0
 14
10.0
 24
10.0
 15
10.0
 25
10.0
 16
0.0
 26
0.0
 36
1.0
 17
0.0
 27
0.0
 37
0.0
 42
50.0
 43
0.0
 44
0.0
 45
314.1477025756836
 50
0.0
 51
0.0
 72
   100
 90
    32800
  1

281
     0
 71
     1
 74
     0
110
0.0
120
0.0
130
0.0
111
1.0
121
0.0
131
0.0
112
0.0
122
1.0
132
0.0
 79
     0
146
0.0
  0
VIEWPORT
  5
1013
330
14
100
AcDbEntity
 67
     1
  8
Finestra
100
AcDbViewport
 10
98.05176715372272
 20
142.9095510177477
 30
0.0
 40
188.2310181418715
 41
277.7383111740046
 68
     2
 69
     2
 12
324.1005717719679
 22
37.29169518569444
 13
0.0
 23
0.0
 14
1.0
 24
1.0
 15
10.0
 25
10.0
 16
0.0
 26
0.0
 36
1.0
 17
0.0
 27
0.0
 37
0.0
 42
50.0
 43
0.0
 44
0.0
 45
13.88691555870023
 50
0.0
 51
0.0
 72
   100
 90
    36864
  1

281
     0
 71
     1
 74
     0
110
0.0
120
0.0
130
0.0
111
1.0
121
0.0
131
0.0
112
0.0
122
1.0
132
0.0
 79
     0
146
0.0
  0
ENDSEC
  0
SECTION
  2
OBJECTS
  0
DICTIONARY
  5
C
330
0
100
AcDbDictionary
281
     1
  3
ACAD_GROUP
350
D
  3
ACAD_LAYOUT
350
FC0
  3
ACAD_MLINESTYLE
350
1A
  3
ACAD_PLOTSETTINGS
350
FC1
  3
ACAD_PLOTSTYLENAME
350
FBE
  3
ACDBVARIABLEDICTIONARY
350
25
  0
DICTIONARY
  5
D
102
{ACAD_REACTORS
330
C
102
}
330
C
100
AcDbDictionary
281
     1
  0
DICTIONARY
  5
FC0
102
{ACAD_REACTORS
330
C
102
}
330
C
100
AcDbDictionary
281
     1
  3
Model
350
FC2
  3
Presentación1
350
FC3
  0
DICTIONARY
  5
1A
102
{ACAD_REACTORS
330
C
102
}
330
C
100
AcDbDictionary
281
     1
  3
STANDARD
350
1B
  0
DICTIONARY
  5
FC1
102
{ACAD_REACTORS
330
C
102
}
330
C
100
AcDbDictionary
281
     1
  0
ACDBDICTIONARYWDFLT
  5
FBE
102
{ACAD_REACTORS
330
C
102
}
330
C
100
AcDbDictionary
281
     1
  3
Normal
350
FBF
100
AcDbDictionaryWithDefault
340
FBF
  0
DICTIONARY
  5
25
102
{ACAD_REACTORS
330
C
102
}
330
C
100
AcDbDictionary
281
     1
  3
DIMADEC
350
26
  3
SORTENTS
350
FD1
  0
LAYOUT
  5
FC2
102
{ACAD_REACTORS
330
FC0
102
}
330
FC0
100
AcDbPlotSettings
  1

  2
\\SERVIDOR1\PLOTTER750
  4

  6

 40
0.0
 41
0.0
 42
0.0
 43
0.0
 44
0.0
 45
0.0
 46
0.0
 47
0.0
 48
0.0
 49
0.0
140
0.0
141
0.0
142
1.0
143
1.0
 70
  1712
 72
     0
 73
     0
 74
     0
  7
standard.ctb
 75
     0
147
1.0
148
0.0
149
0.0
100
AcDbLayout
  1
Model
 70
     1
 71
     0
 10
0.0
 20
0.0
 11
12.0
 21
9.0
 12
0.0
 22
0.0
 32
0.0
 14
0.0
 24
0.0
 34
0.0
 15
0.0
 25
0.0
 35
0.0
146
0.0
 13
0.0
 23
0.0
 33
0.0
 16
1.0
 26
0.0
 36
0.0
 17
0.0
 27
1.0
 37
0.0
 76
     0
330
17
  0
LAYOUT
  5
FC3
102
{ACAD_REACTORS
330
FC0
102
}
330
FC0
100
AcDbPlotSettings
  1

  2
\\SERVIDOR1\LS3_4DEI
  4
A4
  6

 40
6.043083190917968
 41
6.720414161682128
 42
7.821090698242187
 43
5.027069091796875
 44
210.0579986572265
 45
296.9259948730469
 46
0.0
 47
0.0
 48
0.0
 49
0.0
140
0.0
141
0.0
142
1.0
143
1.0
 70
   688
 72
     1
 73
     0
 74
     5
  7
standard.ctb
 75
    16
147
1.0
148
0.0
149
0.0
100
AcDbLayout
  1
Presentación1
 70
     0
 71
     1
 10
-6.043083190917968
 20
-6.720414161682128
 11
204.0149154663085
 21
290.2055807113647
 12
0.0
 22
0.0
 32
0.0
 14
3.930167465879094
 24
4.031011496907353
 34
-0.0015258207003583
 15
192.1712532210956
 25
281.7874829664755
 35
0.0000000349246037
146
0.0
 13
0.0
 23
0.0
 33
0.0
 16
1.0
 26
0.0
 36
0.0
 17
0.0
 27
1.0
 37
0.0
 76
     0
330
14
331
1011
  0
MLINESTYLE
  5
1B
102
{ACAD_REACTORS
330
1A
102
}
330
1A
100
AcDbMlineStyle
  2
STANDARD
 70
     0
  3

 62
   256
 51
90.0
 52
90.0
 71
     2
 49
0.5
 62
   256
  6
BYLAYER
 49
-0.5
 62
   256
  6
BYLAYER
  0
ACDBPLACEHOLDER
  5
FBF
102
{ACAD_REACTORS
330
FBE
102
}
330
FBE
  0
DICTIONARYVAR
  5
26
102
{ACAD_REACTORS
330
25
102
}
330
25
100
DictionaryVariables
280
     0
  1
0
  0
DICTIONARYVAR
  5
FD1
102
{ACAD_REACTORS
330
25
102
}
330
25
100
DictionaryVariables
280
     0
  1
96
  0
ENDSEC
  0
EOF
