  0
SECTION
  2
HEADER
  9
$ACADVER
  1
AC1014
  9
$ACADMAINTVER
 70
     9
  9
$DWGCODEPAGE
  3
ANSI_1252
  9
$INSBASE
 10
0.0
 20
0.0
 30
0.0
  9
$EXTMIN
 10
281.3950692441341
 20
29.89657355491301
 30
-0.0015258207003583
  9
$EXTMAX
 10
291.8969308140735
 20
44.74748374051749
 30
0.0000000349246037
  9
$LIMMIN
 10
280.396
 20
28.89699999999999
  9
$LIMMAX
 10
292.896
 20
43.74699999999999
  9
$ORTHOMODE
 70
     1
  9
$REGENMODE
 70
     1
  9
$FILLMODE
 70
     1
  9
$QTEXTMODE
 70
     0
  9
$MIRRTEXT
 70
     1
  9
$DRAGMODE
 70
     2
  9
$LTSCALE
 40
1.0
  9
$OSMODE
 70
    15
  9
$ATTMODE
 70
     1
  9
$TEXTSIZE
 40
0.2
  9
$TRACEWID
 40
0.05
  9
$TEXTSTYLE
  7
STANDARD
  9
$CLAYER
  8
0
  9
$CELTYPE
  6
BYLAYER
  9
$CECOLOR
 62
   256
  9
$CELTSCALE
 40
1.0
  9
$DELOBJ
 70
     1
  9
$DISPSILH
 70
     0
  9
$DIMSCALE
 40
1.0
  9
$DIMASZ
 40
0.18
  9
$DIMEXO
 40
0.0625
  9
$DIMDLI
 40
0.38
  9
$DIMRND
 40
0.0
  9
$DIMDLE
 40
0.0
  9
$DIMEXE
 40
0.18
  9
$DIMTP
 40
0.0
  9
$DIMTM
 40
0.0
  9
$DIMTXT
 40
0.15
  9
$DIMCEN
 40
0.09
  9
$DIMTSZ
 40
0.0
  9
$DIMTOL
 70
     0
  9
$DIMLIM
 70
     0
  9
$DIMTIH
 70
     1
  9
$DIMTOH
 70
     1
  9
$DIMSE1
 70
     0
  9
$DIMSE2
 70
     0
  9
$DIMTAD
 70
     0
  9
$DIMZIN
 70
     0
  9
$DIMBLK
  1

  9
$DIMASO
 70
     1
  9
$DIMSHO
 70
     1
  9
$DIMPOST
  1

  9
$DIMAPOST
  1

  9
$DIMALT
 70
     0
  9
$DIMALTD
 70
     2
  9
$DIMALTF
 40
25.4
  9
$DIMLFAC
 40
1.0
  9
$DIMTOFL
 70
     0
  9
$DIMTVP
 40
0.0
  9
$DIMTIX
 70
     0
  9
$DIMSOXD
 70
     0
  9
$DIMSAH
 70
     0
  9
$DIMBLK1
  1

  9
$DIMBLK2
  1

  9
$DIMSTYLE
  2
STANDARD
  9
$DIMCLRD
 70
     0
  9
$DIMCLRE
 70
     0
  9
$DIMCLRT
 70
     0
  9
$DIMTFAC
 40
1.0
  9
$DIMGAP
 40
0.09
  9
$DIMJUST
 70
     0
  9
$DIMSD1
 70
     0
  9
$DIMSD2
 70
     0
  9
$DIMTOLJ
 70
     1
  9
$DIMTZIN
 70
     0
  9
$DIMALTZ
 70
     0
  9
$DIMALTTZ
 70
     0
  9
$DIMFIT
 70
     3
  9
$DIMUPT
 70
     0
  9
$DIMUNIT
 70
     2
  9
$DIMDEC
 70
     2
  9
$DIMTDEC
 70
     2
  9
$DIMALTU
 70
     2
  9
$DIMALTTD
 70
     2
  9
$DIMTXSTY
  7
STANDARD
  9
$DIMAUNIT
 70
     0
  9
$LUNITS
 70
     2
  9
$LUPREC
 70
     4
  9
$SKETCHINC
 40
0.1
  9
$FILLETRAD
 40
0.0
  9
$AUNITS
 70
     0
  9
$AUPREC
 70
     0
  9
$MENU
  1
acad
  9
$ELEVATION
 40
0.0
  9
$PELEVATION
 40
0.0
  9
$THICKNESS
 40
0.0
  9
$LIMCHECK
 70
     0
  9
$BLIPMODE
 70
     0
  9
$CHAMFERA
 40
0.0
  9
$CHAMFERB
 40
0.0
  9
$CHAMFERC
 40
0.0
  9
$CHAMFERD
 40
0.0
  9
$SKPOLY
 70
     0
  9
$TDCREATE
 40
2448315.331741435
  9
$TDUPDATE
 40
2453039.453019711
  9
$TDINDWG
 40
0.0467535764
  9
$TDUSRTIMER
 40
0.0467532176
  9
$USRTIMER
 70
     1
  9
$ANGBASE
 50
0.0
  9
$ANGDIR
 70
     0
  9
$PDMODE
 70
     0
  9
$PDSIZE
 40
0.0
  9
$PLINEWID
 40
0.0
  9
$COORDS
 70
     1
  9
$SPLFRAME
 70
     0
  9
$SPLINETYPE
 70
     6
  9
$SPLINESEGS
 70
     8
  9
$ATTDIA
 70
     0
  9
$ATTREQ
 70
     1
  9
$HANDLING
 70
 22529
  9
$HANDSEED
  5
4B8
  9
$SURFTAB1
 70
     6
  9
$SURFTAB2
 70
     6
  9
$SURFTYPE
 70
     6
  9
$SURFU
 70
     6
  9
$SURFV
 70
     6
  9
$UCSNAME
  2

  9
$UCSORG
 10
0.0
 20
0.0
 30
0.0
  9
$UCSXDIR
 10
1.0
 20
0.0
 30
0.0
  9
$UCSYDIR
 10
0.0
 20
1.0
 30
0.0
  9
$PUCSNAME
  2

  9
$PUCSORG
 10
0.0
 20
0.0
 30
0.0
  9
$PUCSXDIR
 10
1.0
 20
0.0
 30
0.0
  9
$PUCSYDIR
 10
0.0
 20
1.0
 30
0.0
  9
$USERI1
 70
     0
  9
$USERI2
 70
     0
  9
$USERI3
 70
     0
  9
$USERI4
 70
     0
  9
$USERI5
 70
     0
  9
$USERR1
 40
0.0
  9
$USERR2
 40
0.0
  9
$USERR3
 40
0.0
  9
$USERR4
 40
0.0
  9
$USERR5
 40
0.0
  9
$WORLDVIEW
 70
     1
  9
$SHADEDGE
 70
     3
  9
$SHADEDIF
 70
    70
  9
$TILEMODE
 70
     1
  9
$MAXACTVP
 70
    16
  9
$PINSBASE
 10
0.0
 20
0.0
 30
0.0
  9
$PLIMCHECK
 70
     0
  9
$PEXTMIN
 10
1.000000000000000E+20
 20
1.000000000000000E+20
 30
1.000000000000000E+20
  9
$PEXTMAX
 10
-1.000000000000000E+20
 20
-1.000000000000000E+20
 30
-1.000000000000000E+20
  9
$PLIMMIN
 10
0.0
 20
0.0
  9
$PLIMMAX
 10
12.0
 20
9.0
  9
$UNITMODE
 70
     0
  9
$VISRETAIN
 70
     0
  9
$PLINEGEN
 70
     0
  9
$PSLTSCALE
 70
     1
  9
$TREEDEPTH
 70
  3020
  9
$PICKSTYLE
 70
     1
  9
$CMLSTYLE
  2
STANDARD
  9
$CMLJUST
 70
     0
  9
$CMLSCALE
 40
1.0
  9
$PROXYGRAPHICS
 70
     1
  9
$MEASUREMENT
 70
     0
  0
ENDSEC
  0
SECTION
  2
CLASSES
  0
CLASS
  1
ACDBDICTIONARYWDFLT
  2
AcDbDictionaryWithDefault
  3
AutoCAD 2000
 90
        0
280
     0
281
     0
  0
CLASS
  1
ACDBPLACEHOLDER
  2
AcDbPlaceHolder
  3
AutoCAD 2000
 90
        0
280
     0
281
     0
  0
CLASS
  1
LAYOUT
  2
AcDbLayout
  3
AutoCAD 2000
 90
        0
280
     0
281
     0
  0
CLASS
  1
DICTIONARYVAR
  2
AcDbDictionaryVar
  3
AutoCAD 2000
 90
        0
280
     0
281
     0
  0
CLASS
  1
LONG_TRANSACTION
  2
AcDbLongTransaction
  3
AutoCAD 2000
 90
        0
280
     0
281
     0
  0
CLASS
  1
LWPOLYLINE
  2
AcDbPolyline
  3
AutoCAD 2000
 90
        0
280
     0
281
     1
  0
CLASS
  1
HATCH
  2
AcDbHatch
  3
AutoCAD 2000
 90
        0
280
     0
281
     1
  0
CLASS
  1
XRECORD
  2
AcDbXrecord
  3
AutoCAD 2000
 90
        0
280
     0
281
     0
  0
CLASS
  1
LONG_TRANSACTION
  2
AcDbLongTransaction
  3
AutoCAD 2000
 90
        0
280
     0
281
     0
  0
CLASS
  1
LWPOLYLINE
  2
AcDbPolyline
  3
AutoCAD 2000
 90
        0
280
     0
281
     1
  0
CLASS
  1
HATCH
  2
AcDbHatch
  3
AutoCAD 2000
 90
        0
280
     0
281
     1
  0
CLASS
  1
XRECORD
  2
AcDbXrecord
  3
AutoCAD 2000
 90
        0
280
     0
281
     0
  0
ENDSEC
  0
SECTION
  2
TABLES
  0
TABLE
  2
VPORT
  5
8
330
0
100
AcDbSymbolTable
 70
     3
  0
VPORT
  5
495
330
8
100
AcDbSymbolTableRecord
100
AcDbViewportTableRecord
  2
*ACTIVE
 70
     0
 10
0.0
 20
0.0
 11
1.0
 21
1.0
 12
284.5696638365502
 22
36.41420557949631
 13
0.0
 23
0.0
 14
1.0
 24
1.0
 15
0.0
 25
0.0
 16
0.0
 26
0.0
 36
1.0
 17
0.0
 27
0.0
 37
0.0
 40
19.4512552883284
 41
1.551679586563307
 42
50.0
 43
0.0
 44
0.0
 50
0.0
 51
0.0
 71
     0
 72
   100
 73
     1
 74
     1
 75
     0
 76
     0
 77
     0
 78
     0
  0
ENDTAB
  0
TABLE
  2
LTYPE
  5
5
330
0
100
AcDbSymbolTable
 70
     1
  0
LTYPE
  5
13
330
5
100
AcDbSymbolTableRecord
100
AcDbLinetypeTableRecord
  2
BYBLOCK
 70
     0
  3

 72
    65
 73
     0
 40
0.0
  0
LTYPE
  5
14
330
5
100
AcDbSymbolTableRecord
100
AcDbLinetypeTableRecord
  2
BYLAYER
 70
     0
  3

 72
    65
 73
     0
 40
0.0
  0
LTYPE
  5
15
330
5
100
AcDbSymbolTableRecord
100
AcDbLinetypeTableRecord
  2
CONTINUOUS
 70
     0
  3
Solid line
 72
    65
 73
     0
 40
0.0
  0
ENDTAB
  0
TABLE
  2
LAYER
  5
2
330
0
100
AcDbSymbolTable
 70
     9
  0
LAYER
  5
10
330
2
100
AcDbSymbolTableRecord
100
AcDbLayerTableRecord
  2
0
 70
     0
 62
     7
  6
CONTINUOUS
  0
LAYER
  5
22
330
2
100
AcDbSymbolTableRecord
100
AcDbLayerTableRecord
  2
1
 70
     0
 62
     7
  6
CONTINUOUS
  0
LAYER
  5
23
330
2
100
AcDbSymbolTableRecord
100
AcDbLayerTableRecord
  2
7
 70
     0
 62
     7
  6
CONTINUOUS
  0
LAYER
  5
24
330
2
100
AcDbSymbolTableRecord
100
AcDbLayerTableRecord
  2
8
 70
     0
 62
     7
  6
CONTINUOUS
  0
LAYER
  5
25
330
2
100
AcDbSymbolTableRecord
100
AcDbLayerTableRecord
  2
9
 70
     0
 62
     7
  6
CONTINUOUS
  0
LAYER
  5
26
330
2
100
AcDbSymbolTableRecord
100
AcDbLayerTableRecord
  2
22
 70
     0
 62
     7
  6
CONTINUOUS
  0
LAYER
  5
27
330
2
100
AcDbSymbolTableRecord
100
AcDbLayerTableRecord
  2
25
 70
     0
 62
     7
  6
CONTINUOUS
  0
LAYER
  5
78
330
2
100
AcDbSymbolTableRecord
100
AcDbLayerTableRecord
  2
DEFPOINTS
 70
     0
 62
     7
  6
CONTINUOUS
  0
LAYER
  5
1E7
330
2
100
AcDbSymbolTableRecord
100
AcDbLayerTableRecord
  2
NO_PRINT
 70
     0
 62
     7
  6
CONTINUOUS
  0
ENDTAB
  0
TABLE
  2
STYLE
  5
3
330
0
100
AcDbSymbolTable
 70
     2
  0
STYLE
  5
11
330
3
100
AcDbSymbolTableRecord
100
AcDbTextStyleTableRecord
  2
STANDARD
 70
     0
 40
0.0
 41
1.0
 50
0.0
 71
     0
 42
0.2
  3
txt
  4

  0
STYLE
  5
28
330
3
100
AcDbSymbolTableRecord
100
AcDbTextStyleTableRecord
  2
ROMANC
 70
     0
 40
0.0
 41
1.0
 50
0.0
 71
     0
 42
0.2
  3
ROMANC
  4

  0
ENDTAB
  0
TABLE
  2
VIEW
  5
6
330
0
100
AcDbSymbolTable
 70
     0
  0
ENDTAB
  0
TABLE
  2
UCS
  5
7
330
0
100
AcDbSymbolTable
 70
     0
  0
ENDTAB
  0
TABLE
  2
APPID
  5
9
330
0
100
AcDbSymbolTable
 70
     1
  0
APPID
  5
12
330
9
100
AcDbSymbolTableRecord
100
AcDbRegAppTableRecord
  2
ACAD
 70
     0
  0
ENDTAB
  0
TABLE
  2
DIMSTYLE
  5
A
330
0
100
AcDbSymbolTable
 70
     1
  0
DIMSTYLE
105
6B
102
{ACAD_REACTORS
330
428
330
436
330
444
330
452
330
460
330
46E
102
}
330
A
100
AcDbSymbolTableRecord
100
AcDbDimStyleTableRecord
  2
STANDARD
 70
     0
  3

  4

  5

  6

  7

 40
1.0
 41
0.18
 42
0.0625
 43
0.38
 44
0.18
 45
0.0
 46
0.0
 47
0.0
 48
0.0
140
0.15
141
0.09
142
0.0
143
25.4
144
1.0
145
0.0
146
1.0
147
0.09
 71
     0
 72
     0
 73
     1
 74
     1
 75
     0
 76
     0
 77
     0
 78
     0
170
     0
171
     2
172
     0
173
     0
174
     0
175
     0
176
     0
177
     0
178
     0
270
     2
271
     2
272
     2
273
     2
274
     2
340
11
275
     0
280
     0
281
     0
282
     0
283
     1
284
     0
285
     0
286
     0
287
     3
288
     0
  0
ENDTAB
  0
TABLE
  2
BLOCK_RECORD
  5
1
330
0
100
AcDbSymbolTable
 70
    19
  0
BLOCK_RECORD
  5
1E
102
{ACAD_XDICTIONARY
360
39D
102
}
330
1
100
AcDbSymbolTableRecord
100
AcDbBlockTableRecord
  2
*MODEL_SPACE
  0
BLOCK_RECORD
  5
1A
102
{ACAD_XDICTIONARY
360
39F
102
}
330
1
100
AcDbSymbolTableRecord
100
AcDbBlockTableRecord
  2
*PAPER_SPACE
  0
BLOCK_RECORD
  5
37E
330
1
100
AcDbSymbolTableRecord
100
AcDbBlockTableRecord
  2
*D7
  0
BLOCK_RECORD
  5
38C
330
1
100
AcDbSymbolTableRecord
100
AcDbBlockTableRecord
  2
*D8
  0
BLOCK_RECORD
  5
3E7
330
1
100
AcDbSymbolTableRecord
100
AcDbBlockTableRecord
  2
*D9
  0
BLOCK_RECORD
  5
3F5
330
1
100
AcDbSymbolTableRecord
100
AcDbBlockTableRecord
  2
*D10
  0
BLOCK_RECORD
  5
403
330
1
100
AcDbSymbolTableRecord
100
AcDbBlockTableRecord
  2
*D11
  0
BLOCK_RECORD
  5
411
330
1
100
AcDbSymbolTableRecord
100
AcDbBlockTableRecord
  2
*D12
  0
BLOCK_RECORD
  5
429
330
1
100
AcDbSymbolTableRecord
100
AcDbBlockTableRecord
  2
*D13
  0
BLOCK_RECORD
  5
437
330
1
100
AcDbSymbolTableRecord
100
AcDbBlockTableRecord
  2
*D14
  0
BLOCK_RECORD
  5
445
330
1
100
AcDbSymbolTableRecord
100
AcDbBlockTableRecord
  2
*D15
  0
BLOCK_RECORD
  5
453
330
1
100
AcDbSymbolTableRecord
100
AcDbBlockTableRecord
  2
*D16
  0
BLOCK_RECORD
  5
461
330
1
100
AcDbSymbolTableRecord
100
AcDbBlockTableRecord
  2
*D17
  0
BLOCK_RECORD
  5
46F
330
1
100
AcDbSymbolTableRecord
100
AcDbBlockTableRecord
  2
*D18
  0
ENDTAB
  0
ENDSEC
  0
SECTION
  2
BLOCKS
  0
BLOCK
  5
1F
330
1E
100
AcDbEntity
  8
0
100
AcDbBlockBegin
  2
*MODEL_SPACE
 70
     0
 10
0.0
 20
0.0
 30
0.0
  3
*MODEL_SPACE
  1

  0
ENDBLK
  5
20
330
1E
100
AcDbEntity
  8
0
100
AcDbBlockEnd
  0
BLOCK
  5
1B
330
1A
100
AcDbEntity
 67
     1
  8
0
100
AcDbBlockBegin
  2
*PAPER_SPACE
 70
     0
 10
0.0
 20
0.0
 30
0.0
  3
*PAPER_SPACE
  1

  0
ENDBLK
  5
1C
330
1A
100
AcDbEntity
 67
     1
  8
0
100
AcDbBlockEnd
  0
BLOCK
  5
389
330
37E
100
AcDbEntity
  8
0
100
AcDbBlockBegin
  2
*D7
 70
     1
 10
0.0
 20
0.0
 30
0.0
  3
*D7
  1

  0
LINE
  5
37F
330
37E
100
AcDbEntity
  8
0
 62
     0
100
AcDbLine
 10
284.2957845143154
 20
37.82957037256886
 30
0.0
 11
284.2957845143154
 21
38.64261680114426
 31
0.0
  0
LINE
  5
380
330
37E
100
AcDbEntity
  8
0
 62
     0
100
AcDbLine
 10
287.2957845143154
 20
37.82957037256886
 30
0.0
 11
287.2957845143154
 21
38.64261680114426
 31
0.0
  0
LINE
  5
381
330
37E
100
AcDbEntity
  8
0
 62
     0
100
AcDbLine
 10
284.4757845143154
 20
38.46261680114425
 30
0.0
 11
285.5057845143154
 21
38.46261680114425
 31
0.0
  0
LINE
  5
382
330
37E
100
AcDbEntity
  8
0
 62
     0
100
AcDbLine
 10
287.1157845143154
 20
38.46261680114425
 30
0.0
 11
286.0857845143154
 21
38.46261680114425
 31
0.0
  0
SOLID
  5
383
330
37E
100
AcDbEntity
  8
0
 62
     0
100
AcDbTrace
 10
284.4757845143154
 20
38.49261680114425
 30
0.0
 11
284.4757845143154
 21
38.43261680114425
 31
0.0
 12
284.2957845143154
 22
38.46261680114425
 32
0.0
 13
284.2957845143154
 23
38.46261680114425
 33
0.0
  0
SOLID
  5
384
330
37E
100
AcDbEntity
  8
0
 62
     0
100
AcDbTrace
 10
287.1157845143154
 20
38.49261680114425
 30
0.0
 11
287.1157845143154
 21
38.43261680114425
 31
0.0
 12
287.2957845143154
 22
38.46261680114425
 32
0.0
 13
287.2957845143154
 23
38.46261680114425
 33
0.0
  0
MTEXT
  5
385
330
37E
100
AcDbEntity
  8
0
 62
     0
100
AcDbMText
 10
285.7957845143154
 20
38.46261680114425
 30
0.0
 40
0.15
 41
0.0
 71
     5
 72
     1
  1
\A1;3.00
1001
ACAD
1000
MTEXTBEGIN
1070
    73
1070
     1
1070
    44
1040
1.0
1070
    74
1070
     0
1000
MTEXTEND
  0
POINT
  5
386
330
37E
100
AcDbEntity
  8
DEFPOINTS
 62
     0
100
AcDbPoint
 10
284.2957845143154
 20
37.76707037256886
 30
0.0
  0
POINT
  5
387
330
37E
100
AcDbEntity
  8
DEFPOINTS
 62
     0
100
AcDbPoint
 10
287.2957845143154
 20
37.76707037256886
 30
0.0
  0
POINT
  5
388
330
37E
100
AcDbEntity
  8
DEFPOINTS
 62
     0
100
AcDbPoint
 10
287.2957845143154
 20
38.46261680114425
 30
0.0
  0
ENDBLK
  5
38A
330
37E
100
AcDbEntity
  8
0
100
AcDbBlockEnd
  0
BLOCK
  5
397
330
38C
100
AcDbEntity
  8
0
100
AcDbBlockBegin
  2
*D8
 70
     1
 10
0.0
 20
0.0
 30
0.0
  3
*D8
  1

  0
LINE
  5
38D
330
38C
100
AcDbEntity
  8
0
 62
     0
100
AcDbLine
 10
287.3582845143154
 20
37.76707037256886
 30
0.0
 11
288.400759920387
 21
37.76707037256886
 31
0.0
  0
LINE
  5
38E
330
38C
100
AcDbEntity
  8
0
 62
     0
100
AcDbLine
 10
287.3582845143154
 20
35.01707037256886
 30
0.0
 11
288.400759920387
 21
35.01707037256886
 31
0.0
  0
LINE
  5
38F
330
38C
100
AcDbEntity
  8
0
 62
     0
100
AcDbLine
 10
288.220759920387
 20
37.58707037256886
 30
0.0
 11
288.220759920387
 21
36.55707037256886
 31
0.0
  0
LINE
  5
390
330
38C
100
AcDbEntity
  8
0
 62
     0
100
AcDbLine
 10
288.220759920387
 20
35.19707037256885
 30
0.0
 11
288.220759920387
 21
36.22707037256886
 31
0.0
  0
SOLID
  5
391
330
38C
100
AcDbEntity
  8
0
 62
     0
100
AcDbTrace
 10
288.190759920387
 20
37.58707037256886
 30
0.0
 11
288.250759920387
 21
37.58707037256886
 31
0.0
 12
288.220759920387
 22
37.76707037256886
 32
0.0
 13
288.220759920387
 23
37.76707037256886
 33
0.0
  0
SOLID
  5
392
330
38C
100
AcDbEntity
  8
0
 62
     0
100
AcDbTrace
 10
288.190759920387
 20
35.19707037256885
 30
0.0
 11
288.250759920387
 21
35.19707037256885
 31
0.0
 12
288.220759920387
 22
35.01707037256886
 32
0.0
 13
288.220759920387
 23
35.01707037256886
 33
0.0
  0
MTEXT
  5
393
330
38C
100
AcDbEntity
  8
0
 62
     0
100
AcDbMText
 10
288.220759920387
 20
36.39207037256891
 30
0.0
 40
0.15
 41
0.0
 71
     5
 72
     1
  1
\A1;2.75
1001
ACAD
1000
MTEXTBEGIN
1070
    73
1070
     1
1070
    44
1040
1.0
1070
    74
1070
     0
1000
MTEXTEND
  0
POINT
  5
394
330
38C
100
AcDbEntity
  8
DEFPOINTS
 62
     0
100
AcDbPoint
 10
287.2957845143154
 20
37.76707037256886
 30
0.0
  0
POINT
  5
395
330
38C
100
AcDbEntity
  8
DEFPOINTS
 62
     0
100
AcDbPoint
 10
287.2957845143154
 20
35.01707037256886
 30
0.0
  0
POINT
  5
396
330
38C
100
AcDbEntity
  8
DEFPOINTS
 62
     0
100
AcDbPoint
 10
288.220759920387
 20
35.01707037256886
 30
0.0
  0
ENDBLK
  5
398
330
38C
100
AcDbEntity
  8
0
100
AcDbBlockEnd
  0
BLOCK
  5
3F2
330
3E7
100
AcDbEntity
  8
0
100
AcDbBlockBegin
  2
*D9
 70
     1
 10
0.0
 20
0.0
 30
0.0
  3
*D9
  1

  0
LINE
  5
3E8
330
3E7
100
AcDbEntity
  8
0
 62
     0
100
AcDbLine
 10
284.541732011546
 20
37.16419166794542
 30
0.0
 11
284.541732011546
 21
33.2983305135049
 31
0.0
  0
LINE
  5
3E9
330
3E7
100
AcDbEntity
  8
0
 62
     0
100
AcDbLine
 10
287.391732011546
 20
37.16419166794542
 30
0.0
 11
287.391732011546
 21
33.2983305135049
 31
0.0
  0
LINE
  5
3EA
330
3E7
100
AcDbEntity
  8
0
 62
     0
100
AcDbLine
 10
284.721732011546
 20
33.4783305135049
 30
0.0
 11
285.6517320115461
 21
33.4783305135049
 31
0.0
  0
LINE
  5
3EB
330
3E7
100
AcDbEntity
  8
0
 62
     0
100
AcDbLine
 10
287.211732011546
 20
33.4783305135049
 30
0.0
 11
286.281732011546
 21
33.4783305135049
 31
0.0
  0
SOLID
  5
3EC
330
3E7
100
AcDbEntity
  8
0
 62
     0
100
AcDbTrace
 10
284.721732011546
 20
33.5083305135049
 30
0.0
 11
284.721732011546
 21
33.4483305135049
 31
0.0
 12
284.541732011546
 22
33.4783305135049
 32
0.0
 13
284.541732011546
 23
33.4783305135049
 33
0.0
  0
SOLID
  5
3ED
330
3E7
100
AcDbEntity
  8
0
 62
     0
100
AcDbTrace
 10
287.211732011546
 20
33.5083305135049
 30
0.0
 11
287.211732011546
 21
33.4483305135049
 31
0.0
 12
287.391732011546
 22
33.4783305135049
 32
0.0
 13
287.391732011546
 23
33.4783305135049
 33
0.0
  0
MTEXT
  5
3EE
330
3E7
100
AcDbEntity
  8
0
 62
     0
100
AcDbMText
 10
285.966732011546
 20
33.4783305135049
 30
0.0
 40
0.15
 41
0.0
 71
     5
 72
     1
  1
\A1;2.85
1001
ACAD
1000
MTEXTBEGIN
1070
    73
1070
     1
1070
    44
1040
1.0
1070
    74
1070
     0
1000
MTEXTEND
  0
POINT
  5
3EF
330
3E7
100
AcDbEntity
  8
DEFPOINTS
 62
     0
100
AcDbPoint
 10
284.541732011546
 20
37.22669166794542
 30
0.0
  0
POINT
  5
3F0
330
3E7
100
AcDbEntity
  8
DEFPOINTS
 62
     0
100
AcDbPoint
 10
287.391732011546
 20
37.22669166794542
 30
0.0
  0
POINT
  5
3F1
330
3E7
100
AcDbEntity
  8
DEFPOINTS
 62
     0
100
AcDbPoint
 10
287.391732011546
 20
33.4783305135049
 30
0.0
  0
ENDBLK
  5
3F3
330
3E7
100
AcDbEntity
  8
0
100
AcDbBlockEnd
  0
BLOCK
  5
400
330
3F5
100
AcDbEntity
  8
0
100
AcDbBlockBegin
  2
*D10
 70
     1
 10
0.0
 20
0.0
 30
0.0
  3
*D10
  1

  0
LINE
  5
3F6
330
3F5
100
AcDbEntity
  8
0
 62
     0
100
AcDbLine
 10
285.291732011546
 20
34.61419166794542
 30
0.0
 11
285.291732011546
 21
33.7312758000333
 31
0.0
  0
LINE
  5
3F7
330
3F5
100
AcDbEntity
  8
0
 62
     0
100
AcDbLine
 10
286.791732011546
 20
34.61419166794542
 30
0.0
 11
286.791732011546
 21
33.7312758000333
 31
0.0
  0
LINE
  5
3F8
330
3F5
100
AcDbEntity
  8
0
 62
     0
100
AcDbLine
 10
285.471732011546
 20
33.9112758000333
 30
0.0
 11
285.7642320115461
 21
33.9112758000333
 31
0.0
  0
LINE
  5
3F9
330
3F5
100
AcDbEntity
  8
0
 62
     0
100
AcDbLine
 10
286.611732011546
 20
33.9112758000333
 30
0.0
 11
286.319232011546
 21
33.9112758000333
 31
0.0
  0
SOLID
  5
3FA
330
3F5
100
AcDbEntity
  8
0
 62
     0
100
AcDbTrace
 10
285.471732011546
 20
33.9412758000333
 30
0.0
 11
285.471732011546
 21
33.8812758000333
 31
0.0
 12
285.291732011546
 22
33.9112758000333
 32
0.0
 13
285.291732011546
 23
33.9112758000333
 33
0.0
  0
SOLID
  5
3FB
330
3F5
100
AcDbEntity
  8
0
 62
     0
100
AcDbTrace
 10
286.611732011546
 20
33.9412758000333
 30
0.0
 11
286.611732011546
 21
33.8812758000333
 31
0.0
 12
286.791732011546
 22
33.9112758000333
 32
0.0
 13
286.791732011546
 23
33.9112758000333
 33
0.0
  0
MTEXT
  5
3FC
330
3F5
100
AcDbEntity
  8
0
 62
     0
100
AcDbMText
 10
286.041732011546
 20
33.9112758000333
 30
0.0
 40
0.15
 41
0.0
 71
     5
 72
     1
  1
\A1;1.50
1001
ACAD
1000
MTEXTBEGIN
1070
    73
1070
     1
1070
    44
1040
1.0
1070
    74
1070
     0
1000
MTEXTEND
  0
POINT
  5
3FD
330
3F5
100
AcDbEntity
  8
DEFPOINTS
 62
     0
100
AcDbPoint
 10
285.291732011546
 20
34.67669166794542
 30
0.0
  0
POINT
  5
3FE
330
3F5
100
AcDbEntity
  8
DEFPOINTS
 62
     0
100
AcDbPoint
 10
286.791732011546
 20
34.67669166794542
 30
0.0
  0
POINT
  5
3FF
330
3F5
100
AcDbEntity
  8
DEFPOINTS
 62
     0
100
AcDbPoint
 10
286.791732011546
 20
33.9112758000333
 30
0.0
  0
ENDBLK
  5
401
330
3F5
100
AcDbEntity
  8
0
100
AcDbBlockEnd
  0
BLOCK
  5
40E
330
403
100
AcDbEntity
  8
0
100
AcDbBlockBegin
  2
*D11
 70
     1
 10
0.0
 20
0.0
 30
0.0
  3
*D11
  1

  0
LINE
  5
404
330
403
100
AcDbEntity
  8
0
 62
     0
100
AcDbLine
 10
285.291732011546
 20
34.91419166794542
 30
0.0
 11
285.291732011546
 21
34.09206357864775
 31
0.0
  0
LINE
  5
405
330
403
100
AcDbEntity
  8
0
 62
     0
100
AcDbLine
 10
284.541732011546
 20
34.91419166794542
 30
0.0
 11
284.541732011546
 21
34.09206357864775
 31
0.0
  0
LINE
  5
406
330
403
100
AcDbEntity
  8
0
 62
     0
100
AcDbLine
 10
285.471732011546
 20
34.27206357864775
 30
0.0
 11
285.6517320115461
 21
34.27206357864775
 31
0.0
  0
LINE
  5
407
330
403
100
AcDbEntity
  8
0
 62
     0
100
AcDbLine
 10
284.361732011546
 20
34.27206357864775
 30
0.0
 11
284.181732011546
 21
34.27206357864775
 31
0.0
  0
SOLID
  5
408
330
403
100
AcDbEntity
  8
0
 62
     0
100
AcDbTrace
 10
285.471732011546
 20
34.30206357864775
 30
0.0
 11
285.471732011546
 21
34.24206357864775
 31
0.0
 12
285.291732011546
 22
34.27206357864775
 32
0.0
 13
285.291732011546
 23
34.27206357864775
 33
0.0
  0
SOLID
  5
409
330
403
100
AcDbEntity
  8
0
 62
     0
100
AcDbTrace
 10
284.361732011546
 20
34.30206357864775
 30
0.0
 11
284.361732011546
 21
34.24206357864775
 31
0.0
 12
284.541732011546
 22
34.27206357864775
 32
0.0
 13
284.541732011546
 23
34.27206357864775
 33
0.0
  0
MTEXT
  5
40A
330
403
100
AcDbEntity
  8
0
 62
     0
100
AcDbMText
 10
284.916732011546
 20
34.27206357864775
 30
0.0
 40
0.15
 41
0.0
 71
     5
 72
     1
  1
\A1;0.75
1001
ACAD
1000
MTEXTBEGIN
1070
    73
1070
     1
1070
    44
1040
1.0
1070
    74
1070
     0
1000
MTEXTEND
  0
POINT
  5
40B
330
403
100
AcDbEntity
  8
DEFPOINTS
 62
     0
100
AcDbPoint
 10
285.291732011546
 20
34.97669166794542
 30
0.0
  0
POINT
  5
40C
330
403
100
AcDbEntity
  8
DEFPOINTS
 62
     0
100
AcDbPoint
 10
284.541732011546
 20
34.97669166794542
 30
0.0
  0
POINT
  5
40D
330
403
100
AcDbEntity
  8
DEFPOINTS
 62
     0
100
AcDbPoint
 10
284.541732011546
 20
34.27206357864775
 30
0.0
  0
ENDBLK
  5
40F
330
403
100
AcDbEntity
  8
0
100
AcDbBlockEnd
  0
BLOCK
  5
41C
330
411
100
AcDbEntity
  8
0
100
AcDbBlockBegin
  2
*D12
 70
     1
 10
0.0
 20
0.0
 30
0.0
  3
*D12
  1

  0
LINE
  5
412
330
411
100
AcDbEntity
  8
0
 62
     0
100
AcDbLine
 10
286.791732011546
 20
34.91419166794542
 30
0.0
 11
286.791732011546
 21
34.20751561999544
 31
0.0
  0
LINE
  5
413
330
411
100
AcDbEntity
  8
0
 62
     0
100
AcDbLine
 10
287.391732011546
 20
34.91419166794542
 30
0.0
 11
287.391732011546
 21
34.20751561999544
 31
0.0
  0
LINE
  5
414
330
411
100
AcDbEntity
  8
0
 62
     0
100
AcDbLine
 10
286.611732011546
 20
34.38751561999544
 30
0.0
 11
286.431732011546
 21
34.38751561999544
 31
0.0
  0
LINE
  5
415
330
411
100
AcDbEntity
  8
0
 62
     0
100
AcDbLine
 10
287.5717320115461
 20
34.38751561999544
 30
0.0
 11
287.751732011546
 21
34.38751561999544
 31
0.0
  0
SOLID
  5
416
330
411
100
AcDbEntity
  8
0
 62
     0
100
AcDbTrace
 10
286.611732011546
 20
34.41751561999544
 30
0.0
 11
286.611732011546
 21
34.35751561999544
 31
0.0
 12
286.791732011546
 22
34.38751561999544
 32
0.0
 13
286.791732011546
 23
34.38751561999544
 33
0.0
  0
SOLID
  5
417
330
411
100
AcDbEntity
  8
0
 62
     0
100
AcDbTrace
 10
287.5717320115461
 20
34.41751561999544
 30
0.0
 11
287.5717320115461
 21
34.35751561999544
 31
0.0
 12
287.391732011546
 22
34.38751561999544
 32
0.0
 13
287.391732011546
 23
34.38751561999544
 33
0.0
  0
MTEXT
  5
418
330
411
100
AcDbEntity
  8
0
 62
     0
100
AcDbMText
 10
287.091732011546
 20
34.38751561999544
 30
0.0
 40
0.15
 41
0.0
 71
     5
 72
     1
  1
\A1;0.60
1001
ACAD
1000
MTEXTBEGIN
1070
    73
1070
     1
1070
    44
1040
1.0
1070
    74
1070
     0
1000
MTEXTEND
  0
POINT
  5
419
330
411
100
AcDbEntity
  8
DEFPOINTS
 62
     0
100
AcDbPoint
 10
286.791732011546
 20
34.97669166794542
 30
0.0
  0
POINT
  5
41A
330
411
100
AcDbEntity
  8
DEFPOINTS
 62
     0
100
AcDbPoint
 10
287.391732011546
 20
34.97669166794542
 30
0.0
  0
POINT
  5
41B
330
411
100
AcDbEntity
  8
DEFPOINTS
 62
     0
100
AcDbPoint
 10
287.391732011546
 20
34.38751561999544
 30
0.0
  0
ENDBLK
  5
41D
330
411
100
AcDbEntity
  8
0
100
AcDbBlockEnd
  0
BLOCK
  5
434
330
429
100
AcDbEntity
  8
0
100
AcDbBlockBegin
  2
*D13
 70
     1
 10
0.0
 20
0.0
 30
0.0
  3
*D13
  1

  0
LINE
  5
42A
330
429
100
AcDbEntity
  8
0
 62
     0
100
AcDbLine
 10
285.291732011546
 20
34.61419166794542
 30
0.0
 11
285.291732011546
 21
33.64725976520632
 31
0.0
  0
LINE
  5
42B
330
429
100
AcDbEntity
  8
0
 62
     0
100
AcDbLine
 10
286.791732011546
 20
34.61419166794542
 30
0.0
 11
286.791732011546
 21
33.64725976520632
 31
0.0
  0
LINE
  5
42C
330
429
100
AcDbEntity
  8
0
 62
     0
100
AcDbLine
 10
285.471732011546
 20
33.82725976520632
 30
0.0
 11
285.7642320115461
 21
33.82725976520632
 31
0.0
  0
LINE
  5
42D
330
429
100
AcDbEntity
  8
0
 62
     0
100
AcDbLine
 10
286.611732011546
 20
33.82725976520632
 30
0.0
 11
286.319232011546
 21
33.82725976520632
 31
0.0
  0
SOLID
  5
42E
330
429
100
AcDbEntity
  8
0
 62
     0
100
AcDbTrace
 10
285.471732011546
 20
33.85725976520632
 30
0.0
 11
285.471732011546
 21
33.79725976520632
 31
0.0
 12
285.291732011546
 22
33.82725976520632
 32
0.0
 13
285.291732011546
 23
33.82725976520632
 33
0.0
  0
SOLID
  5
42F
330
429
100
AcDbEntity
  8
0
 62
     0
100
AcDbTrace
 10
286.611732011546
 20
33.85725976520632
 30
0.0
 11
286.611732011546
 21
33.79725976520632
 31
0.0
 12
286.791732011546
 22
33.82725976520632
 32
0.0
 13
286.791732011546
 23
33.82725976520632
 33
0.0
  0
MTEXT
  5
430
330
429
100
AcDbEntity
  8
0
 62
     0
100
AcDbMText
 10
286.041732011546
 20
33.82725976520632
 30
0.0
 40
0.15
 41
0.0
 71
     5
 72
     1
  1
\A1;1.50
1001
ACAD
1000
MTEXTBEGIN
1070
    73
1070
     1
1070
    44
1040
1.0
1070
    74
1070
     0
1000
MTEXTEND
  0
POINT
  5
431
330
429
100
AcDbEntity
  8
DEFPOINTS
 62
     0
100
AcDbPoint
 10
285.291732011546
 20
34.67669166794542
 30
0.0
  0
POINT
  5
432
330
429
100
AcDbEntity
  8
DEFPOINTS
 62
     0
100
AcDbPoint
 10
286.791732011546
 20
34.67669166794542
 30
0.0
  0
POINT
  5
433
330
429
100
AcDbEntity
  8
DEFPOINTS
 62
     0
100
AcDbPoint
 10
286.791732011546
 20
33.82725976520632
 30
0.0
  0
ENDBLK
  5
435
330
429
100
AcDbEntity
  8
0
100
AcDbBlockEnd
  0
BLOCK
  5
442
330
437
100
AcDbEntity
  8
0
100
AcDbBlockBegin
  2
*D14
 70
     1
 10
0.0
 20
0.0
 30
0.0
  3
*D14
  1

  0
LINE
  5
438
330
437
100
AcDbEntity
  8
0
 62
     0
100
AcDbLine
 10
284.541732011546
 20
34.91419166794542
 30
0.0
 11
284.541732011546
 21
33.02670484185399
 31
0.0
  0
LINE
  5
439
330
437
100
AcDbEntity
  8
0
 62
     0
100
AcDbLine
 10
287.391732011546
 20
34.91419166794542
 30
0.0
 11
287.391732011546
 21
33.02670484185399
 31
0.0
  0
LINE
  5
43A
330
437
100
AcDbEntity
  8
0
 62
     0
100
AcDbLine
 10
284.721732011546
 20
33.20670484185399
 30
0.0
 11
285.6517320115461
 21
33.20670484185399
 31
0.0
  0
LINE
  5
43B
330
437
100
AcDbEntity
  8
0
 62
     0
100
AcDbLine
 10
287.211732011546
 20
33.20670484185399
 30
0.0
 11
286.281732011546
 21
33.20670484185399
 31
0.0
  0
SOLID
  5
43C
330
437
100
AcDbEntity
  8
0
 62
     0
100
AcDbTrace
 10
284.721732011546
 20
33.23670484185399
 30
0.0
 11
284.721732011546
 21
33.17670484185399
 31
0.0
 12
284.541732011546
 22
33.20670484185399
 32
0.0
 13
284.541732011546
 23
33.20670484185399
 33
0.0
  0
SOLID
  5
43D
330
437
100
AcDbEntity
  8
0
 62
     0
100
AcDbTrace
 10
287.211732011546
 20
33.23670484185399
 30
0.0
 11
287.211732011546
 21
33.17670484185399
 31
0.0
 12
287.391732011546
 22
33.20670484185399
 32
0.0
 13
287.391732011546
 23
33.20670484185399
 33
0.0
  0
MTEXT
  5
43E
330
437
100
AcDbEntity
  8
0
 62
     0
100
AcDbMText
 10
285.966732011546
 20
33.20670484185399
 30
0.0
 40
0.15
 41
0.0
 71
     5
 72
     1
  1
\A1;2.85
1001
ACAD
1000
MTEXTBEGIN
1070
    73
1070
     1
1070
    44
1040
1.0
1070
    74
1070
     0
1000
MTEXTEND
  0
POINT
  5
43F
330
437
100
AcDbEntity
  8
DEFPOINTS
 62
     0
100
AcDbPoint
 10
284.541732011546
 20
34.97669166794542
 30
0.0
  0
POINT
  5
440
330
437
100
AcDbEntity
  8
DEFPOINTS
 62
     0
100
AcDbPoint
 10
287.391732011546
 20
34.97669166794542
 30
0.0
  0
POINT
  5
441
330
437
100
AcDbEntity
  8
DEFPOINTS
 62
     0
100
AcDbPoint
 10
287.391732011546
 20
33.20670484185399
 30
0.0
  0
ENDBLK
  5
443
330
437
100
AcDbEntity
  8
0
100
AcDbBlockEnd
  0
BLOCK
  5
450
330
445
100
AcDbEntity
  8
0
100
AcDbBlockBegin
  2
*D15
 70
     1
 10
0.0
 20
0.0
 30
0.0
  3
*D15
  1

  0
LINE
  5
446
330
445
100
AcDbEntity
  8
0
 62
     0
100
AcDbLine
 10
284.541732011546
 20
34.91419166794542
 30
0.0
 11
284.541732011546
 21
34.22452019766842
 31
0.0
  0
LINE
  5
447
330
445
100
AcDbEntity
  8
0
 62
     0
100
AcDbLine
 10
285.291732011546
 20
34.91419166794542
 30
0.0
 11
285.291732011546
 21
34.22452019766842
 31
0.0
  0
LINE
  5
448
330
445
100
AcDbEntity
  8
0
 62
     0
100
AcDbLine
 10
284.361732011546
 20
34.40452019766842
 30
0.0
 11
284.181732011546
 21
34.40452019766842
 31
0.0
  0
LINE
  5
449
330
445
100
AcDbEntity
  8
0
 62
     0
100
AcDbLine
 10
285.471732011546
 20
34.40452019766842
 30
0.0
 11
285.6517320115461
 21
34.40452019766842
 31
0.0
  0
SOLID
  5
44A
330
445
100
AcDbEntity
  8
0
 62
     0
100
AcDbTrace
 10
284.361732011546
 20
34.43452019766843
 30
0.0
 11
284.361732011546
 21
34.37452019766842
 31
0.0
 12
284.541732011546
 22
34.40452019766842
 32
0.0
 13
284.541732011546
 23
34.40452019766842
 33
0.0
  0
SOLID
  5
44B
330
445
100
AcDbEntity
  8
0
 62
     0
100
AcDbTrace
 10
285.471732011546
 20
34.43452019766843
 30
0.0
 11
285.471732011546
 21
34.37452019766842
 31
0.0
 12
285.291732011546
 22
34.40452019766842
 32
0.0
 13
285.291732011546
 23
34.40452019766842
 33
0.0
  0
MTEXT
  5
44C
330
445
100
AcDbEntity
  8
0
 62
     0
100
AcDbMText
 10
284.916732011546
 20
34.40452019766842
 30
0.0
 40
0.15
 41
0.0
 71
     5
 72
     1
  1
\A1;0.75
1001
ACAD
1000
MTEXTBEGIN
1070
    73
1070
     1
1070
    44
1040
1.0
1070
    74
1070
     0
1000
MTEXTEND
  0
POINT
  5
44D
330
445
100
AcDbEntity
  8
DEFPOINTS
 62
     0
100
AcDbPoint
 10
284.541732011546
 20
34.97669166794542
 30
0.0
  0
POINT
  5
44E
330
445
100
AcDbEntity
  8
DEFPOINTS
 62
     0
100
AcDbPoint
 10
285.291732011546
 20
34.97669166794542
 30
0.0
  0
POINT
  5
44F
330
445
100
AcDbEntity
  8
DEFPOINTS
 62
     0
100
AcDbPoint
 10
285.291732011546
 20
34.40452019766842
 30
0.0
  0
ENDBLK
  5
451
330
445
100
AcDbEntity
  8
0
100
AcDbBlockEnd
  0
BLOCK
  5
45E
330
453
100
AcDbEntity
  8
0
100
AcDbBlockBegin
  2
*D16
 70
     1
 10
0.0
 20
0.0
 30
0.0
  3
*D16
  1

  0
LINE
  5
454
330
453
100
AcDbEntity
  8
0
 62
     0
100
AcDbLine
 10
286.791732011546
 20
34.91419166794542
 30
0.0
 11
286.791732011546
 21
34.12349961506349
 31
0.0
  0
LINE
  5
455
330
453
100
AcDbEntity
  8
0
 62
     0
100
AcDbLine
 10
287.391732011546
 20
34.91419166794542
 30
0.0
 11
287.391732011546
 21
34.12349961506349
 31
0.0
  0
LINE
  5
456
330
453
100
AcDbEntity
  8
0
 62
     0
100
AcDbLine
 10
286.611732011546
 20
34.30349961506348
 30
0.0
 11
286.431732011546
 21
34.30349961506348
 31
0.0
  0
LINE
  5
457
330
453
100
AcDbEntity
  8
0
 62
     0
100
AcDbLine
 10
287.5717320115461
 20
34.30349961506348
 30
0.0
 11
287.751732011546
 21
34.30349961506348
 31
0.0
  0
SOLID
  5
458
330
453
100
AcDbEntity
  8
0
 62
     0
100
AcDbTrace
 10
286.611732011546
 20
34.33349961506348
 30
0.0
 11
286.611732011546
 21
34.27349961506348
 31
0.0
 12
286.791732011546
 22
34.30349961506348
 32
0.0
 13
286.791732011546
 23
34.30349961506348
 33
0.0
  0
SOLID
  5
459
330
453
100
AcDbEntity
  8
0
 62
     0
100
AcDbTrace
 10
287.5717320115461
 20
34.33349961506348
 30
0.0
 11
287.5717320115461
 21
34.27349961506348
 31
0.0
 12
287.391732011546
 22
34.30349961506348
 32
0.0
 13
287.391732011546
 23
34.30349961506348
 33
0.0
  0
MTEXT
  5
45A
330
453
100
AcDbEntity
  8
0
 62
     0
100
AcDbMText
 10
287.091732011546
 20
34.30349961506348
 30
0.0
 40
0.15
 41
0.0
 71
     5
 72
     1
  1
\A1;0.60
1001
ACAD
1000
MTEXTBEGIN
1070
    73
1070
     1
1070
    44
1040
1.0
1070
    74
1070
     0
1000
MTEXTEND
  0
POINT
  5
45B
330
453
100
AcDbEntity
  8
DEFPOINTS
 62
     0
100
AcDbPoint
 10
286.791732011546
 20
34.97669166794542
 30
0.0
  0
POINT
  5
45C
330
453
100
AcDbEntity
  8
DEFPOINTS
 62
     0
100
AcDbPoint
 10
287.391732011546
 20
34.97669166794542
 30
0.0
  0
POINT
  5
45D
330
453
100
AcDbEntity
  8
DEFPOINTS
 62
     0
100
AcDbPoint
 10
287.391732011546
 20
34.30349961506348
 30
0.0
  0
ENDBLK
  5
45F
330
453
100
AcDbEntity
  8
0
100
AcDbBlockEnd
  0
BLOCK
  5
46C
330
461
100
AcDbEntity
  8
0
100
AcDbBlockBegin
  2
*D17
 70
     1
 10
0.0
 20
0.0
 30
0.0
  3
*D17
  1

  0
LINE
  5
462
330
461
100
AcDbEntity
  8
0
 62
     0
100
AcDbLine
 10
286.854232011546
 20
34.67669166794542
 30
0.0
 11
288.4397622955601
 21
34.67669166794542
 31
0.0
  0
LINE
  5
463
330
461
100
AcDbEntity
  8
0
 62
     0
100
AcDbLine
 10
287.454232011546
 20
36.92669166794543
 30
0.0
 11
288.4397622955601
 21
36.92669166794543
 31
0.0
  0
LINE
  5
464
330
461
100
AcDbEntity
  8
0
 62
     0
100
AcDbLine
 10
288.25976229556
 20
34.85669166794542
 30
0.0
 11
288.25976229556
 21
35.63669166794543
 31
0.0
  0
LINE
  5
465
330
461
100
AcDbEntity
  8
0
 62
     0
100
AcDbLine
 10
288.25976229556
 20
36.74669166794542
 30
0.0
 11
288.25976229556
 21
35.96669166794542
 31
0.0
  0
SOLID
  5
466
330
461
100
AcDbEntity
  8
0
 62
     0
100
AcDbTrace
 10
288.2297622955601
 20
34.85669166794542
 30
0.0
 11
288.28976229556
 21
34.85669166794542
 31
0.0
 12
288.25976229556
 22
34.67669166794542
 32
0.0
 13
288.25976229556
 23
34.67669166794542
 33
0.0
  0
SOLID
  5
467
330
461
100
AcDbEntity
  8
0
 62
     0
100
AcDbTrace
 10
288.2297622955601
 20
36.74669166794542
 30
0.0
 11
288.28976229556
 21
36.74669166794542
 31
0.0
 12
288.25976229556
 22
36.92669166794543
 32
0.0
 13
288.25976229556
 23
36.92669166794543
 33
0.0
  0
MTEXT
  5
468
330
461
100
AcDbEntity
  8
0
 62
     0
100
AcDbMText
 10
288.25976229556
 20
35.80169166794547
 30
0.0
 40
0.15
 41
0.0
 71
     5
 72
     1
  1
\A1;2.25
1001
ACAD
1000
MTEXTBEGIN
1070
    73
1070
     1
1070
    44
1040
1.0
1070
    74
1070
     0
1000
MTEXTEND
  0
POINT
  5
469
330
461
100
AcDbEntity
  8
DEFPOINTS
 62
     0
100
AcDbPoint
 10
286.791732011546
 20
34.67669166794542
 30
0.0
  0
POINT
  5
46A
330
461
100
AcDbEntity
  8
DEFPOINTS
 62
     0
100
AcDbPoint
 10
287.391732011546
 20
36.92669166794543
 30
0.0
  0
POINT
  5
46B
330
461
100
AcDbEntity
  8
DEFPOINTS
 62
     0
100
AcDbPoint
 10
288.25976229556
 20
36.92669166794543
 30
0.0
  0
ENDBLK
  5
46D
330
461
100
AcDbEntity
  8
0
100
AcDbBlockEnd
  0
BLOCK
  5
47B
330
46F
100
AcDbEntity
  8
0
100
AcDbBlockBegin
  2
*D18
 70
     1
 10
0.0
 20
0.0
 30
0.0
  3
*D18
  1

  0
LINE
  5
488
330
46F
100
AcDbEntity
  8
0
 62
     0
100
AcDbLine
 10
286.854232011546
 20
34.67669166794542
 30
0.0
 11
288.0346003260903
 21
34.67669166794542
 31
0.0
  0
LINE
  5
489
330
46F
100
AcDbEntity
  8
0
 62
     0
100
AcDbLine
 10
287.454232011546
 20
34.97669166794542
 30
0.0
 11
288.0346003260903
 21
34.97669166794542
 31
0.0
  0
LINE
  5
48A
330
46F
100
AcDbEntity
  8
0
 62
     0
100
AcDbLine
 10
287.8546003260903
 20
34.49669166794542
 30
0.0
 11
287.8546003260903
 21
34.31669166794542
 31
0.0
  0
LINE
  5
48B
330
46F
100
AcDbEntity
  8
0
 62
     0
100
AcDbLine
 10
287.8546003260903
 20
35.15669166794542
 30
0.0
 11
287.8546003260903
 21
35.33669166794542
 31
0.0
  0
SOLID
  5
48C
330
46F
100
AcDbEntity
  8
0
 62
     0
100
AcDbTrace
 10
287.8246003260903
 20
34.49669166794542
 30
0.0
 11
287.8846003260903
 21
34.49669166794542
 31
0.0
 12
287.8546003260903
 22
34.67669166794542
 32
0.0
 13
287.8546003260903
 23
34.67669166794542
 33
0.0
  0
SOLID
  5
48D
330
46F
100
AcDbEntity
  8
0
 62
     0
100
AcDbTrace
 10
287.8246003260903
 20
35.15669166794542
 30
0.0
 11
287.8846003260903
 21
35.15669166794542
 31
0.0
 12
287.8546003260903
 22
34.97669166794542
 32
0.0
 13
287.8546003260903
 23
34.97669166794542
 33
0.0
  0
MTEXT
  5
48E
330
46F
100
AcDbEntity
  8
0
 62
     0
100
AcDbMText
 10
287.8546003260903
 20
34.82669166794547
 30
0.0
 40
0.15
 41
0.0
 71
     5
 72
     1
  1
\A1;0.30
1001
ACAD
1000
MTEXTBEGIN
1070
    73
1070
     1
1070
    44
1040
1.0
1070
    74
1070
     0
1000
MTEXTEND
  0
POINT
  5
48F
330
46F
100
AcDbEntity
  8
DEFPOINTS
 62
     0
100
AcDbPoint
 10
286.791732011546
 20
34.67669166794542
 30
0.0
  0
POINT
  5
490
330
46F
100
AcDbEntity
  8
DEFPOINTS
 62
     0
100
AcDbPoint
 10
287.391732011546
 20
34.97669166794542
 30
0.0
  0
POINT
  5
491
330
46F
100
AcDbEntity
  8
DEFPOINTS
 62
     0
100
AcDbPoint
 10
287.8546003260903
 20
34.97669166794542
 30
0.0
  0
ENDBLK
  5
47C
330
46F
100
AcDbEntity
  8
0
100
AcDbBlockEnd
  0
ENDSEC
  0
SECTION
  2
ENTITIES
  0
TEXT
  5
2C
330
1E
100
AcDbEntity
  8
0
  6
CONTINUOUS
100
AcDbText
 10
287.1185593216529
 20
41.32981838511393
 30
0.0
 40
0.15
  1
2
  7
ROMANC
100
AcDbText
  0
TEXT
  5
2D
330
1E
100
AcDbEntity
  8
0
  6
CONTINUOUS
100
AcDbText
 10
283.9259999999999
 20
41.768
 30
0.0
 40
0.3
  1
ESCALA  1:50
  7
ROMANC
100
AcDbText
  0
LWPOLYLINE
  5
2E
330
1E
100
AcDbEntity
  8
NO_PRINT
  6
CONTINUOUS
100
AcDbPolyline
 90
        4
 70
     1
 43
0.0
 10
281.396
 20
44.747
 10
291.896
 20
44.747
 10
291.896
 20
29.897
 10
281.396
 20
29.897
  0
TEXT
  5
34
330
1E
100
AcDbEntity
  8
0
  6
CONTINUOUS
100
AcDbText
 10
283.9259999999999
 20
42.381
 30
0.0
 40
0.3
  1
TIPUS   NT600C
  7
ROMANC
100
AcDbText
  0
TEXT
  5
36
330
1E
100
AcDbEntity
  8
0
  6
CONTINUOUS
100
AcDbText
 10
283.922
 20
40.529
 30
0.0
 40
0.3
  1
P = 102 dm
  7
ROMANC
100
AcDbText
  0
TEXT
  5
37
330
1E
100
AcDbEntity
  8
0
  6
CONTINUOUS
100
AcDbText
 10
283.9449999999999
 20
41.09899999999999
 30
0.0
 40
0.3
  1
S = 600 dm
  7
ROMANC
100
AcDbText
  0
LWPOLYLINE
  5
427
330
1E
100
AcDbEntity
  8
0
100
AcDbPolyline
 90
        8
 70
     1
 43
0.0
 10
285.291732011546
 20
34.67669166794542
 10
285.291732011546
 20
34.97669166794542
 10
284.541732011546
 20
34.97669166794542
 10
284.541732011546
 20
36.92669166794543
 10
287.391732011546
 20
36.92669166794543
 10
287.391732011546
 20
34.97669166794542
 10
286.791732011546
 20
34.97669166794542
 10
286.791732011546
 20
34.67669166794542
  0
DIMENSION
  5
428
330
1E
100
AcDbEntity
  8
0
100
AcDbDimension
  2
*D13
 10
286.791732011546
 20
33.82725976520632
 30
0.0
 11
286.041732011546
 21
33.82725976520632
 31
0.0
 70
    32
  3
STANDARD
100
AcDbAlignedDimension
 13
285.291732011546
 23
34.67669166794542
 33
0.0
 14
286.791732011546
 24
34.67669166794542
 34
0.0
100
AcDbRotatedDimension
  0
DIMENSION
  5
436
330
1E
100
AcDbEntity
  8
0
100
AcDbDimension
  2
*D14
 10
287.391732011546
 20
33.20670484185399
 30
0.0
 11
285.966732011546
 21
33.20670484185399
 31
0.0
 70
    32
  3
STANDARD
100
AcDbAlignedDimension
 13
284.541732011546
 23
34.97669166794542
 33
0.0
 14
287.391732011546
 24
34.97669166794542
 34
0.0
100
AcDbRotatedDimension
  0
DIMENSION
  5
444
330
1E
100
AcDbEntity
  8
0
100
AcDbDimension
  2
*D15
 10
285.291732011546
 20
34.40452019766842
 30
0.0
 11
284.916732011546
 21
34.40452019766842
 31
0.0
 70
    32
  3
STANDARD
100
AcDbAlignedDimension
 13
284.541732011546
 23
34.97669166794542
 33
0.0
 14
285.291732011546
 24
34.97669166794542
 34
0.0
100
AcDbRotatedDimension
  0
DIMENSION
  5
452
330
1E
100
AcDbEntity
  8
0
100
AcDbDimension
  2
*D16
 10
287.391732011546
 20
34.30349961506348
 30
0.0
 11
287.091732011546
 21
34.30349961506348
 31
0.0
 70
    32
  3
STANDARD
100
AcDbAlignedDimension
 13
286.791732011546
 23
34.97669166794542
 33
0.0
 14
287.391732011546
 24
34.97669166794542
 34
0.0
100
AcDbRotatedDimension
  0
DIMENSION
  5
460
330
1E
100
AcDbEntity
  8
0
100
AcDbDimension
  2
*D17
 10
288.25976229556
 20
36.92669166794543
 30
0.0
 11
288.25976229556
 21
35.80169166794547
 31
0.0
 70
    32
  3
STANDARD
100
AcDbAlignedDimension
 13
286.791732011546
 23
34.67669166794542
 33
0.0
 14
287.391732011546
 24
36.92669166794543
 34
0.0
 50
90.0
100
AcDbRotatedDimension
  0
DIMENSION
  5
46E
330
1E
100
AcDbEntity
  8
0
100
AcDbDimension
  2
*D18
 10
287.8546003260903
 20
34.97669166794542
 30
0.0
 11
287.8546003260903
 21
34.82669166794547
 31
0.0
 70
   160
  3
STANDARD
100
AcDbAlignedDimension
 13
286.791732011546
 23
34.67669166794542
 33
0.0
 14
287.391732011546
 24
34.97669166794542
 34
0.0
 50
90.0
100
AcDbRotatedDimension
  0
LWPOLYLINE
  5
492
330
1E
100
AcDbEntity
  8
0
100
AcDbPolyline
 90
        8
 70
     1
 43
0.0
 10
285.281732011546
 20
34.66669166794543
 10
285.281732011546
 20
34.96669166794542
 10
284.531732011546
 20
34.96669166794542
 10
284.531732011546
 20
36.93669166794542
 10
287.401732011546
 20
36.93669166794542
 10
287.401732011546
 20
34.96669166794542
 10
286.801732011546
 20
34.96669166794542
 10
286.801732011546
 20
34.66669166794543
  0
LWPOLYLINE
  5
493
330
1E
100
AcDbEntity
  8
0
100
AcDbPolyline
 90
        8
 70
     1
 43
0.0
 10
285.301732011546
 20
34.68669166794542
 10
285.301732011546
 20
34.98669166794542
 10
284.551732011546
 20
34.98669166794542
 10
284.551732011546
 20
36.91669166794543
 10
287.3817320115461
 20
36.91669166794543
 10
287.3817320115461
 20
34.98669166794542
 10
286.781732011546
 20
34.98669166794542
 10
286.781732011546
 20
34.68669166794542
  0
ENDSEC
  0
SECTION
  2
OBJECTS
  0
DICTIONARY
  5
C
330
0
100
AcDbDictionary
  3
ACAD_GROUP
350
D
  3
ACAD_LAYOUT
350
19
  3
ACAD_MLINESTYLE
350
16
  3
ACAD_PLOTSETTINGS
350
18
  3
ACAD_PLOTSTYLENAME
350
E
  3
ACDBHEADERROUNDTRIPXREC
350
496
  3
ACDBVARIABLEDICTIONARY
350
6E
  3
DWGPROPS
350
271
  0
DICTIONARY
  5
39D
330
1E
100
AcDbDictionary
280
     1
  3
ACAD_LAYOUTSELFREF
360
4B7
  0
DICTIONARY
  5
39F
330
1A
100
AcDbDictionary
280
     1
  3
ACAD_LAYOUTSELFREF
360
4B6
  0
DICTIONARY
  5
D
102
{ACAD_REACTORS
330
C
102
}
330
C
100
AcDbDictionary
  0
DICTIONARY
  5
19
102
{ACAD_REACTORS
330
C
102
}
330
C
100
AcDbDictionary
  0
DICTIONARY
  5
16
102
{ACAD_REACTORS
330
C
102
}
330
C
100
AcDbDictionary
  3
STANDARD
350
17
  0
DICTIONARY
  5
18
102
{ACAD_REACTORS
330
C
102
}
330
C
100
AcDbDictionary
  0
ACDBDICTIONARYWDFLT
  5
E
102
{ACAD_REACTORS
330
C
102
}
330
C
100
AcDbDictionary
281
     1
  3
Normal
350
F
100
AcDbDictionaryWithDefault
340
F
  0
DICTIONARY
  5
496
102
{ACAD_REACTORS
330
C
102
}
330
C
100
AcDbDictionary
  3
CEPSNTYPE
350
4A0
  3
FINGERPRINTGUID
350
4A1
  3
HYPERLINKBASE
350
499
  3
INSUNITS
350
49F
  3
LAYOUTDICT
350
49B
  3
LWETCUNION
350
49E
  3
PLOTSETDICT
350
49C
  3
PLOTSTYLNAMDICT
350
49D
  3
PSVPSCALE
350
4A3
  3
PUCSBASE
350
4A6
  3
PUCSORGBACK
350
4AC
  3
PUCSORGBOTTOM
350
4A8
  3
PUCSORGFRONT
350
4AB
  3
PUCSORGLEFT
350
4A9
  3
PUCSORGRIGHT
350
4AA
  3
PUCSORGTOP
350
4A7
  3
PUCSORTHOREF
350
4A4
  3
PUCSORTHOVIEW
350
4A5
  3
STYLESHEET
350
49A
  3
TSTACKALIGN
350
497
  3
TSTACKSIZE
350
498
  3
UCSBASE
350
4AF
  3
UCSORGBACK
350
4B5
  3
UCSORGBOTTOM
350
4B1
  3
UCSORGFRONT
350
4B4
  3
UCSORGLEFT
350
4B2
  3
UCSORGRIGHT
350
4B3
  3
UCSORGTOP
350
4B0
  3
UCSORTHOREF
350
4AD
  3
UCSORTHOVIEW
350
4AE
  3
VERSIONGUID
350
4A2
  0
DICTIONARY
  5
6E
102
{ACAD_REACTORS
330
C
102
}
330
C
100
AcDbDictionary
  3
DIMASSOC
350
6F
  0
XRECORD
  5
271
102
{ACAD_REACTORS
330
C
102
}
330
C
100
AcDbXrecord
  1
DWGPROPS COOKIE
  2

  3

  4

  6

  7

  8
JaumeTrias
  9

300
=
301
=
302
=
303
=
304
=
305
=
306
=
307
=
308
=
309
=
 40
0.0195228587962963
 41
2448315.331741435
 42
2452943.48254824
  1

 90
        0
  0
XRECORD
  5
4B7
102
{ACAD_REACTORS
330
39D
102
}
330
39D
100
AcDbXrecord
340
1E
  0
XRECORD
  5
4B6
102
{ACAD_REACTORS
330
39F
102
}
330
39F
100
AcDbXrecord
340
1A
  0
MLINESTYLE
  5
17
102
{ACAD_REACTORS
330
16
102
}
330
16
100
AcDbMlineStyle
  2
STANDARD
 70
     0
  3

 62
   256
 51
90.0
 52
90.0
 71
     2
 49
0.5
 62
   256
  6
BYLAYER
 49
-0.5
 62
   256
  6
BYLAYER
  0
ACDBPLACEHOLDER
  5
F
102
{ACAD_REACTORS
330
E
102
}
330
E
100
AcDbPlaceHolder
280
     0
  0
XRECORD
  5
4A0
102
{ACAD_REACTORS
330
496
102
}
330
496
100
AcDbXrecord
 90
        0
  0
XRECORD
  5
4A1
102
{ACAD_REACTORS
330
496
102
}
330
496
100
AcDbXrecord
  1
{A6FCFFB5-5CE9-42DC-A06F-C5476E26D97B}
  0
XRECORD
  5
499
102
{ACAD_REACTORS
330
496
102
}
330
496
100
AcDbXrecord
  1

  0
XRECORD
  5
49F
102
{ACAD_REACTORS
330
496
102
}
330
496
100
AcDbXrecord
 90
        0
  0
XRECORD
  5
49B
102
{ACAD_REACTORS
330
496
102
}
330
496
100
AcDbXrecord
340
19
  0
XRECORD
  5
49E
102
{ACAD_REACTORS
330
496
102
}
330
496
100
AcDbXrecord
 90
    10781
  0
XRECORD
  5
49C
102
{ACAD_REACTORS
330
496
102
}
330
496
100
AcDbXrecord
340
18
  0
XRECORD
  5
49D
102
{ACAD_REACTORS
330
496
102
}
330
496
100
AcDbXrecord
340
E
  0
XRECORD
  5
4A3
102
{ACAD_REACTORS
330
496
102
}
330
496
100
AcDbXrecord
 40
0.0
  0
XRECORD
  5
4A6
102
{ACAD_REACTORS
330
496
102
}
330
496
100
AcDbXrecord
340
0
  0
XRECORD
  5
4AC
102
{ACAD_REACTORS
330
496
102
}
330
496
100
AcDbXrecord
 10
0.0
 20
0.0
 30
0.0
  0
XRECORD
  5
4A8
102
{ACAD_REACTORS
330
496
102
}
330
496
100
AcDbXrecord
 10
0.0
 20
0.0
 30
0.0
  0
XRECORD
  5
4AB
102
{ACAD_REACTORS
330
496
102
}
330
496
100
AcDbXrecord
 10
0.0
 20
0.0
 30
0.0
  0
XRECORD
  5
4A9
102
{ACAD_REACTORS
330
496
102
}
330
496
100
AcDbXrecord
 10
0.0
 20
0.0
 30
0.0
  0
XRECORD
  5
4AA
102
{ACAD_REACTORS
330
496
102
}
330
496
100
AcDbXrecord
 10
0.0
 20
0.0
 30
0.0
  0
XRECORD
  5
4A7
102
{ACAD_REACTORS
330
496
102
}
330
496
100
AcDbXrecord
 10
0.0
 20
0.0
 30
0.0
  0
XRECORD
  5
4A4
102
{ACAD_REACTORS
330
496
102
}
330
496
100
AcDbXrecord
340
0
  0
XRECORD
  5
4A5
102
{ACAD_REACTORS
330
496
102
}
330
496
100
AcDbXrecord
 70
     0
  0
XRECORD
  5
49A
102
{ACAD_REACTORS
330
496
102
}
330
496
100
AcDbXrecord
  1

  0
XRECORD
  5
497
102
{ACAD_REACTORS
330
496
102
}
330
496
100
AcDbXrecord
 90
        1
  0
XRECORD
  5
498
102
{ACAD_REACTORS
330
496
102
}
330
496
100
AcDbXrecord
 90
       70
  0
XRECORD
  5
4AF
102
{ACAD_REACTORS
330
496
102
}
330
496
100
AcDbXrecord
340
0
  0
XRECORD
  5
4B5
102
{ACAD_REACTORS
330
496
102
}
330
496
100
AcDbXrecord
 10
0.0
 20
0.0
 30
0.0
  0
XRECORD
  5
4B1
102
{ACAD_REACTORS
330
496
102
}
330
496
100
AcDbXrecord
 10
0.0
 20
0.0
 30
0.0
  0
XRECORD
  5
4B4
102
{ACAD_REACTORS
330
496
102
}
330
496
100
AcDbXrecord
 10
0.0
 20
0.0
 30
0.0
  0
XRECORD
  5
4B2
102
{ACAD_REACTORS
330
496
102
}
330
496
100
AcDbXrecord
 10
0.0
 20
0.0
 30
0.0
  0
XRECORD
  5
4B3
102
{ACAD_REACTORS
330
496
102
}
330
496
100
AcDbXrecord
 10
0.0
 20
0.0
 30
0.0
  0
XRECORD
  5
4B0
102
{ACAD_REACTORS
330
496
102
}
330
496
100
AcDbXrecord
 10
0.0
 20
0.0
 30
0.0
  0
XRECORD
  5
4AD
102
{ACAD_REACTORS
330
496
102
}
330
496
100
AcDbXrecord
340
0
  0
XRECORD
  5
4AE
102
{ACAD_REACTORS
330
496
102
}
330
496
100
AcDbXrecord
 70
     0
  0
XRECORD
  5
4A2
102
{ACAD_REACTORS
330
496
102
}
330
496
100
AcDbXrecord
  1
{0B4D82B5-DACE-4A54-AAF0-D903854D7991}
  0
DICTIONARYVAR
  5
6F
102
{ACAD_REACTORS
330
6E
102
}
330
6E
100
DictionaryVariables
280
     0
  1
1
  0
ENDSEC
  0
EOF
