  0
SECTION
  2
HEADER
  9
$ACADVER
  1
AC1014
  9
$ACADMAINTVER
 70
     9
  9
$DWGCODEPAGE
  3
ANSI_1252
  9
$INSBASE
 10
0.0
 20
0.0
 30
0.0
  9
$EXTMIN
 10
318.8298047925693
 20
29.85788034165489
 30
-0.0000000349181948
  9
$EXTMAX
 10
329.3713387513664
 20
44.72551002973398
 30
0.0000000814935746
  9
$LIMMIN
 10
0.0
 20
0.0
  9
$LIMMAX
 10
410.0
 20
287.0
  9
$ORTHOMODE
 70
     1
  9
$REGENMODE
 70
     1
  9
$FILLMODE
 70
     1
  9
$QTEXTMODE
 70
     0
  9
$MIRRTEXT
 70
     1
  9
$DRAGMODE
 70
     2
  9
$LTSCALE
 40
25.0
  9
$OSMODE
 70
    33
  9
$ATTMODE
 70
     1
  9
$TEXTSIZE
 40
0.1
  9
$TRACEWID
 40
1.0
  9
$TEXTSTYLE
  7
ROMANC
  9
$CLAYER
  8
0
  9
$CELTYPE
  6
BYLAYER
  9
$CECOLOR
 62
   256
  9
$CELTSCALE
 40
1.0
  9
$DELOBJ
 70
     1
  9
$DISPSILH
 70
     0
  9
$DIMSCALE
 40
1.5
  9
$DIMASZ
 40
0.1
  9
$DIMEXO
 40
0.01
  9
$DIMDLI
 40
7.0
  9
$DIMRND
 40
0.0
  9
$DIMDLE
 40
0.0
  9
$DIMEXE
 40
0.01
  9
$DIMTP
 40
0.0
  9
$DIMTM
 40
0.0
  9
$DIMTXT
 40
0.05
  9
$DIMCEN
 40
0.0
  9
$DIMTSZ
 40
0.0
  9
$DIMTOL
 70
     0
  9
$DIMLIM
 70
     0
  9
$DIMTIH
 70
     0
  9
$DIMTOH
 70
     0
  9
$DIMSE1
 70
     0
  9
$DIMSE2
 70
     0
  9
$DIMTAD
 70
     1
  9
$DIMZIN
 70
     0
  9
$DIMBLK
  1

  9
$DIMASO
 70
     1
  9
$DIMSHO
 70
     0
  9
$DIMPOST
  1

  9
$DIMAPOST
  1

  9
$DIMALT
 70
     0
  9
$DIMALTD
 70
     2
  9
$DIMALTF
 40
25.4
  9
$DIMLFAC
 40
1.0
  9
$DIMTOFL
 70
     1
  9
$DIMTVP
 40
0.0
  9
$DIMTIX
 70
     1
  9
$DIMSOXD
 70
     0
  9
$DIMSAH
 70
     0
  9
$DIMBLK1
  1

  9
$DIMBLK2
  1

  9
$DIMSTYLE
  2
MERITXELL
  9
$DIMCLRD
 70
     0
  9
$DIMCLRE
 70
     0
  9
$DIMCLRT
 70
     0
  9
$DIMTFAC
 40
70.0
  9
$DIMGAP
 40
0.025
  9
$DIMJUST
 70
     0
  9
$DIMSD1
 70
     0
  9
$DIMSD2
 70
     0
  9
$DIMTOLJ
 70
     1
  9
$DIMTZIN
 70
     0
  9
$DIMALTZ
 70
     0
  9
$DIMALTTZ
 70
     0
  9
$DIMFIT
 70
     3
  9
$DIMUPT
 70
     0
  9
$DIMUNIT
 70
     2
  9
$DIMDEC
 70
     2
  9
$DIMTDEC
 70
     2
  9
$DIMALTU
 70
     2
  9
$DIMALTTD
 70
     2
  9
$DIMTXSTY
  7
STANDARD
  9
$DIMAUNIT
 70
     0
  9
$LUNITS
 70
     2
  9
$LUPREC
 70
     2
  9
$SKETCHINC
 40
1.0
  9
$FILLETRAD
 40
0.0
  9
$AUNITS
 70
     0
  9
$AUPREC
 70
     0
  9
$MENU
  1
acad
  9
$ELEVATION
 40
0.0
  9
$PELEVATION
 40
0.0
  9
$THICKNESS
 40
0.0
  9
$LIMCHECK
 70
     0
  9
$BLIPMODE
 70
     0
  9
$CHAMFERA
 40
0.0
  9
$CHAMFERB
 40
0.0
  9
$CHAMFERC
 40
0.0
  9
$CHAMFERD
 40
0.0
  9
$SKPOLY
 70
     0
  9
$TDCREATE
 40
2450927.461950000
  9
$TDUPDATE
 40
2452258.567055821
  9
$TDINDWG
 40
0.1020023727
  9
$TDUSRTIMER
 40
0.1019823264
  9
$USRTIMER
 70
     1
  9
$ANGBASE
 50
0.0
  9
$ANGDIR
 70
     0
  9
$PDMODE
 70
     0
  9
$PDSIZE
 40
0.0
  9
$PLINEWID
 40
0.0
  9
$COORDS
 70
     1
  9
$SPLFRAME
 70
     0
  9
$SPLINETYPE
 70
     6
  9
$SPLINESEGS
 70
     8
  9
$ATTDIA
 70
     0
  9
$ATTREQ
 70
     1
  9
$HANDLING
 70
  4097
  9
$HANDSEED
  5
1AED
  9
$SURFTAB1
 70
     6
  9
$SURFTAB2
 70
     6
  9
$SURFTYPE
 70
     6
  9
$SURFU
 70
     6
  9
$SURFV
 70
     6
  9
$UCSNAME
  2

  9
$UCSORG
 10
0.0
 20
0.0
 30
0.0
  9
$UCSXDIR
 10
1.0
 20
0.0
 30
0.0
  9
$UCSYDIR
 10
0.0
 20
1.0
 30
0.0
  9
$PUCSNAME
  2

  9
$PUCSORG
 10
0.0
 20
0.0
 30
0.0
  9
$PUCSXDIR
 10
1.0
 20
0.0
 30
0.0
  9
$PUCSYDIR
 10
0.0
 20
1.0
 30
0.0
  9
$USERI1
 70
     0
  9
$USERI2
 70
     0
  9
$USERI3
 70
     0
  9
$USERI4
 70
     0
  9
$USERI5
 70
     0
  9
$USERR1
 40
0.0
  9
$USERR2
 40
0.0
  9
$USERR3
 40
0.0
  9
$USERR4
 40
0.0
  9
$USERR5
 40
0.0
  9
$WORLDVIEW
 70
     1
  9
$SHADEDGE
 70
     3
  9
$SHADEDIF
 70
    70
  9
$TILEMODE
 70
     1
  9
$MAXACTVP
 70
    16
  9
$PINSBASE
 10
0.0
 20
0.0
 30
0.0
  9
$PLIMCHECK
 70
     0
  9
$PEXTMIN
 10
1.000000000000000E+20
 20
1.000000000000000E+20
 30
1.000000000000000E+20
  9
$PEXTMAX
 10
-1.000000000000000E+20
 20
-1.000000000000000E+20
 30
-1.000000000000000E+20
  9
$PLIMMIN
 10
0.0
 20
0.0
  9
$PLIMMAX
 10
12.0
 20
9.0
  9
$UNITMODE
 70
     0
  9
$VISRETAIN
 70
     0
  9
$PLINEGEN
 70
     0
  9
$PSLTSCALE
 70
     0
  9
$TREEDEPTH
 70
  3020
  9
$PICKSTYLE
 70
     1
  9
$CMLSTYLE
  2
STANDARD
  9
$CMLJUST
 70
     0
  9
$CMLSCALE
 40
1.0
  9
$PROXYGRAPHICS
 70
     1
  9
$MEASUREMENT
 70
     0
  0
ENDSEC
  0
SECTION
  2
CLASSES
  0
CLASS
  1
ACDBDICTIONARYWDFLT
  2
AcDbDictionaryWithDefault
  3
AutoCAD 2000
 90
        0
280
     0
281
     0
  0
CLASS
  1
ACDBPLACEHOLDER
  2
AcDbPlaceHolder
  3
AutoCAD 2000
 90
        0
280
     0
281
     0
  0
CLASS
  1
LAYOUT
  2
AcDbLayout
  3
AutoCAD 2000
 90
        0
280
     0
281
     0
  0
CLASS
  1
WIPEOUT
  2
AcDbWipeout
  3
WipeOut|AutoCAD Express Tool|expresstools@autodesk.com
 90
      127
280
     0
281
     1
  0
CLASS
  1
PLOTSETTINGS
  2
AcDbPlotSettings
  3
AutoCAD 2000
 90
        0
280
     0
281
     0
  0
CLASS
  1
IMAGEDEF
  2
AcDbRasterImageDef
  3
ISM
 90
        0
280
     0
281
     0
  0
CLASS
  1
LONG_TRANSACTION
  2
AcDbLongTransaction
  3
AutoCAD 2000
 90
        0
280
     0
281
     0
  0
CLASS
  1
LWPOLYLINE
  2
AcDbPolyline
  3
AutoCAD 2000
 90
        0
280
     0
281
     1
  0
CLASS
  1
HATCH
  2
AcDbHatch
  3
AutoCAD 2000
 90
        0
280
     0
281
     1
  0
CLASS
  1
XRECORD
  2
AcDbXrecord
  3
AutoCAD 2000
 90
        0
280
     0
281
     0
  0
ENDSEC
  0
SECTION
  2
TABLES
  0
TABLE
  2
VPORT
  5
386
330
0
100
AcDbSymbolTable
 70
     2
  0
VPORT
  5
1AC3
330
386
100
AcDbSymbolTableRecord
100
AcDbViewportTableRecord
  2
*ACTIVE
 70
     0
 10
0.0
 20
0.0
 11
1.0
 21
1.0
 12
324.1005717719679
 22
37.29169518569444
 13
0.0
 23
0.0
 14
1.0
 24
1.0
 15
10.0
 25
10.0
 16
0.0
 26
0.0
 36
1.0
 17
0.0
 27
0.0
 37
0.0
 40
14.97803584002726
 41
1.448317307692307
 42
50.0
 43
0.0
 44
0.0
 50
0.0
 51
0.0
 71
     0
 72
   100
 73
     1
 74
     0
 75
     0
 76
     0
 77
     0
 78
     1
  0
ENDTAB
  0
TABLE
  2
LTYPE
  5
383
330
0
100
AcDbSymbolTable
 70
    11
  0
LTYPE
  5
391
330
383
100
AcDbSymbolTableRecord
100
AcDbLinetypeTableRecord
  2
BYBLOCK
 70
     0
  3

 72
    65
 73
     0
 40
0.0
  0
LTYPE
  5
392
330
383
100
AcDbSymbolTableRecord
100
AcDbLinetypeTableRecord
  2
BYLAYER
 70
     0
  3

 72
    65
 73
     0
 40
0.0
  0
LTYPE
  5
393
330
383
100
AcDbSymbolTableRecord
100
AcDbLinetypeTableRecord
  2
CONTINUOUS
 70
     0
  3
Solid line
 72
    65
 73
     0
 40
0.0
  0
ENDTAB
  0
TABLE
  2
LAYER
  5
380
102
{ACAD_XDICTIONARY
360
81E
102
}
330
0
100
AcDbSymbolTable
 70
    22
  0
LAYER
  5
38E
330
380
100
AcDbSymbolTableRecord
100
AcDbLayerTableRecord
  2
0
 70
     0
 62
     7
  6
CONTINUOUS
  0
LAYER
  5
3A2
330
380
100
AcDbSymbolTableRecord
100
AcDbLayerTableRecord
  2
DEFPOINTS
 70
     0
 62
     7
  6
CONTINUOUS
  0
LAYER
  5
1A1F
330
380
100
AcDbSymbolTableRecord
100
AcDbLayerTableRecord
  2
FULLS
 70
     0
 62
     7
  6
CONTINUOUS
  0
LAYER
  5
1A30
330
380
100
AcDbSymbolTableRecord
100
AcDbLayerTableRecord
  2
ASHADE
 70
     0
 62
     7
  6
CONTINUOUS
  0
ENDTAB
  0
TABLE
  2
STYLE
  5
381
330
0
100
AcDbSymbolTable
 70
     9
  0
STYLE
  5
38F
330
381
100
AcDbSymbolTableRecord
100
AcDbTextStyleTableRecord
  2
STANDARD
 70
     0
 40
0.0
 41
1.0
 50
0.0
 71
     0
 42
0.1
  3
romans.shx
  4

  0
STYLE
  5
3A0
330
381
100
AcDbSymbolTableRecord
100
AcDbTextStyleTableRecord
  2
ROMANC
 70
     0
 40
0.0
 41
1.0
 50
0.0
 71
     0
 42
0.1
  3
romanc.shx
  4

  0
STYLE
  5
1A31
330
381
100
AcDbSymbolTableRecord
100
AcDbTextStyleTableRecord
  2
ARIAL
 70
     0
 40
0.0
 41
1.0
 50
0.0
 71
     0
 42
0.2
  3
ARIAL.TTF
  4

1001
ACAD
1000
Arial
1071
       34
  0
STYLE
  5
1A32
330
381
100
AcDbSymbolTableRecord
100
AcDbTextStyleTableRecord
  2
ROMANS
 70
     0
 40
3.5
 41
1.0
 50
0.0
 71
     0
 42
4.0
  3
C:\APLIC\ACADWIN\FONTS\ROMANS.SHX
  4

  0
ENDTAB
  0
TABLE
  2
VIEW
  5
384
330
0
100
AcDbSymbolTable
 70
     0
  0
ENDTAB
  0
TABLE
  2
UCS
  5
385
330
0
100
AcDbSymbolTable
 70
     0
  0
ENDTAB
  0
TABLE
  2
APPID
  5
387
330
0
100
AcDbSymbolTable
 70
     9
  0
APPID
  5
390
330
387
100
AcDbSymbolTableRecord
100
AcDbRegAppTableRecord
  2
ACAD
 70
     0
  0
APPID
  5
1A45
330
387
100
AcDbSymbolTableRecord
100
AcDbRegAppTableRecord
  2
AVE_RENDER
 70
     0
  0
APPID
  5
1AE9
330
387
100
AcDbSymbolTableRecord
100
AcDbRegAppTableRecord
  2
CONTENTBLOCKICON
 70
     0
  0
ENDTAB
  0
TABLE
  2
DIMSTYLE
  5
388
330
0
100
AcDbSymbolTable
 70
    10
  0
DIMSTYLE
105
3A3
330
388
100
AcDbSymbolTableRecord
100
AcDbDimStyleTableRecord
  2
MERITXELL
 70
     0
  3

  4

  5

  6

  7

 40
1.5
 41
0.1
 42
0.01
 43
7.0
 44
0.01
 45
0.0
 46
0.0
 47
0.0
 48
0.0
140
0.05
141
0.1
142
0.0
143
25.4
144
1.0
145
0.0
146
70.0
147
0.09
 71
     0
 72
     0
 73
     0
 74
     0
 75
     0
 76
     0
 77
     1
 78
     0
170
     0
171
     2
172
     1
173
     0
174
     1
175
     0
176
     0
177
     0
178
     0
270
     2
271
     2
272
     2
273
     2
274
     2
340
3A0
275
     0
280
     0
281
     0
282
     0
283
     1
284
     0
285
     0
286
     0
287
     5
288
     0
  0
DIMSTYLE
105
769
102
{ACAD_REACTORS
330
4EC
330
4DF
330
4D2
330
4C5
330
513
330
506
330
4F9
330
48E
330
4A6
102
}
330
388
100
AcDbSymbolTableRecord
100
AcDbDimStyleTableRecord
  2
ACOTA_50
 70
     0
  3

  4

  5

  6
ARCHTICK
  7

 40
0.075
 41
1.0
 42
1.0
 43
1.0
 44
1.0
 45
0.0
 46
1.0
 47
0.0
 48
0.0
140
1.0
141
1.0
142
0.0
143
25.4
144
1.0
145
0.0
146
1.0
147
1.0
 71
     0
 72
     0
 73
     0
 74
     0
 75
     0
 76
     0
 77
     0
 78
     0
170
     0
171
     2
172
     0
173
     0
174
     0
175
     0
176
   256
177
   256
178
     4
270
     2
271
     2
272
     2
273
     2
274
     2
340
38F
275
     0
280
     0
281
     0
282
     0
283
     1
284
     0
285
     0
286
     0
287
     5
288
     0
  0
ENDTAB
  0
TABLE
  2
BLOCK_RECORD
  5
37F
330
0
100
AcDbSymbolTable
 70
   112
  0
BLOCK_RECORD
  5
39C
102
{ACAD_XDICTIONARY
360
1AE7
102
}
330
37F
100
AcDbSymbolTableRecord
100
AcDbBlockTableRecord
  2
*MODEL_SPACE
  0
BLOCK_RECORD
  5
398
102
{ACAD_XDICTIONARY
360
1AE5
102
}
330
37F
100
AcDbSymbolTableRecord
100
AcDbBlockTableRecord
  2
*PAPER_SPACE
  0
BLOCK_RECORD
  5
48F
330
37F
100
AcDbSymbolTableRecord
100
AcDbBlockTableRecord
  2
*D11
  0
BLOCK_RECORD
  5
4A7
330
37F
100
AcDbSymbolTableRecord
100
AcDbBlockTableRecord
  2
*D12
  0
BLOCK_RECORD
  5
4C6
330
37F
100
AcDbSymbolTableRecord
100
AcDbBlockTableRecord
  2
*D13
  0
BLOCK_RECORD
  5
4D3
330
37F
100
AcDbSymbolTableRecord
100
AcDbBlockTableRecord
  2
*D14
  0
BLOCK_RECORD
  5
4E0
330
37F
100
AcDbSymbolTableRecord
100
AcDbBlockTableRecord
  2
*D15
  0
BLOCK_RECORD
  5
4ED
330
37F
100
AcDbSymbolTableRecord
100
AcDbBlockTableRecord
  2
*D16
  0
BLOCK_RECORD
  5
4FA
330
37F
100
AcDbSymbolTableRecord
100
AcDbBlockTableRecord
  2
*D17
  0
BLOCK_RECORD
  5
507
330
37F
100
AcDbSymbolTableRecord
100
AcDbBlockTableRecord
  2
*D18
  0
BLOCK_RECORD
  5
514
330
37F
100
AcDbSymbolTableRecord
100
AcDbBlockTableRecord
  2
*D19
  0
BLOCK_RECORD
  5
764
330
37F
100
AcDbSymbolTableRecord
100
AcDbBlockTableRecord
  2
_ARCHTICK
1001
CONTENTBLOCKICON
1071
        0
1004
2800000020000000200000000100080000000000000400000000000000000000000000000000000000000000000080000080000000808000800000008000800080800000C0C0C000C0DCC000F0CAA6000020400000206000002080000020A0000020C0000020E00000400000004020000040400000406000004080000040A0
1004
000040C0000040E00000600000006020000060400000606000006080000060A0000060C0000060E00000800000008020000080400000806000008080000080A0000080C0000080E00000A0000000A0200000A0400000A0600000A0800000A0A00000A0C00000A0E00000C0000000C0200000C0400000C0600000C0800000C0
1004
A00000C0C00000C0E00000E0000000E0200000E0400000E0600000E0800000E0A00000E0C00000E0E00040000000400020004000400040006000400080004000A0004000C0004000E00040200000402020004020400040206000402080004020A0004020C0004020E000404000004040200040404000404060004040800040
1004
40A0004040C0004040E00040600000406020004060400040606000406080004060A0004060C0004060E00040800000408020004080400040806000408080004080A0004080C0004080E00040A0000040A0200040A0400040A0600040A0800040A0A00040A0C00040A0E00040C0000040C0200040C0400040C0600040C08000
1004
40C0A00040C0C00040C0E00040E0000040E0200040E0400040E0600040E0800040E0A00040E0C00040E0E00080000000800020008000400080006000800080008000A0008000C0008000E00080200000802020008020400080206000802080008020A0008020C0008020E00080400000804020008040400080406000804080
1004
008040A0008040C0008040E00080600000806020008060400080606000806080008060A0008060C0008060E00080800000808020008080400080806000808080008080A0008080C0008080E00080A0000080A0200080A0400080A0600080A0800080A0A00080A0C00080A0E00080C0000080C0200080C0400080C0600080C0
1004
800080C0A00080C0C00080C0E00080E0000080E0200080E0400080E0600080E0800080E0A00080E0C00080E0E000C0000000C0002000C0004000C0006000C0008000C000A000C000C000C000E000C0200000C0202000C0204000C0206000C0208000C020A000C020C000C020E000C0400000C0402000C0404000C0406000C0
1004
408000C040A000C040C000C040E000C0600000C0602000C0604000C0606000C0608000C060A000C060C000C060E000C0800000C0802000C0804000C0806000C0808000C080A000C080C000C080E000C0A00000C0A02000C0A04000C0A06000C0A08000C0A0A000C0A0C000C0A0E000C0C00000C0C02000C0C04000C0C06000
1004
C0C08000C0C0A000F0FBFF00A4A0A000808080000000FF0000FF000000FFFF00FF000000FF00FF00FFFF0000FFFFFF00000000FF000000000000000000000000000000000000000000000000000000000000FF00FF00000000000000000000000000000000000000000000000000000000FF000000FF000000000000000000
1004
0000000000000000000000000000000000FF0000000000FF0000000000000000000000000000000000000000000000000000FF0000000000FF0000000000000000000000000000000000000000000000000000FF0000000000FF0000000000000000000000000000000000000000000000000000FF0000000000FF00000000
1004
00000000000000000000000000000000000000000000FF0000000000FF0000000000000000000000000000000000000000000000000000FF0000000000FF0000000000000000000000000000000000000000000000000000FF0000000000FF0000000000000000000000000000000000000000000000000000FF0000000000
1004
FF0000000000000000000000000000000000000000000000000000FF0000000000FF0000000000000000000000000000000000000000000000000000FF0000000000FF0000000000000000000000000000000000000000000000000000FF0000000000FF0000000000000000000000000000000000000000000000000000FF
1004
0000000000FF0000000000000000000000000000000000000000000000000000FF0000000000FF0000000000000000000000000000000000000000000000000000FF0000000000FF0000000000000000000000000000000000000000000000000000FF0000000000FF00000000000000000000000000000000000000000000
1004
00000000FF0000000000FF0000000000000000000000000000000000000000000000000000FF0000000000FF0000000000000000000000000000000000000000000000000000FF0000000000FF0000000000000000000000000000000000000000000000000000FF0000000000FF0000000000000000000000000000000000
1004
000000000000000000FF0000000000FF0000000000000000000000000000000000000000000000000000FF0000000000FF0000000000000000000000000000000000000000000000000000FF0000000000FF0000000000000000000000000000000000000000000000000000FF0000000000FF000000000000000000000000
1004
0000000000000000000000000000FF0000000000FF0000000000000000000000000000000000000000000000000000FF0000000000FF0000000000000000000000000000000000000000000000000000FF0000000000FF0000000000000000000000000000000000000000000000000000FF000000FF000000000000000000
1004
00000000000000000000000000000000000000FF00FF000000000000000000000000000000000000000000000000000000000000FF000000
  0
BLOCK_RECORD
  5
824
330
37F
100
AcDbSymbolTableRecord
100
AcDbBlockTableRecord
  2
NORT
1001
CONTENTBLOCKICON
1071
        0
1004
2800000020000000200000000100080000000000000400000000000000000000000000000000000000000000000080000080000000808000800000008000800080800000C0C0C000C0DCC000F0CAA6000020400000206000002080000020A0000020C0000020E00000400000004020000040400000406000004080000040A0
1004
000040C0000040E00000600000006020000060400000606000006080000060A0000060C0000060E00000800000008020000080400000806000008080000080A0000080C0000080E00000A0000000A0200000A0400000A0600000A0800000A0A00000A0C00000A0E00000C0000000C0200000C0400000C0600000C0800000C0
1004
A00000C0C00000C0E00000E0000000E0200000E0400000E0600000E0800000E0A00000E0C00000E0E00040000000400020004000400040006000400080004000A0004000C0004000E00040200000402020004020400040206000402080004020A0004020C0004020E000404000004040200040404000404060004040800040
1004
40A0004040C0004040E00040600000406020004060400040606000406080004060A0004060C0004060E00040800000408020004080400040806000408080004080A0004080C0004080E00040A0000040A0200040A0400040A0600040A0800040A0A00040A0C00040A0E00040C0000040C0200040C0400040C0600040C08000
1004
40C0A00040C0C00040C0E00040E0000040E0200040E0400040E0600040E0800040E0A00040E0C00040E0E00080000000800020008000400080006000800080008000A0008000C0008000E00080200000802020008020400080206000802080008020A0008020C0008020E00080400000804020008040400080406000804080
1004
008040A0008040C0008040E00080600000806020008060400080606000806080008060A0008060C0008060E00080800000808020008080400080806000808080008080A0008080C0008080E00080A0000080A0200080A0400080A0600080A0800080A0A00080A0C00080A0E00080C0000080C0200080C0400080C0600080C0
1004
800080C0A00080C0C00080C0E00080E0000080E0200080E0400080E0600080E0800080E0A00080E0C00080E0E000C0000000C0002000C0004000C0006000C0008000C000A000C000C000C000E000C0200000C0202000C0204000C0206000C0208000C020A000C020C000C020E000C0400000C0402000C0404000C0406000C0
1004
408000C040A000C040C000C040E000C0600000C0602000C0604000C0606000C0608000C060A000C060C000C060E000C0800000C0802000C0804000C0806000C0808000C080A000C080C000C080E000C0A00000C0A02000C0A04000C0A06000C0A08000C0A0A000C0A0C000C0A0E000C0C00000C0C02000C0C04000C0C06000
1004
C0C08000C0C0A000F0FBFF00A4A0A000808080000000FF0000FF000000FFFF00FF000000FF00FF00FFFF0000FFFFFF00A4A4A4A4A4A4A4A4A4A4A4A4A4A4A4A4A4A4A4A4A4A4A4A4A4A4A4A4A4A4A4A4A4A4A4A4A4A4A4A4A4A4A4A4A4A4A4FFA4A4A4A4A4A4A4A4A4A4A4A4A4A4A4A4A4A4FFA4A4A4A4A4A4A4A4A4A4FFFF
1004
FFFFFFFFFFA4FFA4A4A4A4A4A4A4FFA4A4A4A4A4FFA4A4A4A4A4A4FFFFFFFFFFFFFFFFFFFFFFFFA4A4A4A4A4A4FFA4A4A4A4A4A4A4FFA4A4A4A4FFFFFFA4A4A4FFA4A4A4A4FFFFFFA4A4A4A4FFA4A4A4A4A4A4A4A4A4FFA4FFFFA4A4FFA4A4A4FFA4A4A4A4FFA4FFFFA4FFFFA4A4A4A4A4A4A4A4A4A4FFFFFFA4A4A4A4FFA4
1004
A4FFA4A4A4FFA4A4A4A4FFFFA4A4A4A4A4A4A4A4A4A4A4FFFFFFA4A4A4A4FFA4A4FFFFA4A4FFA4A4A4FFFFFFFFA4A4A4A4A4A4A4A4A4A4FFA4FFFFFFA4A4A4FFA4FFFFA4FFA4A4A4FFFFA4A4FFFFA4A4A4A4A4A4A4A4FFFFA4A4FFFFFFA4A4FFFFFFFFA4FFA4FFFFFFFFA4A4FFFFA4A4A4A4A4A4FFFFFFA4A4A4A4FFFFFFFF
1004
A4FFFFA4FFFFFFFFFFFFA4A4A4A4FFFFA4A4A4A4A4A4FFFFFFA4A4A4FFFFFFA4FFFFFFFFFFA4A4FFA4FFA4A4A4FFFFFFA4A4A4A4A4A4FFA4A4FFFFA4A4FFFFA4A4A4FFA4FFA4FFA4FFA4A4FFFFA4A4FFFFA4A4A4A4A4FFA4A4A4A4FFFFFFA4FFA4A4FFFFA4FFA4FFA4FFFFA4A4A4A4FFFFA4A4A4A4FFFFA4A4A4A4A4A4FFFF
1004
A4FFA4FFFFFFA4A4FFFFFFA4A4A4A4A4FFFFA4A4A4A4FFFFA4A4A4FFFFFFA4FFFFFFFFFFFFA4FFFFFFFFFFFFFFFFFFFFFFFFFFA4A4FFFFFFFFFFFFFFFFFFFFFFFFFFFFFFFFFFFFFFFFFFFFFFFFA4A4A4FFFFA4A4A4A4FFFFA4A4A4A4FFFFFFFFA4A4FFFFFFFFFFFFFFFFA4A4A4A4A4A4FFFFA4A4A4A4A4FFA4A4A4A4A4FFFF
1004
FFA4FFFFFFFFFFFFA4FFFFFFA4A4A4A4A4FFFFA4A4A4A4A4FFA4A4A4FFFFA4FFA4FFA4FFFFFFA4FFFFA4FFA4FFFFA4A4A4FFFFA4A4A4A4A4FFFFFFFFA4A4A4FFFFA4FFFFFFFFFFFFFFFFA4FFA4A4FFFFFFFFA4A4A4A4A4A4FFFFA4A4A4A4FFFFA4FFFFFFFFFFFFFFFFFFFFFFA4A4A4A4FFFFFFA4A4A4A4A4A4FFFFA4A4FFFF
1004
FFFFA4FFA4FFFFFFFFA4A4FFFFFFA4A4FFFFA4A4A4A4A4A4A4A4A4FFA4A4FFFFA4A4FFA4A4FFFFA4A4FFA4A4FFFFFFA4FFFFA4A4A4A4A4A4A4A4A4FFFFFFFFA4A4A4FFA4A4FFFFA4A4FFA4A4A4A4FFFFFFA4A4A4A4A4A4A4A4A4A4A4FFFFA4A4A4A4FFA4A4A4FFA4A4A4FFA4A4A4FFFFFFA4A4A4A4A4A4A4A4A4A4FFFFFFFF
1004
A4A4FFA4A4A4A4FFA4A4A4FFA4A4FFFFA4FFA4A4A4A4A4A4A4A4A4FFA4A4A4FFFFA4FFA4A4A4A4FFA4A4A4A4FFFFA4A4A4A4FFA4A4A4A4A4A4A4FFA4A4A4A4A4A4FFFFFFFFFFFFFFFFFFFFFFFFA4A4A4A4A4A4FFA4A4A4A4A4FFA4A4A4A4A4A4A4FFA4A4FFFFFFFFFFFFFFFFA4A4A4A4A4A4A4A4FFA4A4A4A4A4A4A4A4A4A4
1004
A4A4A4A4A4A4A4A4FFA4A4A4A4A4A4A4A4A4A4A4A4A4A4A4A4A4A4A4A4A4A4A4A4A4A4A4A4A4A4A4A4A4A4A4A4A4A4A4A4A4A4A4A4A4A4A4
  0
BLOCK_RECORD
  5
1897
330
37F
100
AcDbSymbolTableRecord
100
AcDbBlockTableRecord
  2
AVE_RENDER
  0
BLOCK_RECORD
  5
189A
330
37F
100
AcDbSymbolTableRecord
100
AcDbBlockTableRecord
  2
*X99
  0
BLOCK_RECORD
  5
18AB
330
37F
100
AcDbSymbolTableRecord
100
AcDbBlockTableRecord
  2
*X100
  0
BLOCK_RECORD
  5
18BD
330
37F
100
AcDbSymbolTableRecord
100
AcDbBlockTableRecord
  2
*X101
  0
BLOCK_RECORD
  5
18CF
330
37F
100
AcDbSymbolTableRecord
100
AcDbBlockTableRecord
  2
*X102
  0
BLOCK_RECORD
  5
18E1
330
37F
100
AcDbSymbolTableRecord
100
AcDbBlockTableRecord
  2
*X103
  0
BLOCK_RECORD
  5
18F3
330
37F
100
AcDbSymbolTableRecord
100
AcDbBlockTableRecord
  2
*X104
  0
BLOCK_RECORD
  5
1905
330
37F
100
AcDbSymbolTableRecord
100
AcDbBlockTableRecord
  2
*X105
  0
BLOCK_RECORD
  5
1917
330
37F
100
AcDbSymbolTableRecord
100
AcDbBlockTableRecord
  2
*X106
  0
BLOCK_RECORD
  5
1929
330
37F
100
AcDbSymbolTableRecord
100
AcDbBlockTableRecord
  2
*X107
  0
BLOCK_RECORD
  5
193B
330
37F
100
AcDbSymbolTableRecord
100
AcDbBlockTableRecord
  2
*X108
  0
BLOCK_RECORD
  5
194C
330
37F
100
AcDbSymbolTableRecord
100
AcDbBlockTableRecord
  2
*X109
  0
BLOCK_RECORD
  5
1989
330
37F
100
AcDbSymbolTableRecord
100
AcDbBlockTableRecord
  2
CAIXETI
1001
ACAD
1000
DesignCenter Data
1002
{
1070
     1
1070
     4
1002
}
  0
ENDTAB
  0
ENDSEC
  0
SECTION
  2
BLOCKS
  0
BLOCK
  5
39D
330
39C
100
AcDbEntity
  8
0
100
AcDbBlockBegin
  2
*MODEL_SPACE
 70
     0
 10
0.0
 20
0.0
 30
0.0
  3
*MODEL_SPACE
  1

  0
ENDBLK
  5
39E
330
39C
100
AcDbEntity
  8
0
100
AcDbBlockEnd
  0
BLOCK
  5
399
330
398
100
AcDbEntity
 67
     1
  8
0
100
AcDbBlockBegin
  2
*PAPER_SPACE
 70
     0
 10
0.0
 20
0.0
 30
0.0
  3
*PAPER_SPACE
  1

  0
ENDBLK
  5
39A
330
398
100
AcDbEntity
 67
     1
  8
0
100
AcDbBlockEnd
  0
BLOCK
  5
499
330
48F
100
AcDbEntity
  8
0
100
AcDbBlockBegin
  2
*D11
 70
     1
 10
0.0
 20
0.0
 30
0.0
  3
*D11
  1

  0
LINE
  5
1A88
330
48F
100
AcDbEntity
  8
0
100
AcDbLine
 10
323.581608
 20
37.48491277414181
 30
0.0
 11
326.0515571815807
 21
37.48491277414181
 31
0.0
  0
LINE
  5
1A89
330
48F
100
AcDbEntity
  8
0
100
AcDbLine
 10
323.581608
 20
34.88491277414179
 30
0.0
 11
326.0515571815807
 21
34.88491277414179
 31
0.0
  0
LINE
  5
1A8A
330
48F
100
AcDbEntity
  8
0
100
AcDbLine
 10
325.9765571815807
 20
37.40991277414181
 30
0.0
 11
325.9765571815807
 21
36.37419848842752
 31
0.0
  0
LINE
  5
1A8B
330
48F
100
AcDbEntity
  8
0
100
AcDbLine
 10
325.9765571815807
 20
34.9599127741418
 30
0.0
 11
325.9765571815807
 21
35.99562705985609
 31
0.0
  0
SOLID
  5
1A8C
330
48F
100
AcDbEntity
  8
0
100
AcDbTrace
 10
325.9640571815807
 20
37.40991277414181
 30
0.0
 11
325.9890571815807
 21
37.40991277414181
 31
0.0
 12
325.9765571815807
 22
37.48491277414181
 32
0.0
 13
325.9765571815807
 23
37.48491277414181
 33
0.0
  0
SOLID
  5
1A8D
330
48F
100
AcDbEntity
  8
0
100
AcDbTrace
 10
325.9640571815807
 20
34.9599127741418
 30
0.0
 11
325.9890571815807
 21
34.9599127741418
 31
0.0
 12
325.9765571815807
 22
34.88491277414179
 32
0.0
 13
325.9765571815807
 23
34.88491277414179
 33
0.0
  0
MTEXT
  5
1A8E
330
48F
100
AcDbEntity
  8
0
 62
     4
100
AcDbMText
 10
325.9765571815807
 20
36.18491277414185
 30
0.0
 40
0.075
 41
0.0
 71
     5
 72
     1
  1
\A1;2.60
 11
0.0000000000000001
 21
1.0
 31
0.0
1001
ACAD
1000
MTEXTBEGIN
1070
    73
1070
     1
1070
    44
1040
1.0
1070
    74
1070
     0
1000
MTEXTEND
  0
POINT
  5
1A8F
330
48F
100
AcDbEntity
  8
DEFPOINTS
 62
     0
100
AcDbPoint
 10
323.506608
 20
37.48491277414181
 30
0.0
  0
POINT
  5
1A90
330
48F
100
AcDbEntity
  8
DEFPOINTS
 62
     0
100
AcDbPoint
 10
323.506608
 20
34.88491277414179
 30
0.0
  0
POINT
  5
1A91
330
48F
100
AcDbEntity
  8
DEFPOINTS
 62
     0
100
AcDbPoint
 10
325.9765571815807
 20
34.88491277414179
 30
0.0
  0
ENDBLK
  5
49A
330
48F
100
AcDbEntity
  8
0
100
AcDbBlockEnd
  0
BLOCK
  5
4B1
330
4A7
100
AcDbEntity
  8
0
100
AcDbBlockBegin
  2
*D12
 70
     1
 10
0.0
 20
0.0
 30
0.0
  3
*D12
  1

  0
LINE
  5
1ABA
330
4A7
100
AcDbEntity
  8
0
100
AcDbLine
 10
322.081608
 20
36.08491277414179
 30
0.0
 11
323.3173222857143
 21
36.08491277414179
 31
0.0
  0
LINE
  5
1ABB
330
4A7
100
AcDbEntity
  8
0
100
AcDbLine
 10
324.931608
 20
36.08491277414179
 30
0.0
 11
323.6958937142857
 21
36.08491277414179
 31
0.0
  0
SOLID
  5
1ABC
330
4A7
100
AcDbEntity
  8
0
100
AcDbTrace
 10
322.081608
 20
36.09741277414179
 30
0.0
 11
322.081608
 21
36.07241277414178
 31
0.0
 12
322.006608
 22
36.08491277414179
 32
0.0
 13
322.006608
 23
36.08491277414179
 33
0.0
  0
SOLID
  5
1ABD
330
4A7
100
AcDbEntity
  8
0
100
AcDbTrace
 10
324.931608
 20
36.09741277414179
 30
0.0
 11
324.931608
 21
36.07241277414178
 31
0.0
 12
325.006608
 22
36.08491277414179
 32
0.0
 13
325.006608
 23
36.08491277414179
 33
0.0
  0
MTEXT
  5
1ABE
330
4A7
100
AcDbEntity
  8
0
 62
     4
100
AcDbMText
 10
323.506608
 20
36.08491277414179
 30
0.0
 40
0.075
 41
0.0
 71
     5
 72
     1
  1
\A1;3.00
1001
ACAD
1000
MTEXTBEGIN
1070
    73
1070
     1
1070
    44
1040
1.0
1070
    74
1070
     0
1000
MTEXTEND
  0
POINT
  5
1ABF
330
4A7
100
AcDbEntity
  8
DEFPOINTS
 62
     0
100
AcDbPoint
 10
322.006608
 20
36.08491277414179
 30
0.0
  0
POINT
  5
1AC0
330
4A7
100
AcDbEntity
  8
DEFPOINTS
 62
     0
100
AcDbPoint
 10
325.006608
 20
36.08491277414179
 30
0.0
  0
POINT
  5
1AC1
330
4A7
100
AcDbEntity
  8
DEFPOINTS
 62
     0
100
AcDbPoint
 10
325.006608
 20
36.08491277414179
 30
0.0
  0
ENDBLK
  5
4B2
330
4A7
100
AcDbEntity
  8
0
100
AcDbBlockEnd
  0
BLOCK
  5
4D0
330
4C6
100
AcDbEntity
  8
0
100
AcDbBlockBegin
  2
*D13
 70
     1
 10
0.0
 20
0.0
 30
0.0
  3
*D13
  1

  0
LINE
  5
1AB0
330
4C6
100
AcDbEntity
  8
0
100
AcDbLine
 10
322.006608
 20
35.40991277414179
 30
0.0
 11
322.006608
 21
34.0605302933432
 31
0.0
  0
LINE
  5
1AB1
330
4C6
100
AcDbEntity
  8
0
100
AcDbLine
 10
325.006608
 20
35.39491277414179
 30
0.0
 11
325.006608
 21
34.0605302933432
 31
0.0
  0
LINE
  5
1AB2
330
4C6
100
AcDbEntity
  8
0
100
AcDbLine
 10
322.081608
 20
34.13553029334321
 30
0.0
 11
323.3173222857143
 21
34.13553029334321
 31
0.0
  0
LINE
  5
1AB3
330
4C6
100
AcDbEntity
  8
0
100
AcDbLine
 10
324.931608
 20
34.13553029334321
 30
0.0
 11
323.6958937142857
 21
34.13553029334321
 31
0.0
  0
SOLID
  5
1AB4
330
4C6
100
AcDbEntity
  8
0
100
AcDbTrace
 10
322.081608
 20
34.14803029334321
 30
0.0
 11
322.081608
 21
34.1230302933432
 31
0.0
 12
322.006608
 22
34.13553029334321
 32
0.0
 13
322.006608
 23
34.13553029334321
 33
0.0
  0
SOLID
  5
1AB5
330
4C6
100
AcDbEntity
  8
0
100
AcDbTrace
 10
324.931608
 20
34.14803029334321
 30
0.0
 11
324.931608
 21
34.1230302933432
 31
0.0
 12
325.006608
 22
34.13553029334321
 32
0.0
 13
325.006608
 23
34.13553029334321
 33
0.0
  0
MTEXT
  5
1AB6
330
4C6
100
AcDbEntity
  8
0
 62
     4
100
AcDbMText
 10
323.506608
 20
34.13553029334321
 30
0.0
 40
0.075
 41
0.0
 71
     5
 72
     1
  1
\A1;3.00
1001
ACAD
1000
MTEXTBEGIN
1070
    73
1070
     1
1070
    44
1040
1.0
1070
    74
1070
     0
1000
MTEXTEND
  0
POINT
  5
1AB7
330
4C6
100
AcDbEntity
  8
DEFPOINTS
 62
     0
100
AcDbPoint
 10
322.006608
 20
35.48491277414179
 30
0.0
  0
POINT
  5
1AB8
330
4C6
100
AcDbEntity
  8
DEFPOINTS
 62
     0
100
AcDbPoint
 10
325.006608
 20
35.46991277414179
 30
0.0
  0
POINT
  5
1AB9
330
4C6
100
AcDbEntity
  8
DEFPOINTS
 62
     0
100
AcDbPoint
 10
325.006608
 20
34.13553029334321
 30
0.0
  0
ENDBLK
  5
4D1
330
4C6
100
AcDbEntity
  8
0
100
AcDbBlockEnd
  0
BLOCK
  5
4DD
330
4D3
100
AcDbEntity
  8
0
100
AcDbBlockBegin
  2
*D14
 70
     1
 10
0.0
 20
0.0
 30
0.0
  3
*D14
  1

  0
LINE
  5
1AA6
330
4D3
100
AcDbEntity
  8
0
100
AcDbLine
 10
322.006608
 20
35.40991277414179
 30
0.0
 11
322.006608
 21
34.37574783599867
 31
0.0
  0
LINE
  5
1AA7
330
4D3
100
AcDbEntity
  8
0
100
AcDbLine
 10
322.806608
 20
35.40991277414179
 30
0.0
 11
322.806608
 21
34.37574783599867
 31
0.0
  0
LINE
  5
1AA8
330
4D3
100
AcDbEntity
  8
0
100
AcDbLine
 10
322.081608
 20
34.45074783599867
 30
0.0
 11
322.2173222857143
 21
34.45074783599867
 31
0.0
  0
LINE
  5
1AA9
330
4D3
100
AcDbEntity
  8
0
100
AcDbLine
 10
322.731608
 20
34.45074783599867
 30
0.0
 11
322.5958937142856
 21
34.45074783599867
 31
0.0
  0
SOLID
  5
1AAA
330
4D3
100
AcDbEntity
  8
0
100
AcDbTrace
 10
322.081608
 20
34.46324783599868
 30
0.0
 11
322.081608
 21
34.43824783599867
 31
0.0
 12
322.006608
 22
34.45074783599867
 32
0.0
 13
322.006608
 23
34.45074783599867
 33
0.0
  0
SOLID
  5
1AAB
330
4D3
100
AcDbEntity
  8
0
100
AcDbTrace
 10
322.731608
 20
34.46324783599868
 30
0.0
 11
322.731608
 21
34.43824783599867
 31
0.0
 12
322.806608
 22
34.45074783599867
 32
0.0
 13
322.806608
 23
34.45074783599867
 33
0.0
  0
MTEXT
  5
1AAC
330
4D3
100
AcDbEntity
  8
0
 62
     4
100
AcDbMText
 10
322.406608
 20
34.45074783599867
 30
0.0
 40
0.075
 41
0.0
 71
     5
 72
     1
  1
\A1;0.80
1001
ACAD
1000
MTEXTBEGIN
1070
    73
1070
     1
1070
    44
1040
1.0
1070
    74
1070
     0
1000
MTEXTEND
  0
POINT
  5
1AAD
330
4D3
100
AcDbEntity
  8
DEFPOINTS
 62
     0
100
AcDbPoint
 10
322.006608
 20
35.48491277414179
 30
0.0
  0
POINT
  5
1AAE
330
4D3
100
AcDbEntity
  8
DEFPOINTS
 62
     0
100
AcDbPoint
 10
322.806608
 20
35.48491277414179
 30
0.0
  0
POINT
  5
1AAF
330
4D3
100
AcDbEntity
  8
DEFPOINTS
 62
     0
100
AcDbPoint
 10
322.806608
 20
34.45074783599867
 30
0.0
  0
ENDBLK
  5
4DE
330
4D3
100
AcDbEntity
  8
0
100
AcDbBlockEnd
  0
BLOCK
  5
4EA
330
4E0
100
AcDbEntity
  8
0
100
AcDbBlockBegin
  2
*D15
 70
     1
 10
0.0
 20
0.0
 30
0.0
  3
*D15
  1

  0
LINE
  5
1A9C
330
4E0
100
AcDbEntity
  8
0
100
AcDbLine
 10
322.806608
 20
35.40991277414179
 30
0.0
 11
322.806608
 21
34.37574783599867
 31
0.0
  0
LINE
  5
1A9D
330
4E0
100
AcDbEntity
  8
0
100
AcDbLine
 10
324.206608
 20
35.23543205897557
 30
0.0
 11
324.206608
 21
34.37574783599867
 31
0.0
  0
LINE
  5
1A9E
330
4E0
100
AcDbEntity
  8
0
100
AcDbLine
 10
322.8816079999999
 20
34.45074783599867
 30
0.0
 11
323.3226794285714
 21
34.45074783599867
 31
0.0
  0
LINE
  5
1A9F
330
4E0
100
AcDbEntity
  8
0
100
AcDbLine
 10
324.131608
 20
34.45074783599867
 30
0.0
 11
323.6905365714286
 21
34.45074783599867
 31
0.0
  0
SOLID
  5
1AA0
330
4E0
100
AcDbEntity
  8
0
100
AcDbTrace
 10
322.8816079999999
 20
34.46324783599868
 30
0.0
 11
322.8816079999999
 21
34.43824783599867
 31
0.0
 12
322.806608
 22
34.45074783599867
 32
0.0
 13
322.806608
 23
34.45074783599867
 33
0.0
  0
SOLID
  5
1AA1
330
4E0
100
AcDbEntity
  8
0
100
AcDbTrace
 10
324.131608
 20
34.46324783599868
 30
0.0
 11
324.131608
 21
34.43824783599867
 31
0.0
 12
324.206608
 22
34.45074783599867
 32
0.0
 13
324.206608
 23
34.45074783599867
 33
0.0
  0
MTEXT
  5
1AA2
330
4E0
100
AcDbEntity
  8
0
 62
     4
100
AcDbMText
 10
323.506608
 20
34.45074783599867
 30
0.0
 40
0.075
 41
0.0
 71
     5
 72
     1
  1
\A1;1.40
1001
ACAD
1000
MTEXTBEGIN
1070
    73
1070
     1
1070
    44
1040
1.0
1070
    74
1070
     0
1000
MTEXTEND
  0
POINT
  5
1AA3
330
4E0
100
AcDbEntity
  8
DEFPOINTS
 62
     0
100
AcDbPoint
 10
322.806608
 20
35.48491277414179
 30
0.0
  0
POINT
  5
1AA4
330
4E0
100
AcDbEntity
  8
DEFPOINTS
 62
     0
100
AcDbPoint
 10
324.206608
 20
35.31043205897558
 30
0.0
  0
POINT
  5
1AA5
330
4E0
100
AcDbEntity
  8
DEFPOINTS
 62
     0
100
AcDbPoint
 10
324.206608
 20
34.45074783599867
 30
0.0
  0
ENDBLK
  5
4EB
330
4E0
100
AcDbEntity
  8
0
100
AcDbBlockEnd
  0
BLOCK
  5
4F7
330
4ED
100
AcDbEntity
  8
0
100
AcDbBlockBegin
  2
*D16
 70
     1
 10
0.0
 20
0.0
 30
0.0
  3
*D16
  1

  0
LINE
  5
1A92
330
4ED
100
AcDbEntity
  8
0
100
AcDbLine
 10
324.206608
 20
35.23543205897557
 30
0.0
 11
324.206608
 21
34.37574783599867
 31
0.0
  0
LINE
  5
1A93
330
4ED
100
AcDbEntity
  8
0
100
AcDbLine
 10
325.006608
 20
35.40991277414179
 30
0.0
 11
325.006608
 21
34.37574783599867
 31
0.0
  0
LINE
  5
1A94
330
4ED
100
AcDbEntity
  8
0
100
AcDbLine
 10
324.281608
 20
34.45074783599867
 30
0.0
 11
324.4173222857143
 21
34.45074783599867
 31
0.0
  0
LINE
  5
1A95
330
4ED
100
AcDbEntity
  8
0
100
AcDbLine
 10
324.931608
 20
34.45074783599867
 30
0.0
 11
324.7958937142857
 21
34.45074783599867
 31
0.0
  0
SOLID
  5
1A96
330
4ED
100
AcDbEntity
  8
0
100
AcDbTrace
 10
324.281608
 20
34.46324783599868
 30
0.0
 11
324.281608
 21
34.43824783599867
 31
0.0
 12
324.206608
 22
34.45074783599867
 32
0.0
 13
324.206608
 23
34.45074783599867
 33
0.0
  0
SOLID
  5
1A97
330
4ED
100
AcDbEntity
  8
0
100
AcDbTrace
 10
324.931608
 20
34.46324783599868
 30
0.0
 11
324.931608
 21
34.43824783599867
 31
0.0
 12
325.006608
 22
34.45074783599867
 32
0.0
 13
325.006608
 23
34.45074783599867
 33
0.0
  0
MTEXT
  5
1A98
330
4ED
100
AcDbEntity
  8
0
 62
     4
100
AcDbMText
 10
324.606608
 20
34.45074783599867
 30
0.0
 40
0.075
 41
0.0
 71
     5
 72
     1
  1
\A1;0.80
1001
ACAD
1000
MTEXTBEGIN
1070
    73
1070
     1
1070
    44
1040
1.0
1070
    74
1070
     0
1000
MTEXTEND
  0
POINT
  5
1A99
330
4ED
100
AcDbEntity
  8
DEFPOINTS
 62
     0
100
AcDbPoint
 10
324.206608
 20
35.31043205897558
 30
0.0
  0
POINT
  5
1A9A
330
4ED
100
AcDbEntity
  8
DEFPOINTS
 62
     0
100
AcDbPoint
 10
325.006608
 20
35.48491277414179
 30
0.0
  0
POINT
  5
1A9B
330
4ED
100
AcDbEntity
  8
DEFPOINTS
 62
     0
100
AcDbPoint
 10
325.006608
 20
34.45074783599867
 30
0.0
  0
ENDBLK
  5
4F8
330
4ED
100
AcDbEntity
  8
0
100
AcDbBlockEnd
  0
BLOCK
  5
504
330
4FA
100
AcDbEntity
  8
0
100
AcDbBlockBegin
  2
*D17
 70
     1
 10
0.0
 20
0.0
 30
0.0
  3
*D17
  1

  0
LINE
  5
1A7E
330
4FA
100
AcDbEntity
  8
0
100
AcDbLine
 10
323.596608
 20
34.88491277414179
 30
0.0
 11
325.7648892500009
 21
34.88491277414179
 31
0.0
  0
LINE
  5
1A7F
330
4FA
100
AcDbEntity
  8
0
100
AcDbLine
 10
324.281608
 20
35.48491277414179
 30
0.0
 11
325.7648892500009
 21
35.48491277414179
 31
0.0
  0
LINE
  5
1A80
330
4FA
100
AcDbEntity
  8
0
100
AcDbLine
 10
325.6898892500009
 20
34.80991277414179
 30
0.0
 11
325.6898892500009
 21
34.73491277414179
 31
0.0
  0
LINE
  5
1A81
330
4FA
100
AcDbEntity
  8
0
100
AcDbLine
 10
325.6898892500009
 20
35.5599127741418
 30
0.0
 11
325.6898892500009
 21
35.63491277414179
 31
0.0
  0
SOLID
  5
1A82
330
4FA
100
AcDbEntity
  8
0
100
AcDbTrace
 10
325.677389250001
 20
34.80991277414179
 30
0.0
 11
325.7023892500009
 21
34.80991277414179
 31
0.0
 12
325.6898892500009
 22
34.88491277414179
 32
0.0
 13
325.6898892500009
 23
34.88491277414179
 33
0.0
  0
SOLID
  5
1A83
330
4FA
100
AcDbEntity
  8
0
100
AcDbTrace
 10
325.677389250001
 20
35.5599127741418
 30
0.0
 11
325.7023892500009
 21
35.5599127741418
 31
0.0
 12
325.6898892500009
 22
35.48491277414179
 32
0.0
 13
325.6898892500009
 23
35.48491277414179
 33
0.0
  0
MTEXT
  5
1A84
330
4FA
100
AcDbEntity
  8
0
 62
     4
100
AcDbMText
 10
325.6898892500009
 20
35.18491277414184
 30
0.0
 40
0.075
 41
0.0
 71
     5
 72
     1
  1
\A1;0.60
 11
0.0000000000000001
 21
1.0
 31
0.0
1001
ACAD
1000
MTEXTBEGIN
1070
    73
1070
     1
1070
    44
1040
1.0
1070
    74
1070
     0
1000
MTEXTEND
  0
POINT
  5
1A85
330
4FA
100
AcDbEntity
  8
DEFPOINTS
 62
     0
100
AcDbPoint
 10
323.521608
 20
34.88491277414179
 30
0.0
  0
POINT
  5
1A86
330
4FA
100
AcDbEntity
  8
DEFPOINTS
 62
     0
100
AcDbPoint
 10
324.206608
 20
35.48491277414179
 30
0.0
  0
POINT
  5
1A87
330
4FA
100
AcDbEntity
  8
DEFPOINTS
 62
     0
100
AcDbPoint
 10
325.6898892500009
 20
35.48491277414179
 30
0.0
  0
ENDBLK
  5
505
330
4FA
100
AcDbEntity
  8
0
100
AcDbBlockEnd
  0
BLOCK
  5
511
330
507
100
AcDbEntity
  8
0
100
AcDbBlockBegin
  2
*D18
 70
     1
 10
0.0
 20
0.0
 30
0.0
  3
*D18
  1

  0
LINE
  5
1A74
330
507
100
AcDbEntity
  8
0
100
AcDbLine
 10
325.081608
 20
34.9849127741418
 30
0.0
 11
325.44034
 21
34.9849127741418
 31
0.0
  0
LINE
  5
1A75
330
507
100
AcDbEntity
  8
0
100
AcDbLine
 10
325.081608
 20
35.48491277414179
 30
0.0
 11
325.44034
 21
35.48491277414179
 31
0.0
  0
LINE
  5
1A76
330
507
100
AcDbEntity
  8
0
100
AcDbLine
 10
325.36534
 20
34.90991277414179
 30
0.0
 11
325.36534
 21
34.83491277414179
 31
0.0
  0
LINE
  5
1A77
330
507
100
AcDbEntity
  8
0
100
AcDbLine
 10
325.36534
 20
35.5599127741418
 30
0.0
 11
325.36534
 21
35.63491277414179
 31
0.0
  0
SOLID
  5
1A78
330
507
100
AcDbEntity
  8
0
100
AcDbTrace
 10
325.35284
 20
34.90991277414179
 30
0.0
 11
325.3778399999999
 21
34.90991277414179
 31
0.0
 12
325.36534
 22
34.9849127741418
 32
0.0
 13
325.36534
 23
34.9849127741418
 33
0.0
  0
SOLID
  5
1A79
330
507
100
AcDbEntity
  8
0
100
AcDbTrace
 10
325.35284
 20
35.5599127741418
 30
0.0
 11
325.3778399999999
 21
35.5599127741418
 31
0.0
 12
325.36534
 22
35.48491277414179
 32
0.0
 13
325.36534
 23
35.48491277414179
 33
0.0
  0
MTEXT
  5
1A7A
330
507
100
AcDbEntity
  8
0
 62
     4
100
AcDbMText
 10
325.36534
 20
35.23491277414184
 30
0.0
 40
0.075
 41
0.0
 71
     5
 72
     1
  1
\A1;0.50
 11
0.0000000000000001
 21
1.0
 31
0.0
1001
ACAD
1000
MTEXTBEGIN
1070
    73
1070
     1
1070
    44
1040
1.0
1070
    74
1070
     0
1000
MTEXTEND
  0
POINT
  5
1A7B
330
507
100
AcDbEntity
  8
DEFPOINTS
 62
     0
100
AcDbPoint
 10
325.006608
 20
34.9849127741418
 30
0.0
  0
POINT
  5
1A7C
330
507
100
AcDbEntity
  8
DEFPOINTS
 62
     0
100
AcDbPoint
 10
325.006608
 20
35.48491277414179
 30
0.0
  0
POINT
  5
1A7D
330
507
100
AcDbEntity
  8
DEFPOINTS
 62
     0
100
AcDbPoint
 10
325.36534
 20
35.48491277414179
 30
0.0
  0
ENDBLK
  5
512
330
507
100
AcDbEntity
  8
0
100
AcDbBlockEnd
  0
BLOCK
  5
51E
330
514
100
AcDbEntity
  8
0
100
AcDbBlockBegin
  2
*D19
 70
     1
 10
0.0
 20
0.0
 30
0.0
  3
*D19
  1

  0
LINE
  5
1A6A
330
514
100
AcDbEntity
  8
0
100
AcDbLine
 10
325.081608
 20
35.48491277414179
 30
0.0
 11
325.44034
 21
35.48491277414179
 31
0.0
  0
LINE
  5
1A6B
330
514
100
AcDbEntity
  8
0
100
AcDbLine
 10
325.081608
 20
36.08491277414179
 30
0.0
 11
325.44034
 21
36.08491277414179
 31
0.0
  0
LINE
  5
1A6C
330
514
100
AcDbEntity
  8
0
100
AcDbLine
 10
325.36534
 20
35.40991277414179
 30
0.0
 11
325.36534
 21
35.3349127741418
 31
0.0
  0
LINE
  5
1A6D
330
514
100
AcDbEntity
  8
0
100
AcDbLine
 10
325.36534
 20
36.15991277414179
 30
0.0
 11
325.36534
 21
36.23491277414179
 31
0.0
  0
SOLID
  5
1A6E
330
514
100
AcDbEntity
  8
0
100
AcDbTrace
 10
325.35284
 20
35.40991277414179
 30
0.0
 11
325.3778399999999
 21
35.40991277414179
 31
0.0
 12
325.36534
 22
35.48491277414179
 32
0.0
 13
325.36534
 23
35.48491277414179
 33
0.0
  0
SOLID
  5
1A6F
330
514
100
AcDbEntity
  8
0
100
AcDbTrace
 10
325.35284
 20
36.15991277414179
 30
0.0
 11
325.3778399999999
 21
36.15991277414179
 31
0.0
 12
325.36534
 22
36.08491277414179
 32
0.0
 13
325.36534
 23
36.08491277414179
 33
0.0
  0
MTEXT
  5
1A70
330
514
100
AcDbEntity
  8
0
 62
     4
100
AcDbMText
 10
325.36534
 20
35.78491277414184
 30
0.0
 40
0.075
 41
0.0
 71
     5
 72
     1
  1
\A1;0.60
 11
0.0000000000000001
 21
1.0
 31
0.0
1001
ACAD
1000
MTEXTBEGIN
1070
    73
1070
     1
1070
    44
1040
1.0
1070
    74
1070
     0
1000
MTEXTEND
  0
POINT
  5
1A71
330
514
100
AcDbEntity
  8
DEFPOINTS
 62
     0
100
AcDbPoint
 10
325.006608
 20
35.48491277414179
 30
0.0
  0
POINT
  5
1A72
330
514
100
AcDbEntity
  8
DEFPOINTS
 62
     0
100
AcDbPoint
 10
325.006608
 20
36.08491277414179
 30
0.0
  0
POINT
  5
1A73
330
514
100
AcDbEntity
  8
DEFPOINTS
 62
     0
100
AcDbPoint
 10
325.36534
 20
36.08491277414179
 30
0.0
  0
ENDBLK
  5
51F
330
514
100
AcDbEntity
  8
0
100
AcDbBlockEnd
  0
BLOCK
  5
766
330
764
100
AcDbEntity
  8
0
100
AcDbBlockBegin
  2
_ARCHTICK
 70
     0
 10
0.0
 20
0.0
 30
0.0
  3
_ARCHTICK
  1

  0
LWPOLYLINE
  5
765
330
764
100
AcDbEntity
  8
0
  6
BYBLOCK
 62
     0
100
AcDbPolyline
 90
        2
 70
     0
 43
0.15
 10
-0.5
 20
-0.5
 10
0.5
 20
0.5
  0
ENDBLK
  5
767
330
764
100
AcDbEntity
  8
0
100
AcDbBlockEnd
  0
BLOCK
  5
854
330
824
100
AcDbEntity
  8
0
100
AcDbBlockBegin
  2
NORT
 70
     0
 10
0.0
 20
0.0
 30
0.0
  3
NORT
  1

  0
CIRCLE
  5
825
330
824
100
AcDbEntity
  8
0
  6
CONTINUOUS
100
AcDbCircle
 10
768.8169663837274
 20
533.9316906556905
 30
0.0
 40
15.48000822220015
  0
LINE
  5
826
330
824
100
AcDbEntity
  8
0
  6
CONTINUOUS
100
AcDbLine
 10
774.8746098934782
 20
518.8627584384309
 30
0.0
 11
768.8169506715264
 21
533.9316867772436
 31
0.0
  0
LINE
  5
827
330
824
100
AcDbEntity
  8
0
  6
CONTINUOUS
100
AcDbLine
 10
768.6468688228554
 20
517.6916464849806
 30
0.0
 11
768.8169506715264
 21
533.9316867772436
 31
0.0
  0
LINE
  5
828
330
824
100
AcDbEntity
  8
0
  6
CONTINUOUS
100
AcDbLine
 10
784.155135694092
 20
518.2688280010959
 30
0.0
 11
768.8169506715264
 21
533.9316867772436
 31
0.0
  0
LINE
  5
829
330
824
100
AcDbEntity
  8
0
  6
CONTINUOUS
100
AcDbLine
 10
753.1540918953787
 20
518.593501754678
 30
0.0
 11
768.8169506715264
 21
533.9316867772436
 31
0.0
  0
LINE
  5
82A
330
824
100
AcDbEntity
  8
0
  6
CONTINUOUS
100
AcDbLine
 10
762.4450211718971
 20
518.9929334496956
 30
0.0
 11
766.755772582077
 21
529.0993308881486
 31
0.0
  0
LINE
  5
82B
330
824
100
AcDbEntity
  8
0
  6
CONTINUOUS
100
AcDbLine
 10
757.2132420255726
 20
522.5685101883937
 30
0.0
 11
768.8169506715264
 21
533.9316867772436
 31
0.0
  0
LINE
  5
82C
330
824
100
AcDbEntity
  8
0
  6
CONTINUOUS
100
AcDbLine
 10
753.7480223327137
 20
527.8740275552918
 30
0.0
 11
768.8169506715264
 21
533.9316867772436
 31
0.0
  0
LINE
  5
82D
330
824
100
AcDbEntity
  8
0
  6
CONTINUOUS
100
AcDbLine
 10
752.5769103792635
 20
534.1017686259146
 30
0.0
 11
768.8169506715264
 21
533.9316867772436
 31
0.0
  0
LINE
  5
82E
330
824
100
AcDbEntity
  8
0
  6
CONTINUOUS
100
AcDbLine
 10
757.4537740826765
 20
545.5353954231974
 30
0.0
 11
768.8169506715264
 21
533.9316867772436
 31
0.0
  0
LINE
  5
82F
330
824
100
AcDbEntity
  8
0
  6
CONTINUOUS
100
AcDbLine
 10
762.7592914495746
 20
549.0006151160563
 30
0.0
 11
768.8169506715264
 21
533.9316867772436
 31
0.0
  0
SOLID
  5
830
330
824
100
AcDbEntity
  8
0
  6
CONTINUOUS
100
AcDbTrace
 10
765.2167070329394
 20
533.9694072437083
 30
0.0
 11
756.659468745369
 21
534.0590120156033
 31
0.0
 12
763.9845828427243
 22
535.9928844748832
 32
0.0
 13
763.9845828427243
 23
535.9928844748832
 33
0.0
  0
SOLID
  5
831
330
824
100
AcDbEntity
  8
0
  6
CONTINUOUS
100
AcDbTrace
 10
759.1579545146179
 20
524.4729109366208
 30
0.0
 11
768.8169506715264
 21
533.9316867772436
 31
0.0
 12
765.2166871620575
 22
533.9693923162923
 32
0.0
 13
765.2166871620575
 23
533.9693923162923
 33
0.0
  0
SOLID
  5
832
330
824
100
AcDbEntity
  8
0
  6
CONTINUOUS
100
AcDbTrace
 10
759.3581748309035
 20
543.5906829341521
 30
0.0
 11
768.8169506715264
 21
533.9316867772436
 31
0.0
 12
768.8546562105751
 22
537.5319502867125
 32
0.0
 13
768.8546562105751
 23
537.5319502867125
 33
0.0
  0
LINE
  5
833
330
824
100
AcDbEntity
  8
0
  6
CONTINUOUS
100
AcDbLine
 10
759.1579141287621
 20
524.4728863450963
 30
0.0
 11
768.7792302050617
 21
530.3314431386565
 31
0.0
  0
LINE
  5
834
330
824
100
AcDbEntity
  8
0
  6
CONTINUOUS
100
AcDbLine
 10
759.1579216057152
 20
524.4728787098831
 30
0.0
 11
765.2166871620575
 21
533.9693923162923
 31
0.0
  0
LINE
  5
835
330
824
100
AcDbEntity
  8
0
  6
CONTINUOUS
100
AcDbLine
 10
759.3581502393791
 20
543.5907233200079
 30
0.0
 11
765.2167070329394
 21
533.9694072437083
 31
0.0
  0
LINE
  5
836
330
824
100
AcDbEntity
  8
0
  6
CONTINUOUS
100
AcDbLine
 10
759.358142604166
 20
543.5907158430548
 30
0.0
 11
768.8546562105751
 21
537.5319502867125
 31
0.0
  0
LINE
  5
837
330
824
100
AcDbEntity
  8
0
  6
CONTINUOUS
100
AcDbLine
 10
753.4787656489608
 20
549.5945455533912
 30
0.0
 11
768.8169506715264
 21
533.9316867772436
 31
0.0
  0
CIRCLE
  5
838
330
824
100
AcDbEntity
  8
0
  6
CONTINUOUS
100
AcDbCircle
 10
768.8169663837274
 20
533.9316906556905
 30
0.0
 40
14.88000822220015
  0
LINE
  5
839
330
824
100
AcDbEntity
  8
0
  6
CONTINUOUS
100
AcDbLine
 10
753.8781973439784
 20
540.3036162768729
 30
0.0
 11
763.9845947824313
 21
535.9928648666929
 31
0.0
  0
LINE
  5
83A
330
824
100
AcDbEntity
  8
0
  6
CONTINUOUS
100
AcDbLine
 10
756.6594227994228
 20
534.0590231838821
 30
0.0
 11
763.9424637412258
 21
531.9721735856769
 31
0.0
  0
LINE
  5
83B
330
824
100
AcDbEntity
  8
0
  6
CONTINUOUS
100
AcDbLine
 10
756.659422687516
 20
534.059012497967
 30
0.0
 11
763.9845828427243
 21
535.9928844748832
 31
0.0
  0
LINE
  5
83C
330
824
100
AcDbEntity
  8
0
  6
CONTINUOUS
100
AcDbLine
 10
775.1888801711555
 20
548.8704401047916
 30
0.0
 11
770.8781287609759
 21
538.7640426663388
 31
0.0
  0
LINE
  5
83D
330
824
100
AcDbEntity
  8
0
  6
CONTINUOUS
100
AcDbLine
 10
780.4206593174801
 20
545.2948633660936
 30
0.0
 11
768.8169506715264
 21
533.9316867772436
 31
0.0
  0
SOLID
  5
83E
330
824
100
AcDbEntity
  8
0
  6
CONTINUOUS
100
AcDbTrace
 10
778.4759468284351
 20
543.3904626178664
 30
0.0
 11
768.8169506715264
 21
533.9316867772436
 31
0.0
 12
772.4172141809955
 22
533.8939812381949
 32
0.0
 13
772.4172141809955
 23
533.8939812381949
 33
0.0
  0
SOLID
  5
83F
330
824
100
AcDbEntity
  8
0
  6
CONTINUOUS
100
AcDbTrace
 10
768.8546711379911
 20
537.5319304158306
 30
0.0
 11
768.9442863893535
 21
546.0891488790814
 31
0.0
 12
770.8781483691661
 22
538.7640546060456
 32
0.0
 13
770.8781483691661
 23
538.7640546060456
 33
0.0
  0
LINE
  5
840
330
824
100
AcDbEntity
  8
0
  6
CONTINUOUS
100
AcDbLine
 10
768.9442975576321
 20
546.0891948250275
 30
0.0
 11
766.8574374799598
 21
538.8061737075442
 31
0.0
  0
LINE
  5
841
330
824
100
AcDbEntity
  8
0
  6
CONTINUOUS
100
AcDbLine
 10
768.944286871717
 20
546.0891949369341
 30
0.0
 11
770.8781483691661
 21
538.7640546060456
 31
0.0
  0
LINE
  5
842
330
824
100
AcDbEntity
  8
0
  6
CONTINUOUS
100
AcDbLine
 10
778.4759872142908
 20
543.390487209391
 30
0.0
 11
768.8546711379911
 21
537.5319304158306
 31
0.0
  0
LINE
  5
843
330
824
100
AcDbEntity
  8
0
  6
CONTINUOUS
100
AcDbLine
 10
778.4759797373379
 20
543.390494844604
 30
0.0
 11
772.4172141809955
 21
533.8939812381949
 31
0.0
  0
LINE
  5
844
330
824
100
AcDbEntity
  8
0
  6
CONTINUOUS
100
AcDbLine
 10
768.9870325201973
 20
550.1717270695065
 30
0.0
 11
768.8169506715264
 21
533.9316867772436
 31
0.0
  0
LINE
  5
845
330
824
100
AcDbEntity
  8
0
  6
CONTINUOUS
100
AcDbLine
 10
784.4798094476741
 20
549.2698717998092
 30
0.0
 11
768.8169506715264
 21
533.9316867772436
 31
0.0
  0
LINE
  5
846
330
824
100
AcDbEntity
  8
0
  6
CONTINUOUS
100
AcDbLine
 10
783.885879010339
 20
539.9893459991954
 30
0.0
 11
768.8169506715264
 21
533.9316867772436
 31
0.0
  0
LINE
  5
847
330
824
100
AcDbEntity
  8
0
  6
CONTINUOUS
100
AcDbLine
 10
785.0569909637895
 20
533.7616049285727
 30
0.0
 11
768.8169506715264
 21
533.9316867772436
 31
0.0
  0
LINE
  5
848
330
824
100
AcDbEntity
  8
0
  6
CONTINUOUS
100
AcDbLine
 10
783.7557039990742
 20
527.5597572776144
 30
0.0
 11
773.6493065606216
 21
531.8705086877941
 31
0.0
  0
LINE
  5
849
330
824
100
AcDbEntity
  8
0
  6
CONTINUOUS
100
AcDbLine
 10
780.1801272603763
 20
522.3279781312897
 30
0.0
 11
768.8169506715264
 21
533.9316867772436
 31
0.0
  0
SOLID
  5
84A
330
824
100
AcDbEntity
  8
0
  6
CONTINUOUS
100
AcDbTrace
 10
772.4171943101135
 20
533.8939663107789
 30
0.0
 11
780.9744011460504
 21
533.8043511811895
 31
0.0
 12
773.6493185003285
 22
531.8704890796039
 32
0.0
 13
773.6493185003285
 23
531.8704890796039
 33
0.0
  0
SOLID
  5
84B
330
824
100
AcDbEntity
  8
0
  6
CONTINUOUS
100
AcDbTrace
 10
768.7792302050617
 20
530.3314431386565
 30
0.0
 11
768.6896148690242
 21
521.7742165902913
 31
0.0
 12
766.7557529738868
 22
529.0993189484415
 32
0.0
 13
766.7557529738868
 23
529.0993189484415
 33
0.0
  0
SOLID
  5
84C
330
824
100
AcDbEntity
  8
0
  6
CONTINUOUS
100
AcDbTrace
 10
778.2757265121492
 20
524.272690620335
 30
0.0
 11
768.8169506715264
 21
533.9316867772436
 31
0.0
 12
768.7792451324777
 22
530.3314232677746
 32
0.0
 13
768.7792451324777
 23
530.3314232677746
 33
0.0
  0
LINE
  5
84D
330
824
100
AcDbEntity
  8
0
  6
CONTINUOUS
100
AcDbLine
 10
780.9744470919967
 20
533.8043400129106
 30
0.0
 11
773.6914376018271
 21
535.8911999688102
 31
0.0
  0
LINE
  5
84E
330
824
100
AcDbEntity
  8
0
  6
CONTINUOUS
100
AcDbLine
 10
780.9744472039035
 20
533.8043506988259
 30
0.0
 11
773.6493185003285
 21
531.8704890796039
 31
0.0
  0
LINE
  5
84F
330
824
100
AcDbEntity
  8
0
  6
CONTINUOUS
100
AcDbLine
 10
778.2757511036737
 20
524.2726502344792
 30
0.0
 11
772.4171943101135
 21
533.8939663107789
 31
0.0
  0
LINE
  5
850
330
824
100
AcDbEntity
  8
0
  6
CONTINUOUS
100
AcDbLine
 10
778.2757587388869
 20
524.2726577114323
 30
0.0
 11
768.7792451324777
 21
530.3314232677746
 31
0.0
  0
LINE
  5
851
330
824
100
AcDbEntity
  8
0
  6
CONTINUOUS
100
AcDbLine
 10
768.6896037007454
 20
521.774170644345
 30
0.0
 11
770.7764638630931
 21
529.0571998469429
 31
0.0
  0
LINE
  5
852
330
824
100
AcDbEntity
  8
0
  6
CONTINUOUS
100
AcDbLine
 10
768.6896143866605
 20
521.7741705324383
 30
0.0
 11
766.7557529738868
 21
529.0993189484415
 31
0.0
  0
TEXT
  5
853
330
824
100
AcDbEntity
  8
0
100
AcDbText
 10
783.2567175229622
 20
553.0325613331528
 30
0.0
 40
7.428959858695112
  1
N
 50
314.5713492887135
  7
ARIAL
100
AcDbText
  0
ENDBLK
  5
855
330
824
100
AcDbEntity
  8
0
100
AcDbBlockEnd
  0
BLOCK
  5
1898
330
1897
100
AcDbEntity
  8
0
100
AcDbBlockBegin
  2
AVE_RENDER
 70
     0
 10
0.0
 20
0.0
 30
0.0
  3
AVE_RENDER
  1
AVE_RENDER
  0
ENDBLK
  5
1899
330
1897
100
AcDbEntity
  8
0
100
AcDbBlockEnd
  0
BLOCK
  5
18A9
330
189A
100
AcDbEntity
  8
0
100
AcDbBlockBegin
  2
*X99
 70
     1
 10
0.0
 20
0.0
 30
0.0
  3
*X99
  1

  0
LINE
  5
189B
330
189A
100
AcDbEntity
  8
0
 62
     0
100
AcDbLine
 10
6.011564555827468
 20
5.058491654829271
 30
0.0
 11
6.805690592305744
 21
5.516980535760494
 31
0.0
  0
LINE
  5
189C
330
189A
100
AcDbEntity
  8
0
 62
     0
100
AcDbLine
 10
5.97960625397091
 20
5.112209304298247
 30
0.0
 11
6.775148894162303
 21
5.571516061764573
 31
0.0
  0
LINE
  5
189D
330
189A
100
AcDbEntity
  8
0
 62
     0
100
AcDbLine
 10
5.955070505688919
 20
5.170212367071575
 30
0.0
 11
6.737184642444293
 21
5.621766174464301
 31
0.0
  0
LINE
  5
189E
330
189A
100
AcDbEntity
  8
0
 62
     0
100
AcDbLine
 10
5.93835418386934
 20
5.232729977817883
 30
0.0
 11
6.691400964263872
 21
5.667501739191048
 31
0.0
  0
LINE
  5
189F
330
189A
100
AcDbEntity
  8
0
 62
     0
100
AcDbLine
 10
5.930421230687646
 20
5.300318668811667
 30
0.0
 11
6.636833917445567
 21
5.708166223670319
 31
0.0
  0
LINE
  5
18A0
330
189A
100
AcDbEntity
  8
0
 62
     0
100
AcDbLine
 10
5.933190789188826
 20
5.374086457806563
 30
0.0
 11
6.571564358944386
 21
5.742651610148477
 31
0.0
  0
LINE
  5
18A1
330
189A
100
AcDbEntity
  8
0
 62
     0
100
AcDbLine
 10
5.950671826710202
 20
5.456347923173947
 30
0.0
 11
6.491583321423011
 21
5.768643320254149
 31
0.0
  0
LINE
  5
18A2
330
189A
100
AcDbEntity
  8
0
 62
     0
100
AcDbLine
 10
5.993528283475567
 20
5.553259893672647
 30
0.0
 11
6.386226864657647
 21
5.779984525228504
 31
0.0
  0
LINE
  5
18A3
330
189A
100
AcDbEntity
  8
0
 62
     0
100
AcDbLine
 10
6.050985966011505
 20
5.009082832962157
 30
0.0
 11
6.828769182121707
 21
5.458136182154555
 31
0.0
  0
LINE
  5
18A4
330
189A
100
AcDbEntity
  8
0
 62
     0
100
AcDbLine
 10
6.098360957833065
 20
4.964266013594488
 30
0.0
 11
6.843894190300148
 21
5.39469982604917
 31
0.0
  0
LINE
  5
18A5
330
189A
100
AcDbEntity
  8
0
 62
     0
100
AcDbLine
 10
6.154794716979679
 20
4.924679275980465
 30
0.0
 11
6.849960431153532
 21
5.326033388190137
 31
0.0
  0
LINE
  5
18A6
330
189A
100
AcDbEntity
  8
0
 62
     0
100
AcDbLine
 10
6.222479120907646
 20
4.891588101159512
 30
0.0
 11
6.844776027225566
 21
5.250871387538034
 31
0.0
  0
LINE
  5
18A7
330
189A
100
AcDbEntity
  8
0
 62
     0
100
AcDbLine
 10
6.30612382575416
 20
4.867711610370231
 30
0.0
 11
6.823631322379053
 21
5.166494702854262
 31
0.0
  0
LINE
  5
18A8
330
189A
100
AcDbEntity
  8
0
 62
     0
100
AcDbLine
 10
6.419395376580573
 20
4.860940187082683
 30
0.0
 11
6.772859771552639
 21
5.065012950668753
 31
0.0
  0
ENDBLK
  5
18AA
330
189A
100
AcDbEntity
  8
0
100
AcDbBlockEnd
  0
BLOCK
  5
18BB
330
18AB
100
AcDbEntity
  8
0
100
AcDbBlockBegin
  2
*X100
 70
     1
 10
0.0
 20
0.0
 30
0.0
  3
*X100
  1

  0
LINE
  5
18AC
330
18AB
100
AcDbEntity
  8
0
 62
     0
100
AcDbLine
 10
7.240334636256735
 20
5.046234555050235
 30
0.0
 11
8.031920511876478
 21
5.503256873425999
 31
0.0
  0
LINE
  5
18AD
330
18AB
100
AcDbEntity
  8
0
 62
     0
100
AcDbLine
 10
7.206604699949298
 20
5.098929350892091
 30
0.0
 11
8.003150448183916
 21
5.558815253057199
 31
0.0
  0
LINE
  5
18AE
330
18AB
100
AcDbEntity
  8
0
 62
     0
100
AcDbLine
 10
7.180268781238531
 20
5.155893084783776
 30
0.0
 11
7.966986366894683
 21
5.610104694638568
 31
0.0
  0
LINE
  5
18AF
330
18AB
100
AcDbEntity
  8
0
 62
     0
100
AcDbLine
 10
7.161613050334895
 20
5.217290977173336
 30
0.0
 11
7.923142097798319
 21
5.656959977722062
 31
0.0
  0
LINE
  5
18B0
330
18AB
100
AcDbEntity
  8
0
 62
     0
100
AcDbLine
 10
7.151443365113627
 20
5.283588290321966
 30
0.0
 11
7.870811783019585
 21
5.698915840046486
 31
0.0
  0
LINE
  5
18B1
330
18AB
100
AcDbEntity
  8
0
 62
     0
100
AcDbLine
 10
7.151389426932453
 20
5.355725932747249
 30
0.0
 11
7.808365721200762
 21
5.73503137309426
 31
0.0
  0
LINE
  5
18B2
330
18AB
100
AcDbEntity
  8
0
 62
     0
100
AcDbLine
 10
7.164767008920431
 20
5.435618266957818
 30
0.0
 11
7.732488139212782
 21
5.763392214356745
 31
0.0
  0
LINE
  5
18B3
330
18AB
100
AcDbEntity
  8
0
 62
     0
100
AcDbLine
 10
7.199685582751817
 20
5.527947298607789
 30
0.0
 11
7.635069565381397
 21
5.779316358179829
 31
0.0
  0
LINE
  5
18B4
330
18AB
100
AcDbEntity
  8
0
 62
     0
100
AcDbLine
 10
7.294785301705458
 20
5.655021930594235
 30
0.0
 11
7.477469846427756
 21
5.760494901666437
 31
0.0
  0
LINE
  5
18B5
330
18AB
100
AcDbEntity
  8
0
 62
     0
100
AcDbLine
 10
7.281601159568919
 20
4.997891009744341
 30
0.0
 11
8.053153988564297
 21
5.443347243258839
 31
0.0
  0
LINE
  5
18B6
330
18AB
100
AcDbEntity
  8
0
 62
     0
100
AcDbLine
 10
7.331019822046598
 20
4.954254104180117
 30
0.0
 11
8.066235326086614
 21
5.378730973350006
 31
0.0
  0
LINE
  5
18B7
330
18AB
100
AcDbEntity
  8
0
 62
     0
100
AcDbLine
 10
7.389895072005545
 20
4.916076961943819
 30
0.0
 11
8.069860076127669
 21
5.308654940113251
 31
0.0
  0
LINE
  5
18B8
330
18AB
100
AcDbEntity
  8
0
 62
     0
100
AcDbLine
 10
7.460825444420105
 20
4.884859847902382
 30
0.0
 11
8.061429703713109
 21
5.231618878681633
 31
0.0
  0
LINE
  5
18B9
330
18AB
100
AcDbEntity
  8
0
 62
     0
100
AcDbLine
 10
7.549652912293777
 20
4.863975626741976
 30
0.0
 11
8.035102235839438
 21
5.144249924368985
 31
0.0
  0
LINE
  5
18BA
330
18AB
100
AcDbEntity
  8
0
 62
     0
100
AcDbLine
 10
7.676013960889359
 20
4.864761428515016
 30
0.0
 11
7.971241187243855
 21
5.03521094712289
 31
0.0
  0
ENDBLK
  5
18BC
330
18AB
100
AcDbEntity
  8
0
100
AcDbBlockEnd
  0
BLOCK
  5
18CD
330
18BD
100
AcDbEntity
  8
0
100
AcDbBlockBegin
  2
*X101
 70
     1
 10
0.0
 20
0.0
 30
0.0
  3
*X101
  1

  0
LINE
  5
18BE
330
18BD
100
AcDbEntity
  8
0
 62
     0
100
AcDbLine
 10
6.014991373528371
 20
3.833600806923397
 30
0.0
 11
6.808212781987826
 21
4.291567400624438
 31
0.0
  0
LINE
  5
18BF
330
18BD
100
AcDbEntity
  8
0
 62
     0
100
AcDbLine
 10
5.982331032096898
 20
3.886913133654815
 30
0.0
 11
6.778373123419297
 21
4.346508249366074
 31
0.0
  0
LINE
  5
18C0
330
18BD
100
AcDbEntity
  8
0
 62
     0
100
AcDbLine
 10
5.957079017379142
 20
3.944502659808641
 30
0.0
 11
6.741125138137054
 21
4.397171898685303
 31
0.0
  0
LINE
  5
18C1
330
18BD
100
AcDbEntity
  8
0
 62
     0
100
AcDbLine
 10
5.939587577773588
 20
4.006572756092563
 30
0.0
 11
6.696116577742609
 21
4.443354977874435
 31
0.0
  0
LINE
  5
18C2
330
18BD
100
AcDbEntity
  8
0
 62
     0
100
AcDbLine
 10
5.930755749930817
 20
4.073642481558806
 30
0.0
 11
6.642448405585379
 21
4.484538427881247
 31
0.0
  0
LINE
  5
18C3
330
18BD
100
AcDbEntity
  8
0
 62
     0
100
AcDbLine
 10
5.932381783291543
 20
4.146750056006036
 30
0.0
 11
6.578322372224654
 21
4.519684028907072
 31
0.0
  0
LINE
  5
18C4
330
18BD
100
AcDbEntity
  8
0
 62
     0
100
AcDbLine
 10
5.948178830844281
 20
4.228039269311714
 30
0.0
 11
6.500025324671915
 21
4.54664799107445
 31
0.0
  0
LINE
  5
18C5
330
18BD
100
AcDbEntity
  8
0
 62
     0
100
AcDbLine
 10
5.987673886258385
 20
4.323010533835409
 30
0.0
 11
6.39803026925781
 21
4.559929902023807
 31
0.0
  0
LINE
  5
18C6
330
18BD
100
AcDbEntity
  8
0
 62
     0
100
AcDbLine
 10
6.114664168273915
 20
4.468497190990245
 30
0.0
 11
6.208539987242282
 21
4.522696420342028
 31
0.0
  0
LINE
  5
18C7
330
18BD
100
AcDbEntity
  8
0
 62
     0
100
AcDbLine
 10
6.055140879016109
 20
3.78461235107587
 30
0.0
 11
6.830563276500088
 21
4.23230268099891
 31
0.0
  0
LINE
  5
18C8
330
18BD
100
AcDbEntity
  8
0
 62
     0
100
AcDbLine
 10
6.103318419069769
 20
3.740258883146041
 30
0.0
 11
6.844885736446426
 21
4.168402973455682
 31
0.0
  0
LINE
  5
18C9
330
18BD
100
AcDbEntity
  8
0
 62
     0
100
AcDbLine
 10
6.160704874852477
 20
3.701222185191323
 30
0.0
 11
6.84999928066372
 21
4.099186495937347
 31
0.0
  0
LINE
  5
18CA
330
18BD
100
AcDbEntity
  8
0
 62
     0
100
AcDbLine
 10
6.22964362390641
 20
3.668855206866504
 30
0.0
 11
6.843560531609786
 21
4.023300298789111
 31
0.0
  0
LINE
  5
18CB
330
18BD
100
AcDbEntity
  8
0
 62
     0
100
AcDbLine
 10
6.315253749752208
 20
3.64611345242023
 30
0.0
 11
6.820450405763987
 21
3.937788877762329
 31
0.0
  0
LINE
  5
18CC
330
18BD
100
AcDbEntity
  8
0
 62
     0
100
AcDbLine
 10
6.433183533792281
 20
3.642031461332537
 30
0.0
 11
6.765020621723916
 21
3.833617693376968
 31
0.0
  0
ENDBLK
  5
18CE
330
18BD
100
AcDbEntity
  8
0
100
AcDbBlockEnd
  0
BLOCK
  5
18DF
330
18CF
100
AcDbEntity
  8
0
100
AcDbBlockBegin
  2
*X102
 70
     1
 10
0.0
 20
0.0
 30
0.0
  3
*X102
  1

  0
LINE
  5
18D0
330
18CF
100
AcDbEntity
  8
0
 62
     0
100
AcDbLine
 10
7.209497763999442
 20
3.873730340172269
 30
0.0
 11
8.006206391516755
 21
4.333710280735087
 31
0.0
  0
LINE
  5
18D1
330
18CF
100
AcDbEntity
  8
0
 62
     0
100
AcDbLine
 10
7.182452694440355
 20
3.930284645630781
 30
0.0
 11
7.970751461075841
 21
4.385409150749629
 31
0.0
  0
LINE
  5
18D2
330
18CF
100
AcDbEntity
  8
0
 62
     0
100
AcDbLine
 10
7.163040766848506
 20
3.991245947658841
 30
0.0
 11
7.927663388667691
 21
4.432701024194625
 31
0.0
  0
LINE
  5
18D3
330
18CF
100
AcDbEntity
  8
0
 62
     0
100
AcDbLine
 10
7.152009871919501
 20
4.057046041150881
 30
0.0
 11
7.876194283596698
 21
4.475154106175641
 31
0.0
  0
LINE
  5
18D4
330
18CF
100
AcDbEntity
  8
0
 62
     0
100
AcDbLine
 10
7.15088789654469
 20
4.128567052014913
 30
0.0
 11
7.814816258971507
 21
4.511886270784663
 31
0.0
  0
LINE
  5
18D5
330
18CF
100
AcDbEntity
  8
0
 62
     0
100
AcDbLine
 10
7.162759049993288
 20
4.207589649302756
 30
0.0
 11
7.740445105522908
 21
4.541116848969875
 31
0.0
  0
LINE
  5
18D6
330
18CF
100
AcDbEntity
  8
0
 62
     0
100
AcDbLine
 10
7.194961313155835
 20
4.298350418256871
 30
0.0
 11
7.645742842360363
 21
4.558609255488816
 31
0.0
  0
LINE
  5
18D7
330
18CF
100
AcDbEntity
  8
0
 62
     0
100
AcDbLine
 10
7.278141166408108
 20
4.418543112571927
 30
0.0
 11
7.500062989108088
 21
4.546669736646813
 31
0.0
  0
LINE
  5
18D8
330
18CF
100
AcDbEntity
  8
0
 62
     0
100
AcDbLine
 10
7.24393223172923
 20
3.821442305736761
 30
0.0
 11
8.034271923786967
 21
4.27774513969754
 31
0.0
  0
LINE
  5
18D9
330
18CF
100
AcDbEntity
  8
0
 62
     0
100
AcDbLine
 10
7.285939694852935
 20
3.773526542230501
 30
0.0
 11
8.05476446066326
 21
4.217407727730744
 31
0.0
  0
LINE
  5
18DA
330
18CF
100
AcDbEntity
  8
0
 62
     0
100
AcDbLine
 10
7.336188369680256
 20
3.730368844519774
 30
0.0
 11
8.067015785835941
 21
4.152312249968417
 31
0.0
  0
LINE
  5
18DB
330
18CF
100
AcDbEntity
  8
0
 62
     0
100
AcDbLine
 10
7.39607009936325
 20
3.692772793623088
 30
0.0
 11
8.069634056152947
 21
4.081655125392049
 31
0.0
  0
LINE
  5
18DC
330
18CF
100
AcDbEntity
  8
0
 62
     0
100
AcDbLine
 10
7.468369683705816
 20
3.662346194456863
 30
0.0
 11
8.059834471810379
 21
4.003828549085217
 31
0.0
  0
LINE
  5
18DD
330
18CF
100
AcDbEntity
  8
0
 62
     0
100
AcDbLine
 10
7.55948384799354
 20
3.642782198086665
 30
0.0
 11
8.03122030752266
 21
3.915139369982364
 31
0.0
  0
LINE
  5
18DE
330
18CF
100
AcDbEntity
  8
0
 62
     0
100
AcDbLine
 10
7.692622154886735
 20
3.647480851762199
 30
0.0
 11
7.960582000629463
 21
3.802187540833774
 31
0.0
  0
ENDBLK
  5
18E0
330
18CF
100
AcDbEntity
  8
0
100
AcDbBlockEnd
  0
BLOCK
  5
18F1
330
18E1
100
AcDbEntity
  8
0
100
AcDbBlockBegin
  2
*X103
 70
     1
 10
0.0
 20
0.0
 30
0.0
  3
*X103
  1

  0
LINE
  5
18E2
330
18E1
100
AcDbEntity
  8
0
 62
     0
100
AcDbLine
 10
2.361838188777755
 20
5.044215880157039
 30
0.0
 11
3.152916959355458
 21
5.500945421300273
 31
0.0
  0
LINE
  5
18E3
330
18E1
100
AcDbEntity
  8
0
 62
     0
100
AcDbLine
 10
2.32781235598905
 20
5.096739840085781
 30
0.0
 11
3.124442792144164
 21
5.556674636844586
 31
0.0
  0
LINE
  5
18E4
330
18E1
100
AcDbEntity
  8
0
 62
     0
100
AcDbLine
 10
2.30117813846927
 20
5.153531351079785
 30
0.0
 11
3.088577009663943
 21
5.608136301323637
 31
0.0
  0
LINE
  5
18E5
330
18E1
100
AcDbEntity
  8
0
 62
     0
100
AcDbLine
 10
2.282203789769992
 20
5.214745289399262
 30
0.0
 11
3.04505135836322
 21
5.655175538477214
 31
0.0
  0
LINE
  5
18E6
330
18E1
100
AcDbEntity
  8
0
 62
     0
100
AcDbLine
 10
2.271670510281269
 20
5.280832681299702
 30
0.0
 11
2.993084637851943
 21
5.69734132204983
 31
0.0
  0
LINE
  5
18E7
330
18E1
100
AcDbEntity
  8
0
 62
     0
100
AcDbLine
 10
2.271164404148921
 20
5.352709264436655
 30
0.0
 11
2.931090743984292
 21
5.733717914385931
 31
0.0
  0
LINE
  5
18E8
330
18E1
100
AcDbEntity
  8
0
 62
     0
100
AcDbLine
 10
2.283901305576339
 20
5.43223170155312
 30
0.0
 11
2.855853842556874
 21
5.762448652742521
 31
0.0
  0
LINE
  5
18E9
330
18E1
100
AcDbEntity
  8
0
 62
     0
100
AcDbLine
 10
2.317652951593561
 20
5.523887007115459
 30
0.0
 11
2.759602196539652
 21
5.779046522653237
 31
0.0
  0
LINE
  5
18EA
330
18E1
100
AcDbEntity
  8
0
 62
     0
100
AcDbLine
 10
2.407288781414309
 20
5.647807061240206
 30
0.0
 11
2.607466366718905
 21
5.763379644001545
 31
0.0
  0
LINE
  5
18EB
330
18E1
100
AcDbEntity
  8
0
 62
     0
100
AcDbLine
 10
2.403415395290811
 20
4.9960517078808
 30
0.0
 11
3.173839752842402
 21
5.440856418103456
 31
0.0
  0
LINE
  5
18EC
330
18E1
100
AcDbEntity
  8
0
 62
     0
100
AcDbLine
 10
2.45318142595525
 20
4.952615355432711
 30
0.0
 11
3.186573722177963
 21
5.376039595078492
 31
0.0
  0
LINE
  5
18ED
330
18E1
100
AcDbEntity
  8
0
 62
     0
100
AcDbLine
 10
2.512476821222003
 20
4.914680784202972
 30
0.0
 11
3.18977832691121
 21
5.305720990835175
 31
0.0
  0
LINE
  5
18EE
330
18E1
100
AcDbEntity
  8
0
 62
     0
100
AcDbLine
 10
2.583976460186768
 20
4.883792336357537
 30
0.0
 11
3.180778687946445
 21
5.228356263207555
 31
0.0
  0
LINE
  5
18EF
330
18E1
100
AcDbEntity
  8
0
 62
     0
100
AcDbLine
 10
2.673746890960943
 20
4.863452535081573
 30
0.0
 11
3.153508257172271
 21
5.140442889010465
 31
0.0
  0
LINE
  5
18F0
330
18E1
100
AcDbEntity
  8
0
 62
     0
100
AcDbLine
 10
2.802811094945917
 20
4.865799004346339
 30
0.0
 11
3.086944053187296
 21
5.029843244272644
 31
0.0
  0
ENDBLK
  5
18F2
330
18E1
100
AcDbEntity
  8
0
100
AcDbBlockEnd
  0
BLOCK
  5
1903
330
18F3
100
AcDbEntity
  8
0
100
AcDbBlockBegin
  2
*X104
 70
     1
 10
0.0
 20
0.0
 30
0.0
  3
*X104
  1

  0
LINE
  5
18F4
330
18F3
100
AcDbEntity
  8
0
 62
     0
100
AcDbLine
 10
3.555305440462195
 20
5.083745466347724
 30
0.0
 11
4.351949707671018
 21
5.543688248469109
 31
0.0
  0
LINE
  5
18F5
330
18F3
100
AcDbEntity
  8
0
 62
     0
100
AcDbLine
 10
3.526889262283999
 20
5.139508161875905
 30
0.0
 11
4.317865885849214
 21
5.596178728413983
 31
0.0
  0
LINE
  5
18F6
330
18F3
100
AcDbEntity
  8
0
 62
     0
100
AcDbLine
 10
3.506027441121747
 20
5.199632367460797
 30
0.0
 11
4.276227707011466
 21
5.644307698302147
 31
0.0
  0
LINE
  5
18F7
330
18F3
100
AcDbEntity
  8
0
 62
     0
100
AcDbLine
 10
3.493361755810919
 20
5.264488614285822
 30
0.0
 11
4.226393392322294
 21
5.687704626950176
 31
0.0
  0
LINE
  5
18F8
330
18F3
100
AcDbEntity
  8
0
 62
     0
100
AcDbLine
 10
3.490239922594034
 20
5.334855006686392
 30
0.0
 11
4.167015225539179
 21
5.725591410022661
 31
0.0
  0
LINE
  5
18F9
330
18F3
100
AcDbEntity
  8
0
 62
     0
100
AcDbLine
 10
3.499352096453338
 20
5.412284706365666
 30
0.0
 11
4.095403051679876
 21
5.756414885816441
 31
0.0
  0
LINE
  5
18FA
330
18F3
100
AcDbEntity
  8
0
 62
     0
100
AcDbLine
 10
3.526810226295698
 20
5.5003064486703
 30
0.0
 11
4.005444921837516
 21
5.776646318984863
 31
0.0
  0
LINE
  5
18FB
330
18F3
100
AcDbEntity
  8
0
 62
     0
100
AcDbLine
 10
3.593927137452902
 20
5.611225199042791
 30
0.0
 11
3.875828010680312
 21
5.773980744085427
 31
0.0
  0
LINE
  5
18FC
330
18F3
100
AcDbEntity
  8
0
 62
     0
100
AcDbLine
 10
3.591112841667065
 20
5.032250095423633
 30
0.0
 11
4.378642306466148
 21
5.486930443920146
 31
0.0
  0
LINE
  5
18FD
330
18F3
100
AcDbEntity
  8
0
 62
     0
100
AcDbLine
 10
3.634576225170824
 20
4.985174907940717
 30
0.0
 11
4.39767892296239
 21
5.425752455930007
 31
0.0
  0
LINE
  5
18FE
330
18F3
100
AcDbEntity
  8
0
 62
     0
100
AcDbLine
 10
3.686472012725825
 20
4.942968171206701
 30
0.0
 11
4.408283135407388
 21
5.359706017190967
 31
0.0
  0
LINE
  5
18FF
330
18F3
100
AcDbEntity
  8
0
 62
     0
100
AcDbLine
 10
3.748377908556986
 20
4.906540773180544
 30
0.0
 11
4.408877239576228
 21
5.287880239744071
 31
0.0
  0
LINE
  5
1900
330
18F3
100
AcDbEntity
  8
0
 62
     0
100
AcDbLine
 10
3.82349062615919
 20
4.877738337259037
 30
0.0
 11
4.396264521974023
 21
5.208429500192522
 31
0.0
  0
LINE
  5
1901
330
18F3
100
AcDbEntity
  8
0
 62
     0
100
AcDbLine
 10
3.919518117377055
 20
4.861011051514573
 30
0.0
 11
4.362737030756159
 21
5.116903610463932
 31
0.0
  0
LINE
  5
1902
330
18F3
100
AcDbEntity
  8
0
 62
     0
100
AcDbLine
 10
4.070668952717428
 20
4.876109243337871
 30
0.0
 11
4.274086195415787
 21
4.99355224316758
 31
0.0
  0
ENDBLK
  5
1904
330
18F3
100
AcDbEntity
  8
0
100
AcDbBlockEnd
  0
BLOCK
  5
1915
330
1905
100
AcDbEntity
  8
0
100
AcDbBlockBegin
  2
*X105
 70
     1
 10
0.0
 20
0.0
 30
0.0
  3
*X105
  1

  0
LINE
  5
1906
330
1905
100
AcDbEntity
  8
0
 62
     0
100
AcDbLine
 10
2.365464430284417
 20
3.819440169639102
 30
0.0
 11
3.15523972523178
 21
4.275417148776278
 31
0.0
  0
LINE
  5
1907
330
1905
100
AcDbEntity
  8
0
 62
     0
100
AcDbLine
 10
2.330733427878441
 20
3.871556999699489
 30
0.0
 11
3.127470727637757
 21
4.331553494188946
 31
0.0
  0
LINE
  5
1908
330
1905
100
AcDbEntity
  8
0
 62
     0
100
AcDbLine
 10
2.303391010874959
 20
3.927939631530937
 30
0.0
 11
3.092313144641238
 21
4.383424037830552
 31
0.0
  0
LINE
  5
1909
330
1905
100
AcDbEntity
  8
0
 62
     0
100
AcDbLine
 10
2.283663296271777
 20
3.988718613842997
 30
0.0
 11
3.04954085924442
 21
4.430898230991547
 31
0.0
  0
LINE
  5
190A
330
1905
100
AcDbEntity
  8
0
 62
     0
100
AcDbLine
 10
2.272274520690916
 20
4.05431208484435
 30
0.0
 11
2.998429634825281
 21
4.473557935463249
 31
0.0
  0
LINE
  5
190B
330
1905
100
AcDbEntity
  8
0
 62
     0
100
AcDbLine
 10
2.270711706683113
 20
4.125578577404955
 30
0.0
 11
2.937492448833085
 21
4.510544618375699
 31
0.0
  0
LINE
  5
190C
330
1905
100
AcDbEntity
  8
0
 62
     0
100
AcDbLine
 10
2.281967922800908
 20
4.204246140459323
 30
0.0
 11
2.863736232715289
 21
4.540130230794385
 31
0.0
  0
LINE
  5
190D
330
1905
100
AcDbEntity
  8
0
 62
     0
100
AcDbLine
 10
2.313088032927582
 20
4.294382128066873
 30
0.0
 11
2.770116122588615
 21
4.558247418659891
 31
0.0
  0
LINE
  5
190E
330
1905
100
AcDbEntity
  8
0
 62
     0
100
AcDbLine
 10
2.392181139010672
 20
4.412215337803692
 30
0.0
 11
2.628523016505526
 21
4.548667384396127
 31
0.0
  0
LINE
  5
190F
330
1905
100
AcDbEntity
  8
0
 62
     0
100
AcDbLine
 10
2.407784996262688
 20
3.771705176150211
 30
0.0
 11
3.175419159253509
 21
4.214898966792114
 31
0.0
  0
LINE
  5
1910
330
1905
100
AcDbEntity
  8
0
 62
     0
100
AcDbLine
 10
2.458386064297294
 20
3.72875093275257
 30
0.0
 11
3.187318091218903
 21
4.149600034716701
 31
0.0
  0
LINE
  5
1911
330
1905
100
AcDbEntity
  8
0
 62
     0
100
AcDbLine
 10
2.518697809913506
 20
3.691403151670683
 30
0.0
 11
3.189506345602691
 21
4.078694640325532
 31
0.0
  0
LINE
  5
1912
330
1905
100
AcDbEntity
  8
0
 62
     0
100
AcDbLine
 10
2.591588234154563
 20
3.6613176740789
 30
0.0
 11
3.179115921361635
 21
4.000526942444261
 31
0.0
  0
LINE
  5
1913
330
1905
100
AcDbEntity
  8
0
 62
     0
100
AcDbLine
 10
2.683709412074782
 20
3.6423350773005
 30
0.0
 11
3.149494743441415
 21
3.911256363749605
 31
0.0
  0
LINE
  5
1914
330
1905
100
AcDbEntity
  8
0
 62
     0
100
AcDbLine
 10
2.82009677787024
 20
3.648909576007869
 30
0.0
 11
3.075607377645957
 21
3.796428689569182
 31
0.0
  0
ENDBLK
  5
1916
330
1905
100
AcDbEntity
  8
0
100
AcDbBlockEnd
  0
BLOCK
  5
1927
330
1917
100
AcDbEntity
  8
0
100
AcDbBlockBegin
  2
*X106
 70
     1
 10
0.0
 20
0.0
 30
0.0
  3
*X106
  1

  0
LINE
  5
1918
330
1917
100
AcDbEntity
  8
0
 62
     0
100
AcDbLine
 10
3.558394546804919
 20
3.858659640698297
 30
0.0
 11
4.354809608711277
 21
4.318470091076604
 31
0.0
  0
LINE
  5
1919
330
1917
100
AcDbEntity
  8
0
 62
     0
100
AcDbLine
 10
3.529274509865806
 20
3.914015963181391
 30
0.0
 11
4.321429645650392
 21
4.371366944066566
 31
0.0
  0
LINE
  5
191A
330
1917
100
AcDbEntity
  8
0
 62
     0
100
AcDbLine
 10
3.507674507743852
 20
3.973713979790487
 30
0.0
 11
4.280529647772345
 21
4.419922102930524
 31
0.0
  0
LINE
  5
191B
330
1917
100
AcDbEntity
  8
0
 62
     0
100
AcDbLine
 10
3.494184586722131
 20
4.038094353905953
 30
0.0
 11
4.231519568794067
 21
4.463794904288113
 31
0.0
  0
LINE
  5
191C
330
1917
100
AcDbEntity
  8
0
 62
     0
100
AcDbLine
 10
3.490067605081617
 20
4.107886197096257
 30
0.0
 11
4.173136550434581
 21
4.502256236570865
 31
0.0
  0
LINE
  5
191D
330
1917
100
AcDbEntity
  8
0
 62
     0
100
AcDbLine
 10
3.497835139214077
 20
4.184539568667275
 30
0.0
 11
4.102869016302119
 21
4.533856040472899
 31
0.0
  0
LINE
  5
191E
330
1917
100
AcDbEntity
  8
0
 62
     0
100
AcDbLine
 10
3.523078044001858
 20
4.271282350190332
 30
0.0
 11
4.015126111514341
 21
4.555366434422899
 31
0.0
  0
LINE
  5
191F
330
1917
100
AcDbEntity
  8
0
 62
     0
100
AcDbLine
 10
3.583969728980422
 20
4.378606964552819
 30
0.0
 11
3.891734426535776
 21
4.556294995533466
 31
0.0
  0
LINE
  5
1920
330
1917
100
AcDbEntity
  8
0
 62
     0
100
AcDbLine
 10
3.594912310582284
 20
3.807574397796658
 30
0.0
 11
4.380791844933914
 21
4.261302158505189
 31
0.0
  0
LINE
  5
1921
330
1917
100
AcDbEntity
  8
0
 62
     0
100
AcDbLine
 10
3.639135357440987
 20
3.760937802156212
 30
0.0
 11
4.399068798075211
 21
4.19968557867258
 31
0.0
  0
LINE
  5
1922
330
1917
100
AcDbEntity
  8
0
 62
     0
100
AcDbLine
 10
3.691899317315533
 20
3.719232304944589
 30
0.0
 11
4.408804838200664
 21
4.133137900411147
 31
0.0
  0
LINE
  5
1923
330
1917
100
AcDbEntity
  8
0
 62
     0
100
AcDbLine
 10
3.754887095871355
 20
3.683429532200746
 30
0.0
 11
4.408317059644842
 21
4.060687497681936
 31
0.0
  0
LINE
  5
1924
330
1917
100
AcDbEntity
  8
0
 62
     0
100
AcDbLine
 10
3.831538014281687
 20
3.655515176929879
 30
0.0
 11
4.394166141234512
 21
3.980348677479748
 31
0.0
  0
LINE
  5
1925
330
1917
100
AcDbEntity
  8
0
 62
     0
100
AcDbLine
 10
3.930389302683786
 20
3.64041821124987
 30
0.0
 11
4.357814852832411
 21
3.887192467686702
 31
0.0
  0
LINE
  5
1926
330
1917
100
AcDbEntity
  8
0
 62
     0
100
AcDbLine
 10
4.095669437551318
 20
3.663673957958634
 30
0.0
 11
4.25503471796488
 21
3.755683545504884
 31
0.0
  0
ENDBLK
  5
1928
330
1917
100
AcDbEntity
  8
0
100
AcDbBlockEnd
  0
BLOCK
  5
1939
330
1929
100
AcDbEntity
  8
0
100
AcDbBlockBegin
  2
*X107
 70
     1
 10
0.0
 20
0.0
 30
0.0
  3
*X107
  1

  0
LINE
  5
192A
330
1929
100
AcDbEntity
  8
0
 62
     0
100
AcDbLine
 10
4.783222395303909
 20
5.070995814281061
 30
0.0
 11
5.579032752829304
 21
5.53045713842224
 31
0.0
  0
LINE
  5
192B
330
1929
100
AcDbEntity
  8
0
 62
     0
100
AcDbLine
 10
4.753033443552292
 20
5.125734998509416
 30
0.0
 11
5.54672170458092
 21
5.583971129666939
 31
0.0
  0
LINE
  5
192C
330
1929
100
AcDbEntity
  8
0
 62
     0
100
AcDbLine
 10
4.73032019381077
 20
5.18479028130568
 30
0.0
 11
5.506934954322443
 21
5.63316902234373
 31
0.0
  0
LINE
  5
192D
330
1929
100
AcDbEntity
  8
0
 62
     0
100
AcDbLine
 10
4.715597256945538
 20
5.248458773391979
 30
0.0
 11
5.459157891187676
 21
5.677753705730486
 31
0.0
  0
LINE
  5
192E
330
1929
100
AcDbEntity
  8
0
 62
     0
100
AcDbLine
 10
4.7100073466367
 20
5.317400220819129
 30
0.0
 11
5.402247801496513
 21
5.717065433776391
 31
0.0
  0
LINE
  5
192F
330
1929
100
AcDbEntity
  8
0
 62
     0
100
AcDbLine
 10
4.715816990242635
 20
5.392923203767614
 30
0.0
 11
5.333938157890577
 21
5.74979562630096
 31
0.0
  0
LINE
  5
1930
330
1929
100
AcDbEntity
  8
0
 62
     0
100
AcDbLine
 10
4.737935763264792
 20
5.477862266974804
 30
0.0
 11
5.249319384868423
 21
5.773109738566826
 31
0.0
  0
LINE
  5
1931
330
1929
100
AcDbEntity
  8
0
 62
     0
100
AcDbLine
 10
4.790975168165775
 20
5.580653365320747
 30
0.0
 11
5.133779979967438
 21
5.778571815693936
 31
0.0
  0
LINE
  5
1932
330
1929
100
AcDbEntity
  8
0
 62
     0
100
AcDbLine
 10
4.820826270086295
 20
5.020537637860541
 30
0.0
 11
5.603928878046917
 21
5.472662139369704
 31
0.0
  0
LINE
  5
1933
330
1929
100
AcDbEntity
  8
0
 62
     0
100
AcDbLine
 10
4.866219385216393
 20
4.974576581451556
 30
0.0
 11
5.62103576291682
 21
5.410370020305635
 31
0.0
  0
LINE
  5
1934
330
1929
100
AcDbEntity
  8
0
 62
     0
100
AcDbLine
 10
4.920332677933958
 20
4.933650121920075
 30
0.0
 11
5.629422470199256
 21
5.343043304364061
 31
0.0
  0
LINE
  5
1935
330
1929
100
AcDbEntity
  8
0
 62
     0
100
AcDbLine
 10
4.985023462077646
 20
4.898830579910819
 30
0.0
 11
5.627231686055567
 21
5.269609670900262
 31
0.0
  0
LINE
  5
1936
330
1929
100
AcDbEntity
  8
0
 62
     0
100
AcDbLine
 10
5.064148287388312
 20
4.872344535454811
 30
0.0
 11
5.610606860744901
 21
5.187842539883216
 31
0.0
  0
LINE
  5
1937
330
1929
100
AcDbEntity
  8
0
 62
     0
100
AcDbLine
 10
5.167776234859614
 20
4.860005375174232
 30
0.0
 11
5.5694789132736
 21
5.091928524690739
 31
0.0
  0
LINE
  5
1938
330
1929
100
AcDbEntity
  8
0
 62
     0
100
AcDbLine
 10
5.386881312152117
 20
4.914336966881169
 30
0.0
 11
5.412873835981096
 21
4.929343757510747
 31
0.0
  0
ENDBLK
  5
193A
330
1929
100
AcDbEntity
  8
0
100
AcDbBlockEnd
  0
BLOCK
  5
194A
330
193B
100
AcDbEntity
  8
0
100
AcDbBlockBegin
  2
*X108
 70
     1
 10
0.0
 20
0.0
 30
0.0
  3
*X108
  1

  0
LINE
  5
193C
330
193B
100
AcDbEntity
  8
0
 62
     0
100
AcDbLine
 10
4.786479902560697
 20
3.8460072149447
 30
0.0
 11
5.581724252955502
 21
4.305141754716669
 31
0.0
  0
LINE
  5
193D
330
193B
100
AcDbEntity
  8
0
 62
     0
100
AcDbLine
 10
4.755589134245425
 20
3.900341205191106
 30
0.0
 11
5.550115021270772
 21
4.359060939943317
 31
0.0
  0
LINE
  5
193E
330
193B
100
AcDbEntity
  8
0
 62
     0
100
AcDbLine
 10
4.732149996793056
 20
3.958977396522112
 30
0.0
 11
5.511054158723141
 21
4.408677924085366
 31
0.0
  0
LINE
  5
193F
330
193B
100
AcDbEntity
  8
0
 62
     0
100
AcDbLine
 10
4.716629419296445
 20
4.022185370575168
 30
0.0
 11
5.464074736219752
 21
4.453723125505365
 31
0.0
  0
LINE
  5
1940
330
193B
100
AcDbEntity
  8
0
 62
     0
100
AcDbLine
 10
4.710096415157495
 20
4.090582322525632
 30
0.0
 11
5.4081077403587
 21
4.493579349027955
 31
0.0
  0
LINE
  5
1941
330
193B
100
AcDbEntity
  8
0
 62
     0
100
AcDbLine
 10
4.71467177089489
 20
4.165392689040958
 30
0.0
 11
5.341032384621308
 21
4.527022157985684
 31
0.0
  0
LINE
  5
1942
330
193B
100
AcDbEntity
  8
0
 62
     0
100
AcDbLine
 10
4.73487802138082
 20
4.249227556847026
 30
0.0
 11
5.258326134135378
 21
4.551440465652672
 31
0.0
  0
LINE
  5
1943
330
193B
100
AcDbEntity
  8
0
 62
     0
100
AcDbLine
 10
4.783534356492494
 20
4.349488088670235
 30
0.0
 11
5.147169799023703
 21
4.559433109302517
 31
0.0
  0
LINE
  5
1944
330
193B
100
AcDbEntity
  8
0
 62
     0
100
AcDbLine
 10
4.824801738967981
 20
3.795963553861583
 30
0.0
 11
5.605902416548217
 21
4.246932240326731
 31
0.0
  0
LINE
  5
1945
330
193B
100
AcDbEntity
  8
0
 62
     0
100
AcDbLine
 10
4.870974116805472
 20
3.75045240498648
 30
0.0
 11
5.622230038710724
 21
4.184190213728777
 31
0.0
  0
LINE
  5
1946
330
193B
100
AcDbEntity
  8
0
 62
     0
100
AcDbLine
 10
4.925994453185627
 20
3.710049627357763
 30
0.0
 11
5.62970970233057
 21
4.11633981588444
 31
0.0
  0
LINE
  5
1947
330
193B
100
AcDbEntity
  8
0
 62
     0
100
AcDbLine
 10
4.991845342778138
 20
3.675899872541672
 30
0.0
 11
5.626358812738058
 21
4.042236395227476
 31
0.0
  0
LINE
  5
1948
330
193B
100
AcDbEntity
  8
0
 62
     0
100
AcDbLine
 10
5.072694630989854
 20
3.650409447205793
 30
0.0
 11
5.608009524526344
 21
3.959473645090301
 31
0.0
  0
LINE
  5
1949
330
193B
100
AcDbEntity
  8
0
 62
     0
100
AcDbLine
 10
5.179847529622074
 20
3.640105418426851
 30
0.0
 11
5.563356625894122
 21
3.861524498396188
 31
0.0
  0
ENDBLK
  5
194B
330
193B
100
AcDbEntity
  8
0
100
AcDbBlockEnd
  0
BLOCK
  5
1987
330
194C
100
AcDbEntity
  8
0
100
AcDbBlockBegin
  2
*X109
 70
     1
 10
0.0
 20
0.0
 30
0.0
  3
*X109
  1

  0
LINE
  5
194D
330
194C
100
AcDbEntity
  8
0
 62
     0
100
AcDbLine
 10
6.292735285345909
 20
6.808538891476458
 30
0.0
 11
7.212848239180868
 21
7.339766353057933
 31
0.0
  0
LINE
  5
194E
330
194C
100
AcDbEntity
  8
0
 62
     0
100
AcDbLine
 10
6.226673411044883
 20
6.842566834214292
 30
0.0
 11
7.158909584176685
 21
7.380793639720245
 31
0.0
  0
LINE
  5
194F
330
194C
100
AcDbEntity
  8
0
 62
     0
100
AcDbLine
 10
6.158146163119093
 20
6.875171392826216
 30
0.0
 11
7.103658665458381
 21
7.421063290573961
 31
0.0
  0
LINE
  5
1950
330
194C
100
AcDbEntity
  8
0
 62
     0
100
AcDbLine
 10
6.086985307463076
 20
6.906255437306154
 30
0.0
 11
7.047059125768137
 21
7.460554314746492
 31
0.0
  0
LINE
  5
1951
330
194C
100
AcDbEntity
  8
0
 62
     0
100
AcDbLine
 10
6.012993282412832
 20
6.935704905374214
 30
0.0
 11
6.989071090795224
 21
7.499243690793807
 31
0.0
  0
LINE
  5
1952
330
194C
100
AcDbEntity
  8
0
 62
     0
100
AcDbLine
 10
5.935935922546597
 20
6.963384601561104
 30
0.0
 11
6.929650779153453
 21
7.537106141520802
 31
0.0
  0
LINE
  5
1953
330
194C
100
AcDbEntity
  8
0
 62
     0
100
AcDbLine
 10
5.855532619399138
 20
6.989132516493887
 30
0.0
 11
6.868750048697299
 21
7.574113872046801
 31
0.0
  0
LINE
  5
1954
330
194C
100
AcDbEntity
  8
0
 62
     0
100
AcDbLine
 10
5.771442720101276
 20
7.012751974146841
 30
0.0
 11
6.806315866378526
 21
7.610236263727126
 31
0.0
  0
LINE
  5
1955
330
194C
100
AcDbEntity
  8
0
 62
     0
100
AcDbLine
 10
5.683246237432438
 20
7.034000494785113
 30
0.0
 11
6.742289685642941
 21
7.645439514692956
 31
0.0
  0
LINE
  5
1956
330
194C
100
AcDbEntity
  8
0
 62
     0
100
AcDbLine
 10
5.590415653869795
 20
7.052573516024894
 30
0.0
 11
6.676606711205146
 21
7.679686215368823
 31
0.0
  0
LINE
  5
1957
330
194C
100
AcDbEntity
  8
0
 62
     0
100
AcDbLine
 10
5.492273195027132
 20
7.068079724641854
 30
0.0
 11
6.609195025577402
 21
7.712934844173821
 31
0.0
  0
LINE
  5
1958
330
194C
100
AcDbEntity
  8
0
 62
     0
100
AcDbLine
 10
5.387923183857417
 20
7.080002001251781
 30
0.0
 11
6.539974544485624
 21
7.745139164430751
 31
0.0
  0
LINE
  5
1959
330
194C
100
AcDbEntity
  8
0
 62
     0
100
AcDbLine
 10
5.276138946648607
 20
7.087632125456821
 30
0.0
 11
6.468855758591753
 21
7.776247497899189
 31
0.0
  0
LINE
  5
195A
330
194C
100
AcDbEntity
  8
0
 62
     0
100
AcDbLine
 10
5.155160091008438
 20
7.08995373423542
 30
0.0
 11
6.395738205754375
 21
7.806201842734745
 31
0.0
  0
LINE
  5
195B
330
194C
100
AcDbEntity
  8
0
 62
     0
100
AcDbLine
 10
5.022293839167439
 20
7.085412151617506
 30
0.0
 11
6.320508599918372
 21
7.834936793203002
 31
0.0
  0
LINE
  5
195C
330
194C
100
AcDbEntity
  8
0
 62
     0
100
AcDbLine
 10
4.873021897232851
 20
7.071398739407817
 30
0.0
 11
6.243038517405576
 21
7.8623782038588
 31
0.0
  0
LINE
  5
195D
330
194C
100
AcDbEntity
  8
0
 62
     0
100
AcDbLine
 10
3.290676531154107
 20
6.23
 30
0.0
 11
3.385423651437708
 21
6.284702275400679
 31
0.0
  0
LINE
  5
195E
330
194C
100
AcDbEntity
  8
0
 62
     0
100
AcDbLine
 10
4.698556000386997
 20
7.042839590548156
 30
0.0
 11
6.163181505479352
 21
7.888441520175219
 31
0.0
  0
LINE
  5
195F
330
194C
100
AcDbEntity
  8
0
 62
     0
100
AcDbLine
 10
3.165676531154107
 20
6.23
 30
0.0
 11
3.545285696783778
 21
6.44916745396314
 31
0.0
  0
LINE
  5
1960
330
194C
100
AcDbEntity
  8
0
 62
     0
100
AcDbLine
 10
4.476193955040928
 20
6.986627587458751
 30
0.0
 11
6.080769426261786
 21
7.913029667703184
 31
0.0
  0
LINE
  5
1961
330
194C
100
AcDbEntity
  8
0
 62
     0
100
AcDbLine
 10
3.040676531154107
 20
6.23
 30
0.0
 11
5.995607772903897
 21
7.936030347861076
 31
0.0
  0
LINE
  5
1962
330
194C
100
AcDbEntity
  8
0
 62
     0
100
AcDbLine
 10
2.915676531154107
 20
6.23
 30
0.0
 11
5.907469580443446
 21
7.957312522366851
 31
0.0
  0
LINE
  5
1963
330
194C
100
AcDbEntity
  8
0
 62
     0
100
AcDbLine
 10
2.790676531154107
 20
6.23
 30
0.0
 11
5.816087377619093
 21
7.976721766615773
 31
0.0
  0
LINE
  5
1964
330
194C
100
AcDbEntity
  8
0
 62
     0
100
AcDbLine
 10
2.665676531154107
 20
6.23
 30
0.0
 11
5.721142347365645
 21
7.994074011489431
 31
0.0
  0
LINE
  5
1965
330
194C
100
AcDbEntity
  8
0
 62
     0
100
AcDbLine
 10
2.540676531154107
 20
6.23
 30
0.0
 11
5.622249409570624
 21
8.009146930881225
 31
0.0
  0
LINE
  5
1966
330
194C
100
AcDbEntity
  8
0
 62
     0
100
AcDbLine
 10
2.415676531154107
 20
6.23
 30
0.0
 11
5.518936172689756
 21
8.021667789405908
 31
0.0
  0
LINE
  5
1967
330
194C
100
AcDbEntity
  8
0
 62
     0
100
AcDbLine
 10
2.290676531154107
 20
6.23
 30
0.0
 11
5.410612351497857
 21
8.03129578572982
 31
0.0
  0
LINE
  5
1968
330
194C
100
AcDbEntity
  8
0
 62
     0
100
AcDbLine
 10
2.224955894107046
 20
6.264224956158269
 30
0.0
 11
5.29652375771766
 21
8.03759548904806
 31
0.0
  0
LINE
  5
1969
330
194C
100
AcDbEntity
  8
0
 62
     0
100
AcDbLine
 10
2.283299549686596
 20
6.370078465061332
 30
0.0
 11
5.175680102138111
 21
8.039995155618052
 31
0.0
  0
LINE
  5
196A
330
194C
100
AcDbEntity
  8
0
 62
     0
100
AcDbLine
 10
2.349744008377684
 20
6.480608974821493
 30
0.0
 11
5.046735643447022
 21
8.037717821330945
 31
0.0
  0
LINE
  5
196B
330
194C
100
AcDbEntity
  8
0
 62
     0
100
AcDbLine
 10
2.426201266258829
 20
6.596920376889377
 30
0.0
 11
4.907778385565877
 21
8.029659594736116
 31
0.0
  0
LINE
  5
196C
330
194C
100
AcDbEntity
  8
0
 62
     0
100
AcDbLine
 10
2.515555843423034
 20
6.720678049717159
 30
0.0
 11
4.755923808401671
 21
8.014155097381388
 31
0.0
  0
LINE
  5
196D
330
194C
100
AcDbEntity
  8
0
 62
     0
100
AcDbLine
 10
2.622548542288839
 20
6.854619096857359
 30
0.0
 11
4.586431109535867
 21
7.988467225714244
 31
0.0
  0
LINE
  5
196E
330
194C
100
AcDbEntity
  8
0
 62
     0
100
AcDbLine
 10
2.756082656609675
 20
7.003883837355195
 30
0.0
 11
4.390396995215032
 21
7.947455660689463
 31
0.0
  0
LINE
  5
196F
330
194C
100
AcDbEntity
  8
0
 62
     0
100
AcDbLine
 10
2.937487039151753
 20
7.180786490096745
 30
0.0
 11
4.146492612672952
 21
7.878806183420968
 31
0.0
  0
LINE
  5
1970
330
194C
100
AcDbEntity
  8
0
 62
     0
100
AcDbLine
 10
3.27148677147021
 20
7.445790109108773
 30
0.0
 11
3.749992880354496
 21
7.722055739881995
 31
0.0
  0
LINE
  5
1971
330
194C
100
AcDbEntity
  8
0
 62
     0
100
AcDbLine
 10
6.356476177007925
 20
6.773170928787206
 30
0.0
 11
7.265507807348942
 21
7.298000585266477
 31
0.0
  0
LINE
  5
1972
330
194C
100
AcDbEntity
  8
0
 62
     0
100
AcDbLine
 10
6.418020837229799
 20
6.736534971284786
 30
0.0
 11
7.316918576867864
 21
7.255513823238769
 31
0.0
  0
LINE
  5
1973
330
194C
100
AcDbEntity
  8
0
 62
     0
100
AcDbLine
 10
6.47747764632858
 20
6.69869359237442
 30
0.0
 11
7.367108200766157
 21
7.212322032458271
 31
0.0
  0
LINE
  5
1974
330
194C
100
AcDbEntity
  8
0
 62
     0
100
AcDbLine
 10
6.534941188847949
 20
6.659701400467864
 30
0.0
 11
7.416101917896408
 21
7.168439784583318
 31
0.0
  0
LINE
  5
1975
330
194C
100
AcDbEntity
  8
0
 62
     0
100
AcDbLine
 10
6.590494305213268
 20
6.619606223507
 30
0.0
 11
7.463922745994548
 21
7.123880368909947
 31
0.0
  0
LINE
  5
1976
330
194C
100
AcDbEntity
  8
0
 62
     0
100
AcDbLine
 10
6.644209742656266
 20
6.57845006212565
 30
0.0
 11
7.51059165065301
 21
7.078655889928592
 31
0.0
  0
LINE
  5
1977
330
194C
100
AcDbEntity
  8
0
 62
     0
100
AcDbLine
 10
6.696151495226467
 20
6.536269863305534
 30
0.0
 11
7.556127693403596
 21
7.032777352819771
 31
0.0
  0
LINE
  5
1978
330
194C
100
AcDbEntity
  8
0
 62
     0
100
AcDbLine
 10
6.746375899557651
 20
6.493098153017328
 30
0.0
 11
7.600548161581861
 21
6.986254738431317
 31
0.0
  0
LINE
  5
1979
330
194C
100
AcDbEntity
  8
0
 62
     0
100
AcDbLine
 10
6.79493253650397
 20
6.448963556780525
 30
0.0
 11
7.643868682213748
 21
6.939097069030869
 31
0.0
  0
LINE
  5
197A
330
194C
100
AcDbEntity
  8
0
 62
     0
100
AcDbLine
 10
6.841864976743606
 20
6.403891230137902
 30
0.0
 11
7.68610332180856
 21
6.891312465921357
 31
0.0
  0
LINE
  5
197B
330
194C
100
AcDbEntity
  8
0
 62
     0
100
AcDbLine
 10
6.887211399600818
 20
6.357903215932597
 30
0.0
 11
7.727264673645164
 21
6.842908199835727
 31
0.0
  0
LINE
  5
197C
330
194C
100
AcDbEntity
  8
0
 62
     0
100
AcDbLine
 10
6.931005107737299
 20
6.311018741465303
 30
0.0
 11
7.767363933889131
 21
6.793890734883182
 31
0.0
  0
LINE
  5
197D
330
194C
100
AcDbEntity
  8
0
 62
     0
100
AcDbLine
 10
6.973274955376987
 20
6.263254465729978
 30
0.0
 11
7.806410967668186
 21
6.744265766697873
 31
0.0
  0
LINE
  5
197E
330
194C
100
AcDbEntity
  8
0
 62
     0
100
AcDbLine
 10
7.040676531154108
 20
6.230000000000001
 30
0.0
 11
7.844414366054254
 21
6.694038255337487
 31
0.0
  0
LINE
  5
197F
330
194C
100
AcDbEntity
  8
0
 62
     0
100
AcDbLine
 10
7.165676531154108
 20
6.230000000000001
 30
0.0
 11
7.881381494746817
 21
6.643212453390602
 31
0.0
  0
LINE
  5
1980
330
194C
100
AcDbEntity
  8
0
 62
     0
100
AcDbLine
 10
7.290676531154108
 20
6.230000000000001
 30
0.0
 11
7.917318535119379
 21
6.591791929674876
 31
0.0
  0
LINE
  5
1981
330
194C
100
AcDbEntity
  8
0
 62
     0
100
AcDbLine
 10
7.415676531154108
 20
6.230000000000001
 30
0.0
 11
7.952230518174414
 21
6.539779588840941
 31
0.0
  0
LINE
  5
1982
330
194C
100
AcDbEntity
  8
0
 62
     0
100
AcDbLine
 10
7.540676531154108
 20
6.230000000000001
 30
0.0
 11
7.986121351849182
 21
6.487177687137426
 31
0.0
  0
LINE
  5
1983
330
194C
100
AcDbEntity
  8
0
 62
     0
100
AcDbLine
 10
7.665676531154108
 20
6.230000000000001
 30
0.0
 11
8.018993842022354
 21
6.433987844539137
 31
0.0
  0
LINE
  5
1984
330
194C
100
AcDbEntity
  8
0
 62
     0
100
AcDbLine
 10
7.790676531154108
 20
6.230000000000001
 30
0.0
 11
8.050849707487024
 21
6.38021105339173
 31
0.0
  0
LINE
  5
1985
330
194C
100
AcDbEntity
  8
0
 62
     0
100
AcDbLine
 10
7.915676531154108
 20
6.230000000000001
 30
0.0
 11
8.08168958907753
 21
6.325847683681081
 31
0.0
  0
LINE
  5
1986
330
194C
100
AcDbEntity
  8
0
 62
     0
100
AcDbLine
 10
8.040676531154108
 20
6.230000000000001
 30
0.0
 11
8.111513053063506
 21
6.270897484992848
 31
0.0
  0
ENDBLK
  5
1988
330
194C
100
AcDbEntity
  8
0
100
AcDbBlockEnd
  0
BLOCK
  5
1A11
330
1989
100
AcDbEntity
  8
0
100
AcDbBlockBegin
  2
CAIXETI
 70
     2
 10
0.0
 20
0.0
 30
0.0
  3
CAIXETI
  1

  0
LINE
  5
198A
330
1989
100
AcDbEntity
  8
0
 62
    11
100
AcDbLine
 10
798.6139094569747
 20
560.4133699722215
 30
0.0
 11
798.6139094569747
 21
2.66533630453955
 31
0.0
  0
LINE
  5
198B
330
1989
100
AcDbEntity
  8
0
 62
    11
100
AcDbLine
 10
21.43382824270383
 20
560.4133699722215
 30
0.0
 11
798.6139094569747
 21
560.4133699722215
 31
0.0
  0
LINE
  5
198C
330
1989
100
AcDbEntity
  8
0
 62
    11
100
AcDbLine
 10
21.43382824270383
 20
560.4133699722215
 30
0.0
 11
21.43382824270383
 21
2.66533630453955
 31
0.0
  0
INSERT
  5
198D
330
1989
100
AcDbEntity
  8
ASHADE
 62
     1
100
AcDbBlockReference
  2
AVE_RENDER
 10
1193.158913672785
 20
-1070.766763776781
 30
0.0
 41
0.025
 42
0.0249999999999773
 43
0.025
1001
AVE_RENDER
1002
{
1070
     2
1000
Pref
1070
    30
1070
    20
1070
     0
1070
     0
1000

1070
    10
1070
     0
1070
    30
1040
1.0
1070
     1
1040
0.3
1040
0.7
1040
0.0
1040
10.0
1010
-1.0
1020
-1.0
1030
-1.0
1040
0.3
1070
    49
1002
}
  0
INSERT
  5
198E
330
1989
100
AcDbEntity
  8
ASHADE
 62
     3
100
AcDbBlockReference
  2
AVE_RENDER
 10
1193.158913672785
 20
-1070.766763776781
 30
0.0
 41
0.025
 42
0.0249999999999773
 43
0.025
1001
AVE_RENDER
1002
{
1070
     0
1000
Full Opt
1070
     0
1070
     1
1070
     1
1070
     1
1070
     0
1070
     0
1070
     0
1070
     1
1070
     1
1040
0.0001
1040
0.0001
1002
}
  0
INSERT
  5
198F
330
1989
100
AcDbEntity
  8
ASHADE
 62
     4
100
AcDbBlockReference
  2
AVE_RENDER
 10
1193.158913672785
 20
-1070.766763776781
 30
0.0
 41
0.025
 42
0.0249999999999773
 43
0.025
1001
AVE_RENDER
1002
{
1070
     0
1000
Quick Opt
1070
     0
1070
     1
1070
     1
1070
     1
1070
     0
1070
     0
1070
     1
1002
}
  0
TEXT
  5
1990
330
1989
100
AcDbEntity
  8
0
 62
     4
100
AcDbText
 10
394.215126210267
 20
-602.4399923757782
 30
0.0
 40
2.149999999999999
  1

 51
15.0
  7
ROMANS
100
AcDbText
  0
ATTDEF
  5
1991
330
1989
100
AcDbEntity
  8
0
 62
     7
100
AcDbText
 10
502.348782816523
 20
5.710915277180106
 30
0.0
 40
2.151536812008576
  1
ARCHIVO.DWG
 72
     1
 11
512.7991044748504
 21
5.710915277180106
 31
0.0
100
AcDbAttributeDefinition
  3
ARCHIVO
  2
ARCHIVO
 70
     0
  0
ATTDEF
  5
1992
330
1989
100
AcDbEntity
  8
0
 62
     7
100
AcDbText
 10
580.9855255410893
 20
22.69100278197686
 30
0.0
 40
2.151536812008576
  1
1/XXXX, 1/XXXX
100
AcDbAttributeDefinition
  3
ESCALA_EN_A1 (H), ESCALA_EN_A1 (V)
  2
ESCALA1
 70
     0
  0
ATTDEF
  5
1993
330
1989
100
AcDbEntity
  8
0
 62
     7
100
AcDbText
 10
580.9855255410893
 20
18.55741870702775
 30
0.0
 40
2.151536812008576
  1
1/XXXX, 1/XXXX
100
AcDbAttributeDefinition
  3
ESCALA_EN_A3 (H), ESCALA_EN_A3 (V), 
  2
ESCALA3
 70
     0
  0
ATTDEF
  5
1994
330
1989
100
AcDbEntity
  8
0
 62
     4
100
AcDbText
 10
617.8911412026266
 20
14.02244203017414
 30
0.0
 40
2.0
  1
X m
 41
0.8
 72
     1
 11
620.5578078692932
 21
14.02244203017414
 31
0.0
100
AcDbAttributeDefinition
  3
ESCALA GRAFICA
  2
GRAFICA
 70
     0
  0
ATTDEF
  5
1995
330
1989
100
AcDbEntity
  8
0
 62
    30
100
AcDbText
 10
664.3244169623357
 20
20.02692942944134
 30
0.0
 40
2.902072909220871
  1
XXXXXX-XXXXXXXXXXX
 72
     1
 11
689.6139094569747
 21
20.02692942944134
 31
0.0
100
AcDbAttributeDefinition
  3
TITOL
  2
TITOL
 70
     0
  0
ATTDEF
  5
1996
330
1989
100
AcDbEntity
  8
0
 62
     7
100
AcDbText
 10
654.8581315203533
 20
12.70144744205197
 30
0.0
 40
2.902072909220871
  1
XXXXXX-xxxxxxxxxxxxxxxxxxxxx
 72
     1
 11
689.6139094569747
 21
12.70144744205197
 31
0.0
100
AcDbAttributeDefinition
  3
SUBTITOL 1
  2
SUBTITOL
 70
     0
  0
ATTDEF
  5
1997
330
1989
100
AcDbEntity
  8
0
 62
     7
100
AcDbText
 10
654.8581315203533
 20
6.407796190964177
 30
0.0
 40
2.902072909220871
  1
XXXXXX-xxxxxxxxxxxxxxxxxxxxx
 72
     1
 11
689.6139094569747
 21
6.407796190964177
 31
0.0
100
AcDbAttributeDefinition
  3
SUBTITOL 2
  2
SUBTITOL
 70
     0
  0
ATTDEF
  5
1998
330
1989
100
AcDbEntity
  8
0
 62
    30
100
AcDbText
 10
752.9861859401729
 20
20.57813115800627
 30
0.0
 40
3.602573266619013
  1
X-X.X
 72
     1
 11
761.2206391210165
 21
20.57813115800627
 31
0.0
100
AcDbAttributeDefinition
  3
Nº PLANO
  2
NPLANOL
 70
     0
  0
ATTDEF
  5
1999
330
1989
100
AcDbEntity
  8
0
 62
     7
100
AcDbText
 10
751.2706748608305
 20
5.40417145642732
 30
0.0
 40
3.602573266619013
  1
1 de 1
 72
     1
 11
761.2206391210165
 21
5.40417145642732
 31
0.0
100
AcDbAttributeDefinition
  3
FULL
  2
FULL
 70
     0
  0
MTEXT
  5
199A
330
1989
100
AcDbEntity
  8
0
 62
     4
100
AcDbMText
 10
395.2527351042616
 20
30.54023212310096
 30
0.0
 40
2.149999999999999
 41
40.0
 71
     1
 72
     1
  1
AUTOR DEL PROJECTE:
  7
ROMANS
1001
ACAD
1000
MTEXTBEGIN
1070
    73
1070
     2
1070
    44
1040
1.0
1070
    74
1070
     0
1000
MTEXTEND
  0
TEXT
  5
199B
330
1989
100
AcDbEntity
  8
0
 62
     7
100
AcDbText
 10
505.7687937537824
 20
20.26120789767377
 30
0.0
 40
2.158845272337067
  1
PXX.XXXX
  7
ROMANS
 11
505.7687937537824
 21
19.54159280689475
 31
0.0
100
AcDbText
 73
     1
  0
MTEXT
  5
199C
330
1989
100
AcDbEntity
  8
0
 62
    30
100
AcDbMText
 10
266.1549975479077
 20
15.99886238633678
 30
0.0
 40
6.0
 41
233.1852
 71
     5
 72
     5
  1
XXXXXXXXXXXXXXXXXXXXXXXX\Pxxxxxxxxxxxxxxxxxxxxxxxx
1001
ACAD
1000
MTEXTBEGIN
1070
    73
1070
     2
1070
    44
1040
1.0
1070
    74
1070
     0
1000
MTEXTEND
  0
LINE
  5
199D
330
1989
100
AcDbEntity
  8
0
 62
    11
100
AcDbLine
 10
494.558841282393
 20
2.665336304539664
 30
0.0
 11
494.558841282393
 21
32.24901250181085
 31
0.0
  0
LINE
  5
199E
330
1989
100
AcDbEntity
  8
0
 62
    11
100
AcDbLine
 10
21.43382824270383
 20
2.66533630453955
 30
0.0
 11
798.6139094569747
 21
2.66533630453955
 31
0.0
  0
LINE
  5
199F
330
1989
100
AcDbEntity
  8
0
 62
    11
100
AcDbLine
 10
21.43382824270383
 20
32.24901250181074
 30
0.0
 11
798.6139094569747
 21
32.24901250181074
 31
0.0
  0
CIRCLE
  5
19A0
330
1989
100
AcDbEntity
  8
0
 62
   134
100
AcDbCircle
 10
790.175571261588
 20
19.8667013690291
 30
0.0
 40
1.520878439340597
  0
CIRCLE
  5
19A1
330
1989
100
AcDbEntity
  8
0
 62
   134
100
AcDbCircle
 10
794.2092053833174
 20
19.8667013690291
 30
0.0
 40
1.520878439340597
  0
CIRCLE
  5
19A2
330
1989
100
AcDbEntity
  8
0
 62
   134
100
AcDbCircle
 10
790.175571261588
 20
15.83306724729959
 30
0.0
 40
1.520878439340597
  0
CIRCLE
  5
19A3
330
1989
100
AcDbEntity
  8
0
 62
   134
100
AcDbCircle
 10
794.2092053833174
 20
15.83306724729959
 30
0.0
 40
1.520878439340597
  0
LWPOLYLINE
  5
19A4
330
1989
100
AcDbEntity
  8
0
 62
   252
100
AcDbPolyline
 90
        2
 70
     0
 43
0.0
 10
792.1970170829203
 20
22.87539567294197
 10
795.9380474179505
 20
22.87539567294197
  0
INSERT
  5
19A5
330
1989
100
AcDbEntity
  8
0
 62
   134
100
AcDbBlockReference
  2
*X99
 10
769.0485859846611
 20
2.277411592307316
 30
0.0
 41
3.30625747682734
 42
3.30625747682734
 43
3.306257476827386
  0
INSERT
  5
19A6
330
1989
100
AcDbEntity
  8
0
 62
   134
100
AcDbBlockReference
  2
*X100
 10
769.0485859846611
 20
2.277411592307316
 30
0.0
 41
3.30625747682734
 42
3.30625747682734
 43
3.306257476827386
  0
INSERT
  5
19A7
330
1989
100
AcDbEntity
  8
0
 62
   134
100
AcDbBlockReference
  2
*X101
 10
769.0485859846611
 20
2.277411592307316
 30
0.0
 41
3.30625747682734
 42
3.30625747682734
 43
3.306257476827386
  0
INSERT
  5
19A8
330
1989
100
AcDbEntity
  8
0
 62
   134
100
AcDbBlockReference
  2
*X102
 10
769.0485859846611
 20
2.277411592307316
 30
0.0
 41
3.30625747682734
 42
3.30625747682734
 43
3.306257476827386
  0
CIRCLE
  5
19A9
330
1989
100
AcDbEntity
  8
0
 62
   134
100
AcDbCircle
 10
782.1083030181292
 20
19.8667013690291
 30
0.0
 40
1.520878439340597
  0
CIRCLE
  5
19AA
330
1989
100
AcDbEntity
  8
0
 62
   134
100
AcDbCircle
 10
778.0746688963999
 20
15.83306724729959
 30
0.0
 40
1.520878439340597
  0
CIRCLE
  5
19AB
330
1989
100
AcDbEntity
  8
0
 62
   134
100
AcDbCircle
 10
782.1083030181292
 20
15.83306724729959
 30
0.0
 40
1.520878439340597
  0
CIRCLE
  5
19AC
330
1989
100
AcDbEntity
  8
0
 62
   134
100
AcDbCircle
 10
778.0746688963999
 20
19.8667013690291
 30
0.0
 40
1.520878439340597
  0
LWPOLYLINE
  5
19AD
330
1989
100
AcDbEntity
  8
0
 62
   252
100
AcDbPolyline
 90
        2
 70
     0
 43
0.0
 10
776.3458268617668
 20
22.87539567294197
 10
780.086857196797
 20
22.87539567294197
  0
INSERT
  5
19AE
330
1989
100
AcDbEntity
  8
0
 62
   134
100
AcDbBlockReference
  2
*X103
 10
769.0485859846611
 20
2.277411592307316
 30
0.0
 41
3.30625747682734
 42
3.30625747682734
 43
3.306257476827386
  0
INSERT
  5
19AF
330
1989
100
AcDbEntity
  8
0
 62
   134
100
AcDbBlockReference
  2
*X104
 10
769.0485859846611
 20
2.277411592307316
 30
0.0
 41
3.30625747682734
 42
3.30625747682734
 43
3.306257476827386
  0
INSERT
  5
19B0
330
1989
100
AcDbEntity
  8
0
 62
   134
100
AcDbBlockReference
  2
*X105
 10
769.0485859846611
 20
2.277411592307316
 30
0.0
 41
3.30625747682734
 42
3.30625747682734
 43
3.306257476827386
  0
INSERT
  5
19B1
330
1989
100
AcDbEntity
  8
0
 62
   134
100
AcDbBlockReference
  2
*X106
 10
769.0485859846611
 20
2.277411592307316
 30
0.0
 41
3.30625747682734
 42
3.30625747682734
 43
3.306257476827386
  0
CIRCLE
  5
19B2
330
1989
100
AcDbEntity
  8
0
 62
   134
100
AcDbCircle
 10
786.1419371398587
 20
19.8667013690291
 30
0.0
 40
1.520878439340597
  0
CIRCLE
  5
19B3
330
1989
100
AcDbEntity
  8
0
 62
   134
100
AcDbCircle
 10
786.1419371398587
 20
15.83306724729959
 30
0.0
 40
1.520878439340597
  0
TEXT
  5
19B4
330
1989
100
AcDbEntity
  8
0
100
AcDbText
 10
776.1335665097343
 20
5.484481344829873
 30
0.0
 40
5.620637710606556
  1
CLABSA
 41
0.6100088235294127
  7
ROMANC
 72
     5
 11
795.7257870659181
 21
5.484481344829873
 31
0.0
100
AcDbText
  0
ARC
  5
19B5
330
1989
100
AcDbEntity
  8
0
 62
   252
100
AcDbCircle
 10
786.1419371398587
 20
17.84988430816429
 30
0.0
 40
7.868892794849178
100
AcDbArc
 50
39.69163361083534
 51
140.3083663891646
  0
INSERT
  5
19B6
330
1989
100
AcDbEntity
  8
0
 62
   134
100
AcDbBlockReference
  2
*X107
 10
769.0485859846611
 20
2.277411592307316
 30
0.0
 41
3.30625747682734
 42
3.30625747682734
 43
3.306257476827386
  0
INSERT
  5
19B7
330
1989
100
AcDbEntity
  8
0
 62
   134
100
AcDbBlockReference
  2
*X108
 10
769.0485859846611
 20
2.277411592307316
 30
0.0
 41
3.30625747682734
 42
3.30625747682734
 43
3.306257476827386
  0
ARC
  5
19B8
330
1989
100
AcDbEntity
  8
0
 62
   252
100
AcDbCircle
 10
786.1419371398587
 20
17.84988430816429
 30
0.0
 40
11.00983739783519
100
AcDbArc
 50
27.15868442108836
 51
152.8413155789116
  0
INSERT
  5
19B9
330
1989
100
AcDbEntity
  8
0
 62
   252
100
AcDbBlockReference
  2
*X109
 10
769.0485859846611
 20
2.277411592307316
 30
0.0
 41
3.30625747682734
 42
3.30625747682734
 43
3.306257476827386
  0
TEXT
  5
19BA
330
1989
100
AcDbEntity
  8
0
 62
     4
100
AcDbText
 10
750.6812542665642
 20
28.01345440406874
 30
0.0
 40
2.149999999999999
  1
Nº PLÀNOL:
  7
ROMANS
100
AcDbText
  0
TEXT
  5
19BB
330
1989
100
AcDbEntity
  8
0
 62
     4
100
AcDbText
 10
750.6812542665642
 20
13.0214733461911
 30
0.0
 40
2.149999999999999
  1
FULL:
  7
ROMANS
100
AcDbText
  0
LINE
  5
19BC
330
1989
100
AcDbEntity
  8
0
 62
     7
100
AcDbLine
 10
748.6139094569747
 20
17.2570314439331
 30
0.0
 11
773.8273687850586
 21
17.2570314439331
 31
0.0
  0
LINE
  5
19BD
330
1989
100
AcDbEntity
  8
0
 62
    11
100
AcDbLine
 10
773.8273687850586
 20
2.66533630453955
 30
0.0
 11
773.8273687850586
 21
32.24901250181074
 31
0.0
  0
LINE
  5
19BE
330
1989
100
AcDbEntity
  8
0
 62
    11
100
AcDbLine
 10
748.6139094569747
 20
2.665336304539664
 30
0.0
 11
748.6139094569747
 21
32.24901250181085
 31
0.0
  0
TEXT
  5
19BF
330
1989
100
AcDbEntity
  8
0
 62
     4
100
AcDbText
 10
633.4779879441551
 20
28.01345440406874
 30
0.0
 40
2.149999999999999
  1
DESIGNACIÓ PLÀNOL:
  7
ROMANS
100
AcDbText
  0
LINE
  5
19C0
330
1989
100
AcDbEntity
  8
0
 62
    11
100
AcDbLine
 10
630.6139094569747
 20
2.665336304539664
 30
0.0
 11
630.6139094569747
 21
32.24901250181085
 31
0.0
  0
TEXT
  5
19C1
330
1989
100
AcDbEntity
  8
0
 62
     4
100
AcDbText
 10
566.4341884527142
 20
28.01345440406874
 30
0.0
 40
2.149999999999999
  1
ESCALA:
  7
ROMANS
100
AcDbText
  0
TEXT
  5
19C2
330
1989
100
AcDbEntity
  8
0
 62
     7
100
AcDbText
 10
566.4187233767869
 20
18.57813536446599
 30
0.0
 40
2.151536812008577
  1
Din A3:
100
AcDbText
  0
TEXT
  5
19C3
330
1989
100
AcDbEntity
  8
0
 62
     7
100
AcDbText
 10
566.4187233767869
 20
22.68209032076776
 30
0.0
 40
2.151536812008577
  1
Din A1:
100
AcDbText
  0
TEXT
  5
19C4
330
1989
100
AcDbEntity
  8
0
 62
     4
100
AcDbText
 10
533.1067124768977
 20
28.01345440406874
 30
0.0
 40
2.149999999999999
  1
DATA:
  7
ROMANS
100
AcDbText
  0
LINE
  5
19C5
330
1989
100
AcDbEntity
  8
0
 62
    11
100
AcDbLine
 10
531.0393676673083
 20
2.665336304539664
 30
0.0
 11
531.0393676673083
 21
32.24901250181085
 31
0.0
  0
LINE
  5
19C6
330
1989
100
AcDbEntity
  8
0
 62
    11
100
AcDbLine
 10
564.3668436431247
 20
2.665336304539664
 30
0.0
 11
564.3668436431247
 21
32.24901250181085
 31
0.0
  0
LINE
  5
19C7
330
1989
100
AcDbEntity
  8
0
 62
    11
100
AcDbLine
 10
393.1263218437992
 20
2.66533630453955
 30
0.0
 11
393.1263218437992
 21
32.24901250181074
 31
0.0
  0
MTEXT
  5
19C8
330
1989
100
AcDbEntity
  8
0
 62
     4
100
AcDbMText
 10
496.5632213427806
 20
30.54023212310108
 30
0.0
 40
2.149999999999999
 41
40.0
 71
     1
 72
     1
  1
CODI:
  7
ROMANS
1001
ACAD
1000
MTEXTBEGIN
1070
    73
1070
     2
1070
    44
1040
1.0
1070
    74
1070
     0
1000
MTEXTEND
  0
TEXT
  5
19C9
330
1989
100
AcDbEntity
  8
0
 62
     4
100
AcDbText
 10
496.5041528919076
 20
13.0214733461911
 30
0.0
 40
2.149999999999999
  1
ARXIU:
  7
ROMANS
100
AcDbText
  0
LINE
  5
19CA
330
1989
100
AcDbEntity
  8
0
 62
     7
100
AcDbLine
 10
494.558841282393
 20
17.25703144393321
 30
0.0
 11
531.0393676673083
 21
17.25703144393321
 31
0.0
  0
TEXT
  5
19CB
330
1989
100
AcDbEntity
  8
0
 62
     4
100
AcDbText
 10
142.7385687238501
 20
27.90333159626652
 30
0.0
 40
2.149999999999999
  1
TÍTOL:
  7
ROMANS
100
AcDbText
  0
TEXT
  5
19CC
330
1989
100
AcDbEntity
  8
0
 62
     7
100
AcDbText
 10
94.74928579095957
 20
18.16055230846541
 30
0.0
 40
4.683345246604926
  1
de Barcelona
  7
ARIAL
100
AcDbText
  0
SOLID
  5
19CD
330
1989
100
AcDbEntity
  8
0
 62
    20
100
AcDbTrace
 10
80.38633232989218
 20
13.42552195048654
 30
0.0
 11
82.07775736644624
 21
13.42552195048654
 31
0.0
 12
80.38633232989218
 22
26.95692224291838
 32
0.0
 13
82.07775736644624
 23
26.95692224291838
 33
0.0
  0
LINE
  5
19CE
330
1989
100
AcDbEntity
  8
0
 62
    20
100
AcDbLine
 10
82.07775736644624
 20
26.95692224291838
 30
0.0
 11
82.07775736644624
 21
13.42552195048654
 31
0.0
  0
LINE
  5
19CF
330
1989
100
AcDbEntity
  8
0
 62
    20
100
AcDbLine
 10
89.9378736873839
 20
19.83598459108065
 30
0.0
 11
85.76257802059728
 21
15.66068892427438
 31
0.0
  0
SOLID
  5
19D0
330
1989
100
AcDbEntity
  8
0
 62
    20
100
AcDbTrace
 10
84.82261285897436
 20
26.63778173242042
 30
0.0
 11
87.67860448387409
 21
23.78179010750113
 31
0.0
 12
86.31414515103449
 22
25.27332239956774
 32
0.0
 13
86.31414515103449
 23
25.27332239956774
 33
0.0
  0
LINE
  5
19D1
330
1989
100
AcDbEntity
  8
0
 62
    20
100
AcDbLine
 10
89.9378736873839
 20
20.54645960235052
 30
0.0
 11
85.76257802059728
 21
24.72175526913054
 31
0.0
  0
SOLID
  5
19D2
330
1989
100
AcDbEntity
  8
0
 62
    20
100
AcDbTrace
 10
81.5872823537976
 20
11.48539325749436
 30
0.0
 11
89.9378736873839
 21
19.83598459108065
 31
0.0
 12
83.13527969810877
 22
12.46233651716863
 32
0.0
 13
88.96093042770962
 23
18.28798724676948
 33
0.0
  0
ARC
  5
19D3
330
1989
100
AcDbEntity
  8
0
 62
    20
100
AcDbCircle
 10
70.23512301054518
 20
31.18814393432001
 30
0.0
 40
22.73917118077035
100
AcDbArc
 50
299.9493113883262
 51
330.0506886116825
  0
SOLID
  5
19D4
330
1989
100
AcDbEntity
  8
0
 62
    20
100
AcDbTrace
 10
84.82261285897436
 20
13.74466246101076
 30
0.0
 11
87.67860448387409
 21
16.60065408590389
 31
0.0
 12
86.31414515103449
 22
15.10912179383717
 32
0.0
 13
86.31414515103449
 23
15.10912179383717
 33
0.0
  0
SOLID
  5
19D5
330
1989
100
AcDbEntity
  8
0
 62
    20
100
AcDbTrace
 10
83.13527969810877
 20
12.46233651716863
 30
0.0
 11
84.82261285897436
 21
13.74466246101076
 31
0.0
 12
88.96093042770962
 22
18.28798724676948
 32
0.0
 13
87.67860448387409
 23
16.60065408590389
 33
0.0
  0
SOLID
  5
19D6
330
1989
100
AcDbEntity
  8
0
 62
    20
100
AcDbTrace
 10
77.00348225678431
 20
23.57407216981039
 30
0.0
 11
78.69490729333825
 21
25.26549720636444
 31
0.0
 12
77.00348225678431
 22
16.80837202359453
 32
0.0
 13
78.69490729333825
 23
15.11694698704047
 33
0.0
  0
SOLID
  5
19D7
330
1989
100
AcDbEntity
  8
0
 62
    20
100
AcDbTrace
 10
83.76918240300028
 20
15.11694698704047
 30
0.0
 11
85.46060743955422
 21
16.80837202359453
 31
0.0
 12
83.76918240300028
 22
25.26549720636444
 32
0.0
 13
85.46060743955422
 23
23.57407216981039
 33
0.0
  0
LINE
  5
19D8
330
1989
100
AcDbEntity
  8
0
 62
    20
100
AcDbLine
 10
85.46060743955422
 20
23.57407216981039
 30
0.0
 11
85.46060743955422
 21
16.80837202359453
 31
0.0
  0
LINE
  5
19D9
330
1989
100
AcDbEntity
  8
0
 62
    20
100
AcDbLine
 10
83.76918240300028
 20
25.26549720636444
 30
0.0
 11
83.76918240300028
 21
15.11694698704047
 31
0.0
  0
LINE
  5
19DA
330
1989
100
AcDbEntity
  8
0
 62
    20
100
AcDbLine
 10
80.38633232989218
 20
19.34550957842543
 30
0.0
 11
78.69490729333825
 21
19.34550957842543
 31
0.0
  0
LINE
  5
19DB
330
1989
100
AcDbEntity
  8
0
 62
    20
100
AcDbLine
 10
77.00348225678431
 20
19.34550957842543
 30
0.0
 11
77.00348225678431
 21
16.80837202359453
 31
0.0
  0
LINE
  5
19DC
330
1989
100
AcDbEntity
  8
0
 62
    20
100
AcDbLine
 10
78.69490729333825
 20
19.34550957842543
 30
0.0
 11
78.69490729333825
 21
15.11694698704047
 31
0.0
  0
LINE
  5
19DD
330
1989
100
AcDbEntity
  8
0
 62
    20
100
AcDbLine
 10
77.00348225678431
 20
23.57407216981039
 30
0.0
 11
77.00348225678431
 21
21.03693461497948
 31
0.0
  0
LINE
  5
19DE
330
1989
100
AcDbEntity
  8
0
 62
    20
100
AcDbLine
 10
78.69490729333825
 20
25.26549720636444
 30
0.0
 11
78.69490729333825
 21
21.03693461497948
 31
0.0
  0
LINE
  5
19DF
330
1989
100
AcDbEntity
  8
0
 62
    20
100
AcDbLine
 10
80.38633232989218
 20
21.03693461497948
 30
0.0
 11
78.69490729333825
 21
21.03693461497948
 31
0.0
  0
SOLID
  5
19E0
330
1989
100
AcDbEntity
  8
0
 62
    20
100
AcDbTrace
 10
80.38633232989218
 20
13.42552195048654
 30
0.0
 11
81.23204484816927
 21
12.57980943220957
 31
0.0
 12
82.07775736644624
 22
13.42552195048654
 32
0.0
 13
82.07775736644624
 23
13.42552195048654
 33
0.0
  0
LINE
  5
19E1
330
1989
100
AcDbEntity
  8
0
 62
    20
100
AcDbLine
 10
76.70151167574772
 20
15.66068892427438
 30
0.0
 11
80.87680734254092
 21
11.48539325749436
 31
0.0
  0
LINE
  5
19E2
330
1989
100
AcDbEntity
  8
0
 62
    20
100
AcDbLine
 10
85.76257802059728
 20
15.66068892427438
 30
0.0
 11
81.58728235380408
 21
11.48539325749436
 31
0.0
  0
LINE
  5
19E3
330
1989
100
AcDbEntity
  8
0
 62
    20
100
AcDbLine
 10
87.15203247610816
 20
21.88264713325645
 30
0.0
 11
87.15203247610816
 21
18.49979706014846
 31
0.0
  0
SOLID
  5
19E4
330
1989
100
AcDbEntity
  8
0
 62
    20
100
AcDbTrace
 10
87.15203247610816
 20
21.88264713325645
 30
0.0
 11
87.15203247610816
 21
18.49979706014846
 31
0.0
 12
88.84345751266222
 22
20.19122209670251
 32
0.0
 13
88.84345751266222
 23
20.19122209670251
 33
0.0
  0
LWPOLYLINE
  5
19E5
330
1989
100
AcDbEntity
  8
0
 62
    20
100
AcDbPolyline
 90
        3
 70
     0
 43
0.0
 10
87.15203247610819
 20
21.88264713325645
 10
88.84345751266224
 20
20.19122209670251
 10
87.15203247610819
 20
18.49979706014846
  0
SOLID
  5
19E6
330
1989
100
AcDbEntity
  8
0
 62
    20
100
AcDbTrace
 10
74.46634470195329
 20
19.34550957842543
 30
0.0
 11
73.62063218367632
 21
20.19122209670251
 31
0.0
 12
74.46634470195329
 22
21.03693461497948
 32
0.0
 13
74.46634470195329
 23
21.03693461497948
 33
0.0
  0
LINE
  5
19E7
330
1989
100
AcDbEntity
  8
0
 62
    20
100
AcDbLine
 10
72.52621600895463
 20
20.54645960235052
 30
0.0
 11
76.70151167574772
 21
24.72175526913054
 31
0.0
  0
LINE
  5
19E8
330
1989
100
AcDbEntity
  8
0
 62
    20
100
AcDbLine
 10
72.52621600895463
 20
19.83598459108065
 30
0.0
 11
76.70151167574772
 21
15.66068892427438
 31
0.0
  0
SOLID
  5
19E9
330
1989
100
AcDbEntity
  8
0
 62
    20
100
AcDbTrace
 10
74.46634470195329
 20
19.34550957842543
 30
0.0
 11
74.46634470195329
 21
21.03693461497948
 31
0.0
 12
80.38633232989218
 22
19.34550957842543
 32
0.0
 13
80.38633232989218
 23
21.03693461497948
 33
0.0
  0
LINE
  5
19EA
330
1989
100
AcDbEntity
  8
0
 62
    20
100
AcDbLine
 10
77.00348225678431
 20
19.34550957842543
 30
0.0
 11
74.46634470195329
 21
19.34550957842543
 31
0.0
  0
LINE
  5
19EB
330
1989
100
AcDbEntity
  8
0
 62
    20
100
AcDbLine
 10
77.00348225678431
 20
21.03693461497948
 30
0.0
 11
74.46634470195329
 21
21.03693461497948
 31
0.0
  0
SOLID
  5
19EC
330
1989
100
AcDbEntity
  8
0
 62
    20
100
AcDbTrace
 10
77.64147683736405
 20
26.63778173242042
 30
0.0
 11
74.78548521246432
 21
23.78179010750113
 31
0.0
 12
76.14994454531052
 22
25.27332239956774
 32
0.0
 13
76.14994454531052
 23
25.27332239956774
 33
0.0
  0
SOLID
  5
19ED
330
1989
100
AcDbEntity
  8
0
 62
    20
100
AcDbTrace
 10
79.32880999823623
 20
12.46233651716863
 30
0.0
 11
77.64147683736405
 21
13.74466246101076
 31
0.0
 12
73.5031592686289
 22
18.28798724676948
 32
0.0
 13
74.78548521246432
 23
16.60065408590389
 33
0.0
  0
ARC
  5
19EE
330
1989
100
AcDbEntity
  8
0
 62
    20
100
AcDbCircle
 10
92.22896668579336
 20
31.18814393432001
 30
0.0
 40
22.73917118077035
100
AcDbArc
 50
209.9493113883173
 51
240.0506886116737
  0
SOLID
  5
19EF
330
1989
100
AcDbEntity
  8
0
 62
    20
100
AcDbTrace
 10
80.87680734254092
 20
11.48539325749436
 30
0.0
 11
72.52621600895463
 21
19.83598459108065
 31
0.0
 12
79.32880999823623
 22
12.46233651716863
 32
0.0
 13
73.5031592686289
 23
18.28798724676948
 33
0.0
  0
SOLID
  5
19F0
330
1989
100
AcDbEntity
  8
0
 62
    20
100
AcDbTrace
 10
77.64147683736405
 20
13.74466246101076
 30
0.0
 11
74.78548521246432
 21
16.60065408590389
 31
0.0
 12
76.14994454531052
 22
15.10912179383717
 32
0.0
 13
76.14994454531052
 23
15.10912179383717
 33
0.0
  0
SOLID
  5
19F1
330
1989
100
AcDbEntity
  8
0
 62
    20
100
AcDbTrace
 10
80.87680734254092
 20
28.89705093593681
 30
0.0
 11
72.52621600895463
 21
20.54645960235052
 31
0.0
 12
79.32880999823623
 22
27.92010767626254
 32
0.0
 13
73.5031592686289
 23
22.09445694663543
 33
0.0
  0
ARC
  5
19F2
330
1989
100
AcDbEntity
  8
0
 62
    20
100
AcDbCircle
 10
92.22896668579336
 20
9.194300259084911
 30
0.0
 40
22.73917118077035
100
AcDbArc
 50
119.9493113883262
 51
150.0506886116825
  0
SOLID
  5
19F3
330
1989
100
AcDbEntity
  8
0
 62
    20
100
AcDbTrace
 10
79.32880999823623
 20
27.92010767626254
 30
0.0
 11
77.64147683736405
 21
26.63778173242042
 31
0.0
 12
73.5031592686289
 22
22.09445694663543
 32
0.0
 13
74.78548521246432
 23
23.78179010750113
 33
0.0
  0
LINE
  5
19F4
330
1989
100
AcDbEntity
  8
0
 62
    20
100
AcDbLine
 10
76.70151167574772
 20
24.72175526913054
 30
0.0
 11
80.87680734254092
 21
28.89705093593681
 31
0.0
  0
LINE
  5
19F5
330
1989
100
AcDbEntity
  8
0
 62
    20
100
AcDbLine
 10
85.76257802059728
 20
24.72175526913054
 30
0.0
 11
81.58728235380408
 21
28.89705093593681
 31
0.0
  0
ARC
  5
19F6
330
1989
100
AcDbEntity
  8
0
 62
    20
100
AcDbCircle
 10
70.23512301054518
 20
9.194300259084911
 30
0.0
 40
22.73917118077035
100
AcDbArc
 50
29.94931138831741
 51
60.05068861167372
  0
SOLID
  5
19F7
330
1989
100
AcDbEntity
  8
0
 62
    20
100
AcDbTrace
 10
81.5872823537976
 20
28.89705093593681
 30
0.0
 11
89.9378736873839
 21
20.54645960235052
 31
0.0
 12
83.13527969810877
 22
27.92010767626254
 32
0.0
 13
88.96093042770962
 23
22.09445694663543
 33
0.0
  0
SOLID
  5
19F8
330
1989
100
AcDbEntity
  8
0
 62
    20
100
AcDbTrace
 10
83.13527969810877
 20
27.92010767626254
 30
0.0
 11
84.82261285897436
 21
26.63778173242042
 31
0.0
 12
88.96093042770962
 22
22.09445694663543
 32
0.0
 13
87.67860448387409
 23
23.78179010750113
 33
0.0
  0
SOLID
  5
19F9
330
1989
100
AcDbEntity
  8
0
 62
    20
100
AcDbTrace
 10
80.38633232989218
 20
26.95692224291838
 30
0.0
 11
81.23204484816927
 21
27.80263476119535
 31
0.0
 12
82.07775736644624
 22
26.95692224291838
 32
0.0
 13
82.07775736644624
 23
26.95692224291838
 33
0.0
  0
TEXT
  5
19FA
330
1989
100
AcDbEntity
  8
0
 62
     7
100
AcDbText
 10
34.27169612140551
 20
18.16055230846541
 30
0.0
 40
4.683345246604926
  1
Ajuntament
  7
ARIAL
100
AcDbText
  0
TEXT
  5
19FB
330
1989
100
AcDbEntity
  8
0
 62
     7
100
AcDbText
 10
55.24825961671138
 20
6.322181132063292
 30
0.0
 40
3.746676197283941
  1
Manteniment i Serveis
  7
ARIAL
 72
     1
 11
81.13891665394532
 21
6.322181132063292
 31
0.0
100
AcDbText
  0
LINE
  5
19FC
330
1989
100
AcDbEntity
  8
0
 62
    11
100
AcDbLine
 10
140.8440050651869
 20
32.24901250181074
 30
0.0
 11
140.8440050651869
 21
2.66533630453955
 31
0.0
  0
LINE
  5
19FD
330
1989
100
AcDbEntity
  8
0
100
AcDbLine
 10
442.6139094569747
 20
2.665336304539664
 30
0.0
 11
442.6139094569747
 21
-7.296329705648986
 31
0.0
  0
LINE
  5
19FE
330
1989
100
AcDbEntity
  8
0
100
AcDbLine
 10
630.6139094569747
 20
2.665336304539664
 30
0.0
 11
630.6139094569747
 21
-7.296329705648986
 31
0.0
  0
TEXT
  5
19FF
330
1989
100
AcDbEntity
  8
0
 62
     4
100
AcDbText
 10
577.7383923256453
 20
13.78436284572058
 30
0.0
 40
2.0
  1
0
 41
0.8
 72
     1
 11
578.5002970875502
 21
13.78436284572058
 31
0.0
100
AcDbText
  0
LINE
  5
1A00
330
1989
100
AcDbEntity
  8
0
 62
     8
100
AcDbLine
 10
578.527347897519
 20
12.11926140951845
 30
0.0
 11
618.527347897519
 21
12.11926140951845
 31
0.0
  0
LINE
  5
1A01
330
1989
100
AcDbEntity
  8
0
 62
     8
100
AcDbLine
 10
578.527347897519
 20
10.61926140951845
 30
0.0
 11
618.527347897519
 21
10.61926140951845
 31
0.0
  0
LINE
  5
1A02
330
1989
100
AcDbEntity
  8
0
 62
     8
100
AcDbLine
 10
578.527347897519
 20
9.119261409518458
 30
0.0
 11
618.527347897519
 21
9.119261409518458
 31
0.0
  0
LINE
  5
1A03
330
1989
100
AcDbEntity
  8
0
 62
     8
100
AcDbLine
 10
578.527347897519
 20
13.12458329532785
 30
0.0
 11
578.527347897519
 21
8.11393952370895
 31
0.0
  0
LINE
  5
1A04
330
1989
100
AcDbEntity
  8
0
 62
     8
100
AcDbLine
 10
588.5273478975189
 20
13.12458329532785
 30
0.0
 11
588.5273478975189
 21
8.11393952370895
 31
0.0
  0
LINE
  5
1A05
330
1989
100
AcDbEntity
  8
0
 62
     8
100
AcDbLine
 10
598.527347897519
 20
13.12458329532785
 30
0.0
 11
598.527347897519
 21
8.11393952370895
 31
0.0
  0
LINE
  5
1A06
330
1989
100
AcDbEntity
  8
0
 62
     8
100
AcDbLine
 10
608.527347897519
 20
13.12458329532785
 30
0.0
 11
608.527347897519
 21
8.11393952370895
 31
0.0
  0
HATCH
  5
1A07
330
1989
100
AcDbEntity
  8
0
 62
     8
100
AcDbHatch
 10
0.0
 20
0.0
 30
0.0
210
0.0
220
0.0
230
1.0
  2
SOLID
 70
     1
 71
     0
 91
        1
 92
        7
 72
     0
 73
     1
 93
        4
 10
608.527347897519
 20
10.61926140951845
 10
608.527347897519
 20
9.119261409518458
 10
618.527347897519
 20
9.119261409518458
 10
618.527347897519
 20
10.61926140951845
 97
        0
 75
     0
 76
     1
 47
0.1403315005544605
 98
        1
 10
614.086688421495
 20
9.958542124004793
  0
LINE
  5
1A08
330
1989
100
AcDbEntity
  8
0
 62
     8
100
AcDbLine
 10
618.527347897519
 20
13.12458329532785
 30
0.0
 11
618.527347897519
 21
8.11393952370895
 31
0.0
  0
HATCH
  5
1A09
330
1989
100
AcDbEntity
  8
0
 62
     8
100
AcDbHatch
 10
0.0
 20
0.0
 30
0.0
210
0.0
220
0.0
230
1.0
  2
SOLID
 70
     1
 71
     0
 91
        1
 92
        7
 72
     0
 73
     1
 93
        4
 10
598.527347897519
 20
12.11926140951845
 10
598.527347897519
 20
10.61926140951845
 10
608.527347897519
 20
10.61926140951845
 10
608.527347897519
 20
12.11926140951845
 97
        0
 75
     0
 76
     1
 47
0.1403315005544605
 98
        1
 10
604.086688421495
 20
11.45854212400479
  0
HATCH
  5
1A0A
330
1989
100
AcDbEntity
  8
0
 62
     8
100
AcDbHatch
 10
0.0
 20
0.0
 30
0.0
210
0.0
220
0.0
230
1.0
  2
SOLID
 70
     1
 71
     0
 91
        1
 92
        7
 72
     0
 73
     1
 93
        4
 10
588.5273478975189
 20
10.61926140951845
 10
588.5273478975189
 20
9.119261409518458
 10
598.527347897519
 20
9.119261409518458
 10
598.527347897519
 20
10.61926140951845
 97
        0
 75
     0
 76
     1
 47
0.1403315005544605
 98
        1
 10
594.086688421495
 20
9.958542124004793
  0
HATCH
  5
1A0B
330
1989
100
AcDbEntity
  8
0
 62
     8
100
AcDbHatch
 10
0.0
 20
0.0
 30
0.0
210
0.0
220
0.0
230
1.0
  2
SOLID
 70
     1
 71
     0
 91
        1
 92
        7
 72
     0
 73
     1
 93
        4
 10
578.527347897519
 20
12.11926140951845
 10
578.527347897519
 20
10.61926140951845
 10
588.5273478975189
 20
10.61926140951845
 10
588.5273478975189
 20
12.11926140951845
 97
        0
 75
     0
 76
     1
 47
0.1403315005544605
 98
        1
 10
584.0866884214951
 20
11.45854212400479
  0
MTEXT
  5
1A0C
330
1989
100
AcDbEntity
  8
0
 62
     7
100
AcDbMText
 10
547.7728852026809
 20
15.33913516455474
 30
0.0
 40
2.299999999999999
 41
0.0
 71
     5
 72
     5
  1
XXXXXXX\P2002
  7
ROMANS
1001
ACAD
1000
MTEXTBEGIN
1070
    73
1070
     1
1070
    44
1040
2.0
1070
    74
1070
     0
1000
MTEXTEND
  0
TEXT
  5
1A0D
330
1989
100
AcDbEntity
  8
0
 62
     4
100
AcDbText
 10
394.7547398893881
 20
4.68431063870716
 30
0.0
 40
1.612499999999999
  1
Xxxxxxx  xx xxxxx, xxxxx x xxxxxx
 51
15.0
  7
ROMANS
100
AcDbText
  0
TEXT
  5
1A0E
330
1989
100
AcDbEntity
  8
0
 62
     4
100
AcDbText
 10
394.9455922471187
 20
9.826205326450654
 30
0.0
 40
2.149999999999999
  1
xxxxxx  XXXXX    XXXXXX
  7
ROMANS
100
AcDbText
  0
TEXT
  5
1A0F
330
1989
100
AcDbEntity
  8
0
 62
     4
100
AcDbText
 10
444.4331798602942
 20
9.826205326450768
 30
0.0
 40
2.149999999999999
  1
xxxxxx  XXXXX    XXXXXX
  7
ROMANS
100
AcDbText
  0
TEXT
  5
1A10
330
1989
100
AcDbEntity
  8
0
 62
     4
100
AcDbText
 10
444.2423275025636
 20
4.684310638707273
 30
0.0
 40
1.612499999999999
  1
Xxxxxxx  xx xxxxx, xxxxx x xxxxxx
 51
15.0
  7
ROMANS
100
AcDbText
  0
ENDBLK
  5
1A12
330
1989
100
AcDbEntity
  8
0
100
AcDbBlockEnd
  0
ENDSEC
  0
SECTION
  2
ENTITIES
  0
TEXT
  5
419
330
39C
100
AcDbEntity
  8
0
100
AcDbText
 10
321.773149
 20
42.309482
 30
0.0
 40
0.3
  1
TIPUS   NT582
  7
ROMANC
100
AcDbText
  0
TEXT
  5
41A
330
39C
100
AcDbEntity
  8
0
100
AcDbText
 10
321.735227
 20
40.527599
 30
0.0
 40
0.3
  1
P = 97,3 dm
  7
ROMANC
100
AcDbText
  0
TEXT
  5
41B
330
39C
100
AcDbEntity
  8
0
100
AcDbText
 10
321.786243
 20
41.22517799999999
 30
0.0
 40
0.3
  1
S = 582 dm
  7
ROMANC
100
AcDbText
  0
TEXT
  5
41C
330
39C
100
AcDbEntity
  8
0
100
AcDbText
 10
321.773149
 20
41.823768
 30
0.0
 40
0.3
  1
ESCALA  1:50
  7
ROMANC
100
AcDbText
  0
TEXT
  5
41D
330
39C
100
AcDbEntity
  8
0
100
AcDbText
 10
324.991178
 20
41.531094
 30
0.0
 40
0.1
  1
2
  7
ROMANC
100
AcDbText
  0
LINE
  5
43E
330
39C
100
AcDbEntity
  8
0
  6
BYBLOCK
 62
     0
100
AcDbLine
 10
324.2216079999999
 20
35.48491277414179
 30
0.0
 11
325.6992419999999
 21
35.48491277414179
 31
0.0
  0
LINE
  5
43F
330
39C
100
AcDbEntity
  8
0
  6
BYBLOCK
 62
     0
100
AcDbLine
 10
323.521608
 20
34.88491277414179
 30
0.0
 11
325.6992419999999
 21
34.88491277414179
 31
0.0
  0
POINT
  5
444
330
39C
100
AcDbEntity
  8
DEFPOINTS
  6
BYBLOCK
 62
     0
100
AcDbPoint
 10
324.206608
 20
35.48491277414179
 30
0.0
  0
POINT
  5
445
330
39C
100
AcDbEntity
  8
DEFPOINTS
  6
BYBLOCK
 62
     0
100
AcDbPoint
 10
323.506608
 20
34.88491277414179
 30
0.0
  0
POINT
  5
44D
330
39C
100
AcDbEntity
  8
DEFPOINTS
  6
BYBLOCK
 62
     0
100
AcDbPoint
 10
323.506608
 20
36.88491277414179
 30
0.0
  0
POINT
  5
44E
330
39C
100
AcDbEntity
  8
DEFPOINTS
  6
BYBLOCK
 62
     0
100
AcDbPoint
 10
323.506608
 20
34.88491277414179
 30
0.0
  0
LINE
  5
459
330
39C
100
AcDbEntity
  8
0
  6
BYBLOCK
 62
     0
100
AcDbLine
 10
324.2216079999999
 20
34.9849127741418
 30
0.0
 11
325.3803399999999
 21
34.9849127741418
 31
0.0
  0
POINT
  5
45F
330
39C
100
AcDbEntity
  8
DEFPOINTS
  6
BYBLOCK
 62
     0
100
AcDbPoint
 10
324.206608
 20
34.9849127741418
 30
0.0
  0
POINT
  5
468
330
39C
100
AcDbEntity
  8
DEFPOINTS
  6
BYBLOCK
 62
     0
100
AcDbPoint
 10
322.006608
 20
35.48491277414179
 30
0.0
  0
LINE
  5
46C
330
39C
100
AcDbEntity
  8
0
  6
BYBLOCK
 62
     0
100
AcDbLine
 10
322.006608
 20
35.46991277414179
 30
0.0
 11
322.006608
 21
34.56780977414179
 31
0.0
  0
POINT
  5
471
330
39C
100
AcDbEntity
  8
DEFPOINTS
  6
BYBLOCK
 62
     0
100
AcDbPoint
 10
322.806608
 20
34.9849127741418
 30
0.0
  0
POINT
  5
472
330
39C
100
AcDbEntity
  8
DEFPOINTS
  6
BYBLOCK
 62
     0
100
AcDbPoint
 10
322.006608
 20
35.48491277414179
 30
0.0
  0
LINE
  5
475
330
39C
100
AcDbEntity
  8
0
  6
BYBLOCK
 62
     0
100
AcDbLine
 10
325.006608
 20
35.46991277414179
 30
0.0
 11
325.006608
 21
34.56780977414179
 31
0.0
  0
POINT
  5
47A
330
39C
100
AcDbEntity
  8
DEFPOINTS
  6
BYBLOCK
 62
     0
100
AcDbPoint
 10
324.206608
 20
34.9699127741418
 30
0.0
  0
POINT
  5
483
330
39C
100
AcDbEntity
  8
DEFPOINTS
  6
BYBLOCK
 62
     0
100
AcDbPoint
 10
322.806608
 20
34.9849127741418
 30
0.0
  0
POINT
  5
484
330
39C
100
AcDbEntity
  8
DEFPOINTS
  6
BYBLOCK
 62
     0
100
AcDbPoint
 10
324.206608
 20
34.9849127741418
 30
0.0
  0
DIMENSION
  5
48E
330
39C
100
AcDbEntity
  8
0
100
AcDbDimension
  2
*D11
 10
325.9765571815807
 20
34.88491277414179
 30
0.0
 11
325.9765571815807
 21
36.18491277414185
 31
0.0
 70
    32
  3
ACOTA_50
100
AcDbAlignedDimension
 13
323.506608
 23
37.48491277414181
 33
0.0
 14
323.506608
 24
34.88491277414179
 34
0.0
 50
90.0
100
AcDbRotatedDimension
  0
DIMENSION
  5
4A6
330
39C
100
AcDbEntity
  8
0
100
AcDbDimension
  2
*D12
 10
325.006608
 20
36.08491277414179
 30
0.0
 11
323.506608
 21
36.08491277414179
 31
0.0
 70
    32
  3
ACOTA_50
100
AcDbAlignedDimension
 13
322.006608
 23
36.08491277414179
 33
0.0
 14
325.006608
 24
36.08491277414179
 34
0.0
100
AcDbRotatedDimension
  0
DIMENSION
  5
4C5
330
39C
100
AcDbEntity
  8
0
100
AcDbDimension
  2
*D13
 10
325.006608
 20
34.13553029334321
 30
0.0
 11
323.506608
 21
34.13553029334321
 31
0.0
 70
    32
  3
ACOTA_50
100
AcDbAlignedDimension
 13
322.006608
 23
35.48491277414179
 33
0.0
 14
325.006608
 24
35.46991277414179
 34
0.0
100
AcDbRotatedDimension
  0
DIMENSION
  5
4D2
330
39C
100
AcDbEntity
  8
0
100
AcDbDimension
  2
*D14
 10
322.806608
 20
34.45074783599867
 30
0.0
 11
322.406608
 21
34.45074783599867
 31
0.0
 70
    32
  3
ACOTA_50
100
AcDbAlignedDimension
 13
322.006608
 23
35.48491277414179
 33
0.0
 14
322.806608
 24
35.48491277414179
 34
0.0
100
AcDbRotatedDimension
  0
DIMENSION
  5
4DF
330
39C
100
AcDbEntity
  8
0
100
AcDbDimension
  2
*D15
 10
324.206608
 20
34.45074783599867
 30
0.0
 11
323.506608
 21
34.45074783599867
 31
0.0
 70
    32
  3
ACOTA_50
100
AcDbAlignedDimension
 13
322.806608
 23
35.48491277414179
 33
0.0
 14
324.206608
 24
35.31043205897558
 34
0.0
100
AcDbRotatedDimension
  0
DIMENSION
  5
4EC
330
39C
100
AcDbEntity
  8
0
100
AcDbDimension
  2
*D16
 10
325.006608
 20
34.45074783599867
 30
0.0
 11
324.606608
 21
34.45074783599867
 31
0.0
 70
    32
  3
ACOTA_50
100
AcDbAlignedDimension
 13
324.206608
 23
35.31043205897558
 33
0.0
 14
325.006608
 24
35.48491277414179
 34
0.0
100
AcDbRotatedDimension
  0
DIMENSION
  5
4F9
330
39C
100
AcDbEntity
  8
0
100
AcDbDimension
  2
*D17
 10
325.6898892500009
 20
35.48491277414179
 30
0.0
 11
325.6898892500009
 21
35.18491277414184
 31
0.0
 70
    32
  3
ACOTA_50
100
AcDbAlignedDimension
 13
323.521608
 23
34.88491277414179
 33
0.0
 14
324.206608
 24
35.48491277414179
 34
0.0
 50
90.0
100
AcDbRotatedDimension
  0
DIMENSION
  5
506
330
39C
100
AcDbEntity
  8
0
100
AcDbDimension
  2
*D18
 10
325.36534
 20
35.48491277414179
 30
0.0
 11
325.36534
 21
35.23491277414184
 31
0.0
 70
    32
  3
ACOTA_50
100
AcDbAlignedDimension
 13
325.006608
 23
34.9849127741418
 33
0.0
 14
325.006608
 24
35.48491277414179
 34
0.0
 50
90.0
100
AcDbRotatedDimension
  0
DIMENSION
  5
513
330
39C
100
AcDbEntity
  8
0
100
AcDbDimension
  2
*D19
 10
325.36534
 20
36.08491277414179
 30
0.0
 11
325.36534
 21
35.78491277414184
 31
0.0
 70
    32
  3
ACOTA_50
100
AcDbAlignedDimension
 13
325.006608
 23
35.48491277414179
 33
0.0
 14
325.006608
 24
36.08491277414179
 34
0.0
 50
90.0
100
AcDbRotatedDimension
  0
LWPOLYLINE
  5
6BA
330
39C
100
AcDbEntity
  8
0
100
AcDbPolyline
 90
        8
 70
     1
 43
0.0
 10
324.206608
 20
34.9849127741418
 10
324.206608
 20
35.48491277414179
 10
325.006608
 20
35.48491277414179
 10
325.006608
 20
36.08491277414179
 42
0.933333333333347
 10
322.006608
 20
36.08491277414179
 10
322.006608
 20
35.48491277414179
 10
322.806608
 20
35.48491277414179
 10
322.806608
 20
34.9849127741418
 42
0.1283691227064103
  0
LWPOLYLINE
  5
6BB
330
39C
100
AcDbEntity
  8
0
100
AcDbPolyline
 90
        8
 70
     1
 43
0.0
 10
324.216608
 20
34.97719917198325
 10
324.216608
 20
35.4749127741418
 10
325.016608
 20
35.4749127741418
 10
325.016608
 20
36.08525702960209
 42
0.9335468506885609
 10
321.996608
 20
36.08525702960209
 10
321.996608
 20
35.4749127741418
 10
322.7966079999999
 20
35.4749127741418
 10
322.7966079999999
 20
34.97719917198326
 42
0.129781385543599
  0
LWPOLYLINE
  5
6BC
330
39C
100
AcDbEntity
  8
0
100
AcDbPolyline
 90
        8
 70
     1
 43
0.0
 10
324.226608
 20
34.96950763125325
 10
324.226608
 20
35.4649127741418
 10
325.026608
 20
35.4649127741418
 10
325.026608
 20
36.08560014836053
 42
0.9337583064350594
 10
321.986608
 20
36.08560014836053
 10
321.986608
 20
35.4649127741418
 10
322.786608
 20
35.4649127741418
 10
322.786608
 20
34.96950763125327
 42
0.1311850597304953
  0
LWPOLYLINE
  5
1AC2
330
39C
100
AcDbEntity
  8
FULLS
100
AcDbPolyline
 90
        4
 70
     1
 43
0.0
 10
329.348696
 20
44.713623
 10
318.848696
 20
44.713623
 10
318.848696
 20
29.86362299999999
 10
329.348696
 20
29.86362299999999
  0
ENDSEC
  0
SECTION
  2
OBJECTS
  0
DICTIONARY
  5
38A
330
0
100
AcDbDictionary
  3
ACAD_GROUP
350
38B
  3
ACAD_PLOTSTYLENAME
350
38C
  3
ACAD_MLINESTYLE
350
394
  3
ACAD_PLOTSETTINGS
350
396
  3
ACAD_LAYOUT
350
397
  3
ACAD_IMAGE_DICT
350
1A5F
  3
ACDBHEADERROUNDTRIPXREC
350
1AC4
  0
DICTIONARY
  5
81E
330
380
100
AcDbDictionary
280
     1
  3
ACAD_LAYERFILTERS
360
81F
  0
DICTIONARY
  5
1AE7
330
39C
100
AcDbDictionary
280
     1
  3
ACAD_LAYOUTSELFREF
360
1AE8
  0
DICTIONARY
  5
1AE5
330
398
100
AcDbDictionary
280
     1
  3
ACAD_LAYOUTSELFREF
360
1AE6
  0
DICTIONARY
  5
38B
102
{ACAD_REACTORS
330
38A
102
}
330
38A
100
AcDbDictionary
  0
ACDBDICTIONARYWDFLT
  5
38C
102
{ACAD_REACTORS
330
38A
102
}
330
38A
100
AcDbDictionary
281
     1
  3
Normal
350
38D
100
AcDbDictionaryWithDefault
340
38D
  0
DICTIONARY
  5
394
102
{ACAD_REACTORS
330
38A
102
}
330
38A
100
AcDbDictionary
  3
STANDARD
350
395
  0
DICTIONARY
  5
396
102
{ACAD_REACTORS
330
38A
102
}
330
38A
100
AcDbDictionary
  0
DICTIONARY
  5
397
102
{ACAD_REACTORS
330
38A
102
}
330
38A
100
AcDbDictionary
  0
DICTIONARY
  5
1A5F
102
{ACAD_REACTORS
330
38A
102
}
330
38A
100
AcDbDictionary
  3
CLABSA_COL_PRIM$0$LOGO_WELCOME
350
1A60
  0
DICTIONARY
  5
1AC4
102
{ACAD_REACTORS
330
38A
102
}
330
38A
100
AcDbDictionary
  3
TSTACKALIGN
350
1AC5
  3
TSTACKSIZE
350
1AC6
  3
HYPERLINKBASE
350
1AC7
  3
STYLESHEET
350
1AC8
  3
LAYOUTDICT
350
1AC9
  3
PLOTSETDICT
350
1ACA
  3
PLOTSTYLNAMDICT
350
1ACB
  3
LWETCUNION
350
1ACC
  3
INSUNITS
350
1ACD
  3
CEPSNTYPE
350
1ACE
  3
FINGERPRINTGUID
350
1ACF
  3
VERSIONGUID
350
1AD0
  3
PSVPSCALE
350
1AD1
  3
DIMSTYLEDATA
350
1AD2
  3
PUCSORTHOREF
350
1AD3
  3
PUCSORTHOVIEW
350
1AD4
  3
PUCSBASE
350
1AD5
  3
PUCSORGTOP
350
1AD6
  3
PUCSORGBOTTOM
350
1AD7
  3
PUCSORGLEFT
350
1AD8
  3
PUCSORGRIGHT
350
1AD9
  3
PUCSORGFRONT
350
1ADA
  3
PUCSORGBACK
350
1ADB
  3
UCSORTHOREF
350
1ADC
  3
UCSORTHOVIEW
350
1ADD
  3
UCSBASE
350
1ADE
  3
UCSORGTOP
350
1ADF
  3
UCSORGBOTTOM
350
1AE0
  3
UCSORGLEFT
350
1AE1
  3
UCSORGRIGHT
350
1AE2
  3
UCSORGFRONT
350
1AE3
  3
UCSORGBACK
350
1AE4
  0
DICTIONARY
  5
81F
102
{ACAD_REACTORS
330
81E
102
}
330
81E
100
AcDbDictionary
280
     1
  3
L
360
820
  3
N
360
821
  3
N-CLAV
360
822
  3
OBRA_SINGULAR
360
823
  0
XRECORD
  5
1AE8
102
{ACAD_REACTORS
330
1AE7
102
}
330
1AE7
100
AcDbXrecord
340
39C
  0
XRECORD
  5
1AE6
102
{ACAD_REACTORS
330
1AE5
102
}
330
1AE5
100
AcDbXrecord
340
398
  0
ACDBPLACEHOLDER
  5
38D
102
{ACAD_REACTORS
330
38C
102
}
330
38C
100
AcDbPlaceHolder
280
     0
  0
MLINESTYLE
  5
395
102
{ACAD_REACTORS
330
394
102
}
330
394
100
AcDbMlineStyle
  2
STANDARD
 70
     0
  3

 62
   256
 51
90.0
 52
90.0
 71
     2
 49
0.5
 62
   256
  6
BYLAYER
 49
-0.5
 62
   256
  6
BYLAYER
  0
IMAGEDEF
  5
1A60
102
{ACAD_REACTORS
330
1A5F
102
}
330
1A5F
100
AcDbRasterImageDef
 90
        0
  1
X:\P99234 Projecte IZF\Planos\logos\logo_welcome.jpg
 10
114.0
 20
112.0
 11
0.0087719298245614
 21
0.0087719298245614
280
     1
281
     0
  0
XRECORD
  5
1AC5
102
{ACAD_REACTORS
330
1AC4
102
}
330
1AC4
100
AcDbXrecord
 90
        1
  0
XRECORD
  5
1AC6
102
{ACAD_REACTORS
330
1AC4
102
}
330
1AC4
100
AcDbXrecord
 90
       70
  0
XRECORD
  5
1AC7
102
{ACAD_REACTORS
330
1AC4
102
}
330
1AC4
100
AcDbXrecord
  1

  0
XRECORD
  5
1AC8
102
{ACAD_REACTORS
330
1AC4
102
}
330
1AC4
100
AcDbXrecord
  1
Blanc i negre.ctb
  0
XRECORD
  5
1AC9
102
{ACAD_REACTORS
330
1AC4
102
}
330
1AC4
100
AcDbXrecord
340
397
  0
XRECORD
  5
1ACA
102
{ACAD_REACTORS
330
1AC4
102
}
330
1AC4
100
AcDbXrecord
340
396
  0
XRECORD
  5
1ACB
102
{ACAD_REACTORS
330
1AC4
102
}
330
1AC4
100
AcDbXrecord
340
38C
  0
XRECORD
  5
1ACC
102
{ACAD_REACTORS
330
1AC4
102
}
330
1AC4
100
AcDbXrecord
 90
    10781
  0
XRECORD
  5
1ACD
102
{ACAD_REACTORS
330
1AC4
102
}
330
1AC4
100
AcDbXrecord
 90
        0
  0
XRECORD
  5
1ACE
102
{ACAD_REACTORS
330
1AC4
102
}
330
1AC4
100
AcDbXrecord
 90
        0
  0
XRECORD
  5
1ACF
102
{ACAD_REACTORS
330
1AC4
102
}
330
1AC4
100
AcDbXrecord
  1
{DB9BD7DD-163F-4E4A-AD3F-28E1C4B3B2D9}
  0
XRECORD
  5
1AD0
102
{ACAD_REACTORS
330
1AC4
102
}
330
1AC4
100
AcDbXrecord
  1
{29D50258-0D62-41BD-9EB2-EBB6B23CAACC}
  0
XRECORD
  5
1AD1
102
{ACAD_REACTORS
330
1AC4
102
}
330
1AC4
100
AcDbXrecord
 40
0.0
  0
XRECORD
  5
1AD2
102
{ACAD_REACTORS
330
1AC4
102
}
330
1AC4
100
AcDbXrecord
1000
DSTYLE
1002
{
1070
   278
 70
    44
1002
}
  0
XRECORD
  5
1AD3
102
{ACAD_REACTORS
330
1AC4
102
}
330
1AC4
100
AcDbXrecord
340
0
  0
XRECORD
  5
1AD4
102
{ACAD_REACTORS
330
1AC4
102
}
330
1AC4
100
AcDbXrecord
 70
     0
  0
XRECORD
  5
1AD5
102
{ACAD_REACTORS
330
1AC4
102
}
330
1AC4
100
AcDbXrecord
340
0
  0
XRECORD
  5
1AD6
102
{ACAD_REACTORS
330
1AC4
102
}
330
1AC4
100
AcDbXrecord
 10
0.0
 20
0.0
 30
0.0
  0
XRECORD
  5
1AD7
102
{ACAD_REACTORS
330
1AC4
102
}
330
1AC4
100
AcDbXrecord
 10
0.0
 20
0.0
 30
0.0
  0
XRECORD
  5
1AD8
102
{ACAD_REACTORS
330
1AC4
102
}
330
1AC4
100
AcDbXrecord
 10
0.0
 20
0.0
 30
0.0
  0
XRECORD
  5
1AD9
102
{ACAD_REACTORS
330
1AC4
102
}
330
1AC4
100
AcDbXrecord
 10
0.0
 20
0.0
 30
0.0
  0
XRECORD
  5
1ADA
102
{ACAD_REACTORS
330
1AC4
102
}
330
1AC4
100
AcDbXrecord
 10
0.0
 20
0.0
 30
0.0
  0
XRECORD
  5
1ADB
102
{ACAD_REACTORS
330
1AC4
102
}
330
1AC4
100
AcDbXrecord
 10
0.0
 20
0.0
 30
0.0
  0
XRECORD
  5
1ADC
102
{ACAD_REACTORS
330
1AC4
102
}
330
1AC4
100
AcDbXrecord
340
0
  0
XRECORD
  5
1ADD
102
{ACAD_REACTORS
330
1AC4
102
}
330
1AC4
100
AcDbXrecord
 70
     0
  0
XRECORD
  5
1ADE
102
{ACAD_REACTORS
330
1AC4
102
}
330
1AC4
100
AcDbXrecord
340
0
  0
XRECORD
  5
1ADF
102
{ACAD_REACTORS
330
1AC4
102
}
330
1AC4
100
AcDbXrecord
 10
0.0
 20
0.0
 30
0.0
  0
XRECORD
  5
1AE0
102
{ACAD_REACTORS
330
1AC4
102
}
330
1AC4
100
AcDbXrecord
 10
0.0
 20
0.0
 30
0.0
  0
XRECORD
  5
1AE1
102
{ACAD_REACTORS
330
1AC4
102
}
330
1AC4
100
AcDbXrecord
 10
0.0
 20
0.0
 30
0.0
  0
XRECORD
  5
1AE2
102
{ACAD_REACTORS
330
1AC4
102
}
330
1AC4
100
AcDbXrecord
 10
0.0
 20
0.0
 30
0.0
  0
XRECORD
  5
1AE3
102
{ACAD_REACTORS
330
1AC4
102
}
330
1AC4
100
AcDbXrecord
 10
0.0
 20
0.0
 30
0.0
  0
XRECORD
  5
1AE4
102
{ACAD_REACTORS
330
1AC4
102
}
330
1AC4
100
AcDbXrecord
 10
0.0
 20
0.0
 30
0.0
  0
XRECORD
  5
820
102
{ACAD_REACTORS
330
81F
102
}
330
81F
100
AcDbXrecord
  1
l
  1
l-*
  1
*
  1
*
 70
     0
  1
*
  1
*
  0
XRECORD
  5
821
102
{ACAD_REACTORS
330
81F
102
}
330
81F
100
AcDbXrecord
  1
N
  1
n*
  1
*
  1
*
 70
     0
  1
*
  1
*
  0
XRECORD
  5
822
102
{ACAD_REACTORS
330
81F
102
}
330
81F
100
AcDbXrecord
  1
n-clav
  1
*n-clav*
  1
*
  1
*
 70
     0
  1
*
  1
*
  0
XRECORD
  5
823
102
{ACAD_REACTORS
330
81F
102
}
330
81F
100
AcDbXrecord
  1
OBRA SINGULAR
  1
BR90500*
  1
*
  1
*
 70
     0
  1
*
  1
*
  0
ENDSEC
  0
EOF
