  0
SECTION
  2
HEADER
  9
$ACADVER
  1
AC1015
  9
$ACADMAINTVER
 70
     6
  9
$DWGCODEPAGE
  3
ANSI_1252
  9
$INSBASE
 10
0.0
 20
0.0
 30
0.0
  9
$EXTMIN
 10
281.3959999999998
 20
29.897
 30
0.0
  9
$EXTMAX
 10
291.8959999999998
 20
44.747
 30
0.0
  9
$LIMMIN
 10
280.3959999999999
 20
28.89699999999999
  9
$LIMMAX
 10
292.8959999999999
 20
43.74699999999999
  9
$ORTHOMODE
 70
     1
  9
$REGENMODE
 70
     1
  9
$FILLMODE
 70
     1
  9
$QTEXTMODE
 70
     0
  9
$MIRRTEXT
 70
     1
  9
$LTSCALE
 40
1.0
  9
$ATTMODE
 70
     1
  9
$TEXTSIZE
 40
0.2
  9
$TRACEWID
 40
0.05
  9
$TEXTSTYLE
  7
STANDARD
  9
$CLAYER
  8
0
  9
$CELTYPE
  6
BYLAYER
  9
$CECOLOR
 62
   256
  9
$CELTSCALE
 40
1.0
  9
$DISPSILH
 70
     0
  9
$DIMSCALE
 40
1.0
  9
$DIMASZ
 40
0.18
  9
$DIMEXO
 40
0.0625
  9
$DIMDLI
 40
0.38
  9
$DIMRND
 40
0.0
  9
$DIMDLE
 40
0.0
  9
$DIMEXE
 40
0.18
  9
$DIMTP
 40
0.0
  9
$DIMTM
 40
0.0
  9
$DIMTXT
 40
0.18
  9
$DIMCEN
 40
0.09
  9
$DIMTSZ
 40
0.0
  9
$DIMTOL
 70
     0
  9
$DIMLIM
 70
     0
  9
$DIMTIH
 70
     1
  9
$DIMTOH
 70
     1
  9
$DIMSE1
 70
     0
  9
$DIMSE2
 70
     0
  9
$DIMTAD
 70
     0
  9
$DIMZIN
 70
     0
  9
$DIMBLK
  1

  9
$DIMASO
 70
     1
  9
$DIMSHO
 70
     1
  9
$DIMPOST
  1

  9
$DIMAPOST
  1

  9
$DIMALT
 70
     0
  9
$DIMALTD
 70
     2
  9
$DIMALTF
 40
25.4
  9
$DIMLFAC
 40
1.0
  9
$DIMTOFL
 70
     0
  9
$DIMTVP
 40
0.0
  9
$DIMTIX
 70
     0
  9
$DIMSOXD
 70
     0
  9
$DIMSAH
 70
     0
  9
$DIMBLK1
  1

  9
$DIMBLK2
  1

  9
$DIMSTYLE
  2
STANDARD
  9
$DIMCLRD
 70
     0
  9
$DIMCLRE
 70
     0
  9
$DIMCLRT
 70
     0
  9
$DIMTFAC
 40
1.0
  9
$DIMGAP
 40
0.09
  9
$DIMJUST
 70
     0
  9
$DIMSD1
 70
     0
  9
$DIMSD2
 70
     0
  9
$DIMTOLJ
 70
     1
  9
$DIMTZIN
 70
     0
  9
$DIMALTZ
 70
     0
  9
$DIMALTTZ
 70
     0
  9
$DIMUPT
 70
     0
  9
$DIMDEC
 70
     4
  9
$DIMTDEC
 70
     4
  9
$DIMALTU
 70
     2
  9
$DIMALTTD
 70
     2
  9
$DIMTXSTY
  7
STANDARD
  9
$DIMAUNIT
 70
     0
  9
$DIMADEC
 70
     0
  9
$DIMALTRND
 40
0.0
  9
$DIMAZIN
 70
     0
  9
$DIMDSEP
 70
    46
  9
$DIMATFIT
 70
     3
  9
$DIMFRAC
 70
     0
  9
$DIMLDRBLK
  1

  9
$DIMLUNIT
 70
     2
  9
$DIMLWD
 70
    -2
  9
$DIMLWE
 70
    -2
  9
$DIMTMOVE
 70
     0
  9
$LUNITS
 70
     2
  9
$LUPREC
 70
     4
  9
$SKETCHINC
 40
0.1
  9
$FILLETRAD
 40
0.0
  9
$AUNITS
 70
     0
  9
$AUPREC
 70
     0
  9
$MENU
  1
acad
  9
$ELEVATION
 40
0.0
  9
$PELEVATION
 40
0.0
  9
$THICKNESS
 40
0.0
  9
$LIMCHECK
 70
     0
  9
$CHAMFERA
 40
0.0
  9
$CHAMFERB
 40
0.0
  9
$CHAMFERC
 40
0.0
  9
$CHAMFERD
 40
0.0
  9
$SKPOLY
 70
     0
  9
$TDCREATE
 40
2448315.373408102
  9
$TDUCREATE
 40
2448315.290074768
  9
$TDUPDATE
 40
2451807.346723460
  9
$TDUUPDATE
 40
2451807.263390127
  9
$TDINDWG
 40
0.0240347801
  9
$TDUSRTIMER
 40
0.0239786921
  9
$USRTIMER
 70
     1
  9
$ANGBASE
 50
0.0
  9
$ANGDIR
 70
     0
  9
$PDMODE
 70
     0
  9
$PDSIZE
 40
0.0
  9
$PLINEWID
 40
0.0
  9
$SPLFRAME
 70
     0
  9
$SPLINETYPE
 70
     6
  9
$SPLINESEGS
 70
     8
  9
$HANDSEED
  5
28B
  9
$SURFTAB1
 70
     6
  9
$SURFTAB2
 70
     6
  9
$SURFTYPE
 70
     6
  9
$SURFU
 70
     6
  9
$SURFV
 70
     6
  9
$UCSBASE
  2

  9
$UCSNAME
  2

  9
$UCSORG
 10
0.0
 20
0.0
 30
0.0
  9
$UCSXDIR
 10
1.0
 20
0.0
 30
0.0
  9
$UCSYDIR
 10
0.0
 20
1.0
 30
0.0
  9
$UCSORTHOREF
  2

  9
$UCSORTHOVIEW
 70
     0
  9
$UCSORGTOP
 10
0.0
 20
0.0
 30
0.0
  9
$UCSORGBOTTOM
 10
0.0
 20
0.0
 30
0.0
  9
$UCSORGLEFT
 10
0.0
 20
0.0
 30
0.0
  9
$UCSORGRIGHT
 10
0.0
 20
0.0
 30
0.0
  9
$UCSORGFRONT
 10
0.0
 20
0.0
 30
0.0
  9
$UCSORGBACK
 10
0.0
 20
0.0
 30
0.0
  9
$PUCSBASE
  2

  9
$PUCSNAME
  2

  9
$PUCSORG
 10
0.0
 20
0.0
 30
0.0
  9
$PUCSXDIR
 10
1.0
 20
0.0
 30
0.0
  9
$PUCSYDIR
 10
0.0
 20
1.0
 30
0.0
  9
$PUCSORTHOREF
  2

  9
$PUCSORTHOVIEW
 70
     0
  9
$PUCSORGTOP
 10
0.0
 20
0.0
 30
0.0
  9
$PUCSORGBOTTOM
 10
0.0
 20
0.0
 30
0.0
  9
$PUCSORGLEFT
 10
0.0
 20
0.0
 30
0.0
  9
$PUCSORGRIGHT
 10
0.0
 20
0.0
 30
0.0
  9
$PUCSORGFRONT
 10
0.0
 20
0.0
 30
0.0
  9
$PUCSORGBACK
 10
0.0
 20
0.0
 30
0.0
  9
$USERI1
 70
     0
  9
$USERI2
 70
     0
  9
$USERI3
 70
     0
  9
$USERI4
 70
     0
  9
$USERI5
 70
     0
  9
$USERR1
 40
0.0
  9
$USERR2
 40
0.0
  9
$USERR3
 40
0.0
  9
$USERR4
 40
0.0
  9
$USERR5
 40
0.0
  9
$WORLDVIEW
 70
     1
  9
$SHADEDGE
 70
     3
  9
$SHADEDIF
 70
    70
  9
$TILEMODE
 70
     1
  9
$MAXACTVP
 70
    16
  9
$PINSBASE
 10
0.0
 20
0.0
 30
0.0
  9
$PLIMCHECK
 70
     0
  9
$PEXTMIN
 10
0.3356100001950608
 20
0.467916977571349
 30
0.0
  9
$PEXTMAX
 10
199.6258939823488
 20
286.3192515252361
 30
0.0
  9
$PLIMMIN
 10
-5.027083396911621
 20
-5.111741065979003
  9
$PLIMMAX
 10
204.9885873794554
 20
291.8989095687866
  9
$UNITMODE
 70
     0
  9
$VISRETAIN
 70
     0
  9
$PLINEGEN
 70
     0
  9
$PSLTSCALE
 70
     1
  9
$TREEDEPTH
 70
  3020
  9
$CMLSTYLE
  2
STANDARD
  9
$CMLJUST
 70
     0
  9
$CMLSCALE
 40
1.0
  9
$PROXYGRAPHICS
 70
     1
  9
$MEASUREMENT
 70
     0
  9
$CELWEIGHT
370
    -1
  9
$ENDCAPS
280
     0
  9
$JOINSTYLE
280
     0
  9
$LWDISPLAY
290
     0
  9
$INSUNITS
 70
     0
  9
$HYPERLINKBASE
  1

  9
$STYLESHEET
  1

  9
$XEDIT
290
     1
  9
$CEPSNTYPE
380
     0
  9
$PSTYLEMODE
290
     1
  9
$FINGERPRINTGUID
  2
{A09CBBB2-476A-11D4-A5CD-0008C769B1B5}
  9
$VERSIONGUID
  2
{076A7D23-8DF4-11D4-A61B-0008C769B1B5}
  9
$EXTNAMES
290
     1
  9
$PSVPSCALE
 40
0.0
  9
$OLESTARTUP
290
     0
  0
ENDSEC
  0
SECTION
  2
CLASSES
  0
CLASS
  1
ACDBDICTIONARYWDFLT
  2
AcDbDictionaryWithDefault
  3
AutoCAD 2000
 90
        0
280
     0
281
     0
  0
CLASS
  1
ACDBPLACEHOLDER
  2
AcDbPlaceHolder
  3
AutoCAD 2000
 90
        0
280
     0
281
     0
  0
CLASS
  1
LAYOUT
  2
AcDbLayout
  3
AutoCAD 2000
 90
        0
280
     0
281
     0
  0
CLASS
  1
LONG_TRANSACTION
  2
AcDbLongTransaction
  3
AutoCAD 2000
 90
    32768
280
     0
281
     0
  0
CLASS
  1
LWPOLYLINE
  2
AcDbPolyline
  3
AutoCAD 2000
 90
    32768
280
     0
281
     1
  0
CLASS
  1
HATCH
  2
AcDbHatch
  3
AutoCAD 2000
 90
    32768
280
     0
281
     1
  0
CLASS
  1
XRECORD
  2
AcDbXrecord
  3
AutoCAD 2000
 90
    32768
280
     0
281
     0
  0
CLASS
  1
LONG_TRANSACTION
  2
AcDbLongTransaction
  3
AutoCAD 2000
 90
    32768
280
     0
281
     0
  0
CLASS
  1
LWPOLYLINE
  2
AcDbPolyline
  3
AutoCAD 2000
 90
    32768
280
     0
281
     1
  0
CLASS
  1
HATCH
  2
AcDbHatch
  3
AutoCAD 2000
 90
    32768
280
     0
281
     1
  0
CLASS
  1
XRECORD
  2
AcDbXrecord
  3
AutoCAD 2000
 90
    32768
280
     0
281
     0
  0
ENDSEC
  0
SECTION
  2
TABLES
  0
TABLE
  2
VPORT
  5
8
330
0
100
AcDbSymbolTable
 70
     2
  0
VPORT
  5
28A
330
8
100
AcDbSymbolTableRecord
100
AcDbViewportTableRecord
  2
*Active
 70
     0
 10
0.0
 20
0.0
 11
1.0
 21
1.0
 12
290.6681840752169
 22
37.32228577880157
 13
0.0
 23
0.0
 14
1.0
 24
1.0
 15
0.0
 25
0.0
 16
0.0
 26
0.0
 36
1.0
 17
0.0
 27
0.0
 37
0.0
 40
14.99977614067434
 41
1.271428571428571
 42
50.0
 43
0.0
 44
0.0
 50
0.0
 51
0.0
 71
     0
 72
   100
 73
     1
 74
     1
 75
     0
 76
     0
 77
     0
 78
     0
281
     0
 65
     1
110
0.0
120
0.0
130
0.0
111
1.0
121
0.0
131
0.0
112
0.0
122
1.0
132
0.0
 79
     0
146
0.0
  0
ENDTAB
  0
TABLE
  2
LTYPE
  5
5
330
0
100
AcDbSymbolTable
 70
     1
  0
LTYPE
  5
13
330
5
100
AcDbSymbolTableRecord
100
AcDbLinetypeTableRecord
  2
BYBLOCK
 70
     0
  3

 72
    65
 73
     0
 40
0.0
  0
LTYPE
  5
14
330
5
100
AcDbSymbolTableRecord
100
AcDbLinetypeTableRecord
  2
BYLAYER
 70
     0
  3

 72
    65
 73
     0
 40
0.0
  0
LTYPE
  5
15
330
5
100
AcDbSymbolTableRecord
100
AcDbLinetypeTableRecord
  2
CONTINUOUS
 70
     0
  3
Solid line
 72
    65
 73
     0
 40
0.0
  0
ENDTAB
  0
TABLE
  2
LAYER
  5
2
330
0
100
AcDbSymbolTable
 70
     8
  0
LAYER
  5
10
330
2
100
AcDbSymbolTableRecord
100
AcDbLayerTableRecord
  2
0
 70
     0
 62
     7
  6
CONTINUOUS
370
    -3
390
F
  0
LAYER
  5
22
330
2
100
AcDbSymbolTableRecord
100
AcDbLayerTableRecord
  2
1
 70
     0
 62
     7
  6
CONTINUOUS
370
    -3
390
F
  0
LAYER
  5
23
330
2
100
AcDbSymbolTableRecord
100
AcDbLayerTableRecord
  2
7
 70
     0
 62
     7
  6
CONTINUOUS
370
    -3
390
F
  0
LAYER
  5
24
330
2
100
AcDbSymbolTableRecord
100
AcDbLayerTableRecord
  2
8
 70
     0
 62
     7
  6
CONTINUOUS
370
    -3
390
F
  0
LAYER
  5
25
330
2
100
AcDbSymbolTableRecord
100
AcDbLayerTableRecord
  2
9
 70
     0
 62
     7
  6
CONTINUOUS
370
    -3
390
F
  0
LAYER
  5
26
330
2
100
AcDbSymbolTableRecord
100
AcDbLayerTableRecord
  2
22
 70
     0
 62
     7
  6
CONTINUOUS
370
    -3
390
F
  0
LAYER
  5
27
330
2
100
AcDbSymbolTableRecord
100
AcDbLayerTableRecord
  2
25
 70
     0
 62
     7
  6
CONTINUOUS
370
    -3
390
F
  0
LAYER
  5
7F
330
2
100
AcDbSymbolTableRecord
100
AcDbLayerTableRecord
  2
DEFPOINTS
 70
     0
 62
     7
  6
CONTINUOUS
290
     0
370
    -3
390
F
  0
ENDTAB
  0
TABLE
  2
STYLE
  5
3
330
0
100
AcDbSymbolTable
 70
     2
  0
STYLE
  5
11
330
3
100
AcDbSymbolTableRecord
100
AcDbTextStyleTableRecord
  2
STANDARD
 70
     0
 40
0.0
 41
1.0
 50
0.0
 71
     0
 42
0.2
  3
txt
  4

  0
STYLE
  5
28
330
3
100
AcDbSymbolTableRecord
100
AcDbTextStyleTableRecord
  2
ROMANC
 70
     0
 40
0.0
 41
1.0
 50
0.0
 71
     0
 42
0.2
  3
ROMANC
  4

  0
ENDTAB
  0
TABLE
  2
VIEW
  5
6
330
0
100
AcDbSymbolTable
 70
     0
  0
ENDTAB
  0
TABLE
  2
UCS
  5
7
330
0
100
AcDbSymbolTable
 70
     0
  0
ENDTAB
  0
TABLE
  2
APPID
  5
9
330
0
100
AcDbSymbolTable
 70
     1
  0
APPID
  5
12
330
9
100
AcDbSymbolTableRecord
100
AcDbRegAppTableRecord
  2
ACAD
 70
     0
  0
ENDTAB
  0
TABLE
  2
DIMSTYLE
  5
A
330
0
100
AcDbSymbolTable
 70
     1
100
AcDbDimStyleTable
 71
     1
340
7A
  0
DIMSTYLE
105
7A
102
{ACAD_REACTORS
330
213
330
221
330
246
330
25E
330
26C
330
27A
102
}
330
A
100
AcDbSymbolTableRecord
100
AcDbDimStyleTableRecord
  2
STANDARD
 70
     0
340
11
  0
ENDTAB
  0
TABLE
  2
BLOCK_RECORD
  5
1
330
0
100
AcDbSymbolTable
 70
    15
  0
BLOCK_RECORD
  5
1E
102
{ACAD_XDICTIONARY
360
1AC
102
}
330
1
100
AcDbSymbolTableRecord
100
AcDbBlockTableRecord
  2
*MODEL_SPACE
340
205
  0
BLOCK_RECORD
  5
1A
102
{ACAD_XDICTIONARY
360
1AA
102
}
330
1
100
AcDbSymbolTableRecord
100
AcDbBlockTableRecord
  2
*PAPER_SPACE
340
206
  0
BLOCK_RECORD
  5
C8
330
1
100
AcDbSymbolTableRecord
100
AcDbBlockTableRecord
  2
*D0
340
0
  0
BLOCK_RECORD
  5
D6
330
1
100
AcDbSymbolTableRecord
100
AcDbBlockTableRecord
  2
*D1
340
0
  0
BLOCK_RECORD
  5
E5
330
1
100
AcDbSymbolTableRecord
100
AcDbBlockTableRecord
  2
*D2
340
0
  0
BLOCK_RECORD
  5
F3
330
1
100
AcDbSymbolTableRecord
100
AcDbBlockTableRecord
  2
*D3
340
0
  0
BLOCK_RECORD
  5
102
330
1
100
AcDbSymbolTableRecord
100
AcDbBlockTableRecord
  2
*D4
340
0
  0
BLOCK_RECORD
  5
150
330
1
100
AcDbSymbolTableRecord
100
AcDbBlockTableRecord
  2
*D5
340
0
  0
BLOCK_RECORD
  5
15E
330
1
100
AcDbSymbolTableRecord
100
AcDbBlockTableRecord
  2
*D6
340
0
  0
BLOCK_RECORD
  5
1B8
330
1
100
AcDbSymbolTableRecord
100
AcDbBlockTableRecord
  2
*D7
340
0
  0
BLOCK_RECORD
  5
1C6
330
1
100
AcDbSymbolTableRecord
100
AcDbBlockTableRecord
  2
*D8
340
0
  0
BLOCK_RECORD
  5
214
330
1
100
AcDbSymbolTableRecord
100
AcDbBlockTableRecord
  2
*D9
340
0
  0
BLOCK_RECORD
  5
222
330
1
100
AcDbSymbolTableRecord
100
AcDbBlockTableRecord
  2
*D10
340
0
  0
BLOCK_RECORD
  5
247
330
1
100
AcDbSymbolTableRecord
100
AcDbBlockTableRecord
  2
*D11
340
0
  0
BLOCK_RECORD
  5
25F
330
1
100
AcDbSymbolTableRecord
100
AcDbBlockTableRecord
  2
*D12
340
0
  0
BLOCK_RECORD
  5
26D
330
1
100
AcDbSymbolTableRecord
100
AcDbBlockTableRecord
  2
*D13
340
0
  0
BLOCK_RECORD
  5
27B
330
1
100
AcDbSymbolTableRecord
100
AcDbBlockTableRecord
  2
*D14
340
0
  0
ENDTAB
  0
ENDSEC
  0
SECTION
  2
BLOCKS
  0
BLOCK
  5
1F
330
1E
100
AcDbEntity
  8
0
100
AcDbBlockBegin
  2
*MODEL_SPACE
 70
     0
 10
0.0
 20
0.0
 30
0.0
  3
*MODEL_SPACE
  1

  0
ENDBLK
  5
20
330
1E
100
AcDbEntity
  8
0
100
AcDbBlockEnd
  0
BLOCK
  5
1B
330
1A
100
AcDbEntity
 67
     1
  8
0
100
AcDbBlockBegin
  2
*PAPER_SPACE
 70
     0
 10
0.0
 20
0.0
 30
0.0
  3
*PAPER_SPACE
  1

  0
ENDBLK
  5
1C
330
1A
100
AcDbEntity
 67
     1
  8
0
100
AcDbBlockEnd
  0
BLOCK
  5
D3
330
C8
100
AcDbEntity
  8
0
100
AcDbBlockBegin
  2
*D0
 70
     1
 10
0.0
 20
0.0
 30
0.0
  3
*D0
  1

  0
LINE
  5
17F
330
C8
100
AcDbEntity
  8
0
 62
     0
100
AcDbLine
 10
286.1242114476576
 20
36.24736563458589
 30
0.0
 11
288.1582790844173
 21
36.24736563458589
 31
0.0
  0
LINE
  5
180
330
C8
100
AcDbEntity
  8
0
 62
     0
100
AcDbLine
 10
286.1242114476576
 20
34.62736563458587
 30
0.0
 11
288.1582790844173
 21
34.62736563458587
 31
0.0
  0
LINE
  5
181
330
C8
100
AcDbEntity
  8
0
 62
     0
100
AcDbLine
 10
287.9782790844175
 20
36.06736563458589
 30
0.0
 11
287.9782790844175
 21
35.612166902036
 31
0.0
  0
LINE
  5
182
330
C8
100
AcDbEntity
  8
0
 62
     0
100
AcDbLine
 10
287.9782790844175
 20
34.80736563458587
 30
0.0
 11
287.9782790844175
 21
35.25216690203601
 31
0.0
  0
SOLID
  5
183
330
C8
100
AcDbEntity
  8
0
 62
     0
100
AcDbTrace
 10
287.9482790844173
 20
36.06736563458589
 30
0.0
 11
288.0082790844173
 21
36.06736563458589
 31
0.0
 12
287.9782790844175
 22
36.24736563458589
 32
0.0
 13
287.9782790844175
 23
36.24736563458589
 33
0.0
  0
SOLID
  5
184
330
C8
100
AcDbEntity
  8
0
 62
     0
100
AcDbTrace
 10
287.9482790844173
 20
34.80736563458587
 30
0.0
 11
288.0082790844173
 21
34.80736563458587
 31
0.0
 12
287.9782790844175
 22
34.62736563458587
 32
0.0
 13
287.9782790844175
 23
34.62736563458587
 33
0.0
  0
MTEXT
  5
185
330
C8
100
AcDbEntity
  8
0
 62
     0
100
AcDbMText
 10
287.9782790844175
 20
35.43216690203603
 30
0.0
 40
0.18
 41
0.0
 71
     5
 72
     1
  1
\A1;1.6200
 73
     1
 44
1.0
1001
ACAD
1000
MTEXTBEGIN
1070
    73
1070
     1
1070
    44
1040
1.0
1070
    74
1070
     0
1000
MTEXTEND
1000
MTEXTBEGIN
1070
    73
1070
     1
1070
    44
1040
1.0
1070
    74
1070
     0
1000
MTEXTEND
  0
POINT
  5
186
330
C8
100
AcDbEntity
  8
DEFPOINTS
 62
     0
100
AcDbPoint
 10
286.0617114476576
 20
36.24736563458589
 30
0.0
  0
POINT
  5
187
330
C8
100
AcDbEntity
  8
DEFPOINTS
 62
     0
100
AcDbPoint
 10
286.0617114476576
 20
34.62736563458587
 30
0.0
  0
POINT
  5
188
330
C8
100
AcDbEntity
  8
DEFPOINTS
 62
     0
100
AcDbPoint
 10
287.9782790844175
 20
34.62736563458587
 30
0.0
  0
ENDBLK
  5
D4
330
C8
100
AcDbEntity
  8
0
100
AcDbBlockEnd
  0
BLOCK
  5
E2
330
D6
100
AcDbEntity
  8
0
100
AcDbBlockBegin
  2
*D1
 70
     1
 10
0.0
 20
0.0
 30
0.0
  3
*D1
  1

  0
LINE
  5
144
330
D6
100
AcDbEntity
  8
0
 62
     0
100
AcDbLine
 10
286.5742114476576
 20
34.77736563458589
 30
0.0
 11
287.8483853356226
 21
34.77736563458589
 31
0.0
  0
LINE
  5
145
330
D6
100
AcDbEntity
  8
0
 62
     0
100
AcDbLine
 10
286.1867114476576
 20
34.62736563458587
 30
0.0
 11
287.8483853356226
 21
34.62736563458587
 31
0.0
  0
LINE
  5
146
330
D6
100
AcDbEntity
  8
0
 62
     0
100
AcDbLine
 10
287.6683853356226
 20
34.95736563458589
 30
0.0
 11
287.6683853356226
 21
35.13736563458589
 31
0.0
  0
LINE
  5
147
330
D6
100
AcDbEntity
  8
0
 62
     0
100
AcDbLine
 10
287.6683853356226
 20
34.44736563458587
 30
0.0
 11
287.6683853356226
 21
34.26736563458582
 31
0.0
  0
LINE
  5
148
330
D6
100
AcDbEntity
  8
0
 62
     0
100
AcDbLine
 10
287.6683853356226
 20
34.26736563458582
 30
0.0
 11
287.4883853356226
 21
34.26736563458582
 31
0.0
  0
SOLID
  5
149
330
D6
100
AcDbEntity
  8
0
 62
     0
100
AcDbTrace
 10
287.6383853356226
 20
34.95736563458589
 30
0.0
 11
287.6983853356226
 21
34.95736563458589
 31
0.0
 12
287.6683853356226
 22
34.77736563458589
 32
0.0
 13
287.6683853356226
 23
34.77736563458589
 33
0.0
  0
SOLID
  5
14A
330
D6
100
AcDbEntity
  8
0
 62
     0
100
AcDbTrace
 10
287.6383853356226
 20
34.44736563458587
 30
0.0
 11
287.6983853356226
 21
34.44736563458587
 31
0.0
 12
287.6683853356226
 22
34.62736563458587
 32
0.0
 13
287.6683853356226
 23
34.62736563458587
 33
0.0
  0
MTEXT
  5
14B
330
D6
100
AcDbEntity
  8
0
 62
     0
100
AcDbMText
 10
287.0233853356226
 20
34.26736563458587
 30
0.0
 40
0.18
 41
0.0
 71
     5
 72
     1
  1
\A1;0.1500
 73
     1
 44
1.0
1001
ACAD
1000
MTEXTBEGIN
1070
    73
1070
     1
1070
    44
1040
1.0
1070
    74
1070
     0
1000
MTEXTEND
1000
MTEXTBEGIN
1070
    73
1070
     1
1070
    44
1040
1.0
1070
    74
1070
     0
1000
MTEXTEND
  0
POINT
  5
14C
330
D6
100
AcDbEntity
  8
DEFPOINTS
 62
     0
100
AcDbPoint
 10
286.5117114476575
 20
34.77736563458589
 30
0.0
  0
POINT
  5
14D
330
D6
100
AcDbEntity
  8
DEFPOINTS
 62
     0
100
AcDbPoint
 10
286.1242114476576
 20
34.62736563458587
 30
0.0
  0
POINT
  5
14E
330
D6
100
AcDbEntity
  8
DEFPOINTS
 62
     0
100
AcDbPoint
 10
287.6683853356226
 20
34.62736563458587
 30
0.0
  0
ENDBLK
  5
E3
330
D6
100
AcDbEntity
  8
0
100
AcDbBlockEnd
  0
BLOCK
  5
F0
330
E5
100
AcDbEntity
  8
0
100
AcDbBlockBegin
  2
*D2
 70
     1
 10
0.0
 20
0.0
 30
0.0
  3
*D2
  1

  0
LINE
  5
110
330
E5
100
AcDbEntity
  8
0
 62
     0
100
AcDbLine
 10
285.5617114476576
 20
35.73986563458588
 30
0.0
 11
285.5617114476576
 21
36.95556457024231
 31
0.0
  0
LINE
  5
111
330
E5
100
AcDbEntity
  8
0
 62
     0
100
AcDbLine
 10
286.5617114476576
 20
35.73986563458642
 30
0.0
 11
286.5617114476576
 21
36.95556457024231
 31
0.0
  0
LINE
  5
112
330
E5
100
AcDbEntity
  8
0
 62
     0
100
AcDbLine
 10
285.3817114476576
 20
36.77556457024229
 30
0.0
 11
285.2017114476576
 21
36.77556457024229
 31
0.0
  0
LINE
  5
113
330
E5
100
AcDbEntity
  8
0
 62
     0
100
AcDbLine
 10
286.7417114476576
 20
36.77556457024229
 30
0.0
 11
286.9217114476576
 21
36.77556457024229
 31
0.0
  0
SOLID
  5
114
330
E5
100
AcDbEntity
  8
0
 62
     0
100
AcDbTrace
 10
285.3817114476576
 20
36.80556457024231
 30
0.0
 11
285.3817114476576
 21
36.74556457024229
 31
0.0
 12
285.5617114476576
 22
36.77556457024229
 32
0.0
 13
285.5617114476576
 23
36.77556457024229
 33
0.0
  0
SOLID
  5
115
330
E5
100
AcDbEntity
  8
0
 62
     0
100
AcDbTrace
 10
286.7417114476576
 20
36.80556457024231
 30
0.0
 11
286.7417114476576
 21
36.74556457024229
 31
0.0
 12
286.5617114476576
 22
36.77556457024229
 32
0.0
 13
286.5617114476576
 23
36.77556457024229
 33
0.0
  0
MTEXT
  5
116
330
E5
100
AcDbEntity
  8
0
 62
     0
100
AcDbMText
 10
286.0617114476576
 20
36.77556457024229
 30
0.0
 40
0.18
 41
0.0
 71
     5
 72
     1
  1
\A1;1.0000
 73
     1
 44
1.0
1001
ACAD
1000
MTEXTBEGIN
1070
    73
1070
     1
1070
    44
1040
1.0
1070
    74
1070
     0
1000
MTEXTEND
1000
MTEXTBEGIN
1070
    73
1070
     1
1070
    44
1040
1.0
1070
    74
1070
     0
1000
MTEXTEND
  0
POINT
  5
117
330
E5
100
AcDbEntity
  8
DEFPOINTS
 62
     0
100
AcDbPoint
 10
285.5617114476576
 20
35.67736563458588
 30
0.0
  0
POINT
  5
118
330
E5
100
AcDbEntity
  8
DEFPOINTS
 62
     0
100
AcDbPoint
 10
286.5617114476576
 20
35.67736563458643
 30
0.0
  0
POINT
  5
119
330
E5
100
AcDbEntity
  8
DEFPOINTS
 62
     0
100
AcDbPoint
 10
286.5617114476576
 20
36.77556457024229
 30
0.0
  0
ENDBLK
  5
F1
330
E5
100
AcDbEntity
  8
0
100
AcDbBlockEnd
  0
BLOCK
  5
FF
330
F3
100
AcDbEntity
  8
0
100
AcDbBlockBegin
  2
*D3
 70
     1
 10
0.0
 20
0.0
 30
0.0
  3
*D3
  1

  0
LINE
  5
F4
330
F3
100
AcDbEntity
  8
0
 62
     0
100
AcDbLine
 10
285.8105925973381
 20
34.3259387771153
 30
0.0
 11
285.0996894655242
 21
34.3259387771153
 31
0.0
  0
LINE
  5
F5
330
F3
100
AcDbEntity
  8
0
 62
     0
100
AcDbLine
 10
285.7605925973383
 20
35.22593877711502
 30
0.0
 11
285.0996894655242
 21
35.22593877711502
 31
0.0
  0
LINE
  5
F6
330
F3
100
AcDbEntity
  8
0
 62
     0
100
AcDbLine
 10
285.2796894655241
 20
34.5059387771153
 30
0.0
 11
285.2796894655241
 21
35.04593877711501
 31
0.0
  0
LINE
  5
F7
330
F3
100
AcDbEntity
  8
0
 62
     0
100
AcDbLine
 10
285.2796894655241
 20
35.22593877711502
 30
0.0
 11
285.2796894655241
 21
35.40593877711502
 31
0.0
  0
LINE
  5
F8
330
F3
100
AcDbEntity
  8
0
 62
     0
100
AcDbLine
 10
285.2796894655241
 20
35.40593877711502
 30
0.0
 11
285.4596894655241
 21
35.40593877711502
 31
0.0
  0
SOLID
  5
F9
330
F3
100
AcDbEntity
  8
0
 62
     0
100
AcDbTrace
 10
285.2496894655241
 20
34.5059387771153
 30
0.0
 11
285.3096894655241
 21
34.5059387771153
 31
0.0
 12
285.2796894655241
 22
34.3259387771153
 32
0.0
 13
285.2796894655241
 23
34.3259387771153
 33
0.0
  0
SOLID
  5
FA
330
F3
100
AcDbEntity
  8
0
 62
     0
100
AcDbTrace
 10
285.2496894655241
 20
35.04593877711501
 30
0.0
 11
285.3096894655241
 21
35.04593877711501
 31
0.0
 12
285.2796894655241
 22
35.22593877711502
 32
0.0
 13
285.2796894655241
 23
35.22593877711502
 33
0.0
  0
MTEXT
  5
FB
330
F3
100
AcDbEntity
  8
0
 62
     0
100
AcDbMText
 10
285.9396894655241
 20
35.40593877711506
 30
0.0
 40
0.18
 41
0.0
 71
     5
 72
     1
  1
\A1;0.9000
 73
     1
 44
1.0
1001
ACAD
1000
MTEXTBEGIN
1070
    73
1070
     1
1070
    44
1040
1.0
1070
    74
1070
     0
1000
MTEXTEND
1000
MTEXTBEGIN
1070
    73
1070
     1
1070
    44
1040
1.0
1070
    74
1070
     0
1000
MTEXTEND
  0
POINT
  5
FC
330
F3
100
AcDbEntity
  8
DEFPOINTS
 62
     0
100
AcDbPoint
 10
285.8730925973381
 20
34.3259387771153
 30
0.0
  0
POINT
  5
FD
330
F3
100
AcDbEntity
  8
DEFPOINTS
 62
     0
100
AcDbPoint
 10
285.8230925973383
 20
35.22593877711502
 30
0.0
  0
POINT
  5
FE
330
F3
100
AcDbEntity
  8
DEFPOINTS
 62
     0
100
AcDbPoint
 10
285.2796894655241
 20
35.22593877711502
 30
0.0
  0
ENDBLK
  5
100
330
F3
100
AcDbEntity
  8
0
100
AcDbBlockEnd
  0
BLOCK
  5
10E
330
102
100
AcDbEntity
  8
0
100
AcDbBlockBegin
  2
*D4
 70
     1
 10
0.0
 20
0.0
 30
0.0
  3
*D4
  1

  0
LINE
  5
12F
330
102
100
AcDbEntity
  8
0
 62
     0
100
AcDbLine
 10
285.4992114476576
 20
35.67736563458588
 30
0.0
 11
284.8683083158433
 21
35.67736563458588
 31
0.0
  0
LINE
  5
130
330
102
100
AcDbEntity
  8
0
 62
     0
100
AcDbLine
 10
285.5492114476577
 20
34.77736563458589
 30
0.0
 11
284.8683083158433
 21
34.77736563458589
 31
0.0
  0
LINE
  5
131
330
102
100
AcDbEntity
  8
0
 62
     0
100
AcDbLine
 10
285.0483083158436
 20
35.49736563458588
 30
0.0
 11
285.0483083158436
 21
34.95736563458589
 31
0.0
  0
LINE
  5
132
330
102
100
AcDbEntity
  8
0
 62
     0
100
AcDbLine
 10
285.0483083158436
 20
34.77736563458589
 30
0.0
 11
285.0483083158436
 21
34.59736563458589
 31
0.0
  0
LINE
  5
133
330
102
100
AcDbEntity
  8
0
 62
     0
100
AcDbLine
 10
285.0483083158436
 20
34.59736563458589
 30
0.0
 11
284.8683083158433
 21
34.59736563458589
 31
0.0
  0
SOLID
  5
134
330
102
100
AcDbEntity
  8
0
 62
     0
100
AcDbTrace
 10
285.0183083158436
 20
35.49736563458588
 30
0.0
 11
285.0783083158436
 21
35.49736563458588
 31
0.0
 12
285.0483083158436
 22
35.67736563458588
 32
0.0
 13
285.0483083158436
 23
35.67736563458588
 33
0.0
  0
SOLID
  5
135
330
102
100
AcDbEntity
  8
0
 62
     0
100
AcDbTrace
 10
285.0183083158436
 20
34.95736563458589
 30
0.0
 11
285.0783083158436
 21
34.95736563458589
 31
0.0
 12
285.0483083158436
 22
34.77736563458589
 32
0.0
 13
285.0483083158436
 23
34.77736563458589
 33
0.0
  0
MTEXT
  5
136
330
102
100
AcDbEntity
  8
0
 62
     0
100
AcDbMText
 10
284.3883083158436
 20
34.59736563458594
 30
0.0
 40
0.18
 41
0.0
 71
     5
 72
     1
  1
\A1;0.9000
 73
     1
 44
1.0
1001
ACAD
1000
MTEXTBEGIN
1070
    73
1070
     1
1070
    44
1040
1.0
1070
    74
1070
     0
1000
MTEXTEND
1000
MTEXTBEGIN
1070
    73
1070
     1
1070
    44
1040
1.0
1070
    74
1070
     0
1000
MTEXTEND
  0
POINT
  5
137
330
102
100
AcDbEntity
  8
DEFPOINTS
 62
     0
100
AcDbPoint
 10
285.5617114476576
 20
35.67736563458588
 30
0.0
  0
POINT
  5
138
330
102
100
AcDbEntity
  8
DEFPOINTS
 62
     0
100
AcDbPoint
 10
285.6117114476576
 20
34.77736563458589
 30
0.0
  0
POINT
  5
139
330
102
100
AcDbEntity
  8
DEFPOINTS
 62
     0
100
AcDbPoint
 10
285.0483083158436
 20
34.77736563458589
 30
0.0
  0
ENDBLK
  5
10F
330
102
100
AcDbEntity
  8
0
100
AcDbBlockEnd
  0
BLOCK
  5
15B
330
150
100
AcDbEntity
  8
0
100
AcDbBlockBegin
  2
*D5
 70
     1
 10
0.0
 20
0.0
 30
0.0
  3
*D5
  1

  0
LINE
  5
151
330
150
100
AcDbEntity
  8
0
 62
     0
100
AcDbLine
 10
286.5117114476575
 20
34.71486563458589
 30
0.0
 11
286.5117114476575
 21
33.55990820404632
 31
0.0
  0
LINE
  5
152
330
150
100
AcDbEntity
  8
0
 62
     0
100
AcDbLine
 10
285.6117114476576
 20
34.71486563458589
 30
0.0
 11
285.6117114476576
 21
33.55990820404632
 31
0.0
  0
LINE
  5
153
330
150
100
AcDbEntity
  8
0
 62
     0
100
AcDbLine
 10
286.3317114476576
 20
33.73990820404632
 30
0.0
 11
285.7917114476576
 21
33.73990820404632
 31
0.0
  0
LINE
  5
154
330
150
100
AcDbEntity
  8
0
 62
     0
100
AcDbLine
 10
285.6117114476576
 20
33.73990820404632
 30
0.0
 11
285.4317114476576
 21
33.73990820404632
 31
0.0
  0
SOLID
  5
155
330
150
100
AcDbEntity
  8
0
 62
     0
100
AcDbTrace
 10
286.3317114476576
 20
33.76990820404632
 30
0.0
 11
286.3317114476576
 21
33.70990820404632
 31
0.0
 12
286.5117114476575
 22
33.73990820404632
 32
0.0
 13
286.5117114476575
 23
33.73990820404632
 33
0.0
  0
SOLID
  5
156
330
150
100
AcDbEntity
  8
0
 62
     0
100
AcDbTrace
 10
285.7917114476576
 20
33.76990820404632
 30
0.0
 11
285.7917114476576
 21
33.70990820404632
 31
0.0
 12
285.6117114476576
 22
33.73990820404632
 32
0.0
 13
285.6117114476576
 23
33.73990820404632
 33
0.0
  0
MTEXT
  5
157
330
150
100
AcDbEntity
  8
0
 62
     0
100
AcDbMText
 10
284.9517114476573
 20
33.73990820404632
 30
0.0
 40
0.18
 41
0.0
 71
     5
 72
     1
  1
\A1;0.9000
 73
     1
 44
1.0
1001
ACAD
1000
MTEXTBEGIN
1070
    73
1070
     1
1070
    44
1040
1.0
1070
    74
1070
     0
1000
MTEXTEND
1000
MTEXTBEGIN
1070
    73
1070
     1
1070
    44
1040
1.0
1070
    74
1070
     0
1000
MTEXTEND
  0
POINT
  5
158
330
150
100
AcDbEntity
  8
DEFPOINTS
 62
     0
100
AcDbPoint
 10
286.5117114476575
 20
34.77736563458589
 30
0.0
  0
POINT
  5
159
330
150
100
AcDbEntity
  8
DEFPOINTS
 62
     0
100
AcDbPoint
 10
285.6117114476576
 20
34.77736563458589
 30
0.0
  0
POINT
  5
15A
330
150
100
AcDbEntity
  8
DEFPOINTS
 62
     0
100
AcDbPoint
 10
285.6117114476576
 20
33.73990820404632
 30
0.0
  0
ENDBLK
  5
15C
330
150
100
AcDbEntity
  8
0
100
AcDbBlockEnd
  0
BLOCK
  5
169
330
15E
100
AcDbEntity
  8
0
100
AcDbBlockBegin
  2
*D6
 70
     1
 10
0.0
 20
0.0
 30
0.0
  3
*D6
  1

  0
LINE
  5
16B
330
15E
100
AcDbEntity
  8
0
 62
     0
100
AcDbLine
 10
286.2270677236876
 20
34.69872330784411
 30
0.0
 11
286.2270677236876
 21
33.84122994766753
 31
0.0
  0
LINE
  5
16C
330
15E
100
AcDbEntity
  8
0
 62
     0
100
AcDbLine
 10
285.8963551716275
 20
34.69872330784411
 30
0.0
 11
285.8963551716275
 21
33.84122994766753
 31
0.0
  0
LINE
  5
16D
330
15E
100
AcDbEntity
  8
0
 62
     0
100
AcDbLine
 10
286.4070677236876
 20
34.02122994766753
 30
0.0
 11
286.5870677236876
 21
34.02122994766753
 31
0.0
  0
LINE
  5
16E
330
15E
100
AcDbEntity
  8
0
 62
     0
100
AcDbLine
 10
285.7163551716275
 20
34.02122994766753
 30
0.0
 11
285.5363551716276
 21
34.02122994766753
 31
0.0
  0
SOLID
  5
16F
330
15E
100
AcDbEntity
  8
0
 62
     0
100
AcDbTrace
 10
286.4070677236876
 20
34.05122994766751
 30
0.0
 11
286.4070677236876
 21
33.99122994766753
 31
0.0
 12
286.2270677236876
 22
34.02122994766753
 32
0.0
 13
286.2270677236876
 23
34.02122994766753
 33
0.0
  0
SOLID
  5
170
330
15E
100
AcDbEntity
  8
0
 62
     0
100
AcDbTrace
 10
285.7163551716275
 20
34.05122994766751
 30
0.0
 11
285.7163551716275
 21
33.99122994766753
 31
0.0
 12
285.8963551716275
 22
34.02122994766753
 32
0.0
 13
285.8963551716275
 23
34.02122994766753
 33
0.0
  0
MTEXT
  5
171
330
15E
100
AcDbEntity
  8
0
 62
     0
100
AcDbMText
 10
285.0563551716276
 20
34.02122994766753
 30
0.0
 40
0.18
 41
0.0
 71
     5
 72
     1
  1
\A1;0.3000
 73
     1
 44
1.0
1001
ACAD
1000
MTEXTBEGIN
1070
    73
1070
     1
1070
    44
1040
1.0
1070
    74
1070
     0
1000
MTEXTEND
1000
MTEXTBEGIN
1070
    73
1070
     1
1070
    44
1040
1.0
1070
    74
1070
     0
1000
MTEXTEND
  0
POINT
  5
172
330
15E
100
AcDbEntity
  8
DEFPOINTS
 62
     0
100
AcDbPoint
 10
286.2270677236876
 20
34.76122330784411
 30
0.0
  0
POINT
  5
173
330
15E
100
AcDbEntity
  8
DEFPOINTS
 62
     0
100
AcDbPoint
 10
285.8963551716275
 20
34.76122330784411
 30
0.0
  0
POINT
  5
174
330
15E
100
AcDbEntity
  8
DEFPOINTS
 62
     0
100
AcDbPoint
 10
285.8963551716275
 20
34.02122994766753
 30
0.0
  0
ENDBLK
  5
16A
330
15E
100
AcDbEntity
  8
0
100
AcDbBlockEnd
  0
BLOCK
  5
1C3
330
1B8
100
AcDbEntity
  8
0
100
AcDbBlockBegin
  2
*D7
 70
     1
 10
0.0
 20
0.0
 30
0.0
  3
*D7
  1

  0
LINE
  5
1B9
330
1B8
100
AcDbEntity
  8
0
 62
     0
100
AcDbLine
 10
286.1367417659177
 20
35.23981668125815
 30
0.0
 11
286.1367417659177
 21
34.38562200535305
 31
0.0
  0
LINE
  5
1BA
330
1B8
100
AcDbEntity
  8
0
 62
     0
100
AcDbLine
 10
286.7367417659178
 20
35.23981668125815
 30
0.0
 11
286.7367417659178
 21
34.38562200535305
 31
0.0
  0
LINE
  5
1BB
330
1B8
100
AcDbEntity
  8
0
 62
     0
100
AcDbLine
 10
286.3167417659178
 20
34.56562200535306
 30
0.0
 11
286.5567417659178
 21
34.56562200535306
 31
0.0
  0
LINE
  5
1BC
330
1B8
100
AcDbEntity
  8
0
 62
     0
100
AcDbLine
 10
286.7367417659178
 20
34.56562200535306
 30
0.0
 11
286.9167417659178
 21
34.56562200535306
 31
0.0
  0
SOLID
  5
1BD
330
1B8
100
AcDbEntity
  8
0
 62
     0
100
AcDbTrace
 10
286.3167417659178
 20
34.59562200535305
 30
0.0
 11
286.3167417659178
 21
34.53562200535306
 31
0.0
 12
286.1367417659177
 22
34.56562200535306
 32
0.0
 13
286.1367417659177
 23
34.56562200535306
 33
0.0
  0
SOLID
  5
1BE
330
1B8
100
AcDbEntity
  8
0
 62
     0
100
AcDbTrace
 10
286.5567417659178
 20
34.59562200535305
 30
0.0
 11
286.5567417659178
 21
34.53562200535306
 31
0.0
 12
286.7367417659178
 22
34.56562200535306
 32
0.0
 13
286.7367417659178
 23
34.56562200535306
 33
0.0
  0
MTEXT
  5
1BF
330
1B8
100
AcDbEntity
  8
0
 62
     0
100
AcDbMText
 10
287.3967417659177
 20
34.56562200535306
 30
0.0
 40
0.18
 41
0.0
 71
     5
 72
     1
  1
\A1;0.6000
 73
     1
 44
1.0
1001
ACAD
1000
MTEXTBEGIN
1070
    73
1070
     1
1070
    44
1040
1.0
1070
    74
1070
     0
1000
MTEXTEND
  0
POINT
  5
1C0
330
1B8
100
AcDbEntity
  8
DEFPOINTS
 62
     0
100
AcDbPoint
 10
286.1367417659177
 20
35.30231668125817
 30
0.0
  0
POINT
  5
1C1
330
1B8
100
AcDbEntity
  8
DEFPOINTS
 62
     0
100
AcDbPoint
 10
286.7367417659178
 20
35.30231668125817
 30
0.0
  0
POINT
  5
1C2
330
1B8
100
AcDbEntity
  8
DEFPOINTS
 62
     0
100
AcDbPoint
 10
286.7367417659178
 20
34.56562200535306
 30
0.0
  0
ENDBLK
  5
1C4
330
1B8
100
AcDbEntity
  8
0
100
AcDbBlockEnd
  0
BLOCK
  5
1D2
330
1C6
100
AcDbEntity
  8
0
100
AcDbBlockBegin
  2
*D8
 70
     1
 10
0.0
 20
0.0
 30
0.0
  3
*D8
  1

  0
LINE
  5
1C7
330
1C6
100
AcDbEntity
  8
0
 62
     0
100
AcDbLine
 10
286.7992417659178
 20
35.30231668125817
 30
0.0
 11
287.5292753889696
 21
35.30231668125817
 31
0.0
  0
LINE
  5
1C8
330
1C6
100
AcDbEntity
  8
0
 62
     0
100
AcDbLine
 10
286.7992417659178
 20
36.05231668125817
 30
0.0
 11
287.5292753889696
 21
36.05231668125817
 31
0.0
  0
LINE
  5
1C9
330
1C6
100
AcDbEntity
  8
0
 62
     0
100
AcDbLine
 10
287.3492753889697
 20
35.48231668125817
 30
0.0
 11
287.3492753889697
 21
35.87231668125815
 31
0.0
  0
LINE
  5
1CA
330
1C6
100
AcDbEntity
  8
0
 62
     0
100
AcDbLine
 10
287.3492753889697
 20
36.05231668125817
 30
0.0
 11
287.3492753889697
 21
36.23231668125815
 31
0.0
  0
LINE
  5
1CB
330
1C6
100
AcDbEntity
  8
0
 62
     0
100
AcDbLine
 10
287.3492753889697
 20
36.23231668125815
 30
0.0
 11
287.5292753889696
 21
36.23231668125815
 31
0.0
  0
SOLID
  5
1CC
330
1C6
100
AcDbEntity
  8
0
 62
     0
100
AcDbTrace
 10
287.3192753889696
 20
35.48231668125817
 30
0.0
 11
287.3792753889696
 21
35.48231668125817
 31
0.0
 12
287.3492753889697
 22
35.30231668125817
 32
0.0
 13
287.3492753889697
 23
35.30231668125817
 33
0.0
  0
SOLID
  5
1CD
330
1C6
100
AcDbEntity
  8
0
 62
     0
100
AcDbTrace
 10
287.3192753889696
 20
35.87231668125815
 30
0.0
 11
287.3792753889696
 21
35.87231668125815
 31
0.0
 12
287.3492753889697
 22
36.05231668125817
 32
0.0
 13
287.3492753889697
 23
36.05231668125817
 33
0.0
  0
MTEXT
  5
1CE
330
1C6
100
AcDbEntity
  8
0
 62
     0
100
AcDbMText
 10
288.0242753889696
 20
36.23231668125821
 30
0.0
 40
0.18
 41
0.0
 71
     5
 72
     1
  1
\A1;0.7500
 73
     1
 44
1.0
1001
ACAD
1000
MTEXTBEGIN
1070
    73
1070
     1
1070
    44
1040
1.0
1070
    74
1070
     0
1000
MTEXTEND
  0
POINT
  5
1CF
330
1C6
100
AcDbEntity
  8
DEFPOINTS
 62
     0
100
AcDbPoint
 10
286.7367417659178
 20
35.30231668125817
 30
0.0
  0
POINT
  5
1D0
330
1C6
100
AcDbEntity
  8
DEFPOINTS
 62
     0
100
AcDbPoint
 10
286.7367417659178
 20
36.05231668125817
 30
0.0
  0
POINT
  5
1D1
330
1C6
100
AcDbEntity
  8
DEFPOINTS
 62
     0
100
AcDbPoint
 10
287.3492753889697
 20
36.05231668125817
 30
0.0
  0
ENDBLK
  5
1D3
330
1C6
100
AcDbEntity
  8
0
100
AcDbBlockEnd
  0
BLOCK
  5
21F
330
214
100
AcDbEntity
  8
0
100
AcDbBlockBegin
  2
*D9
 70
     1
 10
0.0
 20
0.0
 30
0.0
  3
*D9
  1

  0
LINE
  5
215
330
214
100
AcDbEntity
  8
0
 62
     0
370
    -2
100
AcDbLine
 10
287.4000619722829
 20
36.87708482308933
 30
0.0
 11
289.1717306646425
 21
36.87708482308933
 31
0.0
  0
LINE
  5
216
330
214
100
AcDbEntity
  8
0
 62
     0
370
    -2
100
AcDbLine
 10
287.100061972283
 20
34.32708482308933
 30
0.0
 11
289.1717306646425
 21
34.32708482308933
 31
0.0
  0
LINE
  5
217
330
214
100
AcDbEntity
  8
0
 62
     0
370
    -2
100
AcDbLine
 10
288.9917306646424
 20
36.69708482308933
 30
0.0
 11
288.9917306646424
 21
35.78208482308933
 31
0.0
  0
LINE
  5
218
330
214
100
AcDbEntity
  8
0
 62
     0
370
    -2
100
AcDbLine
 10
288.9917306646424
 20
34.50708482308932
 30
0.0
 11
288.9917306646424
 21
35.42208482308933
 31
0.0
  0
SOLID
  5
219
330
214
100
AcDbEntity
  8
0
 62
     0
100
AcDbTrace
 10
288.9617306646425
 20
36.69708482308933
 30
0.0
 11
289.0217306646424
 21
36.69708482308933
 31
0.0
 12
288.9917306646424
 22
36.87708482308933
 32
0.0
 13
288.9917306646424
 23
36.87708482308933
 33
0.0
  0
SOLID
  5
21A
330
214
100
AcDbEntity
  8
0
 62
     0
100
AcDbTrace
 10
288.9617306646425
 20
34.50708482308932
 30
0.0
 11
289.0217306646424
 21
34.50708482308932
 31
0.0
 12
288.9917306646424
 22
34.32708482308933
 32
0.0
 13
288.9917306646424
 23
34.32708482308933
 33
0.0
  0
MTEXT
  5
21B
330
214
100
AcDbEntity
  8
0
 62
     0
100
AcDbMText
 10
288.9917306646424
 20
35.60208482308938
 30
0.0
 40
0.18
 41
0.0
 71
     5
 72
     1
  1
\A1;2.5500
 73
     1
 44
1.0
  0
POINT
  5
21C
330
214
100
AcDbEntity
  8
DEFPOINTS
 62
     0
100
AcDbPoint
 10
287.3375619722829
 20
36.87708482308933
 30
0.0
  0
POINT
  5
21D
330
214
100
AcDbEntity
  8
DEFPOINTS
 62
     0
100
AcDbPoint
 10
287.037561972283
 20
34.32708482308933
 30
0.0
  0
POINT
  5
21E
330
214
100
AcDbEntity
  8
DEFPOINTS
 62
     0
100
AcDbPoint
 10
288.9917306646424
 20
34.32708482308933
 30
0.0
  0
ENDBLK
  5
220
330
214
100
AcDbEntity
  8
0
100
AcDbBlockEnd
  0
BLOCK
  5
22E
330
222
100
AcDbEntity
  8
0
100
AcDbBlockBegin
  2
*D10
 70
     1
 10
0.0
 20
0.0
 30
0.0
  3
*D10
  1

  0
LINE
  5
23B
330
222
100
AcDbEntity
  8
0
 62
     0
370
    -2
100
AcDbLine
 10
287.4000619722829
 20
34.62708482308932
 30
0.0
 11
287.8638591624032
 21
34.62708482308932
 31
0.0
  0
LINE
  5
23C
330
222
100
AcDbEntity
  8
0
 62
     0
370
    -2
100
AcDbLine
 10
287.100061972283
 20
34.32708482308933
 30
0.0
 11
287.8638591624032
 21
34.32708482308933
 31
0.0
  0
LINE
  5
23D
330
222
100
AcDbEntity
  8
0
 62
     0
370
    -2
100
AcDbLine
 10
287.6838591624032
 20
34.14708482308933
 30
0.0
 11
287.6838591624032
 21
33.96708482308933
 31
0.0
  0
LINE
  5
23E
330
222
100
AcDbEntity
  8
0
 62
     0
370
    -2
100
AcDbLine
 10
287.6838591624032
 20
34.80708482308932
 30
0.0
 11
287.6838591624032
 21
34.98708482308932
 31
0.0
  0
LINE
  5
23F
330
222
100
AcDbEntity
  8
0
 62
     0
370
    -2
100
AcDbLine
 10
287.6838591624032
 20
34.98708482308932
 30
0.0
 11
287.8638591624032
 21
34.98708482308932
 31
0.0
  0
SOLID
  5
240
330
222
100
AcDbEntity
  8
0
 62
     0
100
AcDbTrace
 10
287.6538591624032
 20
34.14708482308933
 30
0.0
 11
287.7138591624031
 21
34.14708482308933
 31
0.0
 12
287.6838591624032
 22
34.32708482308933
 32
0.0
 13
287.6838591624032
 23
34.32708482308933
 33
0.0
  0
SOLID
  5
241
330
222
100
AcDbEntity
  8
0
 62
     0
100
AcDbTrace
 10
287.6538591624032
 20
34.80708482308932
 30
0.0
 11
287.7138591624031
 21
34.80708482308932
 31
0.0
 12
287.6838591624032
 22
34.62708482308932
 32
0.0
 13
287.6838591624032
 23
34.62708482308932
 33
0.0
  0
MTEXT
  5
242
330
222
100
AcDbEntity
  8
0
 62
     0
100
AcDbMText
 10
288.3438591624032
 20
34.98708482308936
 30
0.0
 40
0.18
 41
0.0
 71
     5
 72
     1
  1
\A1;0.3000
 73
     1
 44
1.0
  0
POINT
  5
243
330
222
100
AcDbEntity
  8
DEFPOINTS
 62
     0
100
AcDbPoint
 10
287.3375619722829
 20
34.62708482308932
 30
0.0
  0
POINT
  5
244
330
222
100
AcDbEntity
  8
DEFPOINTS
 62
     0
100
AcDbPoint
 10
287.037561972283
 20
34.32708482308933
 30
0.0
  0
POINT
  5
245
330
222
100
AcDbEntity
  8
DEFPOINTS
 62
     0
100
AcDbPoint
 10
287.6838591624032
 20
34.32708482308933
 30
0.0
  0
ENDBLK
  5
22F
330
222
100
AcDbEntity
  8
0
100
AcDbBlockEnd
  0
BLOCK
  5
252
330
247
100
AcDbEntity
  8
0
100
AcDbBlockBegin
  2
*D11
 70
     1
 10
0.0
 20
0.0
 30
0.0
  3
*D11
  1

  0
LINE
  5
254
330
247
100
AcDbEntity
  8
0
 62
     0
370
    -2
100
AcDbLine
 10
287.3375619722829
 20
34.56458482308931
 30
0.0
 11
287.3375619722829
 21
33.41017032232869
 31
0.0
  0
LINE
  5
255
330
247
100
AcDbEntity
  8
0
 62
     0
370
    -2
100
AcDbLine
 10
287.037561972283
 20
34.26458482308933
 30
0.0
 11
287.037561972283
 21
33.41017032232869
 31
0.0
  0
LINE
  5
256
330
247
100
AcDbEntity
  8
0
 62
     0
370
    -2
100
AcDbLine
 10
286.857561972283
 20
33.59017032232869
 30
0.0
 11
286.677561972283
 21
33.59017032232869
 31
0.0
  0
LINE
  5
257
330
247
100
AcDbEntity
  8
0
 62
     0
370
    -2
100
AcDbLine
 10
287.5175619722829
 20
33.59017032232869
 30
0.0
 11
287.6975619722829
 21
33.59017032232869
 31
0.0
  0
SOLID
  5
258
330
247
100
AcDbEntity
  8
0
 62
     0
100
AcDbTrace
 10
286.857561972283
 20
33.62017032232869
 30
0.0
 11
286.857561972283
 21
33.56017032232869
 31
0.0
 12
287.037561972283
 22
33.59017032232869
 32
0.0
 13
287.037561972283
 23
33.59017032232869
 33
0.0
  0
SOLID
  5
259
330
247
100
AcDbEntity
  8
0
 62
     0
100
AcDbTrace
 10
287.5175619722829
 20
33.62017032232869
 30
0.0
 11
287.5175619722829
 21
33.56017032232869
 31
0.0
 12
287.3375619722829
 22
33.59017032232869
 32
0.0
 13
287.3375619722829
 23
33.59017032232869
 33
0.0
  0
MTEXT
  5
25A
330
247
100
AcDbEntity
  8
0
 62
     0
100
AcDbMText
 10
288.1775619722829
 20
33.59017032232869
 30
0.0
 40
0.18
 41
0.0
 71
     5
 72
     1
  1
\A1;0.3000
 73
     1
 44
1.0
  0
POINT
  5
25B
330
247
100
AcDbEntity
  8
DEFPOINTS
 62
     0
100
AcDbPoint
 10
287.3375619722829
 20
34.62708482308932
 30
0.0
  0
POINT
  5
25C
330
247
100
AcDbEntity
  8
DEFPOINTS
 62
     0
100
AcDbPoint
 10
287.037561972283
 20
34.32708482308933
 30
0.0
  0
POINT
  5
25D
330
247
100
AcDbEntity
  8
DEFPOINTS
 62
     0
100
AcDbPoint
 10
287.037561972283
 20
33.59017032232869
 30
0.0
  0
ENDBLK
  5
253
330
247
100
AcDbEntity
  8
0
100
AcDbBlockEnd
  0
BLOCK
  5
26A
330
25F
100
AcDbEntity
  8
0
100
AcDbBlockBegin
  2
*D12
 70
     1
 10
0.0
 20
0.0
 30
0.0
  3
*D12
  1

  0
LINE
  5
260
330
25F
100
AcDbEntity
  8
0
 62
     0
370
    -2
100
AcDbLine
 10
286.2375619722829
 20
34.26458482308933
 30
0.0
 11
286.2375619722829
 21
33.41017032232869
 31
0.0
  0
LINE
  5
261
330
25F
100
AcDbEntity
  8
0
 62
     0
370
    -2
100
AcDbLine
 10
285.087561972283
 20
34.56458482308931
 30
0.0
 11
285.087561972283
 21
33.41017032232869
 31
0.0
  0
LINE
  5
262
330
25F
100
AcDbEntity
  8
0
 62
     0
370
    -2
100
AcDbLine
 10
286.417561972283
 20
33.59017032232869
 30
0.0
 11
286.597561972283
 21
33.59017032232869
 31
0.0
  0
LINE
  5
263
330
25F
100
AcDbEntity
  8
0
 62
     0
370
    -2
100
AcDbLine
 10
284.907561972283
 20
33.59017032232869
 30
0.0
 11
284.727561972283
 21
33.59017032232869
 31
0.0
  0
SOLID
  5
264
330
25F
100
AcDbEntity
  8
0
 62
     0
100
AcDbTrace
 10
286.417561972283
 20
33.62017032232869
 30
0.0
 11
286.417561972283
 21
33.56017032232869
 31
0.0
 12
286.2375619722829
 22
33.59017032232869
 32
0.0
 13
286.2375619722829
 23
33.59017032232869
 33
0.0
  0
SOLID
  5
265
330
25F
100
AcDbEntity
  8
0
 62
     0
100
AcDbTrace
 10
284.907561972283
 20
33.62017032232869
 30
0.0
 11
284.907561972283
 21
33.56017032232869
 31
0.0
 12
285.087561972283
 22
33.59017032232869
 32
0.0
 13
285.087561972283
 23
33.59017032232869
 33
0.0
  0
MTEXT
  5
266
330
25F
100
AcDbEntity
  8
0
 62
     0
100
AcDbMText
 10
285.662561972283
 20
33.59017032232869
 30
0.0
 40
0.18
 41
0.0
 71
     5
 72
     1
  1
\A1;1.1500
 73
     1
 44
1.0
  0
POINT
  5
267
330
25F
100
AcDbEntity
  8
DEFPOINTS
 62
     0
100
AcDbPoint
 10
286.2375619722829
 20
34.32708482308933
 30
0.0
  0
POINT
  5
268
330
25F
100
AcDbEntity
  8
DEFPOINTS
 62
     0
100
AcDbPoint
 10
285.087561972283
 20
34.62708482308932
 30
0.0
  0
POINT
  5
269
330
25F
100
AcDbEntity
  8
DEFPOINTS
 62
     0
100
AcDbPoint
 10
285.087561972283
 20
33.59017032232869
 30
0.0
  0
ENDBLK
  5
26B
330
25F
100
AcDbEntity
  8
0
100
AcDbBlockEnd
  0
BLOCK
  5
278
330
26D
100
AcDbEntity
  8
0
100
AcDbBlockBegin
  2
*D13
 70
     1
 10
0.0
 20
0.0
 30
0.0
  3
*D13
  1

  0
LINE
  5
26E
330
26D
100
AcDbEntity
  8
0
 62
     0
370
    -2
100
AcDbLine
 10
286.2375619722829
 20
33.34767032232869
 30
0.0
 11
286.2375619722829
 21
32.76834155233922
 31
0.0
  0
LINE
  5
26F
330
26D
100
AcDbEntity
  8
0
 62
     0
370
    -2
100
AcDbLine
 10
287.037561972283
 20
33.34767032232869
 30
0.0
 11
287.037561972283
 21
32.76834155233922
 31
0.0
  0
LINE
  5
270
330
26D
100
AcDbEntity
  8
0
 62
     0
370
    -2
100
AcDbLine
 10
286.417561972283
 20
32.94834155233922
 30
0.0
 11
286.857561972283
 21
32.94834155233922
 31
0.0
  0
LINE
  5
271
330
26D
100
AcDbEntity
  8
0
 62
     0
370
    -2
100
AcDbLine
 10
287.037561972283
 20
32.94834155233922
 30
0.0
 11
287.217561972283
 21
32.94834155233922
 31
0.0
  0
SOLID
  5
272
330
26D
100
AcDbEntity
  8
0
 62
     0
100
AcDbTrace
 10
286.417561972283
 20
32.97834155233922
 30
0.0
 11
286.417561972283
 21
32.91834155233922
 31
0.0
 12
286.2375619722829
 22
32.94834155233922
 32
0.0
 13
286.2375619722829
 23
32.94834155233922
 33
0.0
  0
SOLID
  5
273
330
26D
100
AcDbEntity
  8
0
 62
     0
100
AcDbTrace
 10
286.857561972283
 20
32.97834155233922
 30
0.0
 11
286.857561972283
 21
32.91834155233922
 31
0.0
 12
287.037561972283
 22
32.94834155233922
 32
0.0
 13
287.037561972283
 23
32.94834155233922
 33
0.0
  0
MTEXT
  5
274
330
26D
100
AcDbEntity
  8
0
 62
     0
100
AcDbMText
 10
287.697561972283
 20
32.94834155233922
 30
0.0
 40
0.18
 41
0.0
 71
     5
 72
     1
  1
\A1;0.8000
 73
     1
 44
1.0
  0
POINT
  5
275
330
26D
100
AcDbEntity
  8
DEFPOINTS
 62
     0
100
AcDbPoint
 10
286.2375619722829
 20
33.41017032232869
 30
0.0
  0
POINT
  5
276
330
26D
100
AcDbEntity
  8
DEFPOINTS
 62
     0
100
AcDbPoint
 10
287.037561972283
 20
33.41017032232869
 30
0.0
  0
POINT
  5
277
330
26D
100
AcDbEntity
  8
DEFPOINTS
 62
     0
100
AcDbPoint
 10
287.037561972283
 20
32.94834155233922
 30
0.0
  0
ENDBLK
  5
279
330
26D
100
AcDbEntity
  8
0
100
AcDbBlockEnd
  0
BLOCK
  5
286
330
27B
100
AcDbEntity
  8
0
100
AcDbBlockBegin
  2
*D14
 70
     1
 10
0.0
 20
0.0
 30
0.0
  3
*D14
  1

  0
LINE
  5
27C
330
27B
100
AcDbEntity
  8
0
 62
     0
370
    -2
100
AcDbLine
 10
285.0875619722831
 20
36.93958482308933
 30
0.0
 11
285.0875619722831
 21
37.62114294226552
 31
0.0
  0
LINE
  5
27D
330
27B
100
AcDbEntity
  8
0
 62
     0
370
    -2
100
AcDbLine
 10
287.3375619722829
 20
36.93958482308933
 30
0.0
 11
287.3375619722829
 21
37.62114294226552
 31
0.0
  0
LINE
  5
27E
330
27B
100
AcDbEntity
  8
0
 62
     0
370
    -2
100
AcDbLine
 10
285.267561972283
 20
37.44114294226552
 30
0.0
 11
285.702561972283
 21
37.44114294226552
 31
0.0
  0
LINE
  5
27F
330
27B
100
AcDbEntity
  8
0
 62
     0
370
    -2
100
AcDbLine
 10
287.1575619722829
 20
37.44114294226552
 30
0.0
 11
286.722561972283
 21
37.44114294226552
 31
0.0
  0
SOLID
  5
280
330
27B
100
AcDbEntity
  8
0
 62
     0
100
AcDbTrace
 10
285.267561972283
 20
37.47114294226552
 30
0.0
 11
285.267561972283
 21
37.41114294226552
 31
0.0
 12
285.0875619722831
 22
37.44114294226552
 32
0.0
 13
285.0875619722831
 23
37.44114294226552
 33
0.0
  0
SOLID
  5
281
330
27B
100
AcDbEntity
  8
0
 62
     0
100
AcDbTrace
 10
287.1575619722829
 20
37.47114294226552
 30
0.0
 11
287.1575619722829
 21
37.41114294226552
 31
0.0
 12
287.3375619722829
 22
37.44114294226552
 32
0.0
 13
287.3375619722829
 23
37.44114294226552
 33
0.0
  0
MTEXT
  5
282
330
27B
100
AcDbEntity
  8
0
 62
     0
100
AcDbMText
 10
286.212561972283
 20
37.44114294226552
 30
0.0
 40
0.18
 41
0.0
 71
     5
 72
     1
  1
\A1;2.2500
 73
     1
 44
1.0
  0
POINT
  5
283
330
27B
100
AcDbEntity
  8
DEFPOINTS
 62
     0
100
AcDbPoint
 10
285.0875619722831
 20
36.87708482308933
 30
0.0
  0
POINT
  5
284
330
27B
100
AcDbEntity
  8
DEFPOINTS
 62
     0
100
AcDbPoint
 10
287.3375619722829
 20
36.87708482308933
 30
0.0
  0
POINT
  5
285
330
27B
100
AcDbEntity
  8
DEFPOINTS
 62
     0
100
AcDbPoint
 10
287.3375619722829
 20
37.44114294226552
 30
0.0
  0
ENDBLK
  5
287
330
27B
100
AcDbEntity
  8
0
100
AcDbBlockEnd
  0
ENDSEC
  0
SECTION
  2
ENTITIES
  0
TEXT
  5
2C
330
1E
100
AcDbEntity
  8
0
  6
Continuous
100
AcDbText
 10
287.2805487186718
 20
41.39364127471099
 30
0.0
 40
0.1
  1
2
  7
ROMANC
100
AcDbText
  0
TEXT
  5
2D
330
1E
100
AcDbEntity
  8
0
  6
Continuous
100
AcDbText
 10
283.9259999999999
 20
41.768
 30
0.0
 40
0.3
  1
ESCALA  1:50
  7
ROMANC
100
AcDbText
  0
LWPOLYLINE
  5
2E
330
1E
100
AcDbEntity
  8
0
  6
Continuous
100
AcDbPolyline
 90
        4
 70
     1
 43
0.0
 10
281.3959999999998
 20
44.747
 10
291.8959999999998
 20
44.747
 10
291.8959999999998
 20
29.897
 10
281.3959999999998
 20
29.897
  0
TEXT
  5
34
330
1E
100
AcDbEntity
  8
0
  6
Continuous
100
AcDbText
 10
283.9259999999999
 20
42.381
 30
0.0
 40
0.3
  1
TIPUS   NT530A
  7
ROMANC
100
AcDbText
  0
TEXT
  5
3C
330
1E
100
AcDbEntity
  8
0
  6
Continuous
100
AcDbText
 10
283.9449999999999
 20
41.09899999999997
 30
0.0
 40
0.3
  1
S = 530 dm
  7
ROMANC
100
AcDbText
  0
TEXT
  5
3D
330
1E
100
AcDbEntity
  8
0
  6
Continuous
100
AcDbText
 10
283.922
 20
40.529
 30
0.0
 40
0.3
  1
P = 96 dm
  7
ROMANC
100
AcDbText
  0
LWPOLYLINE
  5
212
330
1E
100
AcDbEntity
  8
0
100
AcDbPolyline
 90
        8
 70
     1
 43
0.0
 10
286.2375619722829
 20
34.32708482308933
 10
286.2375619722829
 20
34.62708482308932
 10
285.087561972283
 20
34.62708482308932
 10
285.0875619722831
 20
36.87708482308933
 10
287.3375619722829
 20
36.87708482308933
 10
287.3375619722829
 20
34.62708482308932
 10
287.0375619722829
 20
34.62708482308932
 10
287.037561972283
 20
34.32708482308933
  0
DIMENSION
  5
213
330
1E
100
AcDbEntity
  8
0
100
AcDbDimension
  2
*D9
 10
288.9917306646424
 20
34.32708482308933
 30
0.0
 11
288.9917306646424
 21
35.60208482308938
 31
0.0
 70
    32
 71
     5
 42
2.550000000000004
  3
STANDARD
100
AcDbAlignedDimension
 13
287.3375619722829
 23
36.87708482308933
 33
0.0
 14
287.037561972283
 24
34.32708482308933
 34
0.0
 50
90.0
100
AcDbRotatedDimension
  0
DIMENSION
  5
221
330
1E
100
AcDbEntity
  8
0
100
AcDbDimension
  2
*D10
 10
287.6838591624032
 20
34.32708482308933
 30
0.0
 11
288.3438591624032
 21
34.98708482308936
 31
0.0
 70
   160
 71
     5
 42
0.29999999999999
  3
STANDARD
100
AcDbAlignedDimension
 13
287.3375619722829
 23
34.62708482308932
 33
0.0
 14
287.037561972283
 24
34.32708482308933
 34
0.0
 50
90.0
100
AcDbRotatedDimension
  0
DIMENSION
  5
246
330
1E
100
AcDbEntity
  8
0
100
AcDbDimension
  2
*D11
 10
287.037561972283
 20
33.59017032232869
 30
0.0
 11
288.1775619722829
 21
33.59017032232869
 31
0.0
 70
   160
 71
     5
 42
0.2999999999999545
  3
STANDARD
100
AcDbAlignedDimension
 13
287.3375619722829
 23
34.62708482308932
 33
0.0
 14
287.037561972283
 24
34.32708482308933
 34
0.0
100
AcDbRotatedDimension
  0
DIMENSION
  5
25E
330
1E
100
AcDbEntity
  8
0
100
AcDbDimension
  2
*D12
 10
285.087561972283
 20
33.59017032232869
 30
0.0
 11
285.662561972283
 21
33.59017032232869
 31
0.0
 70
    32
 71
     5
 42
1.149999999999977
  3
STANDARD
100
AcDbAlignedDimension
 13
286.2375619722829
 23
34.32708482308933
 33
0.0
 14
285.087561972283
 24
34.62708482308932
 34
0.0
100
AcDbRotatedDimension
  0
DIMENSION
  5
26C
330
1E
100
AcDbEntity
  8
0
100
AcDbDimension
  2
*D13
 10
287.037561972283
 20
32.94834155233922
 30
0.0
 11
287.697561972283
 21
32.94834155233922
 31
0.0
 70
    32
 71
     5
 42
0.8000000000000113
  3
STANDARD
100
AcDbAlignedDimension
 13
286.2375619722829
 23
33.41017032232869
 33
0.0
 14
287.037561972283
 24
33.41017032232869
 34
0.0
100
AcDbRotatedDimension
  0
DIMENSION
  5
27A
330
1E
100
AcDbEntity
  8
0
100
AcDbDimension
  2
*D14
 10
287.3375619722829
 20
37.44114294226552
 30
0.0
 11
286.212561972283
 21
37.44114294226552
 31
0.0
 70
    32
 71
     5
 42
2.249999999999886
  3
STANDARD
100
AcDbAlignedDimension
 13
285.0875619722831
 23
36.87708482308933
 33
0.0
 14
287.3375619722829
 24
36.87708482308933
 34
0.0
100
AcDbRotatedDimension
  0
LWPOLYLINE
  5
288
330
1E
100
AcDbEntity
  8
0
100
AcDbPolyline
 90
        8
 70
     1
 43
0.0
 10
286.2475619722829
 20
34.33708482308932
 10
286.2475619722829
 20
34.63708482308932
 10
285.097561972283
 20
34.63708482308931
 10
285.097561972283
 20
36.86708482308933
 10
287.3275619722829
 20
36.86708482308933
 10
287.3275619722829
 20
34.63708482308931
 10
287.0275619722829
 20
34.63708482308932
 10
287.027561972283
 20
34.33708482308932
  0
LWPOLYLINE
  5
289
330
1E
100
AcDbEntity
  8
0
100
AcDbPolyline
 90
        8
 70
     1
 43
0.0
 10
286.227561972283
 20
34.31708482308933
 10
286.227561972283
 20
34.61708482308933
 10
285.077561972283
 20
34.61708482308932
 10
285.077561972283
 20
36.88708482308933
 10
287.3475619722829
 20
36.88708482308933
 10
287.3475619722829
 20
34.61708482308932
 10
287.0475619722829
 20
34.61708482308933
 10
287.047561972283
 20
34.31708482308933
  0
VIEWPORT
  5
1D9
330
1A
100
AcDbEntity
 67
     1
  8
0
100
AcDbViewport
 10
99.980751991272
 20
143.3935842514038
 30
0.0
 40
440.9297543499659
 41
314.2372683715819
 68
     1
 69
     1
 12
99.980751991272
 22
143.3935842514038
 13
0.0
 23
0.0
 14
10.0
 24
10.0
 15
10.0
 25
10.0
 16
0.0
 26
0.0
 36
1.0
 17
0.0
 27
0.0
 37
0.0
 42
50.0
 43
0.0
 44
0.0
 45
314.2372683715819
 50
0.0
 51
0.0
 72
   100
 90
    32800
  1

281
     0
 71
     1
 74
     0
110
0.0
120
0.0
130
0.0
111
1.0
121
0.0
131
0.0
112
0.0
122
1.0
132
0.0
 79
     0
146
0.0
  0
VIEWPORT
  5
1DB
330
1A
100
AcDbEntity
 67
     1
  8
0
100
AcDbViewport
 10
99.980751991272
 20
143.3935842514036
 30
0.0
 40
199.2902839821538
 41
285.8513345476648
 68
     2
 69
     2
 12
286.6488322780007
 22
37.31916769001135
 13
0.0
 23
0.0
 14
1.0
 24
1.0
 15
0.0
 25
0.0
 16
0.0
 26
0.0
 36
1.0
 17
0.0
 27
0.0
 37
0.0
 42
50.0
 43
0.0
 44
0.0
 45
15.39450171875231
 50
0.0
 51
0.0
 72
   100
 90
    32800
  1

281
     0
 71
     1
 74
     0
110
0.0
120
0.0
130
0.0
111
1.0
121
0.0
131
0.0
112
0.0
122
1.0
132
0.0
 79
     0
146
0.0
  0
ENDSEC
  0
SECTION
  2
OBJECTS
  0
DICTIONARY
  5
C
330
0
100
AcDbDictionary
281
     1
  3
ACAD_GROUP
350
D
  3
ACAD_LAYOUT
350
19
  3
ACAD_MLINESTYLE
350
16
  3
ACAD_PLOTSETTINGS
350
18
  3
ACAD_PLOTSTYLENAME
350
E
  0
DICTIONARY
  5
1AC
330
1E
100
AcDbDictionary
280
     1
281
     1
  3
ACAD_LAYOUTSELFREF
360
1FE
  0
DICTIONARY
  5
1AA
330
1A
100
AcDbDictionary
280
     1
281
     1
  3
ACAD_LAYOUTSELFREF
360
1FD
  0
DICTIONARY
  5
D
102
{ACAD_REACTORS
330
C
102
}
330
C
100
AcDbDictionary
281
     1
  0
DICTIONARY
  5
19
102
{ACAD_REACTORS
330
C
102
}
330
C
100
AcDbDictionary
281
     1
  3
Model
350
205
  3
Presentación1
350
206
  0
DICTIONARY
  5
16
102
{ACAD_REACTORS
330
C
102
}
330
C
100
AcDbDictionary
281
     1
  3
STANDARD
350
17
  0
DICTIONARY
  5
18
102
{ACAD_REACTORS
330
C
102
}
330
C
100
AcDbDictionary
281
     1
  0
ACDBDICTIONARYWDFLT
  5
E
102
{ACAD_REACTORS
330
C
102
}
330
C
100
AcDbDictionary
281
     1
  3
Normal
350
F
100
AcDbDictionaryWithDefault
340
F
  0
XRECORD
  5
1FE
102
{ACAD_REACTORS
330
1AC
102
}
330
1AC
100
AcDbXrecord
280
     1
340
1E
  0
XRECORD
  5
1FD
102
{ACAD_REACTORS
330
1AA
102
}
330
1AA
100
AcDbXrecord
280
     1
340
1A
  0
LAYOUT
  5
205
102
{ACAD_REACTORS
330
19
102
}
330
19
100
AcDbPlotSettings
  1

  2
HP DesignJet 750C/PS FILE
  4

  6

 40
0.0
 41
0.0
 42
0.0
 43
0.0
 44
0.0
 45
0.0
 46
0.0
 47
0.0
 48
0.0
 49
0.0
140
0.0
141
0.0
142
1.0
143
1.0
 70
  1712
 72
     0
 73
     0
 74
     0
  7

 75
     0
147
1.0
148
0.0
149
0.0
100
AcDbLayout
  1
Model
 70
     1
 71
     0
 10
0.0
 20
0.0
 11
12.0
 21
9.0
 12
0.0
 22
0.0
 32
0.0
 14
0.0
 24
0.0
 34
0.0
 15
0.0
 25
0.0
 35
0.0
146
0.0
 13
0.0
 23
0.0
 33
0.0
 16
1.0
 26
0.0
 36
0.0
 17
0.0
 27
1.0
 37
0.0
 76
     0
330
1E
  0
LAYOUT
  5
206
102
{ACAD_REACTORS
330
19
102
}
330
19
100
AcDbPlotSettings
  1

  2
HP DesignJet 750C/PS FILE
  4

  6

 40
0.0
 41
0.0
 42
0.0
 43
0.0
 44
0.0
 45
0.0
 46
0.0
 47
0.0
 48
0.0
 49
0.0
140
0.0
141
0.0
142
1.0
143
1.0
 70
   688
 72
     0
 73
     0
 74
     5
  7

 75
    16
147
1.0
148
0.0
149
0.0
100
AcDbLayout
  1
Presentación1
 70
     1
 71
     1
 10
-5.027083396911621
 20
-5.111741065979003
 11
204.9885873794554
 21
291.8989095687866
 12
0.0
 22
0.0
 32
0.0
 14
0.3356100001950608
 24
0.467916977571349
 34
0.0
 15
199.6258939823488
 25
286.3192515252361
 35
0.0
146
0.0
 13
0.0
 23
0.0
 33
0.0
 16
1.0
 26
0.0
 36
0.0
 17
0.0
 27
1.0
 37
0.0
 76
     0
330
1A
331
1D9
  0
MLINESTYLE
  5
17
102
{ACAD_REACTORS
330
16
102
}
330
16
100
AcDbMlineStyle
  2
STANDARD
 70
     0
  3

 62
   256
 51
90.0
 52
90.0
 71
     2
 49
0.5
 62
   256
  6
BYLAYER
 49
-0.5
 62
   256
  6
BYLAYER
  0
ACDBPLACEHOLDER
  5
F
102
{ACAD_REACTORS
330
E
102
}
330
E
  0
ENDSEC
  0
EOF
