  0
SECTION
  2
HEADER
  9
$ACADVER
  1
AC1009
  9
$INSBASE
 10
0.0
 20
0.0
 30
0.0
  9
$EXTMIN
 10
318.829805
 20
29.85788
 30
-0.001526
  9
$EXTMAX
 10
329.371339
 20
44.72551
 30
0.0
  9
$LIMMIN
 10
0.0
 20
0.0
  9
$LIMMAX
 10
410.0
 20
287.0
  9
$ORTHOMODE
 70
     1
  9
$REGENMODE
 70
     1
  9
$FILLMODE
 70
     1
  9
$QTEXTMODE
 70
     0
  9
$MIRRTEXT
 70
     1
  9
$DRAGMODE
 70
     2
  9
$LTSCALE
 40
25.0
  9
$OSMODE
 70
     0
  9
$ATTMODE
 70
     1
  9
$TEXTSIZE
 40
0.1
  9
$TRACEWID
 40
1.0
  9
$TEXTSTYLE
  7
ROMANC
  9
$CLAYER
  8
0
  9
$CELTYPE
  6
BYLAYER
  9
$CECOLOR
 62
   256
  9
$DIMSCALE
 40
1.5
  9
$DIMASZ
 40
0.1
  9
$DIMEXO
 40
0.01
  9
$DIMDLI
 40
7.0
  9
$DIMRND
 40
0.0
  9
$DIMDLE
 40
0.0
  9
$DIMEXE
 40
0.01
  9
$DIMTP
 40
0.0
  9
$DIMTM
 40
0.0
  9
$DIMTXT
 40
0.05
  9
$DIMCEN
 40
0.0
  9
$DIMTSZ
 40
0.0
  9
$DIMTOL
 70
     0
  9
$DIMLIM
 70
     0
  9
$DIMTIH
 70
     0
  9
$DIMTOH
 70
     0
  9
$DIMSE1
 70
     0
  9
$DIMSE2
 70
     0
  9
$DIMTAD
 70
     1
  9
$DIMZIN
 70
     0
  9
$DIMBLK
  1

  9
$DIMASO
 70
     1
  9
$DIMSHO
 70
     0
  9
$DIMPOST
  1

  9
$DIMAPOST
  1

  9
$DIMALT
 70
     0
  9
$DIMALTD
 70
     2
  9
$DIMALTF
 40
25.4
  9
$DIMLFAC
 40
1.0
  9
$DIMTOFL
 70
     1
  9
$DIMTVP
 40
0.0
  9
$DIMTIX
 70
     1
  9
$DIMSOXD
 70
     0
  9
$DIMSAH
 70
     0
  9
$DIMBLK1
  1

  9
$DIMBLK2
  1

  9
$DIMSTYLE
  2
MERITXELL
  9
$DIMCLRD
 70
     0
  9
$DIMCLRE
 70
     0
  9
$DIMCLRT
 70
     0
  9
$DIMTFAC
 40
70.0
  9
$DIMGAP
 40
0.025
  9
$LUNITS
 70
     2
  9
$LUPREC
 70
     2
  9
$SKETCHINC
 40
1.0
  9
$FILLETRAD
 40
0.0
  9
$AUNITS
 70
     0
  9
$AUPREC
 70
     0
  9
$MENU
  1
acad
  9
$ELEVATION
 40
0.0
  9
$PELEVATION
 40
0.0
  9
$THICKNESS
 40
0.0
  9
$LIMCHECK
 70
     0
  9
$BLIPMODE
 70
     0
  9
$CHAMFERA
 40
0.0
  9
$CHAMFERB
 40
0.0
  9
$SKPOLY
 70
     0
  9
$TDCREATE
 40
2450927.46195
  9
$TDUPDATE
 40
2451205.732747
  9
$TDINDWG
 40
0.160046
  9
$TDUSRTIMER
 40
0.160046
  9
$USRTIMER
 70
     1
  9
$ANGBASE
 50
0.0
  9
$ANGDIR
 70
     0
  9
$PDMODE
 70
     0
  9
$PDSIZE
 40
0.0
  9
$PLINEWID
 40
0.0
  9
$COORDS
 70
     2
  9
$SPLFRAME
 70
     0
  9
$SPLINETYPE
 70
     6
  9
$SPLINESEGS
 70
     8
  9
$ATTDIA
 70
     0
  9
$ATTREQ
 70
     1
  9
$HANDLING
 70
     1
  9
$HANDSEED
  5
CBC
  9
$SURFTAB1
 70
     6
  9
$SURFTAB2
 70
     6
  9
$SURFTYPE
 70
     6
  9
$SURFU
 70
     6
  9
$SURFV
 70
     6
  9
$UCSNAME
  2

  9
$UCSORG
 10
0.0
 20
0.0
 30
0.0
  9
$UCSXDIR
 10
1.0
 20
0.0
 30
0.0
  9
$UCSYDIR
 10
0.0
 20
1.0
 30
0.0
  9
$PUCSNAME
  2

  9
$PUCSORG
 10
0.0
 20
0.0
 30
0.0
  9
$PUCSXDIR
 10
1.0
 20
0.0
 30
0.0
  9
$PUCSYDIR
 10
0.0
 20
1.0
 30
0.0
  9
$USERI1
 70
     0
  9
$USERI2
 70
     0
  9
$USERI3
 70
     0
  9
$USERI4
 70
     0
  9
$USERI5
 70
     0
  9
$USERR1
 40
0.0
  9
$USERR2
 40
0.0
  9
$USERR3
 40
0.0
  9
$USERR4
 40
0.0
  9
$USERR5
 40
0.0
  9
$WORLDVIEW
 70
     1
  9
$SHADEDGE
 70
     3
  9
$SHADEDIF
 70
    70
  9
$TILEMODE
 70
     1
  9
$MAXACTVP
 70
    16
  9
$PLIMCHECK
 70
     0
  9
$PEXTMIN
 10
1.000000E+020
 20
1.000000E+020
 30
1.000000E+020
  9
$PEXTMAX
 10
-1.000000E+020
 20
-1.000000E+020
 30
-1.000000E+020
  9
$PLIMMIN
 10
0.0
 20
0.0
  9
$PLIMMAX
 10
12.0
 20
9.0
  9
$UNITMODE
 70
     0
  9
$VISRETAIN
 70
     0
  9
$PLINEGEN
 70
     0
  9
$PSLTSCALE
 70
     0
  0
ENDSEC
  0
SECTION
  2
TABLES
  0
TABLE
  2
VPORT
 70
     5
  0
VPORT
  2
*ACTIVE
 70
     0
 10
0.0
 20
0.0
 11
1.0
 21
1.0
 12
324.100572
 22
37.291695
 13
0.0
 23
0.0
 14
1.0
 24
1.0
 15
10.0
 25
10.0
 16
0.0
 26
0.0
 36
1.0
 17
0.0
 27
0.0
 37
0.0
 40
15.002178
 41
1.732628
 42
50.0
 43
0.0
 44
0.0
 50
0.0
 51
0.0
 71
     0
 72
   100
 73
     1
 74
     0
 75
     0
 76
     0
 77
     0
 78
     1
  0
ENDTAB
  0
TABLE
  2
LTYPE
 70
     1
  0
LTYPE
  2
CONTINUOUS
 70
     0
  3
Solid line
 72
    65
 73
     0
 40
0.0
  0
ENDTAB
  0
TABLE
  2
LAYER
 70
     4
  0
LAYER
  2
0
 70
     0
 62
     7
  6
CONTINUOUS
  0
LAYER
  2
DEFPOINTS
 70
     0
 62
     7
  6
CONTINUOUS
  0
LAYER
  2
COTES
 70
     0
 62
     4
  6
CONTINUOUS
  0
LAYER
  2
SECCIO
 70
     0
 62
    30
  6
CONTINUOUS
  0
ENDTAB
  0
TABLE
  2
STYLE
 70
     2
  0
STYLE
  2
STANDARD
 70
     0
 40
0.0
 41
1.0
 50
0.0
 71
     0
 42
0.1
  3
txt
  4

  0
STYLE
  2
ROMANC
 70
     0
 40
0.0
 41
1.0
 50
0.0
 71
     0
 42
0.1
  3
romanc
  4

  0
ENDTAB
  0
TABLE
  2
VIEW
 70
     0
  0
ENDTAB
  0
TABLE
  2
UCS
 70
     0
  0
ENDTAB
  0
TABLE
  2
APPID
 70
     1
  0
APPID
  2
ACAD
 70
     0
  0
ENDTAB
  0
TABLE
  2
DIMSTYLE
 70
     2
  0
DIMSTYLE
  2
MERITXELL
 70
     0
  3

  4

  5

  6

  7

 40
1.5
 41
0.1
 42
0.01
 43
7.0
 44
0.01
 45
0.0
 46
0.0
 47
0.0
 48
0.0
140
0.05
141
0.1
142
0.0
143
25.4
144
1.0
145
0.0
146
70.0
147
0.09
 71
     0
 72
     0
 73
     0
 74
     0
 75
     0
 76
     0
 77
     1
 78
     0
170
     0
171
     2
172
     1
173
     0
174
     1
175
     0
176
     0
177
     0
178
     0
  0
DIMSTYLE
  2
STANDARD
 70
     0
  3

  4

  5
TICK
  6

  7

 40
1.0
 41
0.05
 42
0.08
 43
0.08
 44
0.08
 45
0.0
 46
1.25
 47
0.0
 48
0.0
140
0.08
141
-0.08
142
0.0
143
0.039
144
1.0
145
1.0
146
1.0
147
0.08
 71
     0
 72
     0
 73
     0
 74
     0
 75
     0
 76
     0
 77
     0
 78
     0
170
     0
171
     2
172
     0
173
     0
174
     0
175
     0
176
    71
177
    71
178
     7
  0
ENDTAB
  0
ENDSEC
  0
SECTION
  2
BLOCKS
  0
BLOCK
  8
0
  2
$MODEL_SPACE
 70
     0
 10
0.0
 20
0.0
 30
0.0
  3
$MODEL_SPACE
  1

  0
ENDBLK
  5
24
  8
0
  0
BLOCK
 67
     1
  8
0
  2
$PAPER_SPACE
 70
     0
 10
0.0
 20
0.0
 30
0.0
  3
$PAPER_SPACE
  1

  0
ENDBLK
  5
22
 67
     1
  8
0
  0
BLOCK
  8
0
  2
TICK
 70
     0
 10
0.0
 20
0.0
 30
0.0
  3
TICK
  1

  0
LINE
  5
387
  8
0
  6
BYBLOCK
 62
     6
 10
-1.0
 20
-1.0
 30
0.0
 11
1.0
 21
1.0
 31
0.0
  0
LINE
  5
388
  8
0
  6
BYBLOCK
 62
    71
 10
0.0
 20
0.0
 30
0.0
 11
-1.0
 21
0.0
 31
0.0
  0
ENDBLK
  5
38A
  8
0
  0
BLOCK
  8
0
  2
*D13
 70
     1
 10
0.0
 20
0.0
 30
0.0
  3
*D13
  1

  0
LINE
  5
800
  8
0
  6
BYBLOCK
 62
    71
 10
142.056455
 20
122.778217
 30
0.0
 11
142.056455
 21
123.002231
 31
0.0
  0
LINE
  5
801
  8
0
  6
BYBLOCK
 62
    71
 10
143.056455
 20
122.778217
 30
0.0
 11
143.056455
 21
123.002231
 31
0.0
  0
LINE
  5
802
  8
0
  6
BYBLOCK
 62
    71
 10
142.106455
 20
122.922231
 30
0.0
 11
143.006455
 21
122.922231
 31
0.0
  0
INSERT
  5
803
  8
0
  6
BYBLOCK
 62
    71
  2
TICK
 10
142.056455
 20
122.922231
 30
0.0
 41
0.05
 42
0.05
 43
0.05
 50
180.0
  0
INSERT
  5
804
  8
0
  6
BYBLOCK
 62
    71
  2
TICK
 10
143.056455
 20
122.922231
 30
0.0
 41
0.05
 42
0.05
 43
0.05
  0
TEXT
  5
805
  8
0
  6
BYBLOCK
 62
     7
 10
142.463121
 20
122.962231
 30
0.0
 40
0.08
  1
1.00
 72
     1
 11
142.556455
 21
123.002231
 31
0.0
 73
     2
  0
POINT
  5
806
  8
DEFPOINTS
  6
BYBLOCK
 62
     0
 10
142.056455
 20
122.698217
 30
0.0
  0
POINT
  5
807
  8
DEFPOINTS
  6
BYBLOCK
 62
     0
 10
143.056455
 20
122.698217
 30
0.0
  0
POINT
  5
808
  8
DEFPOINTS
  6
BYBLOCK
 62
     0
 10
143.056455
 20
122.922231
 30
0.0
  0
ENDBLK
  5
80A
  8
0
  0
BLOCK
  8
0
  2
*D14
 70
     1
 10
0.0
 20
0.0
 30
0.0
  3
*D14
  1

  0
LINE
  5
80C
  8
0
  6
BYBLOCK
 62
    71
 10
143.056455
 20
122.778217
 30
0.0
 11
143.056455
 21
123.002231
 31
0.0
  0
LINE
  5
80D
  8
0
  6
BYBLOCK
 62
    71
 10
144.056455
 20
122.478217
 30
0.0
 11
144.056455
 21
123.002231
 31
0.0
  0
LINE
  5
80E
  8
0
  6
BYBLOCK
 62
    71
 10
143.106455
 20
122.922231
 30
0.0
 11
144.006455
 21
122.922231
 31
0.0
  0
INSERT
  5
80F
  8
0
  6
BYBLOCK
 62
    71
  2
TICK
 10
143.056455
 20
122.922231
 30
0.0
 41
0.05
 42
0.05
 43
0.05
 50
180.0
  0
INSERT
  5
810
  8
0
  6
BYBLOCK
 62
    71
  2
TICK
 10
144.056455
 20
122.922231
 30
0.0
 41
0.05
 42
0.05
 43
0.05
  0
TEXT
  5
811
  8
0
  6
BYBLOCK
 62
     7
 10
143.463121
 20
122.962231
 30
0.0
 40
0.08
  1
1.00
 72
     1
 11
143.556455
 21
123.002231
 31
0.0
 73
     2
  0
POINT
  5
812
  8
DEFPOINTS
  6
BYBLOCK
 62
     0
 10
143.056455
 20
122.698217
 30
0.0
  0
POINT
  5
813
  8
DEFPOINTS
  6
BYBLOCK
 62
     0
 10
144.056455
 20
122.398217
 30
0.0
  0
POINT
  5
814
  8
DEFPOINTS
  6
BYBLOCK
 62
     0
 10
144.056455
 20
122.922231
 30
0.0
  0
ENDBLK
  5
816
  8
0
  0
BLOCK
  8
0
  2
*D15
 70
     1
 10
0.0
 20
0.0
 30
0.0
  3
*D15
  1

  0
LINE
  5
818
  8
0
  6
BYBLOCK
 62
    71
 10
143.056455
 20
124.948217
 30
0.0
 11
143.056455
 21
124.513095
 31
0.0
  0
LINE
  5
819
  8
0
  6
BYBLOCK
 62
    71
 10
143.056455
 20
124.513095
 30
0.0
 11
143.056455
 21
124.113095
 31
0.0
  0
INSERT
  5
81A
  8
0
  6
BYBLOCK
 62
    71
  2
TICK
 10
143.056455
 20
124.998217
 30
0.0
 41
0.05
 42
0.05
 43
0.05
 50
90.0
  0
TEXT
  5
81B
  8
0
  6
BYBLOCK
 62
     7
 10
143.016455
 20
124.139762
 30
0.0
 40
0.08
  1
R1.00
 50
90.0
 72
     1
 11
142.976455
 21
124.273095
 31
0.0
 73
     2
  0
POINT
  5
81C
  8
DEFPOINTS
  6
BYBLOCK
 62
     0
 10
143.056455
 20
124.998217
 30
0.0
  0
POINT
  5
81D
  8
DEFPOINTS
  6
BYBLOCK
 62
     0
 10
143.056455
 20
123.998217
 30
0.0
  0
ENDBLK
  5
81F
  8
0
  0
BLOCK
  8
0
  2
*D16
 70
     1
 10
0.0
 20
0.0
 30
0.0
  3
*D16
  1

  0
LINE
  5
821
  8
0
  6
BYBLOCK
 62
    71
 10
141.806455
 20
122.018217
 30
0.0
 11
141.806455
 21
121.65475
 31
0.0
  0
LINE
  5
822
  8
0
  6
BYBLOCK
 62
    71
 10
142.056455
 20
122.016422
 30
0.0
 11
142.056455
 21
121.65475
 31
0.0
  0
LINE
  5
823
  8
0
  6
BYBLOCK
 62
    71
 10
141.756455
 20
121.73475
 30
0.0
 11
141.706455
 21
121.73475
 31
0.0
  0
LINE
  5
824
  8
0
  6
BYBLOCK
 62
    71
 10
142.106455
 20
121.73475
 30
0.0
 11
142.156455
 21
121.73475
 31
0.0
  0
INSERT
  5
825
  8
0
  6
BYBLOCK
 62
    71
  2
TICK
 10
141.806455
 20
121.73475
 30
0.0
 41
0.05
 42
0.05
 43
0.05
  0
INSERT
  5
826
  8
0
  6
BYBLOCK
 62
    71
  2
TICK
 10
142.056455
 20
121.73475
 30
0.0
 41
0.05
 42
0.05
 43
0.05
 50
180.0
  0
TEXT
  5
827
  8
0
  6
BYBLOCK
 62
     7
 10
141.812907
 20
121.515081
 30
0.0
 40
0.08
  1
0.25
 72
     1
 11
141.926241
 21
121.555081
 31
0.0
 73
     2
  0
POINT
  5
828
  8
DEFPOINTS
  6
BYBLOCK
 62
     0
 10
141.806455
 20
122.098217
 30
0.0
  0
POINT
  5
829
  8
DEFPOINTS
  6
BYBLOCK
 62
     0
 10
142.056455
 20
122.096422
 30
0.0
  0
POINT
  5
82A
  8
DEFPOINTS
  6
BYBLOCK
 62
     0
 10
142.056455
 20
121.73475
 30
0.0
  0
ENDBLK
  5
82C
  8
0
  0
BLOCK
  8
0
  2
*D17
 70
     1
 10
0.0
 20
0.0
 30
0.0
  3
*D17
  1

  0
LINE
  5
82E
  8
0
  6
BYBLOCK
 62
    71
 10
144.056455
 20
122.01894
 30
0.0
 11
144.056455
 21
121.655685
 31
0.0
  0
LINE
  5
82F
  8
0
  6
BYBLOCK
 62
    71
 10
144.306455
 20
122.018217
 30
0.0
 11
144.306455
 21
121.655685
 31
0.0
  0
LINE
  5
830
  8
0
  6
BYBLOCK
 62
    71
 10
144.006455
 20
121.735685
 30
0.0
 11
143.956455
 21
121.735685
 31
0.0
  0
LINE
  5
831
  8
0
  6
BYBLOCK
 62
    71
 10
144.356455
 20
121.735685
 30
0.0
 11
144.406455
 21
121.735685
 31
0.0
  0
INSERT
  5
832
  8
0
  6
BYBLOCK
 62
    71
  2
TICK
 10
144.056455
 20
121.735685
 30
0.0
 41
0.05
 42
0.05
 43
0.05
  0
INSERT
  5
833
  8
0
  6
BYBLOCK
 62
    71
  2
TICK
 10
144.306455
 20
121.735685
 30
0.0
 41
0.05
 42
0.05
 43
0.05
 50
180.0
  0
TEXT
  5
834
  8
0
  6
BYBLOCK
 62
     7
 10
144.084034
 20
121.515081
 30
0.0
 40
0.08
  1
0.25
 72
     1
 11
144.197367
 21
121.555081
 31
0.0
 73
     2
  0
POINT
  5
835
  8
DEFPOINTS
  6
BYBLOCK
 62
     0
 10
144.056455
 20
122.09894
 30
0.0
  0
POINT
  5
836
  8
DEFPOINTS
  6
BYBLOCK
 62
     0
 10
144.306455
 20
122.098217
 30
0.0
  0
POINT
  5
837
  8
DEFPOINTS
  6
BYBLOCK
 62
     0
 10
144.306455
 20
121.735685
 30
0.0
  0
ENDBLK
  5
839
  8
0
  0
BLOCK
  8
0
  2
*D18
 70
     1
 10
0.0
 20
0.0
 30
0.0
  3
*D18
  1

  0
LINE
  5
83B
  8
0
  6
BYBLOCK
 62
    71
 10
144.386455
 20
122.098217
 30
0.0
 11
144.973154
 21
122.098217
 31
0.0
  0
LINE
  5
83C
  8
0
  6
BYBLOCK
 62
    71
 10
144.385022
 20
122.398217
 30
0.0
 11
144.973154
 21
122.398217
 31
0.0
  0
LINE
  5
83D
  8
0
  6
BYBLOCK
 62
    71
 10
144.893154
 20
122.148217
 30
0.0
 11
144.893154
 21
122.348217
 31
0.0
  0
INSERT
  5
83E
  8
0
  6
BYBLOCK
 62
    71
  2
TICK
 10
144.893154
 20
122.098217
 30
0.0
 41
0.05
 42
0.05
 43
0.05
 50
270.0
  0
INSERT
  5
83F
  8
0
  6
BYBLOCK
 62
    71
  2
TICK
 10
144.893154
 20
122.398217
 30
0.0
 41
0.05
 42
0.05
 43
0.05
 50
90.0
  0
TEXT
  5
840
  8
0
  6
BYBLOCK
 62
     7
 10
145.08328
 20
122.15045
 30
0.0
 40
0.08
  1
0.30
 50
90.0
 72
     1
 11
145.04328
 21
122.257116
 31
0.0
 73
     2
  0
POINT
  5
841
  8
DEFPOINTS
  6
BYBLOCK
 62
     0
 10
144.306455
 20
122.098217
 30
0.0
  0
POINT
  5
842
  8
DEFPOINTS
  6
BYBLOCK
 62
     0
 10
144.305022
 20
122.398217
 30
0.0
  0
POINT
  5
843
  8
DEFPOINTS
  6
BYBLOCK
 62
     0
 10
144.893154
 20
122.398217
 30
0.0
  0
ENDBLK
  5
845
  8
0
  0
BLOCK
  8
0
  2
*D19
 70
     1
 10
0.0
 20
0.0
 30
0.0
  3
*D19
  1

  0
LINE
  5
847
  8
0
  6
BYBLOCK
 62
    71
 10
144.385022
 20
122.398217
 30
0.0
 11
144.973154
 21
122.398217
 31
0.0
  0
LINE
  5
848
  8
0
  6
BYBLOCK
 62
    71
 10
144.387149
 20
124.00198
 30
0.0
 11
144.973154
 21
124.00198
 31
0.0
  0
LINE
  5
849
  8
0
  6
BYBLOCK
 62
    71
 10
144.893154
 20
122.448217
 30
0.0
 11
144.893154
 21
123.95198
 31
0.0
  0
INSERT
  5
84A
  8
0
  6
BYBLOCK
 62
    71
  2
TICK
 10
144.893154
 20
122.398217
 30
0.0
 41
0.05
 42
0.05
 43
0.05
 50
270.0
  0
INSERT
  5
84B
  8
0
  6
BYBLOCK
 62
    71
  2
TICK
 10
144.893154
 20
124.00198
 30
0.0
 41
0.05
 42
0.05
 43
0.05
 50
90.0
  0
TEXT
  5
84C
  8
0
  6
BYBLOCK
 62
     7
 10
144.853154
 20
123.100098
 30
0.0
 40
0.08
  1
1.60
 50
90.0
 72
     1
 11
144.813154
 21
123.200098
 31
0.0
 73
     2
  0
POINT
  5
84D
  8
DEFPOINTS
  6
BYBLOCK
 62
     0
 10
144.305022
 20
122.398217
 30
0.0
  0
POINT
  5
84E
  8
DEFPOINTS
  6
BYBLOCK
 62
     0
 10
144.307149
 20
124.00198
 30
0.0
  0
POINT
  5
84F
  8
DEFPOINTS
  6
BYBLOCK
 62
     0
 10
144.893154
 20
124.00198
 30
0.0
  0
ENDBLK
  5
851
  8
0
  0
BLOCK
  8
0
  2
*D20
 70
     1
 10
0.0
 20
0.0
 30
0.0
  3
*D20
  1

  0
LINE
  5
853
  8
0
  6
BYBLOCK
 62
    71
 10
144.385022
 20
124.00198
 30
0.0
 11
144.973154
 21
124.00198
 31
0.0
  0
LINE
  5
854
  8
0
  6
BYBLOCK
 62
    71
 10
143.971522
 20
124.998217
 30
0.0
 11
144.973154
 21
124.998217
 31
0.0
  0
LINE
  5
855
  8
0
  6
BYBLOCK
 62
    71
 10
144.893154
 20
124.05198
 30
0.0
 11
144.893154
 21
124.948217
 31
0.0
  0
INSERT
  5
856
  8
0
  6
BYBLOCK
 62
    71
  2
TICK
 10
144.893154
 20
124.00198
 30
0.0
 41
0.05
 42
0.05
 43
0.05
 50
270.0
  0
INSERT
  5
857
  8
0
  6
BYBLOCK
 62
    71
  2
TICK
 10
144.893154
 20
124.998217
 30
0.0
 41
0.05
 42
0.05
 43
0.05
 50
90.0
  0
TEXT
  5
858
  8
0
  6
BYBLOCK
 62
     7
 10
144.853154
 20
124.406765
 30
0.0
 40
0.08
  1
1.00
 50
90.0
 72
     1
 11
144.813154
 21
124.500098
 31
0.0
 73
     2
  0
POINT
  5
859
  8
DEFPOINTS
  6
BYBLOCK
 62
     0
 10
144.305022
 20
124.00198
 30
0.0
  0
POINT
  5
85A
  8
DEFPOINTS
  6
BYBLOCK
 62
     0
 10
143.891522
 20
124.998217
 30
0.0
  0
POINT
  5
85B
  8
DEFPOINTS
  6
BYBLOCK
 62
     0
 10
144.893154
 20
124.998217
 30
0.0
  0
ENDBLK
  5
85D
  8
0
  0
BLOCK
  8
0
  2
*D21
 70
     1
 10
0.0
 20
0.0
 30
0.0
  3
*D21
  1

  0
LINE
  5
85F
  8
0
  6
BYBLOCK
 62
    71
 10
143.884655
 20
124.998217
 30
0.0
 11
144.973154
 21
124.998217
 31
0.0
  0
LINE
  5
860
  8
0
  6
BYBLOCK
 62
    71
 10
143.392253
 20
125.248217
 30
0.0
 11
144.973154
 21
125.248217
 31
0.0
  0
LINE
  5
861
  8
0
  6
BYBLOCK
 62
    71
 10
144.893154
 20
124.948217
 30
0.0
 11
144.893154
 21
124.898217
 31
0.0
  0
LINE
  5
862
  8
0
  6
BYBLOCK
 62
    71
 10
144.893154
 20
125.298217
 30
0.0
 11
144.893154
 21
125.348217
 31
0.0
  0
INSERT
  5
863
  8
0
  6
BYBLOCK
 62
    71
  2
TICK
 10
144.893154
 20
124.998217
 30
0.0
 41
0.05
 42
0.05
 43
0.05
 50
90.0
  0
INSERT
  5
864
  8
0
  6
BYBLOCK
 62
    71
  2
TICK
 10
144.893154
 20
125.248217
 30
0.0
 41
0.05
 42
0.05
 43
0.05
 50
270.0
  0
TEXT
  5
865
  8
0
  6
BYBLOCK
 62
     7
 10
145.076459
 20
125.026897
 30
0.0
 40
0.08
  1
0.25
 50
90.0
 72
     1
 11
145.036459
 21
125.140231
 31
0.0
 73
     2
  0
POINT
  5
866
  8
DEFPOINTS
  6
BYBLOCK
 62
     0
 10
143.804655
 20
124.998217
 30
0.0
  0
POINT
  5
867
  8
DEFPOINTS
  6
BYBLOCK
 62
     0
 10
143.312253
 20
125.248217
 30
0.0
  0
POINT
  5
868
  8
DEFPOINTS
  6
BYBLOCK
 62
     0
 10
144.893154
 20
125.248217
 30
0.0
  0
ENDBLK
  5
86A
  8
0
  0
BLOCK
  8
0
  2
*D22
 70
     1
 10
0.0
 20
0.0
 30
0.0
  3
*D22
  1

  0
LINE
  5
86C
  8
0
  6
BYBLOCK
 62
    71
 10
143.136455
 20
122.398217
 30
0.0
 11
143.356559
 21
122.398217
 31
0.0
  0
LINE
  5
86D
  8
0
  6
BYBLOCK
 62
    71
 10
143.136455
 20
122.698217
 30
0.0
 11
143.356559
 21
122.698217
 31
0.0
  0
LINE
  5
86E
  8
0
  6
BYBLOCK
 62
    71
 10
143.276559
 20
122.448217
 30
0.0
 11
143.276559
 21
122.648217
 31
0.0
  0
INSERT
  5
86F
  8
0
  6
BYBLOCK
 62
    71
  2
TICK
 10
143.276559
 20
122.398217
 30
0.0
 41
0.05
 42
0.05
 43
0.05
 50
270.0
  0
INSERT
  5
870
  8
0
  6
BYBLOCK
 62
    71
  2
TICK
 10
143.276559
 20
122.698217
 30
0.0
 41
0.05
 42
0.05
 43
0.05
 50
90.0
  0
TEXT
  5
871
  8
0
  6
BYBLOCK
 62
     7
 10
143.218673
 20
122.446849
 30
0.0
 40
0.08
  1
0.30
 50
90.0
 72
     1
 11
143.178673
 21
122.553516
 31
0.0
 73
     2
  0
POINT
  5
872
  8
DEFPOINTS
  6
BYBLOCK
 62
     0
 10
143.056455
 20
122.398217
 30
0.0
  0
POINT
  5
873
  8
DEFPOINTS
  6
BYBLOCK
 62
     0
 10
143.056455
 20
122.698217
 30
0.0
  0
POINT
  5
874
  8
DEFPOINTS
  6
BYBLOCK
 62
     0
 10
143.276559
 20
122.698217
 30
0.0
  0
ENDBLK
  5
876
  8
0
  0
BLOCK
  8
0
  2
*D23
 70
     1
 10
0.0
 20
0.0
 30
0.0
  3
*D23
  1

  0
LINE
  5
878
  8
0
  6
BYBLOCK
 62
    71
 10
142.056455
 20
122.016422
 30
0.0
 11
142.056455
 21
121.655685
 31
0.0
  0
LINE
  5
879
  8
0
  6
BYBLOCK
 62
    71
 10
144.056455
 20
122.01894
 30
0.0
 11
144.056455
 21
121.655685
 31
0.0
  0
LINE
  5
87A
  8
0
  6
BYBLOCK
 62
    71
 10
142.106455
 20
121.735685
 30
0.0
 11
142.88377
 21
121.735685
 31
0.0
  0
LINE
  5
87B
  8
0
  6
BYBLOCK
 62
    71
 10
144.006455
 20
121.735685
 30
0.0
 11
143.28758
 21
121.735685
 31
0.0
  0
INSERT
  5
87C
  8
0
  6
BYBLOCK
 62
    71
  2
TICK
 10
142.056455
 20
121.735685
 30
0.0
 41
0.05
 42
0.05
 43
0.05
 50
180.0
  0
INSERT
  5
87D
  8
0
  6
BYBLOCK
 62
    71
  2
TICK
 10
144.056455
 20
121.735685
 30
0.0
 41
0.05
 42
0.05
 43
0.05
  0
TEXT
  5
87E
  8
0
  6
BYBLOCK
 62
     7
 10
142.979008
 20
121.692294
 30
0.0
 40
0.08
  1
2.00
 72
     1
 11
143.085675
 21
121.732294
 31
0.0
 73
     2
  0
POINT
  5
87F
  8
DEFPOINTS
  6
BYBLOCK
 62
     0
 10
142.056455
 20
122.096422
 30
0.0
  0
POINT
  5
880
  8
DEFPOINTS
  6
BYBLOCK
 62
     0
 10
144.056455
 20
122.09894
 30
0.0
  0
POINT
  5
881
  8
DEFPOINTS
  6
BYBLOCK
 62
     0
 10
144.056455
 20
121.735685
 30
0.0
  0
ENDBLK
  5
883
  8
0
  0
BLOCK
  8
0
  2
*D24
 70
     1
 10
0.0
 20
0.0
 30
0.0
  3
*D24
  1

  0
LINE
  5
885
  8
0
  6
BYBLOCK
 62
    71
 10
153.702968
 20
123.059563
 30
0.0
 11
153.702968
 21
123.328779
 31
0.0
  0
LINE
  5
886
  8
0
  6
BYBLOCK
 62
    71
 10
154.702968
 20
123.059563
 30
0.0
 11
154.702968
 21
123.328779
 31
0.0
  0
LINE
  5
887
  8
0
  6
BYBLOCK
 62
    71
 10
153.752968
 20
123.248779
 30
0.0
 11
154.652968
 21
123.248779
 31
0.0
  0
INSERT
  5
888
  8
0
  6
BYBLOCK
 62
    71
  2
TICK
 10
153.702968
 20
123.248779
 30
0.0
 41
0.05
 42
0.05
 43
0.05
 50
180.0
  0
INSERT
  5
889
  8
0
  6
BYBLOCK
 62
    71
  2
TICK
 10
154.702968
 20
123.248779
 30
0.0
 41
0.05
 42
0.05
 43
0.05
  0
TEXT
  5
88A
  8
0
  6
BYBLOCK
 62
     7
 10
154.109635
 20
123.288779
 30
0.0
 40
0.08
  1
1.00
 72
     1
 11
154.202968
 21
123.328779
 31
0.0
 73
     2
  0
POINT
  5
88B
  8
DEFPOINTS
  6
BYBLOCK
 62
     0
 10
153.702968
 20
122.979563
 30
0.0
  0
POINT
  5
88C
  8
DEFPOINTS
  6
BYBLOCK
 62
     0
 10
154.702968
 20
122.979563
 30
0.0
  0
POINT
  5
88D
  8
DEFPOINTS
  6
BYBLOCK
 62
     0
 10
154.702968
 20
123.248779
 30
0.0
  0
ENDBLK
  5
88F
  8
0
  0
BLOCK
  8
0
  2
*D25
 70
     1
 10
0.0
 20
0.0
 30
0.0
  3
*D25
  1

  0
LINE
  5
891
  8
0
  6
BYBLOCK
 62
    71
 10
154.702968
 20
123.059563
 30
0.0
 11
154.702968
 21
123.328779
 31
0.0
  0
LINE
  5
892
  8
0
  6
BYBLOCK
 62
    71
 10
155.502968
 20
122.759563
 30
0.0
 11
155.502968
 21
123.328779
 31
0.0
  0
LINE
  5
893
  8
0
  6
BYBLOCK
 62
    71
 10
154.752968
 20
123.248779
 30
0.0
 11
155.452968
 21
123.248779
 31
0.0
  0
INSERT
  5
894
  8
0
  6
BYBLOCK
 62
    71
  2
TICK
 10
154.702968
 20
123.248779
 30
0.0
 41
0.05
 42
0.05
 43
0.05
 50
180.0
  0
INSERT
  5
895
  8
0
  6
BYBLOCK
 62
    71
  2
TICK
 10
155.502968
 20
123.248779
 30
0.0
 41
0.05
 42
0.05
 43
0.05
  0
TEXT
  5
896
  8
0
  6
BYBLOCK
 62
     7
 10
154.996301
 20
123.288779
 30
0.0
 40
0.08
  1
0.80
 72
     1
 11
155.102968
 21
123.328779
 31
0.0
 73
     2
  0
POINT
  5
897
  8
DEFPOINTS
  6
BYBLOCK
 62
     0
 10
154.702968
 20
122.979563
 30
0.0
  0
POINT
  5
898
  8
DEFPOINTS
  6
BYBLOCK
 62
     0
 10
155.502968
 20
122.679563
 30
0.0
  0
POINT
  5
899
  8
DEFPOINTS
  6
BYBLOCK
 62
     0
 10
155.502968
 20
123.248779
 30
0.0
  0
ENDBLK
  5
89B
  8
0
  0
BLOCK
  8
0
  2
*D26
 70
     1
 10
0.0
 20
0.0
 30
0.0
  3
*D26
  1

  0
LINE
  5
89D
  8
0
  6
BYBLOCK
 62
    71
 10
154.782968
 20
122.679563
 30
0.0
 11
155.079849
 21
122.679563
 31
0.0
  0
LINE
  5
89E
  8
0
  6
BYBLOCK
 62
    71
 10
154.782968
 20
122.979563
 30
0.0
 11
155.079849
 21
122.979563
 31
0.0
  0
LINE
  5
89F
  8
0
  6
BYBLOCK
 62
    71
 10
154.999849
 20
122.729563
 30
0.0
 11
154.999849
 21
122.929563
 31
0.0
  0
INSERT
  5
8A0
  8
0
  6
BYBLOCK
 62
    71
  2
TICK
 10
154.999849
 20
122.679563
 30
0.0
 41
0.05
 42
0.05
 43
0.05
 50
270.0
  0
INSERT
  5
8A1
  8
0
  6
BYBLOCK
 62
    71
  2
TICK
 10
154.999849
 20
122.979563
 30
0.0
 41
0.05
 42
0.05
 43
0.05
 50
90.0
  0
TEXT
  5
8A2
  8
0
  6
BYBLOCK
 62
     7
 10
154.959849
 20
122.731909
 30
0.0
 40
0.08
  1
0.30
 50
90.0
 72
     1
 11
154.919849
 21
122.838576
 31
0.0
 73
     2
  0
POINT
  5
8A3
  8
DEFPOINTS
  6
BYBLOCK
 62
     0
 10
154.702968
 20
122.679563
 30
0.0
  0
POINT
  5
8A4
  8
DEFPOINTS
  6
BYBLOCK
 62
     0
 10
154.702968
 20
122.979563
 30
0.0
  0
POINT
  5
8A5
  8
DEFPOINTS
  6
BYBLOCK
 62
     0
 10
154.999849
 20
122.979563
 30
0.0
  0
ENDBLK
  5
8A7
  8
0
  0
BLOCK
  8
0
  2
*D27
 70
     1
 10
0.0
 20
0.0
 30
0.0
  3
*D27
  1

  0
LINE
  5
8A9
  8
0
  6
BYBLOCK
 62
    71
 10
153.452968
 20
122.299563
 30
0.0
 11
153.452968
 21
121.963135
 31
0.0
  0
LINE
  5
8AA
  8
0
  6
BYBLOCK
 62
    71
 10
153.702968
 20
122.296741
 30
0.0
 11
153.702968
 21
121.963135
 31
0.0
  0
LINE
  5
8AB
  8
0
  6
BYBLOCK
 62
    71
 10
153.402968
 20
122.043135
 30
0.0
 11
153.352968
 21
122.043135
 31
0.0
  0
LINE
  5
8AC
  8
0
  6
BYBLOCK
 62
    71
 10
153.752968
 20
122.043135
 30
0.0
 11
153.802968
 21
122.043135
 31
0.0
  0
INSERT
  5
8AD
  8
0
  6
BYBLOCK
 62
    71
  2
TICK
 10
153.452968
 20
122.043135
 30
0.0
 41
0.05
 42
0.05
 43
0.05
  0
INSERT
  5
8AE
  8
0
  6
BYBLOCK
 62
    71
  2
TICK
 10
153.702968
 20
122.043135
 30
0.0
 41
0.05
 42
0.05
 43
0.05
 50
180.0
  0
TEXT
  5
8AF
  8
0
  6
BYBLOCK
 62
     7
 10
153.147767
 20
122.083135
 30
0.0
 40
0.08
  1
0.25
 72
     1
 11
153.2611
 21
122.123135
 31
0.0
 73
     2
  0
POINT
  5
8B0
  8
DEFPOINTS
  6
BYBLOCK
 62
     0
 10
153.452968
 20
122.379563
 30
0.0
  0
POINT
  5
8B1
  8
DEFPOINTS
  6
BYBLOCK
 62
     0
 10
153.702968
 20
122.376741
 30
0.0
  0
POINT
  5
8B2
  8
DEFPOINTS
  6
BYBLOCK
 62
     0
 10
153.702968
 20
122.043135
 30
0.0
  0
ENDBLK
  5
8B4
  8
0
  0
BLOCK
  8
0
  2
*D28
 70
     1
 10
0.0
 20
0.0
 30
0.0
  3
*D28
  1

  0
LINE
  5
8B6
  8
0
  6
BYBLOCK
 62
    71
 10
153.702968
 20
122.296741
 30
0.0
 11
153.702968
 21
121.963135
 31
0.0
  0
LINE
  5
8B7
  8
0
  6
BYBLOCK
 62
    71
 10
155.502968
 20
122.300209
 30
0.0
 11
155.502968
 21
121.963135
 31
0.0
  0
LINE
  5
8B8
  8
0
  6
BYBLOCK
 62
    71
 10
153.752968
 20
122.043135
 30
0.0
 11
155.452968
 21
122.043135
 31
0.0
  0
INSERT
  5
8B9
  8
0
  6
BYBLOCK
 62
    71
  2
TICK
 10
153.702968
 20
122.043135
 30
0.0
 41
0.05
 42
0.05
 43
0.05
 50
180.0
  0
INSERT
  5
8BA
  8
0
  6
BYBLOCK
 62
    71
  2
TICK
 10
155.502968
 20
122.043135
 30
0.0
 41
0.05
 42
0.05
 43
0.05
  0
TEXT
  5
8BB
  8
0
  6
BYBLOCK
 62
     7
 10
154.502968
 20
122.083135
 30
0.0
 40
0.08
  1
1.80
 72
     1
 11
154.602968
 21
122.123135
 31
0.0
 73
     2
  0
POINT
  5
8BC
  8
DEFPOINTS
  6
BYBLOCK
 62
     0
 10
153.702968
 20
122.376741
 30
0.0
  0
POINT
  5
8BD
  8
DEFPOINTS
  6
BYBLOCK
 62
     0
 10
155.502968
 20
122.380209
 30
0.0
  0
POINT
  5
8BE
  8
DEFPOINTS
  6
BYBLOCK
 62
     0
 10
155.502968
 20
122.043135
 30
0.0
  0
ENDBLK
  5
8C0
  8
0
  0
BLOCK
  8
0
  2
*D29
 70
     1
 10
0.0
 20
0.0
 30
0.0
  3
*D29
  1

  0
LINE
  5
8C2
  8
0
  6
BYBLOCK
 62
    71
 10
155.502968
 20
122.300209
 30
0.0
 11
155.502968
 21
121.963135
 31
0.0
  0
LINE
  5
8C3
  8
0
  6
BYBLOCK
 62
    71
 10
155.752968
 20
122.299563
 30
0.0
 11
155.752968
 21
121.963135
 31
0.0
  0
LINE
  5
8C4
  8
0
  6
BYBLOCK
 62
    71
 10
155.452968
 20
122.043135
 30
0.0
 11
155.402968
 21
122.043135
 31
0.0
  0
LINE
  5
8C5
  8
0
  6
BYBLOCK
 62
    71
 10
155.802968
 20
122.043135
 30
0.0
 11
155.852968
 21
122.043135
 31
0.0
  0
INSERT
  5
8C6
  8
0
  6
BYBLOCK
 62
    71
  2
TICK
 10
155.502968
 20
122.043135
 30
0.0
 41
0.05
 42
0.05
 43
0.05
  0
INSERT
  5
8C7
  8
0
  6
BYBLOCK
 62
    71
  2
TICK
 10
155.752968
 20
122.043135
 30
0.0
 41
0.05
 42
0.05
 43
0.05
 50
180.0
  0
TEXT
  5
8C8
  8
0
  6
BYBLOCK
 62
     7
 10
155.846548
 20
122.083135
 30
0.0
 40
0.08
  1
0.25
 72
     1
 11
155.959882
 21
122.123135
 31
0.0
 73
     2
  0
POINT
  5
8C9
  8
DEFPOINTS
  6
BYBLOCK
 62
     0
 10
155.502968
 20
122.380209
 30
0.0
  0
POINT
  5
8CA
  8
DEFPOINTS
  6
BYBLOCK
 62
     0
 10
155.752968
 20
122.379563
 30
0.0
  0
POINT
  5
8CB
  8
DEFPOINTS
  6
BYBLOCK
 62
     0
 10
155.752968
 20
122.043135
 30
0.0
  0
ENDBLK
  5
8CD
  8
0
  0
BLOCK
  8
0
  2
*D30
 70
     1
 10
0.0
 20
0.0
 30
0.0
  3
*D30
  1

  0
LINE
  5
8CF
  8
0
  6
BYBLOCK
 62
    71
 10
155.832968
 20
122.379563
 30
0.0
 11
156.231073
 21
122.379563
 31
0.0
  0
LINE
  5
8D0
  8
0
  6
BYBLOCK
 62
    71
 10
155.833831
 20
122.679563
 30
0.0
 11
156.231073
 21
122.679563
 31
0.0
  0
LINE
  5
8D1
  8
0
  6
BYBLOCK
 62
    71
 10
156.151073
 20
122.429563
 30
0.0
 11
156.151073
 21
122.629563
 31
0.0
  0
INSERT
  5
8D2
  8
0
  6
BYBLOCK
 62
    71
  2
TICK
 10
156.151073
 20
122.379563
 30
0.0
 41
0.05
 42
0.05
 43
0.05
 50
270.0
  0
INSERT
  5
8D3
  8
0
  6
BYBLOCK
 62
    71
  2
TICK
 10
156.151073
 20
122.679563
 30
0.0
 41
0.05
 42
0.05
 43
0.05
 50
90.0
  0
TEXT
  5
8D4
  8
0
  6
BYBLOCK
 62
     7
 10
156.111073
 20
122.426864
 30
0.0
 40
0.08
  1
0.30
 50
90.0
 72
     1
 11
156.071073
 21
122.53353
 31
0.0
 73
     2
  0
POINT
  5
8D5
  8
DEFPOINTS
  6
BYBLOCK
 62
     0
 10
155.752968
 20
122.379563
 30
0.0
  0
POINT
  5
8D6
  8
DEFPOINTS
  6
BYBLOCK
 62
     0
 10
155.753831
 20
122.679563
 30
0.0
  0
POINT
  5
8D7
  8
DEFPOINTS
  6
BYBLOCK
 62
     0
 10
156.151073
 20
122.679563
 30
0.0
  0
ENDBLK
  5
8D9
  8
0
  0
BLOCK
  8
0
  2
*D31
 70
     1
 10
0.0
 20
0.0
 30
0.0
  3
*D31
  1

  0
LINE
  5
8DB
  8
0
  6
BYBLOCK
 62
    71
 10
155.833831
 20
122.679563
 30
0.0
 11
156.231073
 21
122.679563
 31
0.0
  0
LINE
  5
8DC
  8
0
  6
BYBLOCK
 62
    71
 10
155.833831
 20
123.579563
 30
0.0
 11
156.231073
 21
123.579563
 31
0.0
  0
LINE
  5
8DD
  8
0
  6
BYBLOCK
 62
    71
 10
156.151073
 20
122.729563
 30
0.0
 11
156.151073
 21
123.529563
 31
0.0
  0
INSERT
  5
8DE
  8
0
  6
BYBLOCK
 62
    71
  2
TICK
 10
156.151073
 20
122.679563
 30
0.0
 41
0.05
 42
0.05
 43
0.05
 50
270.0
  0
INSERT
  5
8DF
  8
0
  6
BYBLOCK
 62
    71
  2
TICK
 10
156.151073
 20
123.579563
 30
0.0
 41
0.05
 42
0.05
 43
0.05
 50
90.0
  0
TEXT
  5
8E0
  8
0
  6
BYBLOCK
 62
     7
 10
156.111073
 20
123.022896
 30
0.0
 40
0.08
  1
0.90
 50
90.0
 72
     1
 11
156.071073
 21
123.129563
 31
0.0
 73
     2
  0
POINT
  5
8E1
  8
DEFPOINTS
  6
BYBLOCK
 62
     0
 10
155.753831
 20
122.679563
 30
0.0
  0
POINT
  5
8E2
  8
DEFPOINTS
  6
BYBLOCK
 62
     0
 10
155.753831
 20
123.579563
 30
0.0
  0
POINT
  5
8E3
  8
DEFPOINTS
  6
BYBLOCK
 62
     0
 10
156.151073
 20
123.579563
 30
0.0
  0
ENDBLK
  5
8E5
  8
0
  0
BLOCK
  8
0
  2
*D32
 70
     1
 10
0.0
 20
0.0
 30
0.0
  3
*D32
  1

  0
LINE
  5
8E7
  8
0
  6
BYBLOCK
 62
    71
 10
155.833831
 20
123.579563
 30
0.0
 11
156.231073
 21
123.579563
 31
0.0
  0
LINE
  5
8E8
  8
0
  6
BYBLOCK
 62
    71
 10
155.398257
 20
124.479563
 30
0.0
 11
156.231073
 21
124.479563
 31
0.0
  0
LINE
  5
8E9
  8
0
  6
BYBLOCK
 62
    71
 10
156.151073
 20
123.629563
 30
0.0
 11
156.151073
 21
124.429563
 31
0.0
  0
INSERT
  5
8EA
  8
0
  6
BYBLOCK
 62
    71
  2
TICK
 10
156.151073
 20
123.579563
 30
0.0
 41
0.05
 42
0.05
 43
0.05
 50
270.0
  0
INSERT
  5
8EB
  8
0
  6
BYBLOCK
 62
    71
  2
TICK
 10
156.151073
 20
124.479563
 30
0.0
 41
0.05
 42
0.05
 43
0.05
 50
90.0
  0
TEXT
  5
8EC
  8
0
  6
BYBLOCK
 62
     7
 10
156.111073
 20
123.922896
 30
0.0
 40
0.08
  1
0.90
 50
90.0
 72
     1
 11
156.071073
 21
124.029563
 31
0.0
 73
     2
  0
POINT
  5
8ED
  8
DEFPOINTS
  6
BYBLOCK
 62
     0
 10
155.753831
 20
123.579563
 30
0.0
  0
POINT
  5
8EE
  8
DEFPOINTS
  6
BYBLOCK
 62
     0
 10
155.318257
 20
124.479563
 30
0.0
  0
POINT
  5
8EF
  8
DEFPOINTS
  6
BYBLOCK
 62
     0
 10
156.151073
 20
124.479563
 30
0.0
  0
ENDBLK
  5
8F1
  8
0
  0
BLOCK
  8
0
  2
*D33
 70
     1
 10
0.0
 20
0.0
 30
0.0
  3
*D33
  1

  0
LINE
  5
8F3
  8
0
  6
BYBLOCK
 62
    71
 10
155.398257
 20
124.479563
 30
0.0
 11
156.231073
 21
124.479563
 31
0.0
  0
LINE
  5
8F4
  8
0
  6
BYBLOCK
 62
    71
 10
154.851857
 20
124.729563
 30
0.0
 11
156.231073
 21
124.729563
 31
0.0
  0
LINE
  5
8F5
  8
0
  6
BYBLOCK
 62
    71
 10
156.151073
 20
124.429563
 30
0.0
 11
156.151073
 21
124.379563
 31
0.0
  0
LINE
  5
8F6
  8
0
  6
BYBLOCK
 62
    71
 10
156.151073
 20
124.779563
 30
0.0
 11
156.151073
 21
124.829563
 31
0.0
  0
INSERT
  5
8F7
  8
0
  6
BYBLOCK
 62
    71
  2
TICK
 10
156.151073
 20
124.479563
 30
0.0
 41
0.05
 42
0.05
 43
0.05
 50
90.0
  0
INSERT
  5
8F8
  8
0
  6
BYBLOCK
 62
    71
  2
TICK
 10
156.151073
 20
124.729563
 30
0.0
 41
0.05
 42
0.05
 43
0.05
 50
270.0
  0
TEXT
  5
8F9
  8
0
  6
BYBLOCK
 62
     7
 10
156.111073
 20
124.831595
 30
0.0
 40
0.08
  1
0.25
 50
90.0
 72
     1
 11
156.071073
 21
124.944928
 31
0.0
 73
     2
  0
POINT
  5
8FA
  8
DEFPOINTS
  6
BYBLOCK
 62
     0
 10
155.318257
 20
124.479563
 30
0.0
  0
POINT
  5
8FB
  8
DEFPOINTS
  6
BYBLOCK
 62
     0
 10
154.771857
 20
124.729563
 30
0.0
  0
POINT
  5
8FC
  8
DEFPOINTS
  6
BYBLOCK
 62
     0
 10
156.151073
 20
124.729563
 30
0.0
  0
ENDBLK
  5
8FE
  8
0
  0
BLOCK
  8
0
  2
*D34
 70
     1
 10
0.0
 20
0.0
 30
0.0
  3
*D34
  1

  0
LINE
  5
900
  8
0
  6
BYBLOCK
 62
    71
 10
154.399015
 20
124.404732
 30
0.0
 11
154.50153
 21
123.989971
 31
0.0
  0
LINE
  5
901
  8
0
  6
BYBLOCK
 62
    71
 10
154.50153
 20
123.989971
 30
0.0
 11
154.597507
 21
123.601656
 31
0.0
  0
INSERT
  5
902
  8
0
  6
BYBLOCK
 62
    71
  2
TICK
 10
154.387018
 20
124.453271
 30
0.0
 41
0.05
 42
0.05
 43
0.05
 50
103.883238
  0
TEXT
  5
903
  8
0
  6
BYBLOCK
 62
     7
 10
154.562756
 20
123.908962
 30
0.0
 40
0.08
  1
R0.90
 50
283.883238
 72
     1
 11
154.636779
 21
123.776177
 31
0.0
 73
     2
  0
POINT
  5
904
  8
DEFPOINTS
  6
BYBLOCK
 62
     0
 10
154.387018
 20
124.453271
 30
0.0
  0
POINT
  5
905
  8
DEFPOINTS
  6
BYBLOCK
 62
     0
 10
154.602968
 20
123.579563
 30
0.0
  0
ENDBLK
  5
907
  8
0
  0
BLOCK
  8
0
  2
VILADOMAT
 70
     0
 10
0.0
 20
0.0
 30
0.0
  3
VILADOMAT
  1

  0
DIMENSION
  5
90C
  8
COTES
  2
*D21
 10
-5.873182
 20
3.756356
 30
0.0
 11
-5.729876
 21
3.648369
 31
0.0
 12
-150.766336
 22
-121.491862
 32
0.0
 70
   128
  3
STANDARD
 13
-6.961681
 23
3.506356
 33
0.0
 14
-7.454083
 24
3.756356
 34
0.0
 50
90.0
  0
DIMENSION
  5
90D
  8
COTES
  2
*D20
 10
-5.873182
 20
3.506356
 30
0.0
 11
-5.953182
 21
3.008237
 31
0.0
 12
-150.766336
 22
-121.491862
 32
0.0
  3
STANDARD
 13
-6.461314
 23
2.510118
 33
0.0
 14
-6.874814
 24
3.506356
 34
0.0
 50
90.0
  0
DIMENSION
  5
90E
  8
COTES
  2
*D19
 10
-5.873182
 20
2.510118
 30
0.0
 11
-5.953182
 21
1.708237
 31
0.0
 12
-150.766336
 22
-121.491862
 32
0.0
  3
STANDARD
 13
-6.461314
 23
0.906356
 33
0.0
 14
-6.459187
 24
2.510118
 34
0.0
 50
90.0
  0
DIMENSION
  5
90F
  8
COTES
  2
*D18
 10
-5.873182
 20
0.906356
 30
0.0
 11
-5.723056
 21
0.765255
 31
0.0
 12
-150.766336
 22
-121.491862
 32
0.0
 70
   128
  3
STANDARD
 13
-6.459881
 23
0.606356
 33
0.0
 14
-6.461314
 24
0.906356
 34
0.0
 50
90.0
  0
DIMENSION
  5
910
  8
COTES
  2
*D17
 10
-6.459881
 20
0.243823
 30
0.0
 11
-6.568968
 21
0.06322
 31
0.0
 12
-150.766336
 22
-121.491862
 32
0.0
 70
   128
  3
STANDARD
 13
-6.709881
 23
0.607079
 33
0.0
 14
-6.459881
 24
0.606356
 34
0.0
  0
ARC
  5
911
  8
SECCIO
 10
-7.709881
 20
2.506356
 30
0.0
 40
1.25
 50
0.0
 51
180.0
  0
ARC
  5
912
  8
SECCIO
 10
-7.709881
 20
2.506356
 30
0.0
 40
1.0
 50
0.0
 51
180.0
  0
LINE
  5
913
  8
SECCIO
 10
-6.459881
 20
0.606356
 30
0.0
 11
-6.459881
 21
2.506356
 31
0.0
  0
LINE
  5
914
  8
SECCIO
 10
-8.709881
 20
2.506356
 30
0.0
 11
-8.709881
 21
1.206356
 31
0.0
  0
LINE
  5
915
  8
SECCIO
 10
-6.709881
 20
0.906356
 30
0.0
 11
-6.709881
 21
2.506356
 31
0.0
  0
LINE
  5
916
  8
SECCIO
 10
-8.959881
 20
2.506356
 30
0.0
 11
-8.959881
 21
0.606356
 31
0.0
  0
LINE
  5
917
  8
SECCIO
 10
-8.959881
 20
0.606356
 30
0.0
 11
-6.459881
 21
0.606356
 31
0.0
  0
DIMENSION
  5
918
  8
COTES
  2
*D23
 10
-6.709881
 20
0.243823
 30
0.0
 11
-7.680661
 21
0.240433
 31
0.0
 12
-150.766336
 22
-121.491862
 32
0.0
 70
   128
  3
STANDARD
 13
-8.709881
 23
0.60456
 33
0.0
 14
-6.709881
 24
0.607079
 34
0.0
  0
DIMENSION
  5
919
  8
COTES
  2
*D22
 10
-7.489777
 20
1.206356
 30
0.0
 11
-7.587663
 21
1.061654
 31
0.0
 12
-150.766336
 22
-121.491862
 32
0.0
 70
   128
  3
STANDARD
 13
-7.709881
 23
0.906356
 33
0.0
 14
-7.709881
 24
1.206356
 34
0.0
 50
90.0
  0
DIMENSION
  5
91A
  8
COTES
  2
*D16
 10
-8.709881
 20
0.242889
 30
0.0
 11
-8.840095
 21
0.06322
 31
0.0
 12
-150.766336
 22
-121.491862
 32
0.0
 70
   128
  3
STANDARD
 13
-8.959881
 23
0.606356
 33
0.0
 14
-8.709881
 24
0.60456
 34
0.0
  0
DIMENSION
  5
91B
  8
COTES
  2
*D15
 10
-7.709881
 20
2.506356
 30
0.0
 11
-7.789881
 21
2.781234
 31
0.0
 12
-150.766336
 22
-121.491862
 32
0.0
 70
     4
  3
STANDARD
 15
-7.709881
 25
3.506356
 35
0.0
 40
-0.485122
  0
DIMENSION
  5
91C
  8
COTES
  2
*D14
 10
-6.709881
 20
1.430369
 30
0.0
 11
-7.209881
 21
1.510369
 31
0.0
 12
-150.766336
 22
-121.491862
 32
0.0
  3
STANDARD
 13
-7.709881
 23
1.206356
 33
0.0
 14
-6.709881
 24
0.906356
 34
0.0
  0
DIMENSION
  5
91D
  8
COTES
  2
*D13
 10
-7.709881
 20
1.430369
 30
0.0
 11
-8.209881
 21
1.510369
 31
0.0
 12
-150.766336
 22
-121.491862
 32
0.0
  3
STANDARD
 13
-8.709881
 23
1.206356
 33
0.0
 14
-7.709881
 24
1.206356
 34
0.0
  0
LINE
  5
91E
  8
SECCIO
 10
-7.709881
 20
0.906356
 30
0.0
 11
-6.709881
 21
0.906356
 31
0.0
  0
LINE
  5
91F
  8
SECCIO
 10
-7.709881
 20
1.206356
 30
0.0
 11
-8.709881
 21
1.206356
 31
0.0
  0
LINE
  5
920
  8
SECCIO
 10
-7.709881
 20
0.906356
 30
0.0
 11
-7.709881
 21
1.206356
 31
0.0
  0
DIMENSION
  5
921
  8
COTES
  2
*D34
 10
-3.301087
 20
2.087702
 30
0.0
 11
-3.267276
 21
2.284316
 31
0.0
 12
-157.904055
 22
-121.491862
 32
0.0
 70
     4
  3
STANDARD
 15
-3.517037
 25
2.96141
 35
0.0
 40
-0.477242
  0
DIMENSION
  5
922
  8
COTES
  2
*D33
 10
-1.752982
 20
3.237702
 30
0.0
 11
-1.832982
 21
3.453066
 31
0.0
 12
-157.904055
 22
-121.491862
 32
0.0
 70
   128
  3
STANDARD
 13
-2.585798
 23
2.987702
 33
0.0
 14
-3.132198
 24
3.237702
 34
0.0
 50
90.0
  0
DIMENSION
  5
923
  8
COTES
  2
*D32
 10
-1.752982
 20
2.987702
 30
0.0
 11
-1.832982
 21
2.537702
 31
0.0
 12
-157.904055
 22
-121.491862
 32
0.0
  3
STANDARD
 13
-2.150224
 23
2.087702
 33
0.0
 14
-2.585798
 24
2.987702
 34
0.0
 50
90.0
  0
DIMENSION
  5
924
  8
COTES
  2
*D31
 10
-1.752982
 20
2.087702
 30
0.0
 11
-1.832982
 21
1.637702
 31
0.0
 12
-157.904055
 22
-121.491862
 32
0.0
  3
STANDARD
 13
-2.150224
 23
1.187702
 33
0.0
 14
-2.150224
 24
2.087702
 34
0.0
 50
90.0
  0
DIMENSION
  5
925
  8
COTES
  2
*D30
 10
-1.752982
 20
1.187702
 30
0.0
 11
-1.832982
 21
1.041669
 31
0.0
 12
-157.904055
 22
-121.491862
 32
0.0
 70
   128
  3
STANDARD
 13
-2.151087
 23
0.887702
 33
0.0
 14
-2.150224
 24
1.187702
 34
0.0
 50
90.0
  0
DIMENSION
  5
926
  8
COTES
  2
*D29
 10
-2.151087
 20
0.551273
 30
0.0
 11
-1.944173
 21
0.631273
 31
0.0
 12
-157.904055
 22
-121.491862
 32
0.0
 70
   128
  3
STANDARD
 13
-2.401087
 23
0.888348
 33
0.0
 14
-2.151087
 24
0.887702
 34
0.0
  0
DIMENSION
  5
927
  8
COTES
  2
*D28
 10
-2.401087
 20
0.551273
 30
0.0
 11
-3.301087
 21
0.631273
 31
0.0
 12
-157.904055
 22
-121.491862
 32
0.0
  3
STANDARD
 13
-4.201087
 23
0.88488
 33
0.0
 14
-2.401087
 24
0.888348
 34
0.0
  0
DIMENSION
  5
928
  8
COTES
  2
*D27
 10
-4.201087
 20
0.551273
 30
0.0
 11
-4.642955
 21
0.631273
 31
0.0
 12
-157.904055
 22
-121.491862
 32
0.0
 70
   128
  3
STANDARD
 13
-4.451087
 23
0.887702
 33
0.0
 14
-4.201087
 24
0.88488
 34
0.0
  0
DIMENSION
  5
929
  8
COTES
  2
*D26
 10
-2.904206
 20
1.487702
 30
0.0
 11
-2.984206
 21
1.346714
 31
0.0
 12
-157.904055
 22
-121.491862
 32
0.0
 70
   128
  3
STANDARD
 13
-3.201087
 23
1.187702
 33
0.0
 14
-3.201087
 24
1.487702
 34
0.0
 50
90.0
  0
DIMENSION
  5
92A
  8
COTES
  2
*D25
 10
-2.401087
 20
1.756918
 30
0.0
 11
-2.801087
 21
1.836918
 31
0.0
 12
-157.904055
 22
-121.491862
 32
0.0
  3
STANDARD
 13
-3.201087
 23
1.487702
 33
0.0
 14
-2.401087
 24
1.187702
 34
0.0
  0
DIMENSION
  5
92B
  8
COTES
  2
*D24
 10
-3.201087
 20
1.756918
 30
0.0
 11
-3.701087
 21
1.836918
 31
0.0
 12
-157.904055
 22
-121.491862
 32
0.0
  3
STANDARD
 13
-4.201087
 23
1.487702
 33
0.0
 14
-3.201087
 24
1.487702
 34
0.0
  0
LINE
  5
92C
  8
SECCIO
 10
-3.201087
 20
1.187702
 30
0.0
 11
-3.201087
 21
1.487702
 31
0.0
  0
LINE
  5
92D
  8
SECCIO
 10
-4.201087
 20
1.487702
 30
0.0
 11
-3.201087
 21
1.487702
 31
0.0
  0
LINE
  5
92E
  8
SECCIO
 10
-4.451087
 20
0.887702
 30
0.0
 11
-4.451087
 21
2.087702
 31
0.0
  0
ARC
  5
92F
  8
SECCIO
 10
-3.301087
 20
2.087702
 30
0.0
 40
1.15
 50
0.0
 51
180.0
  0
LINE
  5
930
  8
SECCIO
 10
-2.151087
 20
0.887702
 30
0.0
 11
-2.151087
 21
2.087702
 31
0.0
  0
LINE
  5
931
  8
SECCIO
 10
-3.201087
 20
1.187702
 30
0.0
 11
-2.401087
 21
1.187702
 31
0.0
  0
ARC
  5
932
  8
SECCIO
 10
-3.301087
 20
2.087702
 30
0.0
 40
0.9
 50
0.0
 51
180.0
  0
LINE
  5
933
  8
SECCIO
 10
-4.201087
 20
1.487702
 30
0.0
 11
-4.201087
 21
2.087702
 31
0.0
  0
LINE
  5
934
  8
SECCIO
 10
-2.401087
 20
1.187702
 30
0.0
 11
-2.401087
 21
2.087702
 31
0.0
  0
LINE
  5
935
  8
SECCIO
 10
-4.451087
 20
0.887702
 30
0.0
 11
-2.151087
 21
0.887702
 31
0.0
  0
ENDBLK
  5
937
  8
0
  0
BLOCK
  8
0
  2
*D58
 70
     1
 10
0.0
 20
0.0
 30
0.0
  3
*D58
  1

  0
LINE
  5
B76
  8
0
  6
BYBLOCK
 62
     0
 10
325.084413
 20
35.303824
 30
0.0
 11
326.249519
 21
35.303824
 31
0.0
  0
LINE
  5
B77
  8
0
  6
BYBLOCK
 62
     0
 10
324.084413
 20
37.303824
 30
0.0
 11
326.249519
 21
37.303824
 31
0.0
  0
LINE
  5
B78
  8
0
  6
BYBLOCK
 62
     0
 10
326.234519
 20
35.453824
 30
0.0
 11
326.234519
 21
37.153824
 31
0.0
  0
SOLID
  5
B79
  8
0
  6
BYBLOCK
 62
     0
 10
326.209519
 20
35.453824
 30
0.0
 11
326.259519
 21
35.453824
 31
0.0
 12
326.234519
 22
35.303824
 32
0.0
 13
326.234519
 23
35.303824
 33
0.0
  0
SOLID
  5
B7A
  8
0
  6
BYBLOCK
 62
     0
 10
326.209519
 20
37.153824
 30
0.0
 11
326.259519
 21
37.153824
 31
0.0
 12
326.234519
 22
37.303824
 32
0.0
 13
326.234519
 23
37.303824
 33
0.0
  0
TEXT
  8
0
  40
0.075
  5
CA9
  62
0
  72
0
  71
0
 10
326.010
 20
36.1711
 30
0.000000
  1
2.00
  7
ROMANC
  0
POINT
  5
B7C
  8
DEFPOINTS
  6
BYBLOCK
 62
     0
 10
325.069413
 20
35.303824
 30
0.0
  0
POINT
  5
B7D
  8
DEFPOINTS
  6
BYBLOCK
 62
     0
 10
324.069413
 20
37.303824
 30
0.0
  0
POINT
  5
B7E
  8
DEFPOINTS
  6
BYBLOCK
 62
     0
 10
326.234519
 20
37.303824
 30
0.0
  0
ENDBLK
  5
B7F
  8
0
  0
BLOCK
  8
0
  2
*D59
 70
     1
 10
0.0
 20
0.0
 30
0.0
  3
*D59
  1

  0
LINE
  5
B83
  8
0
  6
BYBLOCK
 62
     0
 10
324.084413
 20
37.303824
 30
0.0
 11
325.602341
 21
37.303824
 31
0.0
  0
LINE
  5
B84
  8
0
  6
BYBLOCK
 62
     0
 10
325.084413
 20
36.303824
 30
0.0
 11
325.602341
 21
36.303824
 31
0.0
  0
LINE
  5
B85
  8
0
  6
BYBLOCK
 62
     0
 10
325.587341
 20
37.153824
 30
0.0
 11
325.587341
 21
36.453824
 31
0.0
  0
SOLID
  5
B86
  8
0
  6
BYBLOCK
 62
     0
 10
325.562341
 20
37.153824
 30
0.0
 11
325.612341
 21
37.153824
 31
0.0
 12
325.587341
 22
37.303824
 32
0.0
 13
325.587341
 23
37.303824
 33
0.0
  0
SOLID
  5
B87
  8
0
  6
BYBLOCK
 62
     0
 10
325.562341
 20
36.453824
 30
0.0
 11
325.612341
 21
36.453824
 31
0.0
 12
325.587341
 22
36.303824
 32
0.0
 13
325.587341
 23
36.303824
 33
0.0
  0
TEXT
  8
0
  40
0.075
  5
CAA
  62
0
  72
0
  71
0
 10
325.362
 20
36.6711
 30
0.000000
  1
1.00
  7
ROMANC
  0
POINT
  5
B89
  8
DEFPOINTS
  6
BYBLOCK
 62
     0
 10
324.069413
 20
37.303824
 30
0.0
  0
POINT
  5
B8A
  8
DEFPOINTS
  6
BYBLOCK
 62
     0
 10
325.069413
 20
36.303824
 30
0.0
  0
POINT
  5
B8B
  8
DEFPOINTS
  6
BYBLOCK
 62
     0
 10
325.587341
 20
36.303824
 30
0.0
  0
ENDBLK
  5
B8C
  8
0
  0
BLOCK
  8
0
  2
*D60
 70
     1
 10
0.0
 20
0.0
 30
0.0
  3
*D60
  1

  0
LINE
  5
B90
  8
0
  6
BYBLOCK
 62
     0
 10
325.084413
 20
35.603824
 30
0.0
 11
325.602341
 21
35.603824
 31
0.0
  0
LINE
  5
B91
  8
0
  6
BYBLOCK
 62
     0
 10
325.587341
 20
36.153824
 30
0.0
 11
325.587341
 21
35.753824
 31
0.0
  0
SOLID
  5
B92
  8
0
  6
BYBLOCK
 62
     0
 10
325.562341
 20
36.153824
 30
0.0
 11
325.612341
 21
36.153824
 31
0.0
 12
325.587341
 22
36.303824
 32
0.0
 13
325.587341
 23
36.303824
 33
0.0
  0
SOLID
  5
B93
  8
0
  6
BYBLOCK
 62
     0
 10
325.562341
 20
35.753824
 30
0.0
 11
325.612341
 21
35.753824
 31
0.0
 12
325.587341
 22
35.603824
 32
0.0
 13
325.587341
 23
35.603824
 33
0.0
  0
TEXT
  8
0
  40
0.075
  5
CAB
  62
0
  72
0
  71
0
 10
325.362
 20
35.8211
 30
0.000000
  1
0.70
  7
ROMANC
  0
POINT
  5
B95
  8
DEFPOINTS
  6
BYBLOCK
 62
     0
 10
325.069413
 20
36.303824
 30
0.0
  0
POINT
  5
B96
  8
DEFPOINTS
  6
BYBLOCK
 62
     0
 10
325.069413
 20
35.603824
 30
0.0
  0
POINT
  5
B97
  8
DEFPOINTS
  6
BYBLOCK
 62
     0
 10
325.587341
 20
35.603824
 30
0.0
  0
ENDBLK
  5
B98
  8
0
  0
BLOCK
  8
0
  2
*D61
 70
     1
 10
0.0
 20
0.0
 30
0.0
  3
*D61
  1

  0
LINE
  5
B9C
  8
0
  6
BYBLOCK
 62
     0
 10
325.099413
 20
35.303824
 30
0.0
 11
325.602341
 21
35.303824
 31
0.0
  0
LINE
  5
B9D
  8
0
  6
BYBLOCK
 62
     0
 10
325.587341
 20
35.753824
 30
0.0
 11
325.587341
 21
35.903824
 31
0.0
  0
LINE
  5
B9E
  8
0
  6
BYBLOCK
 62
     0
 10
325.587341
 20
35.153824
 30
0.0
 11
325.587341
 21
35.003824
 31
0.0
  0
LINE
  5
B9F
  8
0
  6
BYBLOCK
 62
     0
 10
325.587341
 20
35.603824
 30
0.0
 11
325.587341
 21
35.303824
 31
0.0
  0
SOLID
  5
BA0
  8
0
  6
BYBLOCK
 62
     0
 10
325.562341
 20
35.753824
 30
0.0
 11
325.612341
 21
35.753824
 31
0.0
 12
325.587341
 22
35.603824
 32
0.0
 13
325.587341
 23
35.603824
 33
0.0
  0
SOLID
  5
BA1
  8
0
  6
BYBLOCK
 62
     0
 10
325.562341
 20
35.153824
 30
0.0
 11
325.612341
 21
35.153824
 31
0.0
 12
325.587341
 22
35.303824
 32
0.0
 13
325.587341
 23
35.303824
 33
0.0
  0
TEXT
  8
0
  40
0.075
  5
CAC
  62
0
  72
0
  71
0
 10
325.362
 20
35.3211
 30
0.000000
  1
0.30
  7
ROMANC
  0
POINT
  5
BA3
  8
DEFPOINTS
  6
BYBLOCK
 62
     0
 10
325.069413
 20
35.603824
 30
0.0
  0
POINT
  5
BA4
  8
DEFPOINTS
  6
BYBLOCK
 62
     0
 10
325.084413
 20
35.303824
 30
0.0
  0
POINT
  5
BA5
  8
DEFPOINTS
  6
BYBLOCK
 62
     0
 10
325.587341
 20
35.303824
 30
0.0
  0
ENDBLK
  5
BA6
  8
0
  0
BLOCK
  8
0
  2
*D62
 70
     1
 10
0.0
 20
0.0
 30
0.0
  3
*D62
  1

  0
LINE
  5
BAB
  8
0
  6
BYBLOCK
 62
     0
 10
323.069413
 20
35.588824
 30
0.0
 11
323.069413
 21
34.34883
 31
0.0
  0
LINE
  5
BAC
  8
0
  6
BYBLOCK
 62
     0
 10
325.069413
 20
35.288824
 30
0.0
 11
325.069413
 21
34.34883
 31
0.0
  0
LINE
  5
BAD
  8
0
  6
BYBLOCK
 62
     0
 10
323.219413
 20
34.36383
 30
0.0
 11
324.919413
 21
34.36383
 31
0.0
  0
SOLID
  5
BAE
  8
0
  6
BYBLOCK
 62
     0
 10
323.219413
 20
34.38883
 30
0.0
 11
323.219413
 21
34.33883
 31
0.0
 12
323.069413
 22
34.36383
 32
0.0
 13
323.069413
 23
34.36383
 33
0.0
  0
SOLID
  5
BAF
  8
0
  6
BYBLOCK
 62
     0
 10
324.919413
 20
34.38883
 30
0.0
 11
324.919413
 21
34.33883
 31
0.0
 12
325.069413
 22
34.36383
 32
0.0
 13
325.069413
 23
34.36383
 33
0.0
  0
TEXT
  8
0
  40
0.075
  5
CAD
  62
0
  72
0
  71
0
 10
323.919
 20
34.3061
 30
0.000000
  1
2.00
  7
ROMANC
  0
POINT
  5
BB1
  8
DEFPOINTS
  6
BYBLOCK
 62
     0
 10
323.069413
 20
35.603824
 30
0.0
  0
POINT
  5
BB2
  8
DEFPOINTS
  6
BYBLOCK
 62
     0
 10
325.069413
 20
35.303824
 30
0.0
  0
POINT
  5
BB3
  8
DEFPOINTS
  6
BYBLOCK
 62
     0
 10
325.069413
 20
34.36383
 30
0.0
  0
ENDBLK
  5
BB4
  8
0
  0
BLOCK
  8
0
  2
*D63
 70
     1
 10
0.0
 20
0.0
 30
0.0
  3
*D63
  1

  0
LINE
  5
BB8
  8
0
  6
BYBLOCK
 62
     0
 10
323.069413
 20
35.588824
 30
0.0
 11
323.069413
 21
34.889677
 31
0.0
  0
LINE
  5
BB9
  8
0
  6
BYBLOCK
 62
     0
 10
324.069413
 20
35.288824
 30
0.0
 11
324.069413
 21
34.889677
 31
0.0
  0
LINE
  5
BBA
  8
0
  6
BYBLOCK
 62
     0
 10
323.219413
 20
34.904677
 30
0.0
 11
323.919413
 21
34.904677
 31
0.0
  0
SOLID
  5
BBB
  8
0
  6
BYBLOCK
 62
     0
 10
323.219413
 20
34.929677
 30
0.0
 11
323.219413
 21
34.879677
 31
0.0
 12
323.069413
 22
34.904677
 32
0.0
 13
323.069413
 23
34.904677
 33
0.0
  0
SOLID
  5
BBC
  8
0
  6
BYBLOCK
 62
     0
 10
323.919413
 20
34.929677
 30
0.0
 11
323.919413
 21
34.879677
 31
0.0
 12
324.069413
 22
34.904677
 32
0.0
 13
324.069413
 23
34.904677
 33
0.0
  0
TEXT
  8
0
  40
0.075
  5
CAE
  62
0
  72
0
  71
0
 10
323.419
 20
34.8469
 30
0.000000
  1
1.00
  7
ROMANC
  0
POINT
  5
BBE
  8
DEFPOINTS
  6
BYBLOCK
 62
     0
 10
323.069413
 20
35.603824
 30
0.0
  0
POINT
  5
BBF
  8
DEFPOINTS
  6
BYBLOCK
 62
     0
 10
324.069413
 20
35.303824
 30
0.0
  0
POINT
  5
BC0
  8
DEFPOINTS
  6
BYBLOCK
 62
     0
 10
324.069413
 20
34.904677
 30
0.0
  0
ENDBLK
  5
BC1
  8
0
  0
BLOCK
  8
0
  2
*D66
 70
     1
 10
0.0
 20
0.0
 30
0.0
  3
*D66
  1

  0
LINE
  5
BDC
  8
0
  6
BYBLOCK
 62
     0
 10
325.069413
 20
35.288824
 30
0.0
 11
325.069413
 21
34.889677
 31
0.0
  0
LINE
  5
BDD
  8
0
  6
BYBLOCK
 62
     0
 10
324.219413
 20
34.904677
 30
0.0
 11
324.919413
 21
34.904677
 31
0.0
  0
SOLID
  5
BDE
  8
0
  6
BYBLOCK
 62
     0
 10
324.219413
 20
34.929677
 30
0.0
 11
324.219413
 21
34.879677
 31
0.0
 12
324.069413
 22
34.904677
 32
0.0
 13
324.069413
 23
34.904677
 33
0.0
  0
SOLID
  5
BDF
  8
0
  6
BYBLOCK
 62
     0
 10
324.919413
 20
34.929677
 30
0.0
 11
324.919413
 21
34.879677
 31
0.0
 12
325.069413
 22
34.904677
 32
0.0
 13
325.069413
 23
34.904677
 33
0.0
  0
TEXT
  8
0
  40
0.075
  5
CAF
  62
0
  72
0
  71
0
 10
324.419
 20
34.8469
 30
0.000000
  1
1.00
  7
ROMANC
  0
POINT
  5
BE1
  8
DEFPOINTS
  6
BYBLOCK
 62
     0
 10
324.069413
 20
35.303824
 30
0.0
  0
POINT
  5
BE2
  8
DEFPOINTS
  6
BYBLOCK
 62
     0
 10
325.069413
 20
35.303824
 30
0.0
  0
POINT
  5
BE3
  8
DEFPOINTS
  6
BYBLOCK
 62
     0
 10
325.069413
 20
34.904677
 30
0.0
  0
ENDBLK
  5
BE4
  8
0
  0
BLOCK
  8
0
  2
*D67
 70
     1
 10
0.0
 20
0.0
 30
0.0
  3
*D67
  1

  0
LINE
  5
C04
  8
0
  6
BYBLOCK
 62
     0
 10
322.823753
 20
34.536333
 30
0.0
 11
322.823753
 21
33.43404
 31
0.0
  0
LINE
  5
C05
  8
0
  6
BYBLOCK
 62
     0
 10
324.823753
 20
34.536333
 30
0.0
 11
324.823753
 21
33.43404
 31
0.0
  0
LINE
  5
C06
  8
0
  6
BYBLOCK
 62
     0
 10
322.973753
 20
33.44904
 30
0.0
 11
324.673753
 21
33.44904
 31
0.0
  0
SOLID
  5
C07
  8
0
  6
BYBLOCK
 62
     0
 10
322.973753
 20
33.47404
 30
0.0
 11
322.973753
 21
33.42404
 31
0.0
 12
322.823753
 22
33.44904
 32
0.0
 13
322.823753
 23
33.44904
 33
0.0
  0
SOLID
  5
C08
  8
0
  6
BYBLOCK
 62
     0
 10
324.673753
 20
33.47404
 30
0.0
 11
324.673753
 21
33.42404
 31
0.0
 12
324.823753
 22
33.44904
 32
0.0
 13
324.823753
 23
33.44904
 33
0.0
  0
TEXT
  8
0
  40
0.075
  5
CB0
  62
0
  72
0
  71
0
 10
323.674
 20
33.3913
 30
0.000000
  1
2.00
  7
ROMANC
  0
POINT
  5
C0A
  8
DEFPOINTS
  6
BYBLOCK
 62
     0
 10
322.823753
 20
34.551333
 30
0.0
  0
POINT
  5
C0B
  8
DEFPOINTS
  6
BYBLOCK
 62
     0
 10
324.823753
 20
34.551333
 30
0.0
  0
POINT
  5
C0C
  8
DEFPOINTS
  6
BYBLOCK
 62
     0
 10
324.823753
 20
33.44904
 30
0.0
  0
ENDBLK
  5
C0D
  8
0
  0
BLOCK
  8
0
  2
*D68
 70
     1
 10
0.0
 20
0.0
 30
0.0
  3
*D68
  1

  0
LINE
  5
C11
  8
0
  6
BYBLOCK
 62
     0
 10
323.473753
 20
34.536333
 30
0.0
 11
323.473753
 21
33.760186
 31
0.0
  0
LINE
  5
C12
  8
0
  6
BYBLOCK
 62
     0
 10
324.173753
 20
34.536333
 30
0.0
 11
324.173753
 21
33.760186
 31
0.0
  0
LINE
  5
C13
  8
0
  6
BYBLOCK
 62
     0
 10
323.623753
 20
33.775186
 30
0.0
 11
324.023753
 21
33.775186
 31
0.0
  0
SOLID
  5
C14
  8
0
  6
BYBLOCK
 62
     0
 10
323.623753
 20
33.800186
 30
0.0
 11
323.623753
 21
33.750186
 31
0.0
 12
323.473753
 22
33.775186
 32
0.0
 13
323.473753
 23
33.775186
 33
0.0
  0
SOLID
  5
C15
  8
0
  6
BYBLOCK
 62
     0
 10
324.023753
 20
33.800186
 30
0.0
 11
324.023753
 21
33.750186
 31
0.0
 12
324.173753
 22
33.775186
 32
0.0
 13
324.173753
 23
33.775186
 33
0.0
  0
TEXT
  8
0
  40
0.075
  5
CB1
  62
0
  72
0
  71
0
 10
323.674
 20
33.7174
 30
0.000000
  1
0.70
  7
ROMANC
  0
POINT
  5
C17
  8
DEFPOINTS
  6
BYBLOCK
 62
     0
 10
323.473753
 20
34.551333
 30
0.0
  0
POINT
  5
C18
  8
DEFPOINTS
  6
BYBLOCK
 62
     0
 10
324.173753
 20
34.551333
 30
0.0
  0
POINT
  5
C19
  8
DEFPOINTS
  6
BYBLOCK
 62
     0
 10
324.173753
 20
33.775186
 30
0.0
  0
ENDBLK
  5
C1A
  8
0
  0
BLOCK
  8
0
  2
*D69
 70
     1
 10
0.0
 20
0.0
 30
0.0
  3
*D69
  1

  0
LINE
  5
C1E
  8
0
  6
BYBLOCK
 62
     0
 10
323.838753
 20
34.101333
 30
0.0
 11
325.462369
 21
34.101333
 31
0.0
  0
LINE
  5
C1F
  8
0
  6
BYBLOCK
 62
     0
 10
324.188753
 20
34.551333
 30
0.0
 11
325.462369
 21
34.551333
 31
0.0
  0
LINE
  5
C20
  8
0
  6
BYBLOCK
 62
     0
 10
325.447369
 20
34.251333
 30
0.0
 11
325.447369
 21
34.401333
 31
0.0
  0
SOLID
  5
C21
  8
0
  6
BYBLOCK
 62
     0
 10
325.422369
 20
34.251333
 30
0.0
 11
325.472369
 21
34.251333
 31
0.0
 12
325.447369
 22
34.101333
 32
0.0
 13
325.447369
 23
34.101333
 33
0.0
  0
SOLID
  5
C22
  8
0
  6
BYBLOCK
 62
     0
 10
325.422369
 20
34.401333
 30
0.0
 11
325.472369
 21
34.401333
 31
0.0
 12
325.447369
 22
34.551333
 32
0.0
 13
325.447369
 23
34.551333
 33
0.0
  0
TEXT
  8
0
  40
0.075
  5
CB2
  62
0
  72
0
  71
0
 10
325.222
 20
34.1936
 30
0.000000
  1
0.45
  7
ROMANC
  0
POINT
  5
C24
  8
DEFPOINTS
  6
BYBLOCK
 62
     0
 10
323.823753
 20
34.101333
 30
0.0
  0
POINT
  5
C25
  8
DEFPOINTS
  6
BYBLOCK
 62
     0
 10
324.173753
 20
34.551333
 30
0.0
  0
POINT
  5
C26
  8
DEFPOINTS
  6
BYBLOCK
 62
     0
 10
325.447369
 20
34.551333
 30
0.0
  0
ENDBLK
  5
C27
  8
0
  0
BLOCK
  8
0
  2
*D70
 70
     1
 10
0.0
 20
0.0
 30
0.0
  3
*D70
  1

  0
LINE
  5
C37
  8
0
  6
BYBLOCK
 62
     0
 10
324.838753
 20
34.551333
 30
0.0
 11
325.462369
 21
34.551333
 31
0.0
  0
LINE
  5
C38
  8
0
  6
BYBLOCK
 62
     0
 10
324.938753
 20
36.551333
 30
0.0
 11
325.462369
 21
36.551333
 31
0.0
  0
LINE
  5
C39
  8
0
  6
BYBLOCK
 62
     0
 10
325.447369
 20
34.701333
 30
0.0
 11
325.447369
 21
36.401333
 31
0.0
  0
SOLID
  5
C3A
  8
0
  6
BYBLOCK
 62
     0
 10
325.422369
 20
34.701333
 30
0.0
 11
325.472369
 21
34.701333
 31
0.0
 12
325.447369
 22
34.551333
 32
0.0
 13
325.447369
 23
34.551333
 33
0.0
  0
SOLID
  5
C3B
  8
0
  6
BYBLOCK
 62
     0
 10
325.422369
 20
36.401333
 30
0.0
 11
325.472369
 21
36.401333
 31
0.0
 12
325.447369
 22
36.551333
 32
0.0
 13
325.447369
 23
36.551333
 33
0.0
  0
TEXT
  8
0
  40
0.075
  5
CB3
  62
0
  72
0
  71
0
 10
325.222
 20
35.4186
 30
0.000000
  1
2.00
  7
ROMANC
  0
POINT
  5
C3D
  8
DEFPOINTS
  6
BYBLOCK
 62
     0
 10
324.823753
 20
34.551333
 30
0.0
  0
POINT
  5
C3E
  8
DEFPOINTS
  6
BYBLOCK
 62
     0
 10
324.923753
 20
36.551333
 30
0.0
  0
POINT
  5
C3F
  8
DEFPOINTS
  6
BYBLOCK
 62
     0
 10
325.447369
 20
36.551333
 30
0.0
  0
ENDBLK
  5
C40
  8
0
  0
BLOCK
  8
0
  2
*D71
 70
     1
 10
0.0
 20
0.0
 30
0.0
  3
*D71
  1

  0
LINE
  5
C44
  8
0
  6
BYBLOCK
 62
     0
 10
323.838753
 20
37.051333
 30
0.0
 11
325.805042
 21
37.051333
 31
0.0
  0
LINE
  5
C45
  8
0
  6
BYBLOCK
 62
     0
 10
323.838753
 20
34.101333
 30
0.0
 11
325.805042
 21
34.101333
 31
0.0
  0
LINE
  5
C46
  8
0
  6
BYBLOCK
 62
     0
 10
325.790042
 20
36.901333
 30
0.0
 11
325.790042
 21
34.251333
 31
0.0
  0
SOLID
  5
C47
  8
0
  6
BYBLOCK
 62
     0
 10
325.765042
 20
36.901333
 30
0.0
 11
325.815042
 21
36.901333
 31
0.0
 12
325.790042
 22
37.051333
 32
0.0
 13
325.790042
 23
37.051333
 33
0.0
  0
SOLID
  5
C48
  8
0
  6
BYBLOCK
 62
     0
 10
325.765042
 20
34.251333
 30
0.0
 11
325.815042
 21
34.251333
 31
0.0
 12
325.790042
 22
34.101333
 32
0.0
 13
325.790042
 23
34.101333
 33
0.0
  0
TEXT
  8
0
  40
0.075
  5
CB4
  62
0
  72
0
  71
0
 10
325.565
 20
35.4436
 30
0.000000
  1
2.95
  7
ROMANC
  0
POINT
  5
C4A
  8
DEFPOINTS
  6
BYBLOCK
 62
     0
 10
323.823753
 20
37.051333
 30
0.0
  0
POINT
  5
C4B
  8
DEFPOINTS
  6
BYBLOCK
 62
     0
 10
323.823753
 20
34.101333
 30
0.0
  0
POINT
  5
C4C
  8
DEFPOINTS
  6
BYBLOCK
 62
     0
 10
325.790042
 20
34.101333
 30
0.0
  0
ENDBLK
  5
C4D
  8
0
  0
BLOCK
  8
0
  2
*D72
 70
     1
 10
0.0
 20
0.0
 30
0.0
  3
*D72
  1

  0
LINE
  5
C52
  8
0
  6
BYBLOCK
 62
     0
 10
322.873753
 20
36.551333
 30
0.0
 11
324.773753
 21
36.551333
 31
0.0
  0
SOLID
  5
C53
  8
0
  6
BYBLOCK
 62
     0
 10
322.873753
 20
36.576333
 30
0.0
 11
322.873753
 21
36.526333
 31
0.0
 12
322.723753
 22
36.551333
 32
0.0
 13
322.723753
 23
36.551333
 33
0.0
  0
SOLID
  5
C54
  8
0
  6
BYBLOCK
 62
     0
 10
324.773753
 20
36.576333
 30
0.0
 11
324.773753
 21
36.526333
 31
0.0
 12
324.923753
 22
36.551333
 32
0.0
 13
324.923753
 23
36.551333
 33
0.0
  0
TEXT
  8
0
  40
0.075
  5
CB5
  62
0
  72
0
  71
0
 10
323.674
 20
36.4936
 30
0.000000
  1
2.20
  7
ROMANC
  0
POINT
  5
C56
  8
DEFPOINTS
  6
BYBLOCK
 62
     0
 10
322.723753
 20
36.551333
 30
0.0
  0
POINT
  5
C57
  8
DEFPOINTS
  6
BYBLOCK
 62
     0
 10
324.923753
 20
36.551333
 30
0.0
  0
POINT
  5
C58
  8
DEFPOINTS
  6
BYBLOCK
 62
     0
 10
324.923753
 20
36.551333
 30
0.0
  0
ENDBLK
  5
C59
  8
0
  0
ENDSEC
  0
SECTION
  2
ENTITIES
  0
LINE
  5
27
  8
0
 10
329.348696
 20
29.863623
 30
0.0
 11
329.348696
 21
44.713623
 31
0.0
  0
LINE
  5
28
  8
0
 10
318.848696
 20
44.713623
 30
0.0
 11
318.848696
 21
29.863623
 31
0.0
  0
LINE
  5
29
  8
0
 10
318.848696
 20
29.863623
 30
0.0
 11
329.348696
 21
29.863623
 31
0.0
  0
TEXT
  5
2A
  8
0
 10
321.773149
 20
42.309482
 30
0.0
 40
0.3
  1
TIPUS   NT523A
  7
ROMANC
  0
TEXT
  5
2D
  8
0
 10
321.735227
 20
40.527599
 30
0.0
 40
0.3
  1
P = 91.1 dm
  7
ROMANC
  0
TEXT
  5
2E
  8
0
 10
321.786243
 20
41.225178
 30
0.0
 40
0.3
  1
S = 523 dm
  7
ROMANC
  0
TEXT
  5
2F
  8
0
 10
321.773149
 20
41.823768
 30
0.0
 40
0.3
  1
ESCALA  1:50
  7
ROMANC
  0
TEXT
  5
30
  8
0
 10
324.963001
 20
41.531094
 30
0.0
 40
0.1
  1
2
  7
ROMANC
  0
LINE
  5
31
  8
0
 10
329.348696
 20
44.713623
 30
0.0
 11
318.848696
 21
44.713623
 31
0.0
  0
LINE
  5
C61
  8
0
 10
323.761111
 20
34.537333
 30
0.0
 11
324.406869
 21
34.537333
 31
0.0
  0
LINE
  5
C62
  8
0
 10
324.406869
 20
34.537333
 30
0.0
 11
324.507816
 21
36.556264
 31
0.0
  0
ARC
  5
C63
  8
0
 10
323.393552
 20
35.591333
 30
0.0
 40
1.474
 50
40.891924
 51
139.108076
  0
LINE
  5
C64
  8
0
 10
322.279288
 20
36.556264
 30
0.0
 11
322.380234
 21
34.537333
 31
0.0
  0
LINE
  5
C65
  8
0
 10
322.380234
 20
34.537333
 30
0.0
 11
323.025992
 21
34.537333
 31
0.0
  0
ARC
  5
C66
  8
0
 10
323.393552
 20
34.462444
 30
0.0
 40
0.375111
 50
168.483826
 51
11.516174
  0
LINE
  5
C67
  8
0
 10
323.752439
 20
34.544333
 30
0.0
 11
324.400211
 21
34.544333
 31
0.0
  0
LINE
  5
C68
  8
0
 10
324.400211
 20
34.544333
 30
0.0
 11
324.500684
 21
36.553803
 31
0.0
  0
ARC
  5
C69
  8
0
 10
323.393552
 20
35.591333
 30
0.0
 40
1.467
 50
41.001592
 51
138.998408
  0
LINE
  5
C6A
  8
0
 10
322.28642
 20
36.553803
 30
0.0
 11
322.386893
 21
34.544333
 31
0.0
  0
LINE
  5
C6B
  8
0
 10
322.386893
 20
34.544333
 30
0.0
 11
323.034665
 21
34.544333
 31
0.0
  0
ARC
  5
C6C
  8
0
 10
323.393552
 20
34.462444
 30
0.0
 40
0.368111
 50
167.146615
 51
12.853385
  0
LINE
  5
C6D
  8
0
 10
323.743552
 20
34.551333
 30
0.0
 11
324.393552
 21
34.551333
 31
0.0
  0
LINE
  5
C6E
  8
0
 10
324.393552
 20
34.551333
 30
0.0
 11
324.493552
 21
36.551333
 31
0.0
  0
ARC
  5
C6F
  8
0
 10
323.393552
 20
35.591333
 30
0.0
 40
1.46
 50
41.11209
 51
138.88791
  0
LINE
  5
C70
  8
0
 10
322.293552
 20
36.551333
 30
0.0
 11
322.393552
 21
34.551333
 31
0.0
  0
LINE
  5
C71
  8
0
 10
322.393552
 20
34.551333
 30
0.0
 11
323.043552
 21
34.551333
 31
0.0
  0
ARC
  5
C72
  8
0
 10
323.393552
 20
34.462444
 30
0.0
 40
0.361111
 50
165.749967
 51
14.250033
  0
LINE
  5
C73
  8
0
  6
BYBLOCK
 62
     0
 10
322.443552
 20
36.551333
 30
0.0
 11
324.343552
 21
36.551333
 31
0.0
  0
SOLID
  5
C74
  8
0
  6
BYBLOCK
 62
     0
 10
322.443552
 20
36.576333
 30
0.0
 11
322.443552
 21
36.526333
 31
0.0
 12
322.293552
 22
36.551333
 32
0.0
 13
322.293552
 23
36.551333
 33
0.0
  0
SOLID
  5
C75
  8
0
  6
BYBLOCK
 62
     0
 10
324.343552
 20
36.576333
 30
0.0
 11
324.343552
 21
36.526333
 31
0.0
 12
324.493552
 22
36.551333
 32
0.0
 13
324.493552
 23
36.551333
 33
0.0
  0
TEXT
  8
0
  40
0.075
  5
CB6
  62
0
  72
0
  71
0
 10
323.244
 20
36.4936
 30
0.000000
  1
2.20
  7
ROMANC
  0
POINT
  5
C77
  8
DEFPOINTS
  6
BYBLOCK
 62
     0
 10
322.293552
 20
36.551333
 30
0.0
  0
POINT
  5
C78
  8
DEFPOINTS
  6
BYBLOCK
 62
     0
 10
324.493552
 20
36.551333
 30
0.0
  0
POINT
  5
C79
  8
DEFPOINTS
  6
BYBLOCK
 62
     0
 10
324.493552
 20
36.551333
 30
0.0
  0
LINE
  5
C7A
  8
0
  6
BYBLOCK
 62
     0
 10
323.408552
 20
37.051333
 30
0.0
 11
325.374841
 21
37.051333
 31
0.0
  0
LINE
  5
C7B
  8
0
  6
BYBLOCK
 62
     0
 10
323.408552
 20
34.101333
 30
0.0
 11
325.374841
 21
34.101333
 31
0.0
  0
LINE
  5
C7C
  8
0
  6
BYBLOCK
 62
     0
 10
325.359841
 20
36.901333
 30
0.0
 11
325.359841
 21
34.251333
 31
0.0
  0
SOLID
  5
C7D
  8
0
  6
BYBLOCK
 62
     0
 10
325.334841
 20
36.901333
 30
0.0
 11
325.384841
 21
36.901333
 31
0.0
 12
325.359841
 22
37.051333
 32
0.0
 13
325.359841
 23
37.051333
 33
0.0
  0
SOLID
  5
C7E
  8
0
  6
BYBLOCK
 62
     0
 10
325.334841
 20
34.251333
 30
0.0
 11
325.384841
 21
34.251333
 31
0.0
 12
325.359841
 22
34.101333
 32
0.0
 13
325.359841
 23
34.101333
 33
0.0
  0
TEXT
  8
0
  40
0.075
  5
CB7
  62
0
  72
0
  71
0
 10
325.135
 20
35.4436
 30
0.000000
  1
2.95
  7
ROMANC
  0
POINT
  5
C80
  8
DEFPOINTS
  6
BYBLOCK
 62
     0
 10
323.393552
 20
37.051333
 30
0.0
  0
POINT
  5
C81
  8
DEFPOINTS
  6
BYBLOCK
 62
     0
 10
323.393552
 20
34.101333
 30
0.0
  0
POINT
  5
C82
  8
DEFPOINTS
  6
BYBLOCK
 62
     0
 10
325.359841
 20
34.101333
 30
0.0
  0
LINE
  5
C83
  8
0
  6
BYBLOCK
 62
     0
 10
324.408552
 20
34.551333
 30
0.0
 11
325.032168
 21
34.551333
 31
0.0
  0
LINE
  5
C84
  8
0
  6
BYBLOCK
 62
     0
 10
324.508552
 20
36.551333
 30
0.0
 11
325.032168
 21
36.551333
 31
0.0
  0
LINE
  5
C85
  8
0
  6
BYBLOCK
 62
     0
 10
325.017168
 20
34.701333
 30
0.0
 11
325.017168
 21
36.401333
 31
0.0
  0
SOLID
  5
C86
  8
0
  6
BYBLOCK
 62
     0
 10
324.992168
 20
34.701333
 30
0.0
 11
325.042168
 21
34.701333
 31
0.0
 12
325.017168
 22
34.551333
 32
0.0
 13
325.017168
 23
34.551333
 33
0.0
  0
SOLID
  5
C87
  8
0
  6
BYBLOCK
 62
     0
 10
324.992168
 20
36.401333
 30
0.0
 11
325.042168
 21
36.401333
 31
0.0
 12
325.017168
 22
36.551333
 32
0.0
 13
325.017168
 23
36.551333
 33
0.0
  0
TEXT
  8
0
  40
0.075
  5
CB8
  62
0
  72
0
  71
0
 10
324.792
 20
35.4186
 30
0.000000
  1
2.00
  7
ROMANC
  0
POINT
  5
C89
  8
DEFPOINTS
  6
BYBLOCK
 62
     0
 10
324.393552
 20
34.551333
 30
0.0
  0
POINT
  5
C8A
  8
DEFPOINTS
  6
BYBLOCK
 62
     0
 10
324.493552
 20
36.551333
 30
0.0
  0
POINT
  5
C8B
  8
DEFPOINTS
  6
BYBLOCK
 62
     0
 10
325.017168
 20
36.551333
 30
0.0
  0
LINE
  5
C8C
  8
0
  6
BYBLOCK
 62
     0
 10
323.408552
 20
34.101333
 30
0.0
 11
325.032168
 21
34.101333
 31
0.0
  0
LINE
  5
C8D
  8
0
  6
BYBLOCK
 62
     0
 10
323.758552
 20
34.551333
 30
0.0
 11
325.032168
 21
34.551333
 31
0.0
  0
LINE
  5
C8E
  8
0
  6
BYBLOCK
 62
     0
 10
325.017168
 20
34.251333
 30
0.0
 11
325.017168
 21
34.401333
 31
0.0
  0
SOLID
  5
C8F
  8
0
  6
BYBLOCK
 62
     0
 10
324.992168
 20
34.251333
 30
0.0
 11
325.042168
 21
34.251333
 31
0.0
 12
325.017168
 22
34.101333
 32
0.0
 13
325.017168
 23
34.101333
 33
0.0
  0
SOLID
  5
C90
  8
0
  6
BYBLOCK
 62
     0
 10
324.992168
 20
34.401333
 30
0.0
 11
325.042168
 21
34.401333
 31
0.0
 12
325.017168
 22
34.551333
 32
0.0
 13
325.017168
 23
34.551333
 33
0.0
  0
TEXT
  8
0
  40
0.075
  5
CB9
  62
0
  72
0
  71
0
 10
324.792
 20
34.1936
 30
0.000000
  1
0.45
  7
ROMANC
  0
POINT
  5
C92
  8
DEFPOINTS
  6
BYBLOCK
 62
     0
 10
323.393552
 20
34.101333
 30
0.0
  0
POINT
  5
C93
  8
DEFPOINTS
  6
BYBLOCK
 62
     0
 10
323.743552
 20
34.551333
 30
0.0
  0
POINT
  5
C94
  8
DEFPOINTS
  6
BYBLOCK
 62
     0
 10
325.017168
 20
34.551333
 30
0.0
  0
LINE
  5
C95
  8
0
  6
BYBLOCK
 62
     0
 10
323.043552
 20
34.536333
 30
0.0
 11
323.043552
 21
33.760186
 31
0.0
  0
LINE
  5
C96
  8
0
  6
BYBLOCK
 62
     0
 10
323.743552
 20
34.536333
 30
0.0
 11
323.743552
 21
33.760186
 31
0.0
  0
LINE
  5
C97
  8
0
  6
BYBLOCK
 62
     0
 10
323.193552
 20
33.775186
 30
0.0
 11
323.593552
 21
33.775186
 31
0.0
  0
SOLID
  5
C98
  8
0
  6
BYBLOCK
 62
     0
 10
323.193552
 20
33.800186
 30
0.0
 11
323.193552
 21
33.750186
 31
0.0
 12
323.043552
 22
33.775186
 32
0.0
 13
323.043552
 23
33.775186
 33
0.0
  0
SOLID
  5
C99
  8
0
  6
BYBLOCK
 62
     0
 10
323.593552
 20
33.800186
 30
0.0
 11
323.593552
 21
33.750186
 31
0.0
 12
323.743552
 22
33.775186
 32
0.0
 13
323.743552
 23
33.775186
 33
0.0
  0
TEXT
  8
0
  40
0.075
  5
CBA
  62
0
  72
0
  71
0
 10
323.244
 20
33.7174
 30
0.000000
  1
0.70
  7
ROMANC
  0
POINT
  5
C9B
  8
DEFPOINTS
  6
BYBLOCK
 62
     0
 10
323.043552
 20
34.551333
 30
0.0
  0
POINT
  5
C9C
  8
DEFPOINTS
  6
BYBLOCK
 62
     0
 10
323.743552
 20
34.551333
 30
0.0
  0
POINT
  5
C9D
  8
DEFPOINTS
  6
BYBLOCK
 62
     0
 10
323.743552
 20
33.775186
 30
0.0
  0
LINE
  5
C9E
  8
0
  6
BYBLOCK
 62
     0
 10
322.393552
 20
34.536333
 30
0.0
 11
322.393552
 21
33.43404
 31
0.0
  0
LINE
  5
C9F
  8
0
  6
BYBLOCK
 62
     0
 10
324.393552
 20
34.536333
 30
0.0
 11
324.393552
 21
33.43404
 31
0.0
  0
LINE
  5
CA0
  8
0
  6
BYBLOCK
 62
     0
 10
322.543552
 20
33.44904
 30
0.0
 11
324.243552
 21
33.44904
 31
0.0
  0
SOLID
  5
CA1
  8
0
  6
BYBLOCK
 62
     0
 10
322.543552
 20
33.47404
 30
0.0
 11
322.543552
 21
33.42404
 31
0.0
 12
322.393552
 22
33.44904
 32
0.0
 13
322.393552
 23
33.44904
 33
0.0
  0
SOLID
  5
CA2
  8
0
  6
BYBLOCK
 62
     0
 10
324.243552
 20
33.47404
 30
0.0
 11
324.243552
 21
33.42404
 31
0.0
 12
324.393552
 22
33.44904
 32
0.0
 13
324.393552
 23
33.44904
 33
0.0
  0
TEXT
  8
0
  40
0.075
  5
CBB
  62
0
  72
0
  71
0
 10
323.244
 20
33.3913
 30
0.000000
  1
2.00
  7
ROMANC
  0
POINT
  5
CA4
  8
DEFPOINTS
  6
BYBLOCK
 62
     0
 10
322.393552
 20
34.551333
 30
0.0
  0
POINT
  5
CA5
  8
DEFPOINTS
  6
BYBLOCK
 62
     0
 10
324.393552
 20
34.551333
 30
0.0
  0
POINT
  5
CA6
  8
DEFPOINTS
  6
BYBLOCK
 62
     0
 10
324.393552
 20
33.44904
 30
0.0
  0
ENDSEC
  0
EOF
