  0
SECTION
  2
HEADER
  9
$ACADVER
  1
AC1018
  9
$ACADMAINTVER
 70
   104
  9
$DWGCODEPAGE
  3
ANSI_1252
  9
$LASTSAVEDBY
  1
Veronica
  9
$INSBASE
 10
0.0
 20
0.0
 30
0.0
  9
$EXTMIN
 10
281.3950692441341
 20
29.89657355491301
 30
-98.29650011472404
  9
$EXTMAX
 10
291.8969308140736
 20
44.74748374051749
 30
65.54100007656962
  9
$LIMMIN
 10
280.396
 20
28.897
  9
$LIMMAX
 10
292.896
 20
43.74699999999999
  9
$ORTHOMODE
 70
     0
  9
$REGENMODE
 70
     1
  9
$FILLMODE
 70
     1
  9
$QTEXTMODE
 70
     0
  9
$MIRRTEXT
 70
     1
  9
$LTSCALE
 40
1.0
  9
$ATTMODE
 70
     1
  9
$TEXTSIZE
 40
0.2
  9
$TRACEWID
 40
0.05
  9
$TEXTSTYLE
  7
Standard
  9
$CLAYER
  8
MESURA
  9
$CELTYPE
  6
ByLayer
  9
$CECOLOR
 62
   256
  9
$CELTSCALE
 40
1.0
  9
$DISPSILH
 70
     0
  9
$DIMSCALE
 40
0.075
  9
$DIMASZ
 40
1.0
  9
$DIMEXO
 40
1.0
  9
$DIMDLI
 40
1.0
  9
$DIMRND
 40
0.0
  9
$DIMDLE
 40
1.0
  9
$DIMEXE
 40
1.0
  9
$DIMTP
 40
0.0
  9
$DIMTM
 40
0.0
  9
$DIMTXT
 40
1.0
  9
$DIMCEN
 40
1.0
  9
$DIMTSZ
 40
0.0
  9
$DIMTOL
 70
     0
  9
$DIMLIM
 70
     0
  9
$DIMTIH
 70
     0
  9
$DIMTOH
 70
     0
  9
$DIMSE1
 70
     0
  9
$DIMSE2
 70
     0
  9
$DIMTAD
 70
     0
  9
$DIMZIN
 70
     0
  9
$DIMBLK
  1
ArchTick
  9
$DIMASO
 70
     1
  9
$DIMSHO
 70
     1
  9
$DIMPOST
  1

  9
$DIMAPOST
  1

  9
$DIMALT
 70
     0
  9
$DIMALTD
 70
     2
  9
$DIMALTF
 40
25.4
  9
$DIMLFAC
 40
1.0
  9
$DIMTOFL
 70
     0
  9
$DIMTVP
 40
0.0
  9
$DIMTIX
 70
     0
  9
$DIMSOXD
 70
     0
  9
$DIMSAH
 70
     0
  9
$DIMBLK1
  1

  9
$DIMBLK2
  1

  9
$DIMSTYLE
  2
Escala 1-50 (A3)
  9
$DIMCLRD
 70
     0
  9
$DIMCLRE
 70
     0
  9
$DIMCLRT
 70
   256
  9
$DIMTFAC
 40
1.0
  9
$DIMGAP
 40
1.0
  9
$DIMJUST
 70
     0
  9
$DIMSD1
 70
     0
  9
$DIMSD2
 70
     0
  9
$DIMTOLJ
 70
     1
  9
$DIMTZIN
 70
     0
  9
$DIMALTZ
 70
     0
  9
$DIMALTTZ
 70
     0
  9
$DIMUPT
 70
     0
  9
$DIMDEC
 70
     2
  9
$DIMTDEC
 70
     2
  9
$DIMALTU
 70
     2
  9
$DIMALTTD
 70
     2
  9
$DIMTXSTY
  7
ROMANS
  9
$DIMAUNIT
 70
     0
  9
$DIMADEC
 70
     2
  9
$DIMALTRND
 40
0.0
  9
$DIMAZIN
 70
     0
  9
$DIMDSEP
 70
    46
  9
$DIMATFIT
 70
     3
  9
$DIMFRAC
 70
     0
  9
$DIMLDRBLK
  1

  9
$DIMLUNIT
 70
     2
  9
$DIMLWD
 70
    -1
  9
$DIMLWE
 70
    -1
  9
$DIMTMOVE
 70
     2
  9
$LUNITS
 70
     2
  9
$LUPREC
 70
     4
  9
$SKETCHINC
 40
0.1
  9
$FILLETRAD
 40
0.0
  9
$AUNITS
 70
     0
  9
$AUPREC
 70
     0
  9
$MENU
  1
acad
  9
$ELEVATION
 40
0.0
  9
$PELEVATION
 40
0.0
  9
$THICKNESS
 40
0.0
  9
$LIMCHECK
 70
     0
  9
$CHAMFERA
 40
0.0
  9
$CHAMFERB
 40
0.0
  9
$CHAMFERC
 40
0.0
  9
$CHAMFERD
 40
0.0
  9
$SKPOLY
 70
     0
  9
$TDCREATE
 40
2448315.373408102
  9
$TDUCREATE
 40
2448315.290074769
  9
$TDUPDATE
 40
2455096.501400915
  9
$TDUUPDATE
 40
2455096.418067581
  9
$TDINDWG
 40
0.0266492130
  9
$TDUSRTIMER
 40
0.0266450579
  9
$USRTIMER
 70
     1
  9
$ANGBASE
 50
0.0
  9
$ANGDIR
 70
     0
  9
$PDMODE
 70
     0
  9
$PDSIZE
 40
0.0
  9
$PLINEWID
 40
0.0
  9
$SPLFRAME
 70
     0
  9
$SPLINETYPE
 70
     6
  9
$SPLINESEGS
 70
     8
  9
$HANDSEED
  5
2D2
  9
$SURFTAB1
 70
     6
  9
$SURFTAB2
 70
     6
  9
$SURFTYPE
 70
     6
  9
$SURFU
 70
     6
  9
$SURFV
 70
     6
  9
$UCSBASE
  2

  9
$UCSNAME
  2

  9
$UCSORG
 10
0.0
 20
0.0
 30
0.0
  9
$UCSXDIR
 10
1.0
 20
0.0
 30
0.0
  9
$UCSYDIR
 10
0.0
 20
1.0
 30
0.0
  9
$UCSORTHOREF
  2

  9
$UCSORTHOVIEW
 70
     0
  9
$UCSORGTOP
 10
0.0
 20
0.0
 30
0.0
  9
$UCSORGBOTTOM
 10
0.0
 20
0.0
 30
0.0
  9
$UCSORGLEFT
 10
0.0
 20
0.0
 30
0.0
  9
$UCSORGRIGHT
 10
0.0
 20
0.0
 30
0.0
  9
$UCSORGFRONT
 10
0.0
 20
0.0
 30
0.0
  9
$UCSORGBACK
 10
0.0
 20
0.0
 30
0.0
  9
$PUCSBASE
  2

  9
$PUCSNAME
  2

  9
$PUCSORG
 10
0.0
 20
0.0
 30
0.0
  9
$PUCSXDIR
 10
1.0
 20
0.0
 30
0.0
  9
$PUCSYDIR
 10
0.0
 20
1.0
 30
0.0
  9
$PUCSORTHOREF
  2

  9
$PUCSORTHOVIEW
 70
     0
  9
$PUCSORGTOP
 10
0.0
 20
0.0
 30
0.0
  9
$PUCSORGBOTTOM
 10
0.0
 20
0.0
 30
0.0
  9
$PUCSORGLEFT
 10
0.0
 20
0.0
 30
0.0
  9
$PUCSORGRIGHT
 10
0.0
 20
0.0
 30
0.0
  9
$PUCSORGFRONT
 10
0.0
 20
0.0
 30
0.0
  9
$PUCSORGBACK
 10
0.0
 20
0.0
 30
0.0
  9
$USERI1
 70
     0
  9
$USERI2
 70
     0
  9
$USERI3
 70
     0
  9
$USERI4
 70
     0
  9
$USERI5
 70
     0
  9
$USERR1
 40
0.0
  9
$USERR2
 40
0.0
  9
$USERR3
 40
0.0
  9
$USERR4
 40
0.0
  9
$USERR5
 40
0.0
  9
$WORLDVIEW
 70
     1
  9
$SHADEDGE
 70
     3
  9
$SHADEDIF
 70
    70
  9
$TILEMODE
 70
     1
  9
$MAXACTVP
 70
    16
  9
$PINSBASE
 10
0.0
 20
0.0
 30
0.0
  9
$PLIMCHECK
 70
     0
  9
$PEXTMIN
 10
1.000000000000000E+20
 20
1.000000000000000E+20
 30
1.000000000000000E+20
  9
$PEXTMAX
 10
-1.000000000000000E+20
 20
-1.000000000000000E+20
 30
-1.000000000000000E+20
  9
$PLIMMIN
 10
0.0
 20
0.0
  9
$PLIMMAX
 10
12.0
 20
9.0
  9
$UNITMODE
 70
     0
  9
$VISRETAIN
 70
     0
  9
$PLINEGEN
 70
     0
  9
$PSLTSCALE
 70
     1
  9
$TREEDEPTH
 70
  3020
  9
$CMLSTYLE
  2
Standard
  9
$CMLJUST
 70
     0
  9
$CMLSCALE
 40
1.0
  9
$PROXYGRAPHICS
 70
     1
  9
$MEASUREMENT
 70
     0
  9
$CELWEIGHT
370
    -1
  9
$ENDCAPS
280
     0
  9
$JOINSTYLE
280
     0
  9
$LWDISPLAY
290
     0
  9
$INSUNITS
 70
     0
  9
$HYPERLINKBASE
  1

  9
$STYLESHEET
  1

  9
$XEDIT
290
     1
  9
$CEPSNTYPE
380
     0
  9
$PSTYLEMODE
290
     1
  9
$FINGERPRINTGUID
  2
{9CE895FC-0D3D-41E0-BBFD-D1538DF2EEE9}
  9
$VERSIONGUID
  2
{44536D39-03E7-4FB3-9545-A63E75BBDF4C}
  9
$EXTNAMES
290
     1
  9
$PSVPSCALE
 40
0.0
  9
$OLESTARTUP
290
     0
  9
$SORTENTS
280
   127
  9
$INDEXCTL
280
     0
  9
$HIDETEXT
280
     0
  9
$XCLIPFRAME
290
     0
  9
$HALOGAP
280
     0
  9
$OBSCOLOR
 70
   257
  9
$OBSLTYPE
280
     0
  9
$INTERSECTIONDISPLAY
280
     0
  9
$INTERSECTIONCOLOR
 70
   257
  9
$DIMASSOC
280
     1
  9
$PROJECTNAME
  1

  0
ENDSEC
  0
SECTION
  2
CLASSES
  0
CLASS
  1
ACDBDICTIONARYWDFLT
  2
AcDbDictionaryWithDefault
  3
ObjectDBX Classes
 90
        0
 91
        1
280
     0
281
     0
  0
CLASS
  1
MATERIAL
  2
AcDbMaterial
  3
ObjectDBX Classes
 90
     1153
 91
        3
280
     0
281
     0
  0
CLASS
  1
VISUALSTYLE
  2
AcDbVisualStyle
  3
ObjectDBX Classes
 90
     4095
 91
       16
280
     0
281
     0
  0
CLASS
  1
SCALE
  2
AcDbScale
  3
ObjectDBX Classes
 90
     1153
 91
       33
280
     0
281
     0
  0
CLASS
  1
TABLESTYLE
  2
AcDbTableStyle
  3
ObjectDBX Classes
 90
     4095
 91
        1
280
     0
281
     0
  0
CLASS
  1
MLEADERSTYLE
  2
AcDbMLeaderStyle
  3
ACDB_MLEADERSTYLE_CLASS
 90
     4095
 91
        1
280
     0
281
     0
  0
CLASS
  1
EXACXREFPANELOBJECT
  2
ExAcXREFPanelObject
  3
EXAC_ESW
 90
     1025
 91
        1
280
     0
281
     0
  0
CLASS
  1
NPOCOLLECTION
  2
AcDbImpNonPersistentObjectsCollection
  3
ObjectDBX Classes
 90
     1153
 91
        1
280
     0
281
     0
  0
CLASS
  1
CELLSTYLEMAP
  2
AcDbCellStyleMap
  3
ObjectDBX Classes
 90
     1152
 91
        5
280
     0
281
     0
  0
CLASS
  1
DICTIONARYVAR
  2
AcDbDictionaryVar
  3
ObjectDBX Classes
 90
        0
 91
       24
280
     0
281
     0
  0
CLASS
  1
SORTENTSTABLE
  2
AcDbSortentsTable
  3
ObjectDBX Classes
 90
        0
 91
        1
280
     0
281
     0
  0
ENDSEC
  0
SECTION
  2
TABLES
  0
TABLE
  2
VPORT
  5
8
330
0
100
AcDbSymbolTable
 70
     1
  0
VPORT
  5
81
330
8
100
AcDbSymbolTableRecord
100
AcDbViewportTableRecord
  2
*Active
 70
     0
 10
0.0
 20
0.0
 11
1.0
 21
1.0
 12
287.4704837406468
 22
37.36972649123009
 13
0.0
 23
0.0
 14
1.0
 24
1.0
 15
0.0
 25
0.0
 16
0.0
 26
0.0
 36
1.0
 17
0.0
 27
0.0
 37
0.0
 40
20.16640930674319
 41
1.448441247002398
 42
50.0
 43
0.0
 44
0.0
 50
0.0
 51
0.0
 71
     0
 72
   100
 73
     1
 74
     1
 75
     0
 76
     0
 77
     0
 78
     0
281
     0
 65
     1
110
0.0
120
0.0
130
0.0
111
1.0
121
0.0
131
0.0
112
0.0
122
1.0
132
0.0
 79
     0
146
0.0
  0
ENDTAB
  0
TABLE
  2
LTYPE
  5
5
330
0
100
AcDbSymbolTable
 70
     3
  0
LTYPE
  5
62
330
5
100
AcDbSymbolTableRecord
100
AcDbLinetypeTableRecord
  2
ByBlock
 70
     0
  3

 72
    65
 73
     0
 40
0.0
  0
LTYPE
  5
63
330
5
100
AcDbSymbolTableRecord
100
AcDbLinetypeTableRecord
  2
ByLayer
 70
     0
  3

 72
    65
 73
     0
 40
0.0
  0
LTYPE
  5
64
330
5
100
AcDbSymbolTableRecord
100
AcDbLinetypeTableRecord
  2
CONTINUOUS
 70
     0
  3
Solid line
 72
    65
 73
     0
 40
0.0
  0
ENDTAB
  0
TABLE
  2
LAYER
  5
2
330
0
100
AcDbSymbolTable
 70
     9
  0
LAYER
  5
5C
102
{ACAD_XDICTIONARY
360
E0
102
}
330
2
100
AcDbSymbolTableRecord
100
AcDbLayerTableRecord
  2
0
 70
     0
 62
     7
  6
CONTINUOUS
370
    -3
390
F
  0
LAYER
  5
78
102
{ACAD_XDICTIONARY
360
E2
102
}
330
2
100
AcDbSymbolTableRecord
100
AcDbLayerTableRecord
  2
1
 70
     0
 62
     7
  6
CONTINUOUS
370
    -3
390
F
  0
LAYER
  5
79
102
{ACAD_XDICTIONARY
360
E4
102
}
330
2
100
AcDbSymbolTableRecord
100
AcDbLayerTableRecord
  2
7
 70
     0
 62
     7
  6
CONTINUOUS
370
    -3
390
F
  0
LAYER
  5
7A
102
{ACAD_XDICTIONARY
360
E6
102
}
330
2
100
AcDbSymbolTableRecord
100
AcDbLayerTableRecord
  2
8
 70
     0
 62
     7
  6
CONTINUOUS
370
    -3
390
F
  0
LAYER
  5
7B
102
{ACAD_XDICTIONARY
360
E8
102
}
330
2
100
AcDbSymbolTableRecord
100
AcDbLayerTableRecord
  2
9
 70
     0
 62
     7
  6
CONTINUOUS
370
    -3
390
F
  0
LAYER
  5
7C
102
{ACAD_XDICTIONARY
360
EA
102
}
330
2
100
AcDbSymbolTableRecord
100
AcDbLayerTableRecord
  2
22
 70
     0
 62
     7
  6
CONTINUOUS
370
    -3
390
F
  0
LAYER
  5
7D
102
{ACAD_XDICTIONARY
360
EC
102
}
330
2
100
AcDbSymbolTableRecord
100
AcDbLayerTableRecord
  2
25
 70
     0
 62
     7
  6
CONTINUOUS
370
    -3
390
F
  0
LAYER
  5
136
102
{ACAD_XDICTIONARY
360
137
102
}
330
2
100
AcDbSymbolTableRecord
100
AcDbLayerTableRecord
  2
MESURA
 70
     0
 62
     7
  6
CONTINUOUS
370
    -3
390
F
  0
LAYER
  5
138
330
2
100
AcDbSymbolTableRecord
100
AcDbLayerTableRecord
  2
Defpoints
 70
     0
 62
     7
  6
CONTINUOUS
290
     0
370
    -3
390
F
  0
ENDTAB
  0
TABLE
  2
STYLE
  5
3
330
0
100
AcDbSymbolTable
 70
     5
  0
STYLE
  5
5D
330
3
100
AcDbSymbolTableRecord
100
AcDbTextStyleTableRecord
  2
Standard
 70
     0
 40
0.0
 41
1.0
 50
0.0
 71
     0
 42
0.2
  3
txt
  4

  0
STYLE
  5
61
330
3
100
AcDbSymbolTableRecord
100
AcDbTextStyleTableRecord
  2
Annotative
 70
     0
 40
0.0
 41
1.0
 50
0.0
 71
     0
 42
0.2
  3
txt
  4

1001
AcadAnnotative
1000
AnnotativeData
1002
{
1070
     1
1070
     1
1002
}
  0
STYLE
  5
7E
330
3
100
AcDbSymbolTableRecord
100
AcDbTextStyleTableRecord
  2
ROMANC
 70
     0
 40
0.0
 41
1.0
 50
0.0
 71
     0
 42
0.2
  3
ROMANC
  4

  0
STYLE
  5
139
330
3
100
AcDbSymbolTableRecord
100
AcDbTextStyleTableRecord
  2
ROMANS
 70
     0
 40
0.0
 41
1.0
 50
0.0
 71
     0
 42
2.5
  3
romans.shx
  4

  0
ENDTAB
  0
TABLE
  2
VIEW
  5
6
330
0
100
AcDbSymbolTable
 70
     0
  0
ENDTAB
  0
TABLE
  2
UCS
  5
7
330
0
100
AcDbSymbolTable
 70
     0
  0
ENDTAB
  0
TABLE
  2
APPID
  5
9
330
0
100
AcDbSymbolTable
 70
     5
  0
APPID
  5
5E
330
9
100
AcDbSymbolTableRecord
100
AcDbRegAppTableRecord
  2
ACAD
 70
     0
  0
APPID
  5
65
330
9
100
AcDbSymbolTableRecord
100
AcDbRegAppTableRecord
  2
AcadAnnotative
 70
     0
  0
APPID
  5
6F
330
9
100
AcDbSymbolTableRecord
100
AcDbRegAppTableRecord
  2
ACAD_MLEADERVER
 70
     0
  0
APPID
  5
105
330
9
100
AcDbSymbolTableRecord
100
AcDbRegAppTableRecord
  2
ACAD_EXEMPT_FROM_CAD_STANDARDS
 70
     0
  0
APPID
  5
13B
330
9
100
AcDbSymbolTableRecord
100
AcDbRegAppTableRecord
  2
ACAD_PSEXT
 70
     0
  0
ENDTAB
  0
TABLE
  2
DIMSTYLE
  5
A
330
0
100
AcDbSymbolTable
 70
     5
100
AcDbDimStyleTable
 71
     2
340
13A
340
5F
  0
DIMSTYLE
105
5F
330
A
100
AcDbSymbolTableRecord
100
AcDbDimStyleTableRecord
  2
Standard
 70
     0
340
5D
  0
DIMSTYLE
105
60
330
A
100
AcDbSymbolTableRecord
100
AcDbDimStyleTableRecord
  2
Annotative
 70
     0
340
5D
1001
AcadAnnotative
1000
AnnotativeData
1002
{
1070
     1
1070
     1
1002
}
  0
DIMSTYLE
105
13A
102
{ACAD_REACTORS
330
13D
330
159
330
167
330
175
330
18D
330
19B
330
1B1
330
1CD
330
294
102
}
330
A
100
AcDbSymbolTableRecord
100
AcDbDimStyleTableRecord
  2
Escala 1-50 (A3)
 70
     0
 40
0.075
 41
1.0
 42
1.0
 43
1.0
 44
1.0
 46
1.0
 73
     0
 74
     0
140
1.0
141
1.0
147
1.0
178
   256
179
     2
271
     2
272
     2
279
     2
340
139
342
126
371
    -1
372
    -1
  0
ENDTAB
  0
TABLE
  2
BLOCK_RECORD
  5
1
330
0
100
AcDbSymbolTable
 70
    15
  0
BLOCK_RECORD
  5
74
102
{ACAD_XDICTIONARY
360
112
102
}
330
1
100
AcDbSymbolTableRecord
100
AcDbBlockTableRecord
  2
*Model_Space
340
77
  0
BLOCK_RECORD
  5
70
330
1
100
AcDbSymbolTableRecord
100
AcDbBlockTableRecord
  2
*Paper_Space
340
73
  0
BLOCK_RECORD
  5
126
330
1
100
AcDbSymbolTableRecord
100
AcDbBlockTableRecord
  2
_ArchTick
340
0
310
2800000020000000200000000100080000000000000400000000000000000000000000000000000000000000000080000080000000808000800000008000800080800000C0C0C000C0DCC000F0CAA6000020400000206000002080000020A0000020C0000020E00000400000004020000040400000406000004080000040A0
310
000040C0000040E00000600000006020000060400000606000006080000060A0000060C0000060E00000800000008020000080400000806000008080000080A0000080C0000080E00000A0000000A0200000A0400000A0600000A0800000A0A00000A0C00000A0E00000C0000000C0200000C0400000C0600000C0800000C0
310
A00000C0C00000C0E00000E0000000E0200000E0400000E0600000E0800000E0A00000E0C00000E0E00040000000400020004000400040006000400080004000A0004000C0004000E00040200000402020004020400040206000402080004020A0004020C0004020E000404000004040200040404000404060004040800040
310
40A0004040C0004040E00040600000406020004060400040606000406080004060A0004060C0004060E00040800000408020004080400040806000408080004080A0004080C0004080E00040A0000040A0200040A0400040A0600040A0800040A0A00040A0C00040A0E00040C0000040C0200040C0400040C0600040C08000
310
40C0A00040C0C00040C0E00040E0000040E0200040E0400040E0600040E0800040E0A00040E0C00040E0E00080000000800020008000400080006000800080008000A0008000C0008000E00080200000802020008020400080206000802080008020A0008020C0008020E00080400000804020008040400080406000804080
310
008040A0008040C0008040E00080600000806020008060400080606000806080008060A0008060C0008060E00080800000808020008080400080806000808080008080A0008080C0008080E00080A0000080A0200080A0400080A0600080A0800080A0A00080A0C00080A0E00080C0000080C0200080C0400080C0600080C0
310
800080C0A00080C0C00080C0E00080E0000080E0200080E0400080E0600080E0800080E0A00080E0C00080E0E000C0000000C0002000C0004000C0006000C0008000C000A000C000C000C000E000C0200000C0202000C0204000C0206000C0208000C020A000C020C000C020E000C0400000C0402000C0404000C0406000C0
310
408000C040A000C040C000C040E000C0600000C0602000C0604000C0606000C0608000C060A000C060C000C060E000C0800000C0802000C0804000C0806000C0808000C080A000C080C000C080E000C0A00000C0A02000C0A04000C0A06000C0A08000C0A0A000C0A0C000C0A0E000C0C00000C0C02000C0C04000C0C06000
310
C0C08000C0C0A000F0FBFF00A4A0A000808080000000FF0000FF000000FFFF00FF000000FF00FF00FFFF0000FFFFFF00000000FF000000000000000000000000000000000000000000000000000000000000FF00FF00000000000000000000000000000000000000000000000000000000FF000000FF000000000000000000
310
0000000000000000000000000000000000FF0000000000FF0000000000000000000000000000000000000000000000000000FF0000000000FF0000000000000000000000000000000000000000000000000000FF0000000000FF0000000000000000000000000000000000000000000000000000FF0000000000FF00000000
310
00000000000000000000000000000000000000000000FF0000000000FF0000000000000000000000000000000000000000000000000000FF0000000000FF0000000000000000000000000000000000000000000000000000FF0000000000FF0000000000000000000000000000000000000000000000000000FF0000000000
310
FF0000000000000000000000000000000000000000000000000000FF0000000000FF0000000000000000000000000000000000000000000000000000FF0000000000FF0000000000000000000000000000000000000000000000000000FF0000000000FF0000000000000000000000000000000000000000000000000000FF
310
0000000000FF0000000000000000000000000000000000000000000000000000FF0000000000FF0000000000000000000000000000000000000000000000000000FF0000000000FF0000000000000000000000000000000000000000000000000000FF0000000000FF00000000000000000000000000000000000000000000
310
00000000FF0000000000FF0000000000000000000000000000000000000000000000000000FF0000000000FF0000000000000000000000000000000000000000000000000000FF0000000000FF0000000000000000000000000000000000000000000000000000FF0000000000FF0000000000000000000000000000000000
310
000000000000000000FF0000000000FF0000000000000000000000000000000000000000000000000000FF0000000000FF0000000000000000000000000000000000000000000000000000FF0000000000FF0000000000000000000000000000000000000000000000000000FF0000000000FF000000000000000000000000
310
0000000000000000000000000000FF0000000000FF0000000000000000000000000000000000000000000000000000FF0000000000FF0000000000000000000000000000000000000000000000000000FF0000000000FF0000000000000000000000000000000000000000000000000000FF000000FF000000000000000000
310
00000000000000000000000000000000000000FF00FF000000000000000000000000000000000000000000000000000000000000FF000000
102
{BLKREFS
331
130
331
131
331
154
331
155
331
195
331
196
331
1AC
331
1AD
331
1B9
331
1BA
331
22B
331
22C
331
252
331
253
331
25C
331
25D
331
267
331
268
331
270
331
271
331
29C
331
29D
102
}
  0
BLOCK_RECORD
  5
12A
330
1
100
AcDbSymbolTableRecord
100
AcDbBlockTableRecord
  2
*D2
340
0
  0
BLOCK_RECORD
  5
144
330
1
100
AcDbSymbolTableRecord
100
AcDbBlockTableRecord
  2
*D4
340
0
  0
BLOCK_RECORD
  5
15A
330
1
100
AcDbSymbolTableRecord
100
AcDbBlockTableRecord
  2
*D5
340
0
  0
BLOCK_RECORD
  5
168
330
1
100
AcDbSymbolTableRecord
100
AcDbBlockTableRecord
  2
*D6
340
0
  0
BLOCK_RECORD
  5
176
330
1
100
AcDbSymbolTableRecord
100
AcDbBlockTableRecord
  2
*D7
340
0
  0
BLOCK_RECORD
  5
18E
330
1
100
AcDbSymbolTableRecord
100
AcDbBlockTableRecord
  2
*D8
340
0
  0
BLOCK_RECORD
  5
19C
330
1
100
AcDbSymbolTableRecord
100
AcDbBlockTableRecord
  2
*D9
340
0
  0
BLOCK_RECORD
  5
1B2
330
1
100
AcDbSymbolTableRecord
100
AcDbBlockTableRecord
  2
*D10
340
0
  0
BLOCK_RECORD
  5
1C0
330
1
100
AcDbSymbolTableRecord
100
AcDbBlockTableRecord
  2
*D11
340
0
  0
BLOCK_RECORD
  5
1CE
330
1
100
AcDbSymbolTableRecord
100
AcDbBlockTableRecord
  2
*D12
340
0
  0
BLOCK_RECORD
  5
295
330
1
100
AcDbSymbolTableRecord
100
AcDbBlockTableRecord
  2
*D13
340
0
  0
ENDTAB
  0
ENDSEC
  0
SECTION
  2
BLOCKS
  0
BLOCK
  5
75
330
74
100
AcDbEntity
  8
0
100
AcDbBlockBegin
  2
*Model_Space
 70
     0
 10
0.0
 20
0.0
 30
0.0
  3
*Model_Space
  1

  0
ENDBLK
  5
76
330
74
100
AcDbEntity
  8
0
100
AcDbBlockEnd
  0
BLOCK
  5
71
330
70
100
AcDbEntity
 67
     1
  8
0
100
AcDbBlockBegin
  2
*Paper_Space
 70
     0
 10
0.0
 20
0.0
 30
0.0
  3
*Paper_Space
  1

  0
ENDBLK
  5
72
330
70
100
AcDbEntity
 67
     1
  8
0
100
AcDbBlockEnd
  0
BLOCK
  5
127
330
126
100
AcDbEntity
  8
0
100
AcDbBlockBegin
  2
_ArchTick
 70
     0
 10
0.0
 20
0.0
 30
0.0
  3
_ArchTick
  1

  0
LWPOLYLINE
  5
128
330
126
100
AcDbEntity
  8
0
  6
ByBlock
 62
     0
100
AcDbPolyline
 90
        2
 70
     0
 43
0.15
 10
-0.5
 20
-0.5
 10
0.5
 20
0.5
  0
ENDBLK
  5
129
330
126
100
AcDbEntity
  8
0
100
AcDbBlockEnd
  0
BLOCK
  5
12B
330
12A
100
AcDbEntity
  8
0
100
AcDbBlockBegin
  2
*D2
 70
     1
 10
0.0
 20
0.0
 30
0.0
  3
*D2
  1

  0
LINE
  5
12C
330
12A
100
AcDbEntity
  8
MESURA
 62
     0
100
AcDbLine
 10
99.46176458324757
 20
-15.99021659022882
 30
0.0
 11
99.9634937649913
 21
-15.99021659022882
 31
0.0
  0
LINE
  5
12D
330
12A
100
AcDbEntity
  8
MESURA
 62
     0
100
AcDbLine
 10
99.46176458324757
 20
-16.34021659022882
 30
0.0
 11
99.9634937649913
 21
-16.34021659022882
 31
0.0
  0
LINE
  5
12E
330
12A
100
AcDbEntity
  8
MESURA
 62
     0
100
AcDbLine
 10
99.8884937649913
 20
-15.91521659022882
 30
0.0
 11
99.8884937649913
 21
-16.41521659022882
 31
0.0
  0
MTEXT
  5
12F
330
12A
100
AcDbEntity
  8
MESURA
100
AcDbMText
 10
100.1884937649913
 20
-16.1652165902288
 30
0.0
 40
0.075
 41
0.0
 71
     5
 72
     1
  1
\A1;0.35
  7
ROMANS
 11
0.0000000000000001
 21
1.0
 31
0.0
 73
     1
 44
1.0
  0
INSERT
  5
130
330
12A
100
AcDbEntity
  8
MESURA
 62
     0
100
AcDbBlockReference
  2
_ArchTick
 10
99.8884937649913
 20
-15.99021659022882
 30
0.0
 41
0.075
 42
0.075
 43
0.075
 50
90.0
  0
INSERT
  5
131
330
12A
100
AcDbEntity
  8
MESURA
 62
     0
100
AcDbBlockReference
  2
_ArchTick
 10
99.8884937649913
 20
-16.34021659022882
 30
0.0
 41
0.075
 42
0.075
 43
0.075
 50
270.0
  0
POINT
  5
132
330
12A
100
AcDbEntity
  8
Defpoints
 62
     0
100
AcDbPoint
 10
99.38676458324756
 20
-15.99021659022882
 30
0.0
  0
POINT
  5
133
330
12A
100
AcDbEntity
  8
Defpoints
 62
     0
100
AcDbPoint
 10
99.38676458324756
 20
-16.34021659022882
 30
0.0
  0
POINT
  5
134
330
12A
100
AcDbEntity
  8
Defpoints
 62
     0
100
AcDbPoint
 10
99.8884937649913
 20
-16.34021659022882
 30
0.0
  0
ENDBLK
  5
135
330
12A
100
AcDbEntity
  8
0
100
AcDbBlockEnd
  0
BLOCK
  5
145
330
144
100
AcDbEntity
  8
0
100
AcDbBlockBegin
  2
*D4
 70
     1
 10
0.0
 20
0.0
 30
0.0
  3
*D4
  1

  0
LINE
  5
150
330
144
100
AcDbEntity
  8
MESURA
 62
     0
100
AcDbLine
 10
289.0683694607651
 20
33.62739502923884
 30
0.0
 11
289.5700986425088
 21
33.62739502923884
 31
0.0
  0
LINE
  5
151
330
144
100
AcDbEntity
  8
MESURA
 62
     0
100
AcDbLine
 10
289.0683694607651
 20
33.27739502923884
 30
0.0
 11
289.5700986425088
 21
33.27739502923884
 31
0.0
  0
LINE
  5
152
330
144
100
AcDbEntity
  8
MESURA
 62
     0
100
AcDbLine
 10
289.4950986425088
 20
33.70239502923884
 30
0.0
 11
289.4950986425088
 21
33.20239502923884
 31
0.0
  0
MTEXT
  5
153
330
144
100
AcDbEntity
  8
MESURA
100
AcDbMText
 10
289.7950986425088
 20
33.45239502923889
 30
0.0
 40
0.075
 41
0.0
 71
     5
 72
     1
  1
\A1;0.35
  7
ROMANS
 11
0.0000000000000001
 21
1.0
 31
0.0
 73
     1
 44
1.0
  0
INSERT
  5
154
330
144
100
AcDbEntity
  8
MESURA
 62
     0
100
AcDbBlockReference
  2
_ArchTick
 10
289.4950986425088
 20
33.62739502923884
 30
0.0
 41
0.075
 42
0.075
 43
0.075
 50
90.0
  0
INSERT
  5
155
330
144
100
AcDbEntity
  8
MESURA
 62
     0
100
AcDbBlockReference
  2
_ArchTick
 10
289.4950986425088
 20
33.27739502923884
 30
0.0
 41
0.075
 42
0.075
 43
0.075
 50
270.0
  0
POINT
  5
156
330
144
100
AcDbEntity
  8
Defpoints
 62
     0
100
AcDbPoint
 10
288.9933694607651
 20
33.62739502923884
 30
0.0
  0
POINT
  5
157
330
144
100
AcDbEntity
  8
Defpoints
 62
     0
100
AcDbPoint
 10
288.9933694607651
 20
33.27739502923884
 30
0.0
  0
POINT
  5
158
330
144
100
AcDbEntity
  8
Defpoints
 62
     0
100
AcDbPoint
 10
289.4950986425088
 20
33.27739502923884
 30
0.0
  0
ENDBLK
  5
146
330
144
100
AcDbEntity
  8
0
100
AcDbBlockEnd
  0
BLOCK
  5
15B
330
15A
100
AcDbEntity
  8
0
100
AcDbBlockBegin
  2
*D5
 70
     1
 10
0.0
 20
0.0
 30
0.0
  3
*D5
  1

  0
LINE
  5
26C
330
15A
100
AcDbEntity
  8
MESURA
 62
     0
100
AcDbLine
 10
286.534207754989
 20
36.74776298338297
 30
0.0
 11
284.0370230811517
 21
36.74776298338297
 31
0.0
  0
LINE
  5
26D
330
15A
100
AcDbEntity
  8
MESURA
 62
     0
100
AcDbLine
 10
284.5339999999999
 20
36.09736753974817
 30
0.0
 11
284.0370230811517
 21
36.09736753974817
 31
0.0
  0
LINE
  5
26E
330
15A
100
AcDbEntity
  8
MESURA
 62
     0
100
AcDbLine
 10
284.1120230811517
 20
36.82276298338297
 30
0.0
 11
284.1120230811517
 21
36.61185097585129
 31
0.0
  0
LINE
  5
26F
330
15A
100
AcDbEntity
  8
MESURA
 62
     0
100
AcDbLine
 10
284.1120230811517
 20
36.02236753974817
 30
0.0
 11
284.1120230811517
 21
36.23327954727986
 31
0.0
  0
INSERT
  5
270
330
15A
100
AcDbEntity
  8
MESURA
 62
     0
100
AcDbBlockReference
  2
_ArchTick
 10
284.1120230811517
 20
36.74776298338297
 30
0.0
 41
0.075
 42
0.075
 43
0.075
 50
90.0
  0
INSERT
  5
271
330
15A
100
AcDbEntity
  8
MESURA
 62
     0
100
AcDbBlockReference
  2
_ArchTick
 10
284.1120230811517
 20
36.09736753974817
 30
0.0
 41
0.075
 42
0.075
 43
0.075
 50
270.0
  0
MTEXT
  5
272
330
15A
100
AcDbEntity
  8
MESURA
100
AcDbMText
 10
284.1120230811517
 20
36.42256526156562
 30
0.0
 40
0.075
 41
0.0
 71
     5
 72
     1
  1
\A1;0.65
  7
ROMANS
 11
0.0000000000000001
 21
1.0
 31
0.0
 73
     1
 44
1.0
  0
POINT
  5
273
330
15A
100
AcDbEntity
  8
Defpoints
 62
     0
100
AcDbPoint
 10
286.609207754989
 20
36.74776298338297
 30
0.0
  0
POINT
  5
274
330
15A
100
AcDbEntity
  8
Defpoints
 62
     0
100
AcDbPoint
 10
284.6089999999999
 20
36.09736753974817
 30
0.0
  0
POINT
  5
275
330
15A
100
AcDbEntity
  8
Defpoints
 62
     0
100
AcDbPoint
 10
284.1120230811517
 20
36.09736753974817
 30
0.0
  0
ENDBLK
  5
15C
330
15A
100
AcDbEntity
  8
0
100
AcDbBlockEnd
  0
BLOCK
  5
169
330
168
100
AcDbEntity
  8
0
100
AcDbBlockBegin
  2
*D6
 70
     1
 10
0.0
 20
0.0
 30
0.0
  3
*D6
  1

  0
LINE
  5
258
330
168
100
AcDbEntity
  8
MESURA
 62
     0
100
AcDbLine
 10
284.5339999999999
 20
36.09736753974822
 30
0.0
 11
284.0370230811517
 21
36.09736753974822
 31
0.0
  0
LINE
  5
259
330
168
100
AcDbEntity
  8
MESURA
 62
     0
100
AcDbLine
 10
284.534
 20
35.42294060988112
 30
0.0
 11
284.0370230811517
 21
35.42294060988112
 31
0.0
  0
LINE
  5
25A
330
168
100
AcDbEntity
  8
MESURA
 62
     0
100
AcDbLine
 10
284.1120230811517
 20
36.17236753974822
 30
0.0
 11
284.1120230811517
 21
35.94943978910039
 31
0.0
  0
LINE
  5
25B
330
168
100
AcDbEntity
  8
MESURA
 62
     0
100
AcDbLine
 10
284.1120230811517
 20
35.34794060988112
 30
0.0
 11
284.1120230811517
 21
35.57086836052896
 31
0.0
  0
INSERT
  5
25C
330
168
100
AcDbEntity
  8
MESURA
 62
     0
100
AcDbBlockReference
  2
_ArchTick
 10
284.1120230811517
 20
36.09736753974822
 30
0.0
 41
0.075
 42
0.075
 43
0.075
 50
90.0
  0
INSERT
  5
25D
330
168
100
AcDbEntity
  8
MESURA
 62
     0
100
AcDbBlockReference
  2
_ArchTick
 10
284.1120230811517
 20
35.42294060988112
 30
0.0
 41
0.075
 42
0.075
 43
0.075
 50
270.0
  0
MTEXT
  5
25E
330
168
100
AcDbEntity
  8
MESURA
100
AcDbMText
 10
284.1120230811517
 20
35.76015407481472
 30
0.0
 40
0.075
 41
0.0
 71
     5
 72
     1
  1
\A1;0.67
  7
ROMANS
 11
0.0000000000000001
 21
1.0
 31
0.0
 73
     1
 44
1.0
  0
POINT
  5
25F
330
168
100
AcDbEntity
  8
Defpoints
 62
     0
100
AcDbPoint
 10
284.6089999999999
 20
36.09736753974822
 30
0.0
  0
POINT
  5
260
330
168
100
AcDbEntity
  8
Defpoints
 62
     0
100
AcDbPoint
 10
284.609
 20
35.42294060988112
 30
0.0
  0
POINT
  5
261
330
168
100
AcDbEntity
  8
Defpoints
 62
     0
100
AcDbPoint
 10
284.1120230811517
 20
35.42294060988112
 30
0.0
  0
ENDBLK
  5
16A
330
168
100
AcDbEntity
  8
0
100
AcDbBlockEnd
  0
BLOCK
  5
177
330
176
100
AcDbEntity
  8
0
100
AcDbBlockBegin
  2
*D7
 70
     1
 10
0.0
 20
0.0
 30
0.0
  3
*D7
  1

  0
LINE
  5
262
330
176
100
AcDbEntity
  8
MESURA
 62
     0
100
AcDbLine
 10
284.534
 20
35.42294060988112
 30
0.0
 11
284.0370230811517
 21
35.42294060988112
 31
0.0
  0
LINE
  5
263
330
176
100
AcDbEntity
  8
MESURA
 62
     0
100
AcDbLine
 10
286.3845440890622
 20
35.33041340542801
 30
0.0
 11
284.0370230811517
 21
35.33041340542801
 31
0.0
  0
LINE
  5
264
330
176
100
AcDbEntity
  8
MESURA
 62
     0
100
AcDbLine
 10
284.1120230811517
 20
35.42294060988112
 30
0.0
 11
284.1120230811517
 21
35.49794060988112
 31
0.0
  0
LINE
  5
265
330
176
100
AcDbEntity
  8
MESURA
 62
     0
100
AcDbLine
 10
284.1120230811517
 20
35.33041340542801
 30
0.0
 11
284.1120230811517
 21
35.25541340542801
 31
0.0
  0
MTEXT
  5
266
330
176
100
AcDbEntity
  8
MESURA
100
AcDbMText
 10
284.040797196268
 20
35.17218718332367
 30
0.0
 40
0.075
 41
0.0
 71
     5
 72
     1
  1
\A1;0.09
  7
ROMANS
 11
0.0000000000000001
 21
1.0
 31
0.0
 73
     1
 44
1.0
  0
INSERT
  5
267
330
176
100
AcDbEntity
  8
MESURA
 62
     0
100
AcDbBlockReference
  2
_ArchTick
 10
284.1120230811517
 20
35.42294060988112
 30
0.0
 41
0.075
 42
0.075
 43
0.075
 50
270.0
  0
INSERT
  5
268
330
176
100
AcDbEntity
  8
MESURA
 62
     0
100
AcDbBlockReference
  2
_ArchTick
 10
284.1120230811517
 20
35.33041340542801
 30
0.0
 41
0.075
 42
0.075
 43
0.075
 50
90.0
  0
POINT
  5
269
330
176
100
AcDbEntity
  8
Defpoints
 62
     0
100
AcDbPoint
 10
284.609
 20
35.42294060988112
 30
0.0
  0
POINT
  5
26A
330
176
100
AcDbEntity
  8
Defpoints
 62
     0
100
AcDbPoint
 10
286.4595440890621
 20
35.33041340542801
 30
0.0
  0
POINT
  5
26B
330
176
100
AcDbEntity
  8
Defpoints
 62
     0
100
AcDbPoint
 10
284.1120230811517
 20
35.33041340542801
 30
0.0
  0
ENDBLK
  5
178
330
176
100
AcDbEntity
  8
0
100
AcDbBlockEnd
  0
BLOCK
  5
18F
330
18E
100
AcDbEntity
  8
0
100
AcDbBlockBegin
  2
*D8
 70
     1
 10
0.0
 20
0.0
 30
0.0
  3
*D8
  1

  0
LINE
  5
191
330
18E
100
AcDbEntity
  8
MESURA
 62
     0
100
AcDbLine
 10
284.609
 20
35.173
 30
0.0
 11
284.609
 21
34.52584597450464
 31
0.0
  0
LINE
  5
192
330
18E
100
AcDbEntity
  8
MESURA
 62
     0
100
AcDbLine
 10
286.4595440890621
 20
35.25541340542801
 30
0.0
 11
286.4595440890621
 21
34.52584597450464
 31
0.0
  0
LINE
  5
193
330
18E
100
AcDbEntity
  8
MESURA
 62
     0
100
AcDbLine
 10
284.534
 20
34.60084597450464
 30
0.0
 11
285.3503434731025
 21
34.60084597450464
 31
0.0
  0
LINE
  5
194
330
18E
100
AcDbEntity
  8
MESURA
 62
     0
100
AcDbLine
 10
286.5345440890621
 20
34.60084597450464
 30
0.0
 11
285.7182006159596
 21
34.60084597450464
 31
0.0
  0
INSERT
  5
195
330
18E
100
AcDbEntity
  8
MESURA
 62
     0
100
AcDbBlockReference
  2
_ArchTick
 10
284.609
 20
34.60084597450464
 30
0.0
 41
0.075
 42
0.075
 43
0.075
 50
180.0
  0
INSERT
  5
196
330
18E
100
AcDbEntity
  8
MESURA
 62
     0
100
AcDbBlockReference
  2
_ArchTick
 10
286.4595440890621
 20
34.60084597450464
 30
0.0
 41
0.075
 42
0.075
 43
0.075
  0
MTEXT
  5
197
330
18E
100
AcDbEntity
  8
MESURA
100
AcDbMText
 10
285.5342720445311
 20
34.60084597450464
 30
0.0
 40
0.075
 41
0.0
 71
     5
 72
     1
  1
\A1;1.85
  7
ROMANS
 73
     1
 44
1.0
  0
POINT
  5
198
330
18E
100
AcDbEntity
  8
Defpoints
 62
     0
100
AcDbPoint
 10
284.609
 20
35.248
 30
0.0
  0
POINT
  5
199
330
18E
100
AcDbEntity
  8
Defpoints
 62
     0
100
AcDbPoint
 10
286.4595440890621
 20
35.33041340542801
 30
0.0
  0
POINT
  5
19A
330
18E
100
AcDbEntity
  8
Defpoints
 62
     0
100
AcDbPoint
 10
286.4595440890621
 20
34.60084597450464
 30
0.0
  0
ENDBLK
  5
190
330
18E
100
AcDbEntity
  8
0
100
AcDbBlockEnd
  0
BLOCK
  5
19D
330
19C
100
AcDbEntity
  8
0
100
AcDbBlockBegin
  2
*D9
 70
     1
 10
0.0
 20
0.0
 30
0.0
  3
*D9
  1

  0
LINE
  5
1A8
330
19C
100
AcDbEntity
  8
MESURA
 62
     0
100
AcDbLine
 10
286.4595440890621
 20
35.25541340542801
 30
0.0
 11
286.4595440890621
 21
34.52584597450464
 31
0.0
  0
LINE
  5
1A9
330
19C
100
AcDbEntity
  8
MESURA
 62
     0
100
AcDbLine
 10
286.7595440890621
 20
35.25541340542801
 30
0.0
 11
286.7595440890621
 21
34.52584597450464
 31
0.0
  0
LINE
  5
1AA
330
19C
100
AcDbEntity
  8
MESURA
 62
     0
100
AcDbLine
 10
286.3845440890622
 20
34.60084597450464
 30
0.0
 11
286.8345440890621
 21
34.60084597450464
 31
0.0
  0
MTEXT
  5
1AB
330
19C
100
AcDbEntity
  8
MESURA
100
AcDbMText
 10
286.6095440890621
 20
34.66891640497477
 30
0.0
 40
0.075
 41
0.0
 71
     5
 72
     1
  1
\A1;0.30
  7
ROMANS
 73
     1
 44
1.0
  0
INSERT
  5
1AC
330
19C
100
AcDbEntity
  8
MESURA
 62
     0
100
AcDbBlockReference
  2
_ArchTick
 10
286.4595440890621
 20
34.60084597450464
 30
0.0
 41
0.075
 42
0.075
 43
0.075
 50
180.0
  0
INSERT
  5
1AD
330
19C
100
AcDbEntity
  8
MESURA
 62
     0
100
AcDbBlockReference
  2
_ArchTick
 10
286.7595440890621
 20
34.60084597450464
 30
0.0
 41
0.075
 42
0.075
 43
0.075
  0
POINT
  5
1AE
330
19C
100
AcDbEntity
  8
Defpoints
 62
     0
100
AcDbPoint
 10
286.4595440890621
 20
35.33041340542801
 30
0.0
  0
POINT
  5
1AF
330
19C
100
AcDbEntity
  8
Defpoints
 62
     0
100
AcDbPoint
 10
286.7595440890621
 20
35.33041340542801
 30
0.0
  0
POINT
  5
1B0
330
19C
100
AcDbEntity
  8
Defpoints
 62
     0
100
AcDbPoint
 10
286.7595440890621
 20
34.60084597450464
 30
0.0
  0
ENDBLK
  5
19E
330
19C
100
AcDbEntity
  8
0
100
AcDbBlockEnd
  0
BLOCK
  5
1B3
330
1B2
100
AcDbEntity
  8
0
100
AcDbBlockBegin
  2
*D10
 70
     1
 10
0.0
 20
0.0
 30
0.0
  3
*D10
  1

  0
LINE
  5
1B5
330
1B2
100
AcDbEntity
  8
MESURA
 62
     0
100
AcDbLine
 10
286.7595440890621
 20
35.25541340542801
 30
0.0
 11
286.7595440890621
 21
34.52584597450464
 31
0.0
  0
LINE
  5
1B6
330
1B2
100
AcDbEntity
  8
MESURA
 62
     0
100
AcDbLine
 10
288.609
 20
35.3478862009749
 30
0.0
 11
288.609
 21
34.52584597450464
 31
0.0
  0
LINE
  5
1B7
330
1B2
100
AcDbEntity
  8
MESURA
 62
     0
100
AcDbLine
 10
286.6845440890621
 20
34.60084597450464
 30
0.0
 11
287.5003434731025
 21
34.60084597450464
 31
0.0
  0
LINE
  5
1B8
330
1B2
100
AcDbEntity
  8
MESURA
 62
     0
100
AcDbLine
 10
288.684
 20
34.60084597450464
 30
0.0
 11
287.8682006159596
 21
34.60084597450464
 31
0.0
  0
INSERT
  5
1B9
330
1B2
100
AcDbEntity
  8
MESURA
 62
     0
100
AcDbBlockReference
  2
_ArchTick
 10
286.7595440890621
 20
34.60084597450464
 30
0.0
 41
0.075
 42
0.075
 43
0.075
 50
180.0
  0
INSERT
  5
1BA
330
1B2
100
AcDbEntity
  8
MESURA
 62
     0
100
AcDbBlockReference
  2
_ArchTick
 10
288.609
 20
34.60084597450464
 30
0.0
 41
0.075
 42
0.075
 43
0.075
  0
MTEXT
  5
1BB
330
1B2
100
AcDbEntity
  8
MESURA
100
AcDbMText
 10
287.684272044531
 20
34.60084597450464
 30
0.0
 40
0.075
 41
0.0
 71
     5
 72
     1
  1
\A1;1.85
  7
ROMANS
 73
     1
 44
1.0
  0
POINT
  5
1BC
330
1B2
100
AcDbEntity
  8
Defpoints
 62
     0
100
AcDbPoint
 10
286.7595440890621
 20
35.33041340542801
 30
0.0
  0
POINT
  5
1BD
330
1B2
100
AcDbEntity
  8
Defpoints
 62
     0
100
AcDbPoint
 10
288.609
 20
35.4228862009749
 30
0.0
  0
POINT
  5
1BE
330
1B2
100
AcDbEntity
  8
Defpoints
 62
     0
100
AcDbPoint
 10
288.609
 20
34.60084597450464
 30
0.0
  0
ENDBLK
  5
1B4
330
1B2
100
AcDbEntity
  8
0
100
AcDbBlockEnd
  0
BLOCK
  5
1C1
330
1C0
100
AcDbEntity
  8
0
100
AcDbBlockBegin
  2
*D11
 70
     1
 10
0.0
 20
0.0
 30
0.0
  3
*D11
  1

  0
LINE
  5
24E
330
1C0
100
AcDbEntity
  8
MESURA
 62
     0
100
AcDbLine
 10
286.684207754989
 20
36.74776298338297
 30
0.0
 11
289.0729623348936
 21
36.74776298338297
 31
0.0
  0
LINE
  5
24F
330
1C0
100
AcDbEntity
  8
MESURA
 62
     0
100
AcDbLine
 10
288.684
 20
35.4228862009749
 30
0.0
 11
289.0729623348936
 21
35.4228862009749
 31
0.0
  0
LINE
  5
250
330
1C0
100
AcDbEntity
  8
MESURA
 62
     0
100
AcDbLine
 10
288.9979623348936
 20
36.82276298338297
 30
0.0
 11
288.9979623348936
 21
36.26925316360751
 31
0.0
  0
LINE
  5
251
330
1C0
100
AcDbEntity
  8
MESURA
 62
     0
100
AcDbLine
 10
288.9979623348936
 20
35.3478862009749
 30
0.0
 11
288.9979623348936
 21
35.90139602075036
 31
0.0
  0
INSERT
  5
252
330
1C0
100
AcDbEntity
  8
MESURA
 62
     0
100
AcDbBlockReference
  2
_ArchTick
 10
288.9979623348936
 20
36.74776298338297
 30
0.0
 41
0.075
 42
0.075
 43
0.075
 50
90.0
  0
INSERT
  5
253
330
1C0
100
AcDbEntity
  8
MESURA
 62
     0
100
AcDbBlockReference
  2
_ArchTick
 10
288.9979623348936
 20
35.4228862009749
 30
0.0
 41
0.075
 42
0.075
 43
0.075
 50
270.0
  0
MTEXT
  5
254
330
1C0
100
AcDbEntity
  8
MESURA
100
AcDbMText
 10
288.9979623348936
 20
36.08532459217899
 30
0.0
 40
0.075
 41
0.0
 71
     5
 72
     1
  1
\A1;1.32
  7
ROMANS
 11
0.0000000000000001
 21
1.0
 31
0.0
 73
     1
 44
1.0
  0
POINT
  5
255
330
1C0
100
AcDbEntity
  8
Defpoints
 62
     0
100
AcDbPoint
 10
286.609207754989
 20
36.74776298338297
 30
0.0
  0
POINT
  5
256
330
1C0
100
AcDbEntity
  8
Defpoints
 62
     0
100
AcDbPoint
 10
288.609
 20
35.4228862009749
 30
0.0
  0
POINT
  5
257
330
1C0
100
AcDbEntity
  8
Defpoints
 62
     0
100
AcDbPoint
 10
288.9979623348936
 20
35.4228862009749
 30
0.0
  0
ENDBLK
  5
1C2
330
1C0
100
AcDbEntity
  8
0
100
AcDbBlockEnd
  0
BLOCK
  5
1CF
330
1CE
100
AcDbEntity
  8
0
100
AcDbBlockBegin
  2
*D12
 70
     1
 10
0.0
 20
0.0
 30
0.0
  3
*D12
  1

  0
LINE
  5
227
330
1CE
100
AcDbEntity
  8
MESURA
 62
     0
100
AcDbLine
 10
286.534207754989
 20
36.74776298338297
 30
0.0
 11
286.1955530114142
 21
36.74776298338297
 31
0.0
  0
LINE
  5
228
330
1CE
100
AcDbEntity
  8
MESURA
 62
     0
100
AcDbLine
 10
286.5345796837456
 20
35.18041340965131
 30
0.0
 11
286.1955530114142
 21
35.18041340965131
 31
0.0
  0
LINE
  5
229
330
1CE
100
AcDbEntity
  8
MESURA
 62
     0
100
AcDbLine
 10
286.2705530114142
 20
36.82276298338297
 30
0.0
 11
286.2705530114142
 21
35.10541340965131
 31
0.0
  0
MTEXT
  5
22A
330
1CE
100
AcDbEntity
  8
MESURA
100
AcDbMText
 10
286.0781224211232
 20
36.02211581384586
 30
0.0
 40
0.06
 41
0.0
 71
     5
 72
     1
  1
\A1;Cubeta de gres D300mm\P1.35 a 1.55mts
  7
ROMANS
 11
0.0000000000000001
 21
1.0
 31
0.0
 73
     1
 44
1.0
  0
INSERT
  5
22B
330
1CE
100
AcDbEntity
  8
MESURA
 62
     0
100
AcDbBlockReference
  2
_ArchTick
 10
286.2705530114142
 20
36.74776298338297
 30
0.0
 41
0.075
 42
0.075
 43
0.075
 50
90.0
  0
INSERT
  5
22C
330
1CE
100
AcDbEntity
  8
MESURA
 62
     0
100
AcDbBlockReference
  2
_ArchTick
 10
286.2705530114142
 20
35.18041340965131
 30
0.0
 41
0.075
 42
0.075
 43
0.075
 50
270.0
  0
POINT
  5
22D
330
1CE
100
AcDbEntity
  8
Defpoints
 62
     0
100
AcDbPoint
 10
286.609207754989
 20
36.74776298338297
 30
0.0
  0
POINT
  5
22E
330
1CE
100
AcDbEntity
  8
Defpoints
 62
     0
100
AcDbPoint
 10
286.6095796837456
 20
35.18041340965131
 30
0.0
  0
POINT
  5
22F
330
1CE
100
AcDbEntity
  8
Defpoints
 62
     0
100
AcDbPoint
 10
286.2705530114142
 20
35.18041340965131
 30
0.0
  0
ENDBLK
  5
1D0
330
1CE
100
AcDbEntity
  8
0
100
AcDbBlockEnd
  0
BLOCK
  5
296
330
295
100
AcDbEntity
  8
0
100
AcDbBlockBegin
  2
*D13
 70
     1
 10
0.0
 20
0.0
 30
0.0
  3
*D13
  1

  0
LINE
  5
298
330
295
100
AcDbEntity
  8
MESURA
 62
     0
100
AcDbLine
 10
284.6089999999999
 20
36.17236753974817
 30
0.0
 11
284.6089999999999
 21
37.11223727265061
 31
0.0
  0
LINE
  5
299
330
295
100
AcDbEntity
  8
MESURA
 62
     0
100
AcDbLine
 10
288.609
 20
36.17236753974817
 30
0.0
 11
288.609
 21
37.11223727265061
 31
0.0
  0
LINE
  5
29A
330
295
100
AcDbEntity
  8
MESURA
 62
     0
100
AcDbLine
 10
284.5339999999999
 20
37.0372372726506
 30
0.0
 11
286.4197142857142
 21
37.0372372726506
 31
0.0
  0
LINE
  5
29B
330
295
100
AcDbEntity
  8
MESURA
 62
     0
100
AcDbLine
 10
288.684
 20
37.0372372726506
 30
0.0
 11
286.7982857142856
 21
37.0372372726506
 31
0.0
  0
INSERT
  5
29C
330
295
100
AcDbEntity
  8
MESURA
 62
     0
100
AcDbBlockReference
  2
_ArchTick
 10
284.6089999999999
 20
37.0372372726506
 30
0.0
 41
0.075
 42
0.075
 43
0.075
 50
180.0
  0
INSERT
  5
29D
330
295
100
AcDbEntity
  8
MESURA
 62
     0
100
AcDbBlockReference
  2
_ArchTick
 10
288.609
 20
37.0372372726506
 30
0.0
 41
0.075
 42
0.075
 43
0.075
  0
MTEXT
  5
29E
330
295
100
AcDbEntity
  8
MESURA
100
AcDbMText
 10
286.6089999999999
 20
37.0372372726506
 30
0.0
 40
0.075
 41
0.0
 71
     5
 72
     1
  1
\A1;4.00
  7
ROMANS
 73
     1
 44
1.0
  0
POINT
  5
29F
330
295
100
AcDbEntity
  8
Defpoints
 62
     0
100
AcDbPoint
 10
284.6089999999999
 20
36.09736753974817
 30
0.0
  0
POINT
  5
2A0
330
295
100
AcDbEntity
  8
Defpoints
 62
     0
100
AcDbPoint
 10
288.609
 20
36.09736753974817
 30
0.0
  0
POINT
  5
2A1
330
295
100
AcDbEntity
  8
Defpoints
 62
     0
100
AcDbPoint
 10
288.609
 20
37.0372372726506
 30
0.0
  0
ENDBLK
  5
297
330
295
100
AcDbEntity
  8
0
100
AcDbBlockEnd
  0
ENDSEC
  0
SECTION
  2
ENTITIES
  0
TEXT
  5
82
330
74
100
AcDbEntity
  8
0
  6
Continuous
100
AcDbText
 10
286.913
 20
41.329
 30
0.0
 40
0.1
  1
2
  7
ROMANC
100
AcDbText
  0
TEXT
  5
83
330
74
100
AcDbEntity
  8
0
  6
Continuous
100
AcDbText
 10
283.926
 20
41.768
 30
0.0
 40
0.3
  1
ESCALA  1:50
  7
ROMANC
100
AcDbText
  0
LWPOLYLINE
  5
84
330
74
100
AcDbEntity
  8
0
  6
Continuous
100
AcDbPolyline
 90
        4
 70
     1
 43
0.0
 10
281.396
 20
44.747
 10
291.896
 20
44.747
 10
291.896
 20
29.897
 10
281.396
 20
29.897
  0
TEXT
  5
8A
330
74
100
AcDbEntity
  8
0
  6
Continuous
100
AcDbText
 10
283.945
 20
41.09899999999999
 30
0.0
 40
0.3
  1
S = 470 dm
  7
ROMANC
100
AcDbText
  0
TEXT
  5
8B
330
74
100
AcDbEntity
  8
0
  6
Continuous
100
AcDbText
 10
283.922
 20
40.529
 30
0.0
 40
0.3
  1
P = 98 dm
  7
ROMANC
100
AcDbText
  0
TEXT
  5
8C
330
74
100
AcDbEntity
  8
0
  6
Continuous
100
AcDbText
 10
283.926
 20
42.381
 30
0.0
 40
0.3
  1
TIPUS   NT470A
  7
ROMANC
100
AcDbText
  0
LINE
  5
10B
330
74
100
AcDbEntity
  8
0
100
AcDbLine
 10
310.7670650891784
 20
22.72094901234175
 30
0.0
 11
410.7670650891783
 21
22.72094901234175
 31
0.0
  0
LINE
  5
10C
330
74
100
AcDbEntity
  8
0
100
AcDbLine
 10
410.7670650891783
 20
22.72094901234175
 30
0.0
 11
410.7670650891783
 21
27.72094901234175
 31
0.0
  0
LWPOLYLINE
  5
123
330
74
100
AcDbEntity
  8
1
  6
Continuous
100
AcDbPolyline
 90
        7
 70
     0
 43
0.05
 10
288.6095440406629
 20
36.09776295227855
 42
0.3250546579468865
 10
284.6089999999999
 20
36.09736753974822
 10
284.609
 20
35.42294060988112
 10
286.4595440890621
 20
35.33041340542801
 42
0.9999999999999998
 10
286.7595440890621
 20
35.33041340542801
 10
288.609
 20
35.4228862009749
 10
288.609
 20
36.098
  0
LWPOLYLINE
  5
125
330
74
100
AcDbEntity
  8
0
100
AcDbPolyline
 90
       10
 70
     1
 43
0.02
 10
284.609
 20
35.248
 10
284.609
 20
35.42294060988112
 10
286.4595440890621
 20
35.33041340542801
 42
0.9999999999999998
 10
286.7595440890621
 20
35.33041340542801
 10
288.609
 20
35.4228862009749
 10
288.609
 20
35.248
 10
287.309
 20
35.248
 10
287.309
 20
34.848
 10
285.109
 20
34.848
 10
285.109
 20
35.248
  0
DIMENSION
  5
159
330
74
100
AcDbEntity
  8
MESURA
100
AcDbDimension
  2
*D5
 10
284.1120230811517
 20
36.09736753974817
 30
0.0
 11
284.1120230811517
 21
36.42256526156562
 31
0.0
 70
    32
 71
     5
 42
0.6503954436347997
  3
Escala 1-50 (A3)
100
AcDbAlignedDimension
 13
286.609207754989
 23
36.74776298338297
 33
0.0
 14
284.6089999999999
 24
36.09736753974817
 34
0.0
 50
90.0
100
AcDbRotatedDimension
  0
DIMENSION
  5
167
330
74
100
AcDbEntity
  8
MESURA
100
AcDbDimension
  2
*D6
 10
284.1120230811517
 20
35.42294060988112
 30
0.0
 11
284.1120230811517
 21
35.76015407481472
 31
0.0
 70
    32
 71
     5
 42
0.6744269298671029
  3
Escala 1-50 (A3)
100
AcDbAlignedDimension
 13
284.6089999999999
 23
36.09736753974822
 33
0.0
 14
284.609
 24
35.42294060988112
 34
0.0
 50
90.0
100
AcDbRotatedDimension
  0
DIMENSION
  5
175
330
74
100
AcDbEntity
  8
MESURA
100
AcDbDimension
  2
*D7
 10
284.1120230811517
 20
35.33041340542801
 30
0.0
 11
284.040797196268
 21
35.17218718332367
 31
0.0
 70
   160
 71
     5
 42
0.0925272044531056
  3
Escala 1-50 (A3)
100
AcDbAlignedDimension
 13
284.609
 23
35.42294060988112
 33
0.0
 14
286.4595440890621
 24
35.33041340542801
 34
0.0
 50
90.0
100
AcDbRotatedDimension
  0
DIMENSION
  5
18D
330
74
100
AcDbEntity
  8
MESURA
100
AcDbDimension
  2
*D8
 10
286.4595440890621
 20
34.60084597450464
 30
0.0
 11
285.5342720445311
 21
34.60084597450464
 31
0.0
 70
    32
 71
     5
 42
1.850544089062168
  3
Escala 1-50 (A3)
100
AcDbAlignedDimension
 13
284.609
 23
35.248
 33
0.0
 14
286.4595440890621
 24
35.33041340542801
 34
0.0
100
AcDbRotatedDimension
  0
DIMENSION
  5
19B
330
74
100
AcDbEntity
  8
MESURA
100
AcDbDimension
  2
*D9
 10
286.7595440890621
 20
34.60084597450464
 30
0.0
 11
286.6095440890621
 21
34.66891640497477
 31
0.0
 70
   160
 71
     5
 42
0.2999999999999545
  3
Escala 1-50 (A3)
100
AcDbAlignedDimension
 13
286.4595440890621
 23
35.33041340542801
 33
0.0
 14
286.7595440890621
 24
35.33041340542801
 34
0.0
100
AcDbRotatedDimension
  0
DIMENSION
  5
1B1
330
74
100
AcDbEntity
  8
MESURA
100
AcDbDimension
  2
*D10
 10
288.609
 20
34.60084597450464
 30
0.0
 11
287.684272044531
 21
34.60084597450464
 31
0.0
 70
    32
 71
     5
 42
1.849455910937876
  3
Escala 1-50 (A3)
100
AcDbAlignedDimension
 13
286.7595440890621
 23
35.33041340542801
 33
0.0
 14
288.609
 24
35.4228862009749
 34
0.0
100
AcDbRotatedDimension
  0
DIMENSION
  5
1CD
330
74
100
AcDbEntity
  8
MESURA
100
AcDbDimension
  2
*D12
 10
286.2705530114142
 20
35.18041340965131
 30
0.0
 11
286.0781224211232
 21
36.02211581384586
 31
0.0
 70
   160
  1
Cubeta de gres D300mm\P1.35 a 1.55mts
 71
     5
 42
1.567349573731661
  3
Escala 1-50 (A3)
100
AcDbAlignedDimension
 13
286.609207754989
 23
36.74776298338297
 33
0.0
 14
286.6095796837456
 24
35.18041340965131
 34
0.0
 50
90.0
100
AcDbRotatedDimension
1001
ACAD
1000
DSTYLE
1002
{
1070
   140
1040
0.8
1002
}
  0
TEXT
  5
276
330
74
100
AcDbEntity
  8
0
  6
Continuous
100
AcDbText
 10
286.8567889086742
 20
34.23652941307331
 30
0.0
 40
0.08
  1
Sanejament de solera
  7
ROMANC
100
AcDbText
  0
TEXT
  5
278
330
74
100
AcDbEntity
  8
0
  6
Continuous
100
AcDbText
 10
286.8567889086742
 20
34.05163846521033
 30
0.0
 40
0.08
  1
(demolició/repicat)
  7
ROMANC
100
AcDbText
  0
LINE
  5
279
330
74
100
AcDbEntity
  8
MESURA
100
AcDbLine
 10
288.3473684298445
 20
34.28578830928052
 30
0.0
 11
288.4076034461349
 21
35.38595653850405
 31
0.0
  0
LINE
  5
27A
330
74
100
AcDbEntity
  8
MESURA
100
AcDbLine
 10
288.4076034461349
 20
35.38595653850405
 30
0.0
 11
288.3745057896604
 21
35.30609487383322
 31
0.0
  0
LINE
  5
27B
330
74
100
AcDbEntity
  8
MESURA
100
AcDbLine
 10
288.3745057896604
 20
35.30609487383322
 30
0.0
 11
288.4384189274464
 21
35.30609487383322
 31
0.0
  0
LINE
  5
27C
330
74
100
AcDbEntity
  8
MESURA
100
AcDbLine
 10
288.4076034461349
 20
35.38595653850405
 30
0.0
 11
288.4384189274464
 21
35.30609487383322
 31
0.0
  0
HATCH
  5
284
330
74
100
AcDbEntity
  8
MESURA
100
AcDbHatch
 10
0.0
 20
0.0
 30
0.0
210
0.0
220
0.0
230
1.0
  2
SOLID
 70
     1
 71
     0
 91
        2
 92
        7
 72
     0
 73
     1
 93
        3
 10
288.4076034461348
 20
35.385956538504
 10
288.4032309615051
 20
35.30609487383322
 10
288.4384189274464
 20
35.30609487383322
 97
        0
 92
        7
 72
     0
 73
     1
 93
        3
 10
288.4076034461348
 20
35.38595653850415
 10
288.3745057896604
 20
35.30609487383322
 10
288.4032309615051
 20
35.30609487383321
 97
        0
 75
     0
 76
     1
 47
0.0012581075070712
 98
        2
 10
288.4229704093905
 20
35.32800918514613
 10
288.4015745075192
 20
35.3254930364136
450
        0
451
        0
460
0.0
461
0.0
452
        1
462
1.0
453
        2
463
0.0
 63
     5
421
      255
463
1.0
 63
     7
421
 16777215
470
LINEAR
1001
ACAD
1010
288.3745057896604
1020
35.30609487383321
1030
0.0
  0
HATCH
  5
289
330
74
100
AcDbEntity
  8
0
100
AcDbHatch
 10
0.0
 20
0.0
 30
0.0
210
0.0
220
0.0
230
1.0
  2
ANSI31
 70
     0
 71
     0
 91
        3
 92
        0
 93
       10
 72
     1
 10
284.609
 20
35.248
 11
284.609
 21
35.42294060988112
 72
     1
 10
284.609
 20
35.42294060988112
 11
286.4595440890621
 21
35.33041340542801
 72
     2
 10
286.6095440890621
 20
35.33041340542801
 40
0.1499999999999773
 50
180.0
 51
360.0
 73
     1
 72
     1
 10
286.7595440890621
 20
35.33041340542801
 11
288.609
 21
35.4228862009749
 72
     1
 10
288.609
 20
35.4228862009749
 11
288.609
 21
35.248
 72
     1
 10
288.609
 20
35.248
 11
287.309
 21
35.248
 72
     1
 10
287.309
 20
35.248
 11
287.309
 21
34.848
 72
     1
 10
287.309
 20
34.848
 11
285.109
 21
34.848
 72
     1
 10
285.109
 20
34.848
 11
285.109
 21
35.248
 72
     1
 10
285.109
 20
35.248
 11
284.609
 21
35.248
 97
        0
 92
       17
 93
       10
 72
     1
 10
284.609
 20
35.248
 11
284.609
 21
35.42294060988112
 72
     1
 10
284.609
 20
35.42294060988112
 11
286.4595440890621
 21
35.33041340542801
 72
     2
 10
286.6095440890621
 20
35.33041340542801
 40
0.1499999999999773
 50
180.0
 51
360.0
 73
     1
 72
     1
 10
286.7595440890621
 20
35.33041340542801
 11
288.609
 21
35.4228862009749
 72
     1
 10
288.609
 20
35.4228862009749
 11
288.609
 21
35.248
 72
     1
 10
288.609
 20
35.248
 11
287.309
 21
35.248
 72
     1
 10
287.309
 20
35.248
 11
287.309
 21
34.848
 72
     1
 10
287.309
 20
34.848
 11
285.109
 21
34.848
 72
     1
 10
285.109
 20
34.848
 11
285.109
 21
35.248
 72
     1
 10
285.109
 20
35.248
 11
284.609
 21
35.248
 97
        0
 92
       17
 93
       10
 72
     1
 10
284.609
 20
35.248
 11
284.609
 21
35.42294060988112
 72
     1
 10
284.609
 20
35.42294060988112
 11
286.4595440890621
 21
35.33041340542801
 72
     2
 10
286.6095440890621
 20
35.33041340542801
 40
0.1499999999999773
 50
180.0
 51
360.0
 73
     1
 72
     1
 10
286.7595440890621
 20
35.33041340542801
 11
288.609
 21
35.4228862009749
 72
     1
 10
288.609
 20
35.4228862009749
 11
288.609
 21
35.248
 72
     1
 10
288.609
 20
35.248
 11
287.309
 21
35.248
 72
     1
 10
287.309
 20
35.248
 11
287.309
 21
34.848
 72
     1
 10
287.309
 20
34.848
 11
285.109
 21
34.848
 72
     1
 10
285.109
 20
34.848
 11
285.109
 21
35.248
 72
     1
 10
285.109
 20
35.248
 11
284.609
 21
35.248
 97
        0
 75
     0
 76
     1
 52
0.0
 41
0.3
 77
     0
 78
     1
 53
45.0
 43
284.609
 44
34.848
 45
-0.0265165042944955
 46
0.0265165042944955
 79
     0
 98
        1
 10
0.0
 20
0.0
1001
ACAD
1010
284.609
1020
34.848
1030
0.0
  0
TEXT
  5
28A
330
74
100
AcDbEntity
  8
0
  6
Continuous
100
AcDbText
 10
283.9786445662048
 20
34.23652941307331
 30
0.0
 40
0.08
  1
Reconstrucció formigó H-200
  7
ROMANC
100
AcDbText
  0
TEXT
  5
28D
330
74
100
AcDbEntity
  8
0
  6
Continuous
100
AcDbText
 10
283.9786445662048
 20
34.08958161079171
 30
0.0
 40
0.08
  1
(Secció NT-605 modificada)
  7
ROMANC
100
AcDbText
  0
LINE
  5
28E
330
74
100
AcDbEntity
  8
MESURA
100
AcDbLine
 10
285.9263944724393
 20
34.15291867750773
 30
0.0
 11
286.0827323062128
 21
34.15291867750773
 31
0.0
  0
LINE
  5
28F
330
74
100
AcDbEntity
  8
MESURA
100
AcDbLine
 10
286.0827323062128
 20
34.15291867750773
 30
0.0
 11
286.1430763527216
 21
34.88837456727992
 31
0.0
  0
HATCH
  5
290
330
74
100
AcDbEntity
  8
MESURA
100
AcDbHatch
 10
0.0
 20
0.0
 30
0.0
210
0.0
220
0.0
230
1.0
  2
SOLID
 70
     1
 71
     0
 91
        2
 92
        7
 72
     0
 73
     1
 93
        3
 10
286.1433112119112
 20
34.96823623195072
 10
286.1389387272815
 20
34.88837456727992
 10
286.1741266932228
 20
34.88837456727992
 97
        0
 92
        7
 72
     0
 73
     1
 93
        3
 10
286.1433112119112
 20
34.96823623195086
 10
286.1102135554368
 20
34.88837456727992
 10
286.1389387272815
 20
34.88837456727992
 97
        0
 75
     0
 76
     1
 47
0.0012581075070712
 98
        2
 10
286.1586781751669
 20
34.91028887859284
 10
286.1372822732956
 20
34.90777272986032
450
        0
451
        0
460
0.0
461
0.0
452
        1
462
1.0
453
        2
463
0.0
 63
     5
421
      255
463
1.0
 63
     7
421
 16777215
470
LINEAR
1001
ACAD
1010
288.3745057896604
1020
35.30609487383321
1030
0.0
  0
LINE
  5
291
330
74
100
AcDbEntity
  8
MESURA
100
AcDbLine
 10
286.1433112119113
 20
34.96823623195076
 30
0.0
 11
286.1102135554368
 21
34.88837456727992
 31
0.0
  0
LINE
  5
292
330
74
100
AcDbEntity
  8
MESURA
100
AcDbLine
 10
286.1102135554368
 20
34.88837456727992
 30
0.0
 11
286.1741266932228
 21
34.88837456727992
 31
0.0
  0
LINE
  5
293
330
74
100
AcDbEntity
  8
MESURA
100
AcDbLine
 10
286.1433112119113
 20
34.96823623195076
 30
0.0
 11
286.1741266932228
 21
34.88837456727992
 31
0.0
  0
DIMENSION
  5
294
330
74
100
AcDbEntity
  8
MESURA
100
AcDbDimension
  2
*D13
 10
288.609
 20
37.0372372726506
 30
0.0
 11
286.6089999999999
 21
37.0372372726506
 31
0.0
 70
    32
 71
     5
 42
4.000000000000113
  3
Escala 1-50 (A3)
100
AcDbAlignedDimension
 13
284.6089999999999
 23
36.09736753974817
 33
0.0
 14
288.609
 24
36.09736753974817
 34
0.0
100
AcDbRotatedDimension
  0
ENDSEC
  0
SECTION
  2
OBJECTS
  0
DICTIONARY
  5
C
330
0
100
AcDbDictionary
281
     1
  3
ACAD_COLOR
350
6A
  3
ACAD_GROUP
350
D
  3
ACAD_LAYOUT
350
69
  3
ACAD_MATERIAL
350
10
  3
ACAD_MLEADERSTYLE
350
6D
  3
ACAD_MLINESTYLE
350
66
  3
ACAD_PLOTSETTINGS
350
68
  3
ACAD_PLOTSTYLENAME
350
E
  3
ACAD_SCALELIST
350
3A
  3
ACAD_TABLESTYLE
350
6B
  3
ACAD_VISUALSTYLE
350
29
  3
ACDB_RECOMPOSE_DATA
350
2CD
  3
AcDbVariableDictionary
350
2B8
  0
DICTIONARY
  5
E0
330
5C
100
AcDbDictionary
280
     1
281
     1
  3
ADSK_XREC_LAYER_RECONCILED
360
E1
  0
DICTIONARY
  5
E2
330
78
100
AcDbDictionary
280
     1
281
     1
  3
ADSK_XREC_LAYER_RECONCILED
360
E3
  0
DICTIONARY
  5
E4
330
79
100
AcDbDictionary
280
     1
281
     1
  3
ADSK_XREC_LAYER_RECONCILED
360
E5
  0
DICTIONARY
  5
E6
330
7A
100
AcDbDictionary
280
     1
281
     1
  3
ADSK_XREC_LAYER_RECONCILED
360
E7
  0
DICTIONARY
  5
E8
330
7B
100
AcDbDictionary
280
     1
281
     1
  3
ADSK_XREC_LAYER_RECONCILED
360
E9
  0
DICTIONARY
  5
EA
330
7C
100
AcDbDictionary
280
     1
281
     1
  3
ADSK_XREC_LAYER_RECONCILED
360
EB
  0
DICTIONARY
  5
EC
330
7D
100
AcDbDictionary
280
     1
281
     1
  3
ADSK_XREC_LAYER_RECONCILED
360
ED
  0
DICTIONARY
  5
137
330
136
100
AcDbDictionary
280
     1
281
     1
  0
DICTIONARY
  5
112
330
74
100
AcDbDictionary
280
     1
281
     1
  3
ACAD_SORTENTS
360
113
  0
DICTIONARY
  5
6A
102
{ACAD_REACTORS
330
C
102
}
330
C
100
AcDbDictionary
281
     1
  0
DICTIONARY
  5
D
102
{ACAD_REACTORS
330
C
102
}
330
C
100
AcDbDictionary
281
     1
  0
DICTIONARY
  5
69
102
{ACAD_REACTORS
330
C
102
}
330
C
100
AcDbDictionary
281
     1
  3
Model
350
77
  3
Presentación1
350
73
  0
DICTIONARY
  5
10
102
{ACAD_REACTORS
330
C
102
}
330
C
100
AcDbDictionary
281
     1
  3
ByBlock
350
19
  3
ByLayer
350
11
  3
Global
350
21
  0
DICTIONARY
  5
6D
102
{ACAD_REACTORS
330
C
102
}
330
C
100
AcDbDictionary
281
     1
  3
Standard
350
6E
  0
DICTIONARY
  5
66
102
{ACAD_REACTORS
330
C
102
}
330
C
100
AcDbDictionary
281
     1
  3
Standard
350
67
  0
DICTIONARY
  5
68
102
{ACAD_REACTORS
330
C
102
}
330
C
100
AcDbDictionary
281
     1
  0
ACDBDICTIONARYWDFLT
  5
E
102
{ACAD_REACTORS
330
C
102
}
330
C
100
AcDbDictionary
281
     1
  3
Normal
350
F
100
AcDbDictionaryWithDefault
340
F
  0
DICTIONARY
  5
3A
102
{ACAD_REACTORS
330
C
102
}
330
C
100
AcDbDictionary
281
     1
  3
A0
350
3B
  3
A1
350
3C
  3
A2
350
3D
  3
A3
350
3E
  3
A4
350
3F
  3
A5
350
40
  3
A6
350
41
  3
A7
350
42
  3
A8
350
43
  3
A9
350
44
  3
B0
350
45
  3
B1
350
46
  3
B2
350
47
  3
B3
350
48
  3
B4
350
49
  3
B5
350
4A
  3
B6
350
4B
  3
B7
350
4C
  3
B8
350
4D
  3
B9
350
4E
  3
C0
350
4F
  3
C1
350
50
  3
C2
350
51
  3
C3
350
52
  3
C4
350
53
  3
C5
350
54
  3
C6
350
55
  3
C7
350
56
  3
C8
350
57
  3
C9
350
58
  3
D0
350
59
  3
D1
350
5A
  3
D2
350
5B
  0
DICTIONARY
  5
6B
102
{ACAD_REACTORS
330
C
102
}
330
C
100
AcDbDictionary
281
     1
  3
Standard
350
6C
  0
DICTIONARY
  5
29
102
{ACAD_REACTORS
330
C
102
}
330
C
100
AcDbDictionary
281
     1
  3
2dWireframe
350
2F
  3
3D Hidden
350
31
  3
3dWireframe
350
30
  3
Basic
350
2E
  3
Brighten
350
35
  3
ColorChange
350
39
  3
Conceptual
350
32
  3
Dim
350
34
  3
Facepattern
350
38
  3
Flat
350
2A
  3
FlatWithEdges
350
2B
  3
Gouraud
350
2C
  3
GouraudWithEdges
350
2D
  3
Linepattern
350
37
  3
Realistic
350
33
  3
Thicken
350
36
  0
XRECORD
  5
2CD
102
{ACAD_REACTORS
330
C
102
}
330
C
100
AcDbXrecord
280
     1
 90
        1
330
6C
  0
DICTIONARY
  5
2B8
102
{ACAD_REACTORS
330
C
102
}
330
C
100
AcDbDictionary
281
     1
  3
CANNOSCALE
350
2BB
  3
CMLEADERSTYLE
350
2BA
  3
CTABLESTYLE
350
2B9
  0
XRECORD
  5
E1
102
{ACAD_REACTORS
330
E0
102
}
330
E0
100
AcDbXrecord
280
     1
290
     1
  0
XRECORD
  5
E3
102
{ACAD_REACTORS
330
E2
102
}
330
E2
100
AcDbXrecord
280
     1
290
     1
  0
XRECORD
  5
E5
102
{ACAD_REACTORS
330
E4
102
}
330
E4
100
AcDbXrecord
280
     1
290
     1
  0
XRECORD
  5
E7
102
{ACAD_REACTORS
330
E6
102
}
330
E6
100
AcDbXrecord
280
     1
290
     1
  0
XRECORD
  5
E9
102
{ACAD_REACTORS
330
E8
102
}
330
E8
100
AcDbXrecord
280
     1
290
     1
  0
XRECORD
  5
EB
102
{ACAD_REACTORS
330
EA
102
}
330
EA
100
AcDbXrecord
280
     1
290
     1
  0
XRECORD
  5
ED
102
{ACAD_REACTORS
330
EC
102
}
330
EC
100
AcDbXrecord
280
     1
290
     1
  0
SORTENTSTABLE
  5
113
102
{ACAD_REACTORS
330
112
102
}
330
112
100
AcDbSortentsTable
330
74
331
279
  5
286
331
1CD
  5
27B
331
284
  5
285
331
125
  5
19B
331
83
  5
83
331
167
  5
1CD
331
123
  5
118
331
27C
  5
289
331
10C
  5
10D
331
8C
  5
8C
331
27A
  5
287
331
19B
  5
279
331
8A
  5
8A
331
278
  5
27D
331
289
  5
18D
331
276
  5
27C
331
175
  5
276
331
159
  5
1B1
331
84
  5
84
331
82
  5
82
331
1B1
  5
27A
331
18D
  5
278
331
27B
  5
288
331
10B
  5
10C
331
8B
  5
8B
  0
LAYOUT
  5
77
102
{ACAD_REACTORS
330
69
102
}
330
69
100
AcDbPlotSettings
  1

  2
\\sprint\HP5500DNPS
  4
A3
  6

 40
5.365749835968017
 41
8.921770095825195
 42
9.64141845703125
 43
5.027069091796875
 44
420.1583251953125
 45
297.0530090332031
 46
0.0
 47
0.0
 48
0.0
 49
0.0
140
0.0
141
0.0
142
1.0
143
1.831177189683026
 70
 11952
 72
     0
 73
     0
 74
     0
  7

 75
     0
147
0.5460967980783434
 76
     0
 77
     2
 78
   300
148
-6930.798508565827
149
-693.0869276914275
100
AcDbLayout
  1
Model
 70
     1
 71
     0
 10
0.0
 20
0.0
 11
12.0
 21
9.0
 12
0.0
 22
0.0
 32
0.0
 14
0.0
 24
0.0
 34
0.0
 15
0.0
 25
0.0
 35
0.0
146
0.0
 13
0.0
 23
0.0
 33
0.0
 16
1.0
 26
0.0
 36
0.0
 17
0.0
 27
1.0
 37
0.0
 76
     0
330
74
331
81
1001
ACAD_PSEXT
1000
\\sprint\HP5500DNPS
1000
HP Color LaserJet 5500 PS
1000
Planta 2 . Entrada
1000
A4/A3 Color Dúplex
1070
     0
  0
LAYOUT
  5
73
102
{ACAD_REACTORS
330
69
102
}
330
69
100
AcDbPlotSettings
  1

  2
\\sprint\HP5500DNPS
  4

  6

 40
0.0
 41
0.0
 42
0.0
 43
0.0
 44
0.0
 45
0.0
 46
0.0
 47
0.0
 48
0.0
 49
0.0
140
0.0
141
0.0
142
1.0
143
1.0
 70
   688
 72
     0
 73
     0
 74
     5
  7

 75
    16
147
1.0
 76
     0
 77
     2
 78
   300
148
0.0
149
0.0
100
AcDbLayout
  1
Presentación1
 70
     1
 71
     1
 10
0.0
 20
0.0
 11
12.0
 21
9.0
 12
0.0
 22
0.0
 32
0.0
 14
1.000000000000000E+20
 24
1.000000000000000E+20
 34
1.000000000000000E+20
 15
-1.000000000000000E+20
 25
-1.000000000000000E+20
 35
-1.000000000000000E+20
146
0.0
 13
0.0
 23
0.0
 33
0.0
 16
1.0
 26
0.0
 36
0.0
 17
0.0
 27
1.0
 37
0.0
 76
     0
330
70
  0
MATERIAL
  5
19
102
{ACAD_XDICTIONARY
360
1A
102
}
102
{ACAD_REACTORS
330
10
102
}
330
10
100
AcDbMaterial
  1
ByBlock
 72
     0
 43
0.0208333333333333
 43
0.0
 43
0.0
 43
0.0
 43
0.0
 43
0.0208333333333333
 43
0.0
 43
0.0
 43
0.0
 43
0.0
 43
1.0
 43
0.0
 43
0.0
 43
0.0
 43
0.0
 43
1.0
 77
     0
 47
0.0208333333333333
 47
0.0
 47
0.0
 47
0.0
 47
0.0
 47
0.0208333333333333
 47
0.0
 47
0.0
 47
0.0
 47
0.0
 47
1.0
 47
0.0
 47
0.0
 47
0.0
 47
0.0
 47
1.0
171
     0
 49
0.0208333333333333
 49
0.0
 49
0.0
 49
0.0
 49
0.0
 49
0.0208333333333333
 49
0.0
 49
0.0
 49
0.0
 49
0.0
 49
1.0
 49
0.0
 49
0.0
 49
0.0
 49
0.0
 49
1.0
175
     0
142
0.0208333333333333
142
0.0
142
0.0
142
0.0
142
0.0
142
0.0208333333333333
142
0.0
142
0.0
142
0.0
142
0.0
142
1.0
142
0.0
142
0.0
142
0.0
142
0.0
142
1.0
179
     0
144
0.0208333333333333
144
0.0
144
0.0
144
0.0
144
0.0
144
0.0208333333333333
144
0.0
144
0.0
144
0.0
144
0.0
144
1.0
144
0.0
144
0.0
144
0.0
144
0.0
144
1.0
147
0.0208333333333333
147
0.0
147
0.0
147
0.0
147
0.0
147
0.0208333333333333
147
0.0
147
0.0
147
0.0
147
0.0
147
1.0
147
0.0
147
0.0
147
0.0
147
0.0
147
1.0
  0
MATERIAL
  5
11
102
{ACAD_XDICTIONARY
360
12
102
}
102
{ACAD_REACTORS
330
10
102
}
330
10
100
AcDbMaterial
  1
ByLayer
 72
     0
 43
0.0208333333333333
 43
0.0
 43
0.0
 43
0.0
 43
0.0
 43
0.0208333333333333
 43
0.0
 43
0.0
 43
0.0
 43
0.0
 43
1.0
 43
0.0
 43
0.0
 43
0.0
 43
0.0
 43
1.0
 77
     0
 47
0.0208333333333333
 47
0.0
 47
0.0
 47
0.0
 47
0.0
 47
0.0208333333333333
 47
0.0
 47
0.0
 47
0.0
 47
0.0
 47
1.0
 47
0.0
 47
0.0
 47
0.0
 47
0.0
 47
1.0
171
     0
 49
0.0208333333333333
 49
0.0
 49
0.0
 49
0.0
 49
0.0
 49
0.0208333333333333
 49
0.0
 49
0.0
 49
0.0
 49
0.0
 49
1.0
 49
0.0
 49
0.0
 49
0.0
 49
0.0
 49
1.0
175
     0
142
0.0208333333333333
142
0.0
142
0.0
142
0.0
142
0.0
142
0.0208333333333333
142
0.0
142
0.0
142
0.0
142
0.0
142
1.0
142
0.0
142
0.0
142
0.0
142
0.0
142
1.0
179
     0
144
0.0208333333333333
144
0.0
144
0.0
144
0.0
144
0.0
144
0.0208333333333333
144
0.0
144
0.0
144
0.0
144
0.0
144
1.0
144
0.0
144
0.0
144
0.0
144
0.0
144
1.0
147
0.0208333333333333
147
0.0
147
0.0
147
0.0
147
0.0
147
0.0208333333333333
147
0.0
147
0.0
147
0.0
147
0.0
147
1.0
147
0.0
147
0.0
147
0.0
147
0.0
147
1.0
  0
MATERIAL
  5
21
102
{ACAD_XDICTIONARY
360
22
102
}
102
{ACAD_REACTORS
330
10
102
}
330
10
100
AcDbMaterial
  1
Global
 72
     0
 43
0.0208333333333333
 43
0.0
 43
0.0
 43
0.0
 43
0.0
 43
0.0208333333333333
 43
0.0
 43
0.0
 43
0.0
 43
0.0
 43
1.0
 43
0.0
 43
0.0
 43
0.0
 43
0.0
 43
1.0
 77
     0
 47
0.0208333333333333
 47
0.0
 47
0.0
 47
0.0
 47
0.0
 47
0.0208333333333333
 47
0.0
 47
0.0
 47
0.0
 47
0.0
 47
1.0
 47
0.0
 47
0.0
 47
0.0
 47
0.0
 47
1.0
171
     0
 49
0.0208333333333333
 49
0.0
 49
0.0
 49
0.0
 49
0.0
 49
0.0208333333333333
 49
0.0
 49
0.0
 49
0.0
 49
0.0
 49
1.0
 49
0.0
 49
0.0
 49
0.0
 49
0.0
 49
1.0
175
     0
142
0.0208333333333333
142
0.0
142
0.0
142
0.0
142
0.0
142
0.0208333333333333
142
0.0
142
0.0
142
0.0
142
0.0
142
1.0
142
0.0
142
0.0
142
0.0
142
0.0
142
1.0
179
     0
144
0.0208333333333333
144
0.0
144
0.0
144
0.0
144
0.0
144
0.0208333333333333
144
0.0
144
0.0
144
0.0
144
0.0
144
1.0
144
0.0
144
0.0
144
0.0
144
0.0
144
1.0
147
0.0208333333333333
147
0.0
147
0.0
147
0.0
147
0.0
147
0.0208333333333333
147
0.0
147
0.0
147
0.0
147
0.0
147
1.0
147
0.0
147
0.0
147
0.0
147
0.0
147
1.0
  0
MLEADERSTYLE
  5
6E
102
{ACAD_REACTORS
330
6D
102
}
330
6D
100
AcDbMLeaderStyle
170
     2
171
     1
172
     0
 90
        2
 40
0.0
 41
0.0
173
     1
 91
-1056964608
340
62
 92
       -2
290
     1
 42
0.09
291
     1
 43
0.36
  3
Standard
 44
0.18
300

342
5D
174
     1
178
     6
175
     1
176
     0
 93
-1056964608
 45
0.18
292
     0
297
     0
 46
0.18
 94
-1056964608
 47
1.0
 49
1.0
140
1.0
293
     1
141
0.0
294
     1
177
     0
142
1.0
295
     0
296
     0
143
0.125
1001
ACAD_MLEADERVER
1070
     2
  0
MLINESTYLE
  5
67
102
{ACAD_REACTORS
330
66
102
}
330
66
100
AcDbMlineStyle
  2
STANDARD
 70
     0
  3

 62
   256
 51
90.0
 52
90.0
 71
     2
 49
0.5
 62
   256
  6
BYLAYER
 49
-0.5
 62
   256
  6
BYLAYER
  0
ACDBPLACEHOLDER
  5
F
102
{ACAD_REACTORS
330
E
102
}
330
E
  0
SCALE
  5
3B
102
{ACAD_REACTORS
330
3A
102
}
330
3A
100
AcDbScale
 70
     0
300
1:1
140
1.0
141
1.0
290
     1
  0
SCALE
  5
3C
102
{ACAD_REACTORS
330
3A
102
}
330
3A
100
AcDbScale
 70
     0
300
1:2
140
1.0
141
2.0
290
     0
  0
SCALE
  5
3D
102
{ACAD_REACTORS
330
3A
102
}
330
3A
100
AcDbScale
 70
     0
300
1:4
140
1.0
141
4.0
290
     0
  0
SCALE
  5
3E
102
{ACAD_REACTORS
330
3A
102
}
330
3A
100
AcDbScale
 70
     0
300
1:5
140
1.0
141
5.0
290
     0
  0
SCALE
  5
3F
102
{ACAD_REACTORS
330
3A
102
}
330
3A
100
AcDbScale
 70
     0
300
1:8
140
1.0
141
8.0
290
     0
  0
SCALE
  5
40
102
{ACAD_REACTORS
330
3A
102
}
330
3A
100
AcDbScale
 70
     0
300
1:10
140
1.0
141
10.0
290
     0
  0
SCALE
  5
41
102
{ACAD_REACTORS
330
3A
102
}
330
3A
100
AcDbScale
 70
     0
300
1:16
140
1.0
141
16.0
290
     0
  0
SCALE
  5
42
102
{ACAD_REACTORS
330
3A
102
}
330
3A
100
AcDbScale
 70
     0
300
1:20
140
1.0
141
20.0
290
     0
  0
SCALE
  5
43
102
{ACAD_REACTORS
330
3A
102
}
330
3A
100
AcDbScale
 70
     0
300
1:30
140
1.0
141
30.0
290
     0
  0
SCALE
  5
44
102
{ACAD_REACTORS
330
3A
102
}
330
3A
100
AcDbScale
 70
     0
300
1:40
140
1.0
141
40.0
290
     0
  0
SCALE
  5
45
102
{ACAD_REACTORS
330
3A
102
}
330
3A
100
AcDbScale
 70
     0
300
1:50
140
1.0
141
50.0
290
     0
  0
SCALE
  5
46
102
{ACAD_REACTORS
330
3A
102
}
330
3A
100
AcDbScale
 70
     0
300
1:100
140
1.0
141
100.0
290
     0
  0
SCALE
  5
47
102
{ACAD_REACTORS
330
3A
102
}
330
3A
100
AcDbScale
 70
     0
300
2:1
140
2.0
141
1.0
290
     0
  0
SCALE
  5
48
102
{ACAD_REACTORS
330
3A
102
}
330
3A
100
AcDbScale
 70
     0
300
4:1
140
4.0
141
1.0
290
     0
  0
SCALE
  5
49
102
{ACAD_REACTORS
330
3A
102
}
330
3A
100
AcDbScale
 70
     0
300
8:1
140
8.0
141
1.0
290
     0
  0
SCALE
  5
4A
102
{ACAD_REACTORS
330
3A
102
}
330
3A
100
AcDbScale
 70
     0
300
10:1
140
10.0
141
1.0
290
     0
  0
SCALE
  5
4B
102
{ACAD_REACTORS
330
3A
102
}
330
3A
100
AcDbScale
 70
     0
300
100:1
140
100.0
141
1.0
290
     0
  0
SCALE
  5
4C
102
{ACAD_REACTORS
330
3A
102
}
330
3A
100
AcDbScale
 70
     0
300
1/128" = 1'-0"
140
0.0078125
141
12.0
290
     0
  0
SCALE
  5
4D
102
{ACAD_REACTORS
330
3A
102
}
330
3A
100
AcDbScale
 70
     0
300
1/64" = 1'-0"
140
0.015625
141
12.0
290
     0
  0
SCALE
  5
4E
102
{ACAD_REACTORS
330
3A
102
}
330
3A
100
AcDbScale
 70
     0
300
1/32" = 1'-0"
140
0.03125
141
12.0
290
     0
  0
SCALE
  5
4F
102
{ACAD_REACTORS
330
3A
102
}
330
3A
100
AcDbScale
 70
     0
300
1/16" = 1'-0"
140
0.0625
141
12.0
290
     0
  0
SCALE
  5
50
102
{ACAD_REACTORS
330
3A
102
}
330
3A
100
AcDbScale
 70
     0
300
3/32" = 1'-0"
140
0.09375
141
12.0
290
     0
  0
SCALE
  5
51
102
{ACAD_REACTORS
330
3A
102
}
330
3A
100
AcDbScale
 70
     0
300
1/8" = 1'-0"
140
0.125
141
12.0
290
     0
  0
SCALE
  5
52
102
{ACAD_REACTORS
330
3A
102
}
330
3A
100
AcDbScale
 70
     0
300
3/16" = 1'-0"
140
0.1875
141
12.0
290
     0
  0
SCALE
  5
53
102
{ACAD_REACTORS
330
3A
102
}
330
3A
100
AcDbScale
 70
     0
300
1/4" = 1'-0"
140
0.25
141
12.0
290
     0
  0
SCALE
  5
54
102
{ACAD_REACTORS
330
3A
102
}
330
3A
100
AcDbScale
 70
     0
300
3/8" = 1'-0"
140
0.375
141
12.0
290
     0
  0
SCALE
  5
55
102
{ACAD_REACTORS
330
3A
102
}
330
3A
100
AcDbScale
 70
     0
300
1/2" = 1'-0"
140
0.5
141
12.0
290
     0
  0
SCALE
  5
56
102
{ACAD_REACTORS
330
3A
102
}
330
3A
100
AcDbScale
 70
     0
300
3/4" = 1'-0"
140
0.75
141
12.0
290
     0
  0
SCALE
  5
57
102
{ACAD_REACTORS
330
3A
102
}
330
3A
100
AcDbScale
 70
     0
300
1" = 1'-0"
140
1.0
141
12.0
290
     0
  0
SCALE
  5
58
102
{ACAD_REACTORS
330
3A
102
}
330
3A
100
AcDbScale
 70
     0
300
1-1/2" = 1'-0"
140
1.5
141
12.0
290
     0
  0
SCALE
  5
59
102
{ACAD_REACTORS
330
3A
102
}
330
3A
100
AcDbScale
 70
     0
300
3" = 1'-0"
140
3.0
141
12.0
290
     0
  0
SCALE
  5
5A
102
{ACAD_REACTORS
330
3A
102
}
330
3A
100
AcDbScale
 70
     0
300
6" = 1'-0"
140
6.0
141
12.0
290
     0
  0
SCALE
  5
5B
102
{ACAD_REACTORS
330
3A
102
}
330
3A
100
AcDbScale
 70
     0
300
1'-0" = 1'-0"
140
12.0
141
12.0
290
     0
  0
TABLESTYLE
  5
6C
102
{ACAD_XDICTIONARY
360
2CB
102
}
102
{ACAD_REACTORS
330
6B
102
}
330
6B
100
AcDbTableStyle
  3
Standard
 70
     0
 71
     0
 40
0.06
 41
0.06
280
     0
281
     0
  7
Standard
140
0.18
170
     2
 62
     0
 63
     7
283
     0
274
    -2
284
     1
 64
     0
275
    -2
285
     1
 65
     0
276
    -2
286
     1
 66
     0
277
    -2
287
     1
 67
     0
278
    -2
288
     1
 68
     0
279
    -2
289
     1
 69
     0
  7
Standard
140
0.25
170
     5
 62
     0
 63
     7
283
     0
274
    -2
284
     1
 64
     0
275
    -2
285
     1
 65
     0
276
    -2
286
     1
 66
     0
277
    -2
287
     1
 67
     0
278
    -2
288
     1
 68
     0
279
    -2
289
     1
 69
     0
  7
Standard
140
0.18
170
     5
 62
     0
 63
     7
283
     0
274
    -2
284
     1
 64
     0
275
    -2
285
     1
 65
     0
276
    -2
286
     1
 66
     0
277
    -2
287
     1
 67
     0
278
    -2
288
     1
 68
     0
279
    -2
289
     1
 69
     0
  0
VISUALSTYLE
  5
2F
102
{ACAD_REACTORS
330
29
102
}
330
29
100
AcDbVisualStyle
  2
2dWireframe
 70
     4
 71
     0
 72
     2
 73
     0
 90
        0
 40
-0.6
 41
-30.0
 62
     5
 63
     7
421
 16777215
 74
     1
 91
        4
 64
     7
 65
   257
 75
     1
175
     1
 42
1.0
 92
        0
 66
   257
 43
1.0
 76
     1
 77
     6
 78
     2
 67
     7
 79
     5
170
     0
171
     0
290
     0
174
     0
 93
        1
 44
0.0
173
     0
291
     0
 45
0.0
1001
ACAD
1000
AcDbSavedByObjectVersion
1070
     0
  0
VISUALSTYLE
  5
31
102
{ACAD_REACTORS
330
29
102
}
330
29
100
AcDbVisualStyle
  2
3D Hidden
 70
     6
 71
     1
 72
     2
 73
     2
 90
        0
 40
-0.6
 41
-30.0
 62
     5
 63
     7
421
 16777215
 74
     2
 91
        2
 64
     7
 65
   257
 75
     2
175
     1
 42
40.0
 92
        0
 66
   257
 43
1.0
 76
     1
 77
     6
 78
     2
 67
     7
 79
     3
170
     0
171
     0
290
     0
174
     0
 93
        1
 44
0.0
173
     0
291
     0
 45
0.0
1001
ACAD
1000
AcDbSavedByObjectVersion
1070
     0
  0
VISUALSTYLE
  5
30
102
{ACAD_REACTORS
330
29
102
}
330
29
100
AcDbVisualStyle
  2
3dWireframe
 70
     5
 71
     0
 72
     2
 73
     0
 90
        0
 40
-0.6
 41
-30.0
 62
     5
 63
     7
421
 16777215
 74
     1
 91
        4
 64
     7
 65
   257
 75
     1
175
     1
 42
1.0
 92
        0
 66
   257
 43
1.0
 76
     1
 77
     6
 78
     2
 67
     7
 79
     5
170
     0
171
     0
290
     0
174
     0
 93
        1
 44
0.0
173
     0
291
     0
 45
0.0
1001
ACAD
1000
AcDbSavedByObjectVersion
1070
     0
  0
VISUALSTYLE
  5
2E
102
{ACAD_REACTORS
330
29
102
}
330
29
100
AcDbVisualStyle
  2
Basic
 70
     7
 71
     1
 72
     0
 73
     1
 90
        0
 40
-0.6
 41
-30.0
 62
     5
 63
     7
421
 16777215
 74
     0
 91
        4
 64
     7
 65
   257
 75
     1
175
     1
 42
1.0
 92
        8
 66
     7
 43
1.0
 76
     1
 77
     6
 78
     2
 67
     7
 79
     5
170
     0
171
     0
290
     0
174
     0
 93
        1
 44
0.0
173
     0
291
     1
 45
0.0
1001
ACAD
1000
AcDbSavedByObjectVersion
1070
     0
  0
VISUALSTYLE
  5
35
102
{ACAD_REACTORS
330
29
102
}
330
29
100
AcDbVisualStyle
  2
Brighten
 70
    12
 71
     2
 72
     2
 73
     0
 90
        0
 40
-0.6
 41
-30.0
 62
     5
 63
     7
421
 16777215
 74
     1
 91
        4
 64
     7
 65
   257
 75
     1
175
     1
 42
1.0
 92
        8
 66
     7
 43
1.0
 76
     1
 77
     6
 78
     2
 67
     7
 79
     5
170
     0
171
     0
290
     0
174
     0
 93
        1
 44
50.0
173
     0
291
     1
 45
0.0
1001
ACAD
1000
AcDbSavedByObjectVersion
1070
     0
  0
VISUALSTYLE
  5
39
102
{ACAD_REACTORS
330
29
102
}
330
29
100
AcDbVisualStyle
  2
ColorChange
 70
    16
 71
     2
 72
     2
 73
     3
 90
        0
 40
-0.6
 41
-30.0
 62
     5
 63
     8
421
  8421504
 74
     1
 91
        4
 64
     7
 65
   257
 75
     1
175
     1
 42
1.0
 92
        8
 66
     8
424
  8421504
 43
1.0
 76
     1
 77
     6
 78
     2
 67
     7
 79
     5
170
     0
171
     0
290
     0
174
     0
 93
        1
 44
0.0
173
     0
291
     1
 45
0.0
1001
ACAD
1000
AcDbSavedByObjectVersion
1070
     0
  0
VISUALSTYLE
  5
32
102
{ACAD_REACTORS
330
29
102
}
330
29
100
AcDbVisualStyle
  2
Conceptual
 70
     9
 71
     3
 72
     2
 73
     0
 90
        0
 40
-0.6
 41
-30.0
 62
     5
 63
     7
421
 16777215
 74
     2
 91
        2
 64
     7
 65
   257
 75
     1
175
     1
 42
40.0
 92
        8
 66
     7
 43
1.0
 76
     1
 77
     6
 78
     2
 67
     7
 79
     3
170
     0
171
     0
290
     0
174
     0
 93
        1
 44
0.0
173
     0
291
     0
 45
0.0
1001
ACAD
1000
AcDbSavedByObjectVersion
1070
     0
  0
VISUALSTYLE
  5
34
102
{ACAD_REACTORS
330
29
102
}
330
29
100
AcDbVisualStyle
  2
Dim
 70
    11
 71
     2
 72
     2
 73
     0
 90
        0
 40
-0.6
 41
-30.0
 62
     5
 63
     7
421
 16777215
 74
     1
 91
        4
 64
     7
 65
   257
 75
     1
175
     1
 42
1.0
 92
        8
 66
     7
 43
1.0
 76
     1
 77
     6
 78
     2
 67
     7
 79
     5
170
     0
171
     0
290
     0
174
     0
 93
        1
 44
-50.0
173
     0
291
     1
 45
0.0
1001
ACAD
1000
AcDbSavedByObjectVersion
1070
     0
  0
VISUALSTYLE
  5
38
102
{ACAD_REACTORS
330
29
102
}
330
29
100
AcDbVisualStyle
  2
Facepattern
 70
    15
 71
     2
 72
     2
 73
     0
 90
        0
 40
-0.6
 41
-30.0
 62
     5
 63
     7
421
 16777215
 74
     1
 91
        4
 64
     7
 65
   257
 75
     1
175
     1
 42
1.0
 92
        8
 66
     7
 43
1.0
 76
     1
 77
     6
 78
     2
 67
     7
 79
     5
170
     0
171
     0
290
     0
174
     0
 93
        1
 44
0.0
173
     0
291
     1
 45
0.0
1001
ACAD
1000
AcDbSavedByObjectVersion
1070
     0
  0
VISUALSTYLE
  5
2A
102
{ACAD_REACTORS
330
29
102
}
330
29
100
AcDbVisualStyle
  2
Flat
 70
     0
 71
     2
 72
     1
 73
     1
 90
        2
 40
-0.6
 41
30.0
 62
     5
 63
     7
421
 16777215
 74
     0
 91
        4
 64
     7
 65
   257
 75
     1
175
     1
 42
1.0
 92
        8
 66
     7
 43
1.0
 76
     1
 77
     6
 78
     2
 67
     7
 79
     5
170
     0
171
     0
290
     0
174
     0
 93
       13
 44
0.0
173
     0
291
     1
 45
0.0
1001
ACAD
1000
AcDbSavedByObjectVersion
1070
     0
  0
VISUALSTYLE
  5
2B
102
{ACAD_REACTORS
330
29
102
}
330
29
100
AcDbVisualStyle
  2
FlatWithEdges
 70
     1
 71
     2
 72
     1
 73
     1
 90
        2
 40
-0.6
 41
30.0
 62
     5
 63
     7
421
 16777215
 74
     1
 91
        4
 64
     7
 65
   257
 75
     1
175
     1
 42
1.0
 92
        0
 66
   257
 43
1.0
 76
     1
 77
     6
 78
     2
 67
     7
 79
     5
170
     0
171
     0
290
     0
174
     0
 93
       13
 44
0.0
173
     0
291
     1
 45
0.0
1001
ACAD
1000
AcDbSavedByObjectVersion
1070
     0
  0
VISUALSTYLE
  5
2C
102
{ACAD_REACTORS
330
29
102
}
330
29
100
AcDbVisualStyle
  2
Gouraud
 70
     2
 71
     2
 72
     2
 73
     1
 90
        2
 40
-0.6
 41
30.0
 62
     5
 63
     7
421
 16777215
 74
     0
 91
        4
 64
     7
 65
   257
 75
     1
175
     1
 42
1.0
 92
        0
 66
     7
 43
1.0
 76
     1
 77
     6
 78
     2
 67
     7
 79
     5
170
     0
171
     0
290
     0
174
     0
 93
       13
 44
0.0
173
     0
291
     1
 45
0.0
1001
ACAD
1000
AcDbSavedByObjectVersion
1070
     0
  0
VISUALSTYLE
  5
2D
102
{ACAD_REACTORS
330
29
102
}
330
29
100
AcDbVisualStyle
  2
GouraudWithEdges
 70
     3
 71
     2
 72
     2
 73
     1
 90
        2
 40
-0.6
 41
30.0
 62
     5
 63
     7
421
 16777215
 74
     1
 91
        4
 64
     7
 65
   257
 75
     1
175
     1
 42
1.0
 92
        0
 66
   257
 43
1.0
 76
     1
 77
     6
 78
     2
 67
     7
 79
     5
170
     0
171
     0
290
     0
174
     0
 93
       13
 44
0.0
173
     0
291
     1
 45
0.0
1001
ACAD
1000
AcDbSavedByObjectVersion
1070
     0
  0
VISUALSTYLE
  5
37
102
{ACAD_REACTORS
330
29
102
}
330
29
100
AcDbVisualStyle
  2
Linepattern
 70
    14
 71
     2
 72
     2
 73
     0
 90
        0
 40
-0.6
 41
-30.0
 62
     5
 63
     7
421
 16777215
 74
     1
 91
        4
 64
     7
 65
   257
 75
     7
175
     7
 42
1.0
 92
        8
 66
     7
 43
1.0
 76
     1
 77
     6
 78
     2
 67
     7
 79
     5
170
     0
171
     0
290
     0
174
     0
 93
        1
 44
0.0
173
     0
291
     1
 45
0.0
1001
ACAD
1000
AcDbSavedByObjectVersion
1070
     0
  0
VISUALSTYLE
  5
33
102
{ACAD_REACTORS
330
29
102
}
330
29
100
AcDbVisualStyle
  2
Realistic
 70
     8
 71
     2
 72
     2
 73
     0
 90
        0
 40
-0.6
 41
-30.0
 62
     5
 63
     7
421
 16777215
 74
     1
 91
        0
 64
     7
 65
   257
 75
     1
175
     1
 42
1.0
 92
        8
 66
     8
424
  7895160
 43
1.0
 76
     1
 77
     6
 78
     2
 67
     7
 79
     5
170
     0
171
     0
290
     0
174
     0
 93
       13
 44
0.0
173
     0
291
     0
 45
0.0
1001
ACAD
1000
AcDbSavedByObjectVersion
1070
     0
  0
VISUALSTYLE
  5
36
102
{ACAD_REACTORS
330
29
102
}
330
29
100
AcDbVisualStyle
  2
Thicken
 70
    13
 71
     2
 72
     2
 73
     0
 90
        0
 40
-0.6
 41
-30.0
 62
     5
 63
     7
421
 16777215
 74
     1
 91
        4
 64
     7
 65
   257
 75
     1
175
     1
 42
1.0
 92
       12
 66
     7
 43
1.0
 76
     1
 77
     6
 78
     2
 67
     7
 79
     5
170
     0
171
     0
290
     0
174
     0
 93
        1
 44
0.0
173
     0
291
     1
 45
0.0
1001
ACAD
1000
AcDbSavedByObjectVersion
1070
     0
  0
DICTIONARYVAR
  5
2BB
102
{ACAD_REACTORS
330
2B8
102
}
330
2B8
100
DictionaryVariables
280
     0
  1
1:1
  0
DICTIONARYVAR
  5
2BA
102
{ACAD_REACTORS
330
2B8
102
}
330
2B8
100
DictionaryVariables
280
     0
  1
STANDARD
  0
DICTIONARYVAR
  5
2B9
102
{ACAD_REACTORS
330
2B8
102
}
330
2B8
100
DictionaryVariables
280
     0
  1
STANDARD
  0
DICTIONARY
  5
1A
330
19
100
AcDbDictionary
280
     1
281
     1
  3
ACAD_XREC_ROUNDTRIP
360
2CF
  3
BUMPTILE
360
1C
  3
DIFFUSETILE
360
1B
  3
OPACITYTILE
360
1F
  3
REFLECTIONTILE
360
1E
  3
REFRACTIONTILE
360
20
  3
SPECULARTILE
360
1D
  0
DICTIONARY
  5
12
330
11
100
AcDbDictionary
280
     1
281
     1
  3
ACAD_XREC_ROUNDTRIP
360
2CE
  3
BUMPTILE
360
14
  3
DIFFUSETILE
360
13
  3
OPACITYTILE
360
17
  3
REFLECTIONTILE
360
16
  3
REFRACTIONTILE
360
18
  3
SPECULARTILE
360
15
  0
DICTIONARY
  5
22
330
21
100
AcDbDictionary
280
     1
281
     1
  3
ACAD_XREC_ROUNDTRIP
360
2D0
  3
BUMPTILE
360
24
  3
DIFFUSETILE
360
23
  3
OPACITYTILE
360
27
  3
REFLECTIONTILE
360
26
  3
REFRACTIONTILE
360
28
  3
SPECULARTILE
360
25
  0
DICTIONARY
  5
2CB
330
6C
100
AcDbDictionary
280
     1
281
     1
  3
ACAD_ROUNDTRIP_2008_TABLESTYLE_CELLSTYLEMAP
360
2CC
  3
ACAD_XREC_ROUNDTRIP
360
2D1
  0
XRECORD
  5
2CF
102
{ACAD_REACTORS
330
1A
102
}
330
1A
100
AcDbXrecord
280
     1
102
MATERIAL
148
0.0
149
0.0
149
0.0
 93
        0
 94
      127
282
     0
 72
     0
 77
     0
171
     0
175
     0
179
     0
273
     0
  0
XRECORD
  5
1C
102
{ACAD_REACTORS
330
1A
102
}
330
1A
100
AcDbXrecord
280
     1
270
     1
271
     1
  0
XRECORD
  5
1B
102
{ACAD_REACTORS
330
1A
102
}
330
1A
100
AcDbXrecord
280
     1
270
     1
271
     1
  0
XRECORD
  5
1F
102
{ACAD_REACTORS
330
1A
102
}
330
1A
100
AcDbXrecord
280
     1
270
     1
271
     1
  0
XRECORD
  5
1E
102
{ACAD_REACTORS
330
1A
102
}
330
1A
100
AcDbXrecord
280
     1
270
     1
271
     1
  0
XRECORD
  5
20
102
{ACAD_REACTORS
330
1A
102
}
330
1A
100
AcDbXrecord
280
     1
270
     1
271
     1
  0
XRECORD
  5
1D
102
{ACAD_REACTORS
330
1A
102
}
330
1A
100
AcDbXrecord
280
     1
270
     1
271
     1
  0
XRECORD
  5
2CE
102
{ACAD_REACTORS
330
12
102
}
330
12
100
AcDbXrecord
280
     1
102
MATERIAL
148
0.0
149
0.0
149
0.0
 93
        0
 94
      127
282
     0
 72
     0
 77
     0
171
     0
175
     0
179
     0
273
     0
  0
XRECORD
  5
14
102
{ACAD_REACTORS
330
12
102
}
330
12
100
AcDbXrecord
280
     1
270
     1
271
     1
  0
XRECORD
  5
13
102
{ACAD_REACTORS
330
12
102
}
330
12
100
AcDbXrecord
280
     1
270
     1
271
     1
  0
XRECORD
  5
17
102
{ACAD_REACTORS
330
12
102
}
330
12
100
AcDbXrecord
280
     1
270
     1
271
     1
  0
XRECORD
  5
16
102
{ACAD_REACTORS
330
12
102
}
330
12
100
AcDbXrecord
280
     1
270
     1
271
     1
  0
XRECORD
  5
18
102
{ACAD_REACTORS
330
12
102
}
330
12
100
AcDbXrecord
280
     1
270
     1
271
     1
  0
XRECORD
  5
15
102
{ACAD_REACTORS
330
12
102
}
330
12
100
AcDbXrecord
280
     1
270
     1
271
     1
  0
XRECORD
  5
2D0
102
{ACAD_REACTORS
330
22
102
}
330
22
100
AcDbXrecord
280
     1
102
MATERIAL
148
0.0
149
0.0
149
0.0
 93
        0
 94
      127
282
     0
 72
     0
 77
     0
171
     0
175
     0
179
     0
273
     0
  0
XRECORD
  5
24
102
{ACAD_REACTORS
330
22
102
}
330
22
100
AcDbXrecord
280
     1
270
     1
271
     1
  0
XRECORD
  5
23
102
{ACAD_REACTORS
330
22
102
}
330
22
100
AcDbXrecord
280
     1
270
     1
271
     1
  0
XRECORD
  5
27
102
{ACAD_REACTORS
330
22
102
}
330
22
100
AcDbXrecord
280
     1
270
     1
271
     1
  0
XRECORD
  5
26
102
{ACAD_REACTORS
330
22
102
}
330
22
100
AcDbXrecord
280
     1
270
     1
271
     1
  0
XRECORD
  5
28
102
{ACAD_REACTORS
330
22
102
}
330
22
100
AcDbXrecord
280
     1
270
     1
271
     1
  0
XRECORD
  5
25
102
{ACAD_REACTORS
330
22
102
}
330
22
100
AcDbXrecord
280
     1
270
     1
271
     1
  0
CELLSTYLEMAP
  5
2CC
102
{ACAD_REACTORS
330
2CB
102
}
330
2CB
100
AcDbCellStyleMap
 90
        3
300
CELLSTYLE
  1
TABLEFORMAT_BEGIN
 90
        5
170
     1
 91
        0
 92
    32768
 62
   257
 93
        1
300
CONTENTFORMAT
  1
CONTENTFORMAT_BEGIN
 90
        0
 91
        0
 92
      512
 93
        0
300

 40
0.0
140
1.0
 94
        5
 62
     0
340
5D
144
0.25
309
CONTENTFORMAT_END
171
     0
 94
        0
309
TABLEFORMAT_END
  1
CELLSTYLE_BEGIN
 90
        1
 91
        1
300
_TITLE
309
CELLSTYLE_END
300
CELLSTYLE
  1
TABLEFORMAT_BEGIN
 90
        5
170
     1
 91
        0
 92
        0
 62
   257
 93
        1
300
CONTENTFORMAT
  1
CONTENTFORMAT_BEGIN
 90
        0
 91
        0
 92
      512
 93
        0
300

 40
0.0
140
1.0
 94
        5
 62
     0
340
5D
144
0.18
309
CONTENTFORMAT_END
171
     0
 94
        0
309
TABLEFORMAT_END
  1
CELLSTYLE_BEGIN
 90
        2
 91
        1
300
_HEADER
309
CELLSTYLE_END
300
CELLSTYLE
  1
TABLEFORMAT_BEGIN
 90
        5
170
     1
 91
        0
 92
        0
 62
   257
 93
        1
300
CONTENTFORMAT
  1
CONTENTFORMAT_BEGIN
 90
        0
 91
        0
 92
      512
 93
        0
300

 40
0.0
140
1.0
 94
        2
 62
     0
340
5D
144
0.18
309
CONTENTFORMAT_END
171
     0
 94
        0
309
TABLEFORMAT_END
  1
CELLSTYLE_BEGIN
 90
        3
 91
        2
300
_DATA
309
CELLSTYLE_END
  0
XRECORD
  5
2D1
102
{ACAD_REACTORS
330
2CB
102
}
330
2CB
100
AcDbXrecord
280
     1
102
ACAD_ROUNDTRIP_PRE2007_TABLESTYLE
 90
      512
 91
        0
  1

 92
      512
 93
        0
  2

 94
      512
 95
        0
  3

  0
ENDSEC
  0
EOF
