  0
SECTION
  2
HEADER
  9
$ACADVER
  1
AC1014
  9
$ACADMAINTVER
 70
     9
  9
$DWGCODEPAGE
  3
ANSI_1252
  9
$INSBASE
 10
0.0
 20
0.0
 30
0.0
  9
$EXTMIN
 10
281.395069244134
 20
29.89657355491301
 30
-0.0015258207003583
  9
$EXTMAX
 10
291.8969308140735
 20
44.7474837405175
 30
0.0000000349246037
  9
$LIMMIN
 10
280.3959999999999
 20
28.89699999999999
  9
$LIMMAX
 10
292.8959999999999
 20
43.74699999999999
  9
$ORTHOMODE
 70
     0
  9
$REGENMODE
 70
     1
  9
$FILLMODE
 70
     1
  9
$QTEXTMODE
 70
     0
  9
$MIRRTEXT
 70
     1
  9
$DRAGMODE
 70
     2
  9
$LTSCALE
 40
1.0
  9
$OSMODE
 70
   399
  9
$ATTMODE
 70
     1
  9
$TEXTSIZE
 40
0.2
  9
$TRACEWID
 40
0.05
  9
$TEXTSTYLE
  7
STANDARD
  9
$CLAYER
  8
0
  9
$CELTYPE
  6
BYLAYER
  9
$CECOLOR
 62
   256
  9
$CELTSCALE
 40
1.0
  9
$DELOBJ
 70
     1
  9
$DISPSILH
 70
     0
  9
$DIMSCALE
 40
1.0
  9
$DIMASZ
 40
0.18
  9
$DIMEXO
 40
0.0625
  9
$DIMDLI
 40
0.38
  9
$DIMRND
 40
0.0
  9
$DIMDLE
 40
0.0
  9
$DIMEXE
 40
0.18
  9
$DIMTP
 40
0.0
  9
$DIMTM
 40
0.0
  9
$DIMTXT
 40
0.15
  9
$DIMCEN
 40
0.09
  9
$DIMTSZ
 40
0.0
  9
$DIMTOL
 70
     0
  9
$DIMLIM
 70
     0
  9
$DIMTIH
 70
     1
  9
$DIMTOH
 70
     1
  9
$DIMSE1
 70
     0
  9
$DIMSE2
 70
     0
  9
$DIMTAD
 70
     0
  9
$DIMZIN
 70
     0
  9
$DIMBLK
  1

  9
$DIMASO
 70
     1
  9
$DIMSHO
 70
     1
  9
$DIMPOST
  1

  9
$DIMAPOST
  1

  9
$DIMALT
 70
     0
  9
$DIMALTD
 70
     2
  9
$DIMALTF
 40
25.4
  9
$DIMLFAC
 40
1.0
  9
$DIMTOFL
 70
     0
  9
$DIMTVP
 40
0.0
  9
$DIMTIX
 70
     0
  9
$DIMSOXD
 70
     0
  9
$DIMSAH
 70
     0
  9
$DIMBLK1
  1

  9
$DIMBLK2
  1

  9
$DIMSTYLE
  2
STANDARD
  9
$DIMCLRD
 70
     0
  9
$DIMCLRE
 70
     0
  9
$DIMCLRT
 70
     0
  9
$DIMTFAC
 40
1.0
  9
$DIMGAP
 40
0.09
  9
$DIMJUST
 70
     0
  9
$DIMSD1
 70
     0
  9
$DIMSD2
 70
     0
  9
$DIMTOLJ
 70
     1
  9
$DIMTZIN
 70
     0
  9
$DIMALTZ
 70
     0
  9
$DIMALTTZ
 70
     0
  9
$DIMFIT
 70
     3
  9
$DIMUPT
 70
     0
  9
$DIMUNIT
 70
     2
  9
$DIMDEC
 70
     2
  9
$DIMTDEC
 70
     2
  9
$DIMALTU
 70
     2
  9
$DIMALTTD
 70
     2
  9
$DIMTXSTY
  7
STANDARD
  9
$DIMAUNIT
 70
     0
  9
$LUNITS
 70
     2
  9
$LUPREC
 70
     4
  9
$SKETCHINC
 40
0.1
  9
$FILLETRAD
 40
0.0
  9
$AUNITS
 70
     0
  9
$AUPREC
 70
     0
  9
$MENU
  1
acad
  9
$ELEVATION
 40
0.0
  9
$PELEVATION
 40
0.0
  9
$THICKNESS
 40
0.0
  9
$LIMCHECK
 70
     0
  9
$BLIPMODE
 70
     0
  9
$CHAMFERA
 40
0.0
  9
$CHAMFERB
 40
0.0
  9
$CHAMFERC
 40
0.0
  9
$CHAMFERD
 40
0.0
  9
$SKPOLY
 70
     0
  9
$TDCREATE
 40
2448315.331741435
  9
$TDUPDATE
 40
2453101.580309352
  9
$TDINDWG
 40
0.1289811343
  9
$TDUSRTIMER
 40
0.1289804167
  9
$USRTIMER
 70
     1
  9
$ANGBASE
 50
0.0
  9
$ANGDIR
 70
     0
  9
$PDMODE
 70
     0
  9
$PDSIZE
 40
0.0
  9
$PLINEWID
 40
0.0
  9
$COORDS
 70
     1
  9
$SPLFRAME
 70
     0
  9
$SPLINETYPE
 70
     6
  9
$SPLINESEGS
 70
     8
  9
$ATTDIA
 70
     0
  9
$ATTREQ
 70
     1
  9
$HANDLING
 70
 22529
  9
$HANDSEED
  5
81B
  9
$SURFTAB1
 70
     6
  9
$SURFTAB2
 70
     6
  9
$SURFTYPE
 70
     6
  9
$SURFU
 70
     6
  9
$SURFV
 70
     6
  9
$UCSNAME
  2

  9
$UCSORG
 10
0.0
 20
0.0
 30
0.0
  9
$UCSXDIR
 10
1.0
 20
0.0
 30
0.0
  9
$UCSYDIR
 10
0.0
 20
1.0
 30
0.0
  9
$PUCSNAME
  2

  9
$PUCSORG
 10
0.0
 20
0.0
 30
0.0
  9
$PUCSXDIR
 10
1.0
 20
0.0
 30
0.0
  9
$PUCSYDIR
 10
0.0
 20
1.0
 30
0.0
  9
$USERI1
 70
     0
  9
$USERI2
 70
     0
  9
$USERI3
 70
     0
  9
$USERI4
 70
     0
  9
$USERI5
 70
     0
  9
$USERR1
 40
0.0
  9
$USERR2
 40
0.0
  9
$USERR3
 40
0.0
  9
$USERR4
 40
0.0
  9
$USERR5
 40
0.0
  9
$WORLDVIEW
 70
     1
  9
$SHADEDGE
 70
     3
  9
$SHADEDIF
 70
    70
  9
$TILEMODE
 70
     1
  9
$MAXACTVP
 70
    16
  9
$PINSBASE
 10
0.0
 20
0.0
 30
0.0
  9
$PLIMCHECK
 70
     0
  9
$PEXTMIN
 10
1.000000000000000E+20
 20
1.000000000000000E+20
 30
1.000000000000000E+20
  9
$PEXTMAX
 10
-1.000000000000000E+20
 20
-1.000000000000000E+20
 30
-1.000000000000000E+20
  9
$PLIMMIN
 10
0.0
 20
0.0
  9
$PLIMMAX
 10
12.0
 20
9.0
  9
$UNITMODE
 70
     0
  9
$VISRETAIN
 70
     0
  9
$PLINEGEN
 70
     0
  9
$PSLTSCALE
 70
     1
  9
$TREEDEPTH
 70
  3020
  9
$PICKSTYLE
 70
     1
  9
$CMLSTYLE
  2
STANDARD
  9
$CMLJUST
 70
     0
  9
$CMLSCALE
 40
1.0
  9
$PROXYGRAPHICS
 70
     1
  9
$MEASUREMENT
 70
     0
  0
ENDSEC
  0
SECTION
  2
CLASSES
  0
CLASS
  1
ACDBDICTIONARYWDFLT
  2
AcDbDictionaryWithDefault
  3
AutoCAD 2000
 90
        0
280
     0
281
     0
  0
CLASS
  1
ACDBPLACEHOLDER
  2
AcDbPlaceHolder
  3
AutoCAD 2000
 90
        0
280
     0
281
     0
  0
CLASS
  1
LAYOUT
  2
AcDbLayout
  3
AutoCAD 2000
 90
        0
280
     0
281
     0
  0
CLASS
  1
DICTIONARYVAR
  2
AcDbDictionaryVar
  3
AutoCAD 2000
 90
        0
280
     0
281
     0
  0
CLASS
  1
LONG_TRANSACTION
  2
AcDbLongTransaction
  3
AutoCAD 2000
 90
        0
280
     0
281
     0
  0
CLASS
  1
LWPOLYLINE
  2
AcDbPolyline
  3
AutoCAD 2000
 90
        0
280
     0
281
     1
  0
CLASS
  1
HATCH
  2
AcDbHatch
  3
AutoCAD 2000
 90
        0
280
     0
281
     1
  0
CLASS
  1
XRECORD
  2
AcDbXrecord
  3
AutoCAD 2000
 90
        0
280
     0
281
     0
  0
CLASS
  1
LONG_TRANSACTION
  2
AcDbLongTransaction
  3
AutoCAD 2000
 90
        0
280
     0
281
     0
  0
CLASS
  1
LWPOLYLINE
  2
AcDbPolyline
  3
AutoCAD 2000
 90
        0
280
     0
281
     1
  0
CLASS
  1
HATCH
  2
AcDbHatch
  3
AutoCAD 2000
 90
        0
280
     0
281
     1
  0
CLASS
  1
XRECORD
  2
AcDbXrecord
  3
AutoCAD 2000
 90
        0
280
     0
281
     0
  0
CLASS
  1
LONG_TRANSACTION
  2
AcDbLongTransaction
  3
AutoCAD 2000
 90
        0
280
     0
281
     0
  0
CLASS
  1
LWPOLYLINE
  2
AcDbPolyline
  3
AutoCAD 2000
 90
        0
280
     0
281
     1
  0
CLASS
  1
HATCH
  2
AcDbHatch
  3
AutoCAD 2000
 90
        0
280
     0
281
     1
  0
CLASS
  1
XRECORD
  2
AcDbXrecord
  3
AutoCAD 2000
 90
        0
280
     0
281
     0
  0
ENDSEC
  0
SECTION
  2
TABLES
  0
TABLE
  2
VPORT
  5
8
330
0
100
AcDbSymbolTable
 70
     3
  0
VPORT
  5
7F8
330
8
100
AcDbSymbolTableRecord
100
AcDbViewportTableRecord
  2
*ACTIVE
 70
     0
 10
0.0
 20
0.0
 11
1.0
 21
1.0
 12
284.9627814086438
 22
37.78496585591008
 13
0.0
 23
0.0
 14
1.0
 24
1.0
 15
0.0
 25
0.0
 16
0.0
 26
0.0
 36
1.0
 17
0.0
 27
0.0
 37
0.0
 40
21.59702957751814
 41
1.220762155059132
 42
50.0
 43
0.0
 44
0.0
 50
0.0
 51
0.0
 71
     0
 72
   100
 73
     1
 74
     1
 75
     0
 76
     0
 77
     0
 78
     0
  0
ENDTAB
  0
TABLE
  2
LTYPE
  5
5
330
0
100
AcDbSymbolTable
 70
     1
  0
LTYPE
  5
13
330
5
100
AcDbSymbolTableRecord
100
AcDbLinetypeTableRecord
  2
BYBLOCK
 70
     0
  3

 72
    65
 73
     0
 40
0.0
  0
LTYPE
  5
14
330
5
100
AcDbSymbolTableRecord
100
AcDbLinetypeTableRecord
  2
BYLAYER
 70
     0
  3

 72
    65
 73
     0
 40
0.0
  0
LTYPE
  5
15
330
5
100
AcDbSymbolTableRecord
100
AcDbLinetypeTableRecord
  2
CONTINUOUS
 70
     0
  3
Solid line
 72
    65
 73
     0
 40
0.0
  0
ENDTAB
  0
TABLE
  2
LAYER
  5
2
330
0
100
AcDbSymbolTable
 70
     9
  0
LAYER
  5
10
330
2
100
AcDbSymbolTableRecord
100
AcDbLayerTableRecord
  2
0
 70
     0
 62
     7
  6
CONTINUOUS
  0
LAYER
  5
22
330
2
100
AcDbSymbolTableRecord
100
AcDbLayerTableRecord
  2
1
 70
     0
 62
     7
  6
CONTINUOUS
  0
LAYER
  5
23
330
2
100
AcDbSymbolTableRecord
100
AcDbLayerTableRecord
  2
7
 70
     0
 62
     7
  6
CONTINUOUS
  0
LAYER
  5
24
330
2
100
AcDbSymbolTableRecord
100
AcDbLayerTableRecord
  2
8
 70
     0
 62
     7
  6
CONTINUOUS
  0
LAYER
  5
25
330
2
100
AcDbSymbolTableRecord
100
AcDbLayerTableRecord
  2
9
 70
     0
 62
     7
  6
CONTINUOUS
  0
LAYER
  5
26
330
2
100
AcDbSymbolTableRecord
100
AcDbLayerTableRecord
  2
22
 70
     0
 62
     7
  6
CONTINUOUS
  0
LAYER
  5
27
330
2
100
AcDbSymbolTableRecord
100
AcDbLayerTableRecord
  2
25
 70
     0
 62
     7
  6
CONTINUOUS
  0
LAYER
  5
78
330
2
100
AcDbSymbolTableRecord
100
AcDbLayerTableRecord
  2
DEFPOINTS
 70
     0
 62
     7
  6
CONTINUOUS
  0
LAYER
  5
1E7
330
2
100
AcDbSymbolTableRecord
100
AcDbLayerTableRecord
  2
NO_PRINT
 70
     0
 62
     7
  6
CONTINUOUS
  0
ENDTAB
  0
TABLE
  2
STYLE
  5
3
330
0
100
AcDbSymbolTable
 70
     2
  0
STYLE
  5
11
330
3
100
AcDbSymbolTableRecord
100
AcDbTextStyleTableRecord
  2
STANDARD
 70
     0
 40
0.0
 41
1.0
 50
0.0
 71
     0
 42
0.2
  3
txt
  4

  0
STYLE
  5
28
330
3
100
AcDbSymbolTableRecord
100
AcDbTextStyleTableRecord
  2
ROMANC
 70
     0
 40
0.0
 41
1.0
 50
0.0
 71
     0
 42
0.2
  3
ROMANC
  4

  0
ENDTAB
  0
TABLE
  2
VIEW
  5
6
330
0
100
AcDbSymbolTable
 70
     0
  0
ENDTAB
  0
TABLE
  2
UCS
  5
7
330
0
100
AcDbSymbolTable
 70
     0
  0
ENDTAB
  0
TABLE
  2
APPID
  5
9
330
0
100
AcDbSymbolTable
 70
     1
  0
APPID
  5
12
330
9
100
AcDbSymbolTableRecord
100
AcDbRegAppTableRecord
  2
ACAD
 70
     0
  0
ENDTAB
  0
TABLE
  2
DIMSTYLE
  5
A
330
0
100
AcDbSymbolTable
 70
     1
  0
DIMSTYLE
105
6B
102
{ACAD_REACTORS
330
6EC
330
6FA
330
708
330
72A
330
79C
330
7AA
102
}
330
A
100
AcDbSymbolTableRecord
100
AcDbDimStyleTableRecord
  2
STANDARD
 70
     0
  3

  4

  5

  6

  7

 40
1.0
 41
0.18
 42
0.0625
 43
0.38
 44
0.18
 45
0.0
 46
0.0
 47
0.0
 48
0.0
140
0.15
141
0.09
142
0.0
143
25.4
144
1.0
145
0.0
146
1.0
147
0.09
 71
     0
 72
     0
 73
     1
 74
     1
 75
     0
 76
     0
 77
     0
 78
     0
170
     0
171
     2
172
     0
173
     0
174
     0
175
     0
176
     0
177
     0
178
     0
270
     2
271
     2
272
     2
273
     2
274
     2
340
11
275
     0
280
     0
281
     0
282
     0
283
     1
284
     0
285
     0
286
     0
287
     3
288
     0
  0
ENDTAB
  0
TABLE
  2
BLOCK_RECORD
  5
1
330
0
100
AcDbSymbolTable
 70
    25
  0
BLOCK_RECORD
  5
1E
102
{ACAD_XDICTIONARY
360
39D
102
}
330
1
100
AcDbSymbolTableRecord
100
AcDbBlockTableRecord
  2
*MODEL_SPACE
  0
BLOCK_RECORD
  5
1A
102
{ACAD_XDICTIONARY
360
39F
102
}
330
1
100
AcDbSymbolTableRecord
100
AcDbBlockTableRecord
  2
*PAPER_SPACE
  0
BLOCK_RECORD
  5
64D
330
1
100
AcDbSymbolTableRecord
100
AcDbBlockTableRecord
  2
*D13
  0
BLOCK_RECORD
  5
65B
330
1
100
AcDbSymbolTableRecord
100
AcDbBlockTableRecord
  2
*D14
  0
BLOCK_RECORD
  5
669
330
1
100
AcDbSymbolTableRecord
100
AcDbBlockTableRecord
  2
*D15
  0
BLOCK_RECORD
  5
677
330
1
100
AcDbSymbolTableRecord
100
AcDbBlockTableRecord
  2
*D16
  0
BLOCK_RECORD
  5
685
330
1
100
AcDbSymbolTableRecord
100
AcDbBlockTableRecord
  2
*D17
  0
BLOCK_RECORD
  5
693
330
1
100
AcDbSymbolTableRecord
100
AcDbBlockTableRecord
  2
*D18
  0
BLOCK_RECORD
  5
6ED
330
1
100
AcDbSymbolTableRecord
100
AcDbBlockTableRecord
  2
*D19
  0
BLOCK_RECORD
  5
6FB
330
1
100
AcDbSymbolTableRecord
100
AcDbBlockTableRecord
  2
*D20
  0
BLOCK_RECORD
  5
709
330
1
100
AcDbSymbolTableRecord
100
AcDbBlockTableRecord
  2
*D21
  0
BLOCK_RECORD
  5
72B
330
1
100
AcDbSymbolTableRecord
100
AcDbBlockTableRecord
  2
*D22
  0
BLOCK_RECORD
  5
79D
330
1
100
AcDbSymbolTableRecord
100
AcDbBlockTableRecord
  2
*D23
  0
BLOCK_RECORD
  5
7AB
330
1
100
AcDbSymbolTableRecord
100
AcDbBlockTableRecord
  2
*D24
  0
ENDTAB
  0
ENDSEC
  0
SECTION
  2
BLOCKS
  0
BLOCK
  5
1F
330
1E
100
AcDbEntity
  8
0
100
AcDbBlockBegin
  2
*MODEL_SPACE
 70
     0
 10
0.0
 20
0.0
 30
0.0
  3
*MODEL_SPACE
  1

  0
ENDBLK
  5
20
330
1E
100
AcDbEntity
  8
0
100
AcDbBlockEnd
  0
BLOCK
  5
1B
330
1A
100
AcDbEntity
 67
     1
  8
0
100
AcDbBlockBegin
  2
*PAPER_SPACE
 70
     0
 10
0.0
 20
0.0
 30
0.0
  3
*PAPER_SPACE
  1

  0
ENDBLK
  5
1C
330
1A
100
AcDbEntity
 67
     1
  8
0
100
AcDbBlockEnd
  0
BLOCK
  5
658
330
64D
100
AcDbEntity
  8
0
100
AcDbBlockBegin
  2
*D13
 70
     1
 10
0.0
 20
0.0
 30
0.0
  3
*D13
  1

  0
LINE
  5
64E
330
64D
100
AcDbEntity
  8
0
 62
     0
100
AcDbLine
 10
284.9603855587012
 20
35.15963362646248
 30
0.0
 11
284.9603855587012
 21
34.46527781729769
 31
0.0
  0
LINE
  5
64F
330
64D
100
AcDbEntity
  8
0
 62
     0
100
AcDbLine
 10
286.8603855587012
 20
35.15963362646248
 30
0.0
 11
286.8603855587012
 21
34.46527781729769
 31
0.0
  0
LINE
  5
650
330
64D
100
AcDbEntity
  8
0
 62
     0
100
AcDbLine
 10
285.1403855587012
 20
34.64527781729769
 30
0.0
 11
285.6328855587012
 21
34.64527781729769
 31
0.0
  0
LINE
  5
651
330
64D
100
AcDbEntity
  8
0
 62
     0
100
AcDbLine
 10
286.6803855587012
 20
34.64527781729769
 30
0.0
 11
286.1878855587012
 21
34.64527781729769
 31
0.0
  0
SOLID
  5
652
330
64D
100
AcDbEntity
  8
0
 62
     0
100
AcDbTrace
 10
285.1403855587012
 20
34.67527781729769
 30
0.0
 11
285.1403855587012
 21
34.61527781729769
 31
0.0
 12
284.9603855587012
 22
34.64527781729769
 32
0.0
 13
284.9603855587012
 23
34.64527781729769
 33
0.0
  0
SOLID
  5
653
330
64D
100
AcDbEntity
  8
0
 62
     0
100
AcDbTrace
 10
286.6803855587012
 20
34.67527781729769
 30
0.0
 11
286.6803855587012
 21
34.61527781729769
 31
0.0
 12
286.8603855587012
 22
34.64527781729769
 32
0.0
 13
286.8603855587012
 23
34.64527781729769
 33
0.0
  0
MTEXT
  5
654
330
64D
100
AcDbEntity
  8
0
 62
     0
100
AcDbMText
 10
285.9103855587012
 20
34.64527781729769
 30
0.0
 40
0.15
 41
0.0
 71
     5
 72
     1
  1
\A1;1.90
1001
ACAD
1000
MTEXTBEGIN
1070
    73
1070
     1
1070
    44
1040
1.0
1070
    74
1070
     0
1000
MTEXTEND
  0
POINT
  5
655
330
64D
100
AcDbEntity
  8
DEFPOINTS
 62
     0
100
AcDbPoint
 10
284.9603855587012
 20
35.22213362646247
 30
0.0
  0
POINT
  5
656
330
64D
100
AcDbEntity
  8
DEFPOINTS
 62
     0
100
AcDbPoint
 10
286.8603855587012
 20
35.22213362646247
 30
0.0
  0
POINT
  5
657
330
64D
100
AcDbEntity
  8
DEFPOINTS
 62
     0
100
AcDbPoint
 10
286.8603855587012
 20
34.64527781729769
 30
0.0
  0
ENDBLK
  5
659
330
64D
100
AcDbEntity
  8
0
100
AcDbBlockEnd
  0
BLOCK
  5
666
330
65B
100
AcDbEntity
  8
0
100
AcDbBlockBegin
  2
*D14
 70
     1
 10
0.0
 20
0.0
 30
0.0
  3
*D14
  1

  0
LINE
  5
6AA
330
65B
100
AcDbEntity
  8
0
 62
     0
100
AcDbLine
 10
286.8603855587012
 20
35.50963362646248
 30
0.0
 11
286.8603855587012
 21
34.8459598640238
 31
0.0
  0
LINE
  5
6AB
330
65B
100
AcDbEntity
  8
0
 62
     0
100
AcDbLine
 10
287.6603855587012
 20
35.50963362646248
 30
0.0
 11
287.6603855587012
 21
34.8459598640238
 31
0.0
  0
LINE
  5
6AC
330
65B
100
AcDbEntity
  8
0
 62
     0
100
AcDbLine
 10
286.6803855587012
 20
35.0259598640238
 30
0.0
 11
286.5003855587012
 21
35.0259598640238
 31
0.0
  0
LINE
  5
6AD
330
65B
100
AcDbEntity
  8
0
 62
     0
100
AcDbLine
 10
287.8403855587012
 20
35.0259598640238
 30
0.0
 11
288.0203855587012
 21
35.0259598640238
 31
0.0
  0
SOLID
  5
6AE
330
65B
100
AcDbEntity
  8
0
 62
     0
100
AcDbTrace
 10
286.6803855587012
 20
35.0559598640238
 30
0.0
 11
286.6803855587012
 21
34.9959598640238
 31
0.0
 12
286.8603855587012
 22
35.0259598640238
 32
0.0
 13
286.8603855587012
 23
35.0259598640238
 33
0.0
  0
SOLID
  5
6AF
330
65B
100
AcDbEntity
  8
0
 62
     0
100
AcDbTrace
 10
287.8403855587012
 20
35.0559598640238
 30
0.0
 11
287.8403855587012
 21
34.9959598640238
 31
0.0
 12
287.6603855587012
 22
35.0259598640238
 32
0.0
 13
287.6603855587012
 23
35.0259598640238
 33
0.0
  0
MTEXT
  5
6B0
330
65B
100
AcDbEntity
  8
0
 62
     0
100
AcDbMText
 10
287.3130847782826
 20
35.0259598640238
 30
0.0
 40
0.15
 41
0.0
 71
     5
 72
     1
  1
\A1;0.80
1001
ACAD
1000
MTEXTBEGIN
1070
    73
1070
     1
1070
    44
1040
1.0
1070
    74
1070
     0
1000
MTEXTEND
  0
POINT
  5
6B1
330
65B
100
AcDbEntity
  8
DEFPOINTS
 62
     0
100
AcDbPoint
 10
286.8603855587012
 20
35.57213362646248
 30
0.0
  0
POINT
  5
6B2
330
65B
100
AcDbEntity
  8
DEFPOINTS
 62
     0
100
AcDbPoint
 10
287.6603855587012
 20
35.57213362646248
 30
0.0
  0
POINT
  5
6B3
330
65B
100
AcDbEntity
  8
DEFPOINTS
 62
     0
100
AcDbPoint
 10
287.6603855587012
 20
35.0259598640238
 30
0.0
  0
ENDBLK
  5
667
330
65B
100
AcDbEntity
  8
0
100
AcDbBlockEnd
  0
BLOCK
  5
674
330
669
100
AcDbEntity
  8
0
100
AcDbBlockBegin
  2
*D15
 70
     1
 10
0.0
 20
0.0
 30
0.0
  3
*D15
  1

  0
LINE
  5
6D2
330
669
100
AcDbEntity
  8
0
 62
     0
100
AcDbLine
 10
284.6603855587012
 20
35.50963362646248
 30
0.0
 11
284.6603855587012
 21
34.92750788568877
 31
0.0
  0
LINE
  5
6D3
330
669
100
AcDbEntity
  8
0
 62
     0
100
AcDbLine
 10
284.9603855587012
 20
35.50963362646248
 30
0.0
 11
284.9603855587012
 21
34.92750788568877
 31
0.0
  0
LINE
  5
6D4
330
669
100
AcDbEntity
  8
0
 62
     0
100
AcDbLine
 10
285.1403855587012
 20
35.10750788568877
 30
0.0
 11
285.3203855587013
 21
35.10750788568877
 31
0.0
  0
LINE
  5
6D5
330
669
100
AcDbEntity
  8
0
 62
     0
100
AcDbLine
 10
284.4803855587012
 20
35.10750788568877
 30
0.0
 11
284.3003855587013
 21
35.10750788568877
 31
0.0
  0
SOLID
  5
6D6
330
669
100
AcDbEntity
  8
0
 62
     0
100
AcDbTrace
 10
285.1403855587012
 20
35.13750788568877
 30
0.0
 11
285.1403855587012
 21
35.07750788568877
 31
0.0
 12
284.9603855587012
 22
35.10750788568877
 32
0.0
 13
284.9603855587012
 23
35.10750788568877
 33
0.0
  0
SOLID
  5
6D7
330
669
100
AcDbEntity
  8
0
 62
     0
100
AcDbTrace
 10
284.4803855587012
 20
35.13750788568877
 30
0.0
 11
284.4803855587012
 21
35.07750788568877
 31
0.0
 12
284.6603855587012
 22
35.10750788568877
 32
0.0
 13
284.6603855587012
 23
35.10750788568877
 33
0.0
  0
MTEXT
  5
6D8
330
669
100
AcDbEntity
  8
0
 62
     0
100
AcDbMText
 10
284.0103855587012
 20
35.10750788568877
 30
0.0
 40
0.15
 41
0.0
 71
     5
 72
     1
  1
\A1;0.30
1001
ACAD
1000
MTEXTBEGIN
1070
    73
1070
     1
1070
    44
1040
1.0
1070
    74
1070
     0
1000
MTEXTEND
  0
POINT
  5
6D9
330
669
100
AcDbEntity
  8
DEFPOINTS
 62
     0
100
AcDbPoint
 10
284.6603855587012
 20
35.57213362646248
 30
0.0
  0
POINT
  5
6DA
330
669
100
AcDbEntity
  8
DEFPOINTS
 62
     0
100
AcDbPoint
 10
284.9603855587012
 20
35.57213362646248
 30
0.0
  0
POINT
  5
6DB
330
669
100
AcDbEntity
  8
DEFPOINTS
 62
     0
100
AcDbPoint
 10
284.9603855587012
 20
35.10750788568877
 30
0.0
  0
ENDBLK
  5
675
330
669
100
AcDbEntity
  8
0
100
AcDbBlockEnd
  0
BLOCK
  5
682
330
677
100
AcDbEntity
  8
0
100
AcDbBlockBegin
  2
*D16
 70
     1
 10
0.0
 20
0.0
 30
0.0
  3
*D16
  1

  0
LINE
  5
678
330
677
100
AcDbEntity
  8
0
 62
     0
100
AcDbLine
 10
284.6603855587012
 20
35.50963362646248
 30
0.0
 11
284.6603855587012
 21
33.89762674779664
 31
0.0
  0
LINE
  5
679
330
677
100
AcDbEntity
  8
0
 62
     0
100
AcDbLine
 10
287.6603855587012
 20
35.50963362646248
 30
0.0
 11
287.6603855587012
 21
33.89762674779664
 31
0.0
  0
LINE
  5
67A
330
677
100
AcDbEntity
  8
0
 62
     0
100
AcDbLine
 10
284.8403855587012
 20
34.07762674779664
 30
0.0
 11
285.8703855587012
 21
34.07762674779664
 31
0.0
  0
LINE
  5
67B
330
677
100
AcDbEntity
  8
0
 62
     0
100
AcDbLine
 10
287.4803855587012
 20
34.07762674779664
 30
0.0
 11
286.4503855587012
 21
34.07762674779664
 31
0.0
  0
SOLID
  5
67C
330
677
100
AcDbEntity
  8
0
 62
     0
100
AcDbTrace
 10
284.8403855587012
 20
34.10762674779664
 30
0.0
 11
284.8403855587012
 21
34.04762674779664
 31
0.0
 12
284.6603855587012
 22
34.07762674779664
 32
0.0
 13
284.6603855587012
 23
34.07762674779664
 33
0.0
  0
SOLID
  5
67D
330
677
100
AcDbEntity
  8
0
 62
     0
100
AcDbTrace
 10
287.4803855587012
 20
34.10762674779664
 30
0.0
 11
287.4803855587012
 21
34.04762674779664
 31
0.0
 12
287.6603855587012
 22
34.07762674779664
 32
0.0
 13
287.6603855587012
 23
34.07762674779664
 33
0.0
  0
MTEXT
  5
67E
330
677
100
AcDbEntity
  8
0
 62
     0
100
AcDbMText
 10
286.1603855587012
 20
34.07762674779664
 30
0.0
 40
0.15
 41
0.0
 71
     5
 72
     1
  1
\A1;3.00
1001
ACAD
1000
MTEXTBEGIN
1070
    73
1070
     1
1070
    44
1040
1.0
1070
    74
1070
     0
1000
MTEXTEND
  0
POINT
  5
67F
330
677
100
AcDbEntity
  8
DEFPOINTS
 62
     0
100
AcDbPoint
 10
284.6603855587012
 20
35.57213362646248
 30
0.0
  0
POINT
  5
680
330
677
100
AcDbEntity
  8
DEFPOINTS
 62
     0
100
AcDbPoint
 10
287.6603855587012
 20
35.57213362646248
 30
0.0
  0
POINT
  5
681
330
677
100
AcDbEntity
  8
DEFPOINTS
 62
     0
100
AcDbPoint
 10
287.6603855587012
 20
34.07762674779664
 30
0.0
  0
ENDBLK
  5
683
330
677
100
AcDbEntity
  8
0
100
AcDbBlockEnd
  0
BLOCK
  5
690
330
685
100
AcDbEntity
  8
0
100
AcDbBlockBegin
  2
*D17
 70
     1
 10
0.0
 20
0.0
 30
0.0
  3
*D17
  1

  0
LINE
  5
686
330
685
100
AcDbEntity
  8
0
 62
     0
100
AcDbLine
 10
287.7228855587012
 20
35.57213362646248
 30
0.0
 11
288.4463934430629
 21
35.57213362646248
 31
0.0
  0
LINE
  5
687
330
685
100
AcDbEntity
  8
0
 62
     0
100
AcDbLine
 10
287.7228855587012
 20
37.22213362646248
 30
0.0
 11
288.4463934430629
 21
37.22213362646248
 31
0.0
  0
LINE
  5
688
330
685
100
AcDbEntity
  8
0
 62
     0
100
AcDbLine
 10
288.2663934430628
 20
35.75213362646248
 30
0.0
 11
288.2663934430628
 21
36.23213362646248
 31
0.0
  0
LINE
  5
689
330
685
100
AcDbEntity
  8
0
 62
     0
100
AcDbLine
 10
288.2663934430628
 20
37.04213362646248
 30
0.0
 11
288.2663934430628
 21
36.56213362646248
 31
0.0
  0
SOLID
  5
68A
330
685
100
AcDbEntity
  8
0
 62
     0
100
AcDbTrace
 10
288.2363934430629
 20
35.75213362646248
 30
0.0
 11
288.2963934430628
 21
35.75213362646248
 31
0.0
 12
288.2663934430628
 22
35.57213362646248
 32
0.0
 13
288.2663934430628
 23
35.57213362646248
 33
0.0
  0
SOLID
  5
68B
330
685
100
AcDbEntity
  8
0
 62
     0
100
AcDbTrace
 10
288.2363934430629
 20
37.04213362646248
 30
0.0
 11
288.2963934430628
 21
37.04213362646248
 31
0.0
 12
288.2663934430628
 22
37.22213362646248
 32
0.0
 13
288.2663934430628
 23
37.22213362646248
 33
0.0
  0
MTEXT
  5
68C
330
685
100
AcDbEntity
  8
0
 62
     0
100
AcDbMText
 10
288.2663934430628
 20
36.39713362646253
 30
0.0
 40
0.15
 41
0.0
 71
     5
 72
     1
  1
\A1;1.65
1001
ACAD
1000
MTEXTBEGIN
1070
    73
1070
     1
1070
    44
1040
1.0
1070
    74
1070
     0
1000
MTEXTEND
  0
POINT
  5
68D
330
685
100
AcDbEntity
  8
DEFPOINTS
 62
     0
100
AcDbPoint
 10
287.6603855587012
 20
35.57213362646248
 30
0.0
  0
POINT
  5
68E
330
685
100
AcDbEntity
  8
DEFPOINTS
 62
     0
100
AcDbPoint
 10
287.6603855587012
 20
37.22213362646248
 30
0.0
  0
POINT
  5
68F
330
685
100
AcDbEntity
  8
DEFPOINTS
 62
     0
100
AcDbPoint
 10
288.2663934430628
 20
37.22213362646248
 30
0.0
  0
ENDBLK
  5
691
330
685
100
AcDbEntity
  8
0
100
AcDbBlockEnd
  0
BLOCK
  5
69E
330
693
100
AcDbEntity
  8
0
100
AcDbBlockBegin
  2
*D18
 70
     1
 10
0.0
 20
0.0
 30
0.0
  3
*D18
  1

  0
LINE
  5
694
330
693
100
AcDbEntity
  8
0
 62
     0
100
AcDbLine
 10
286.9228855587012
 20
35.22213362646247
 30
0.0
 11
289.3754527267264
 21
35.22213362646247
 31
0.0
  0
LINE
  5
695
330
693
100
AcDbEntity
  8
0
 62
     0
100
AcDbLine
 10
287.7228855587012
 20
37.22213362646248
 30
0.0
 11
289.3754527267264
 21
37.22213362646248
 31
0.0
  0
LINE
  5
696
330
693
100
AcDbEntity
  8
0
 62
     0
100
AcDbLine
 10
289.1954527267263
 20
35.40213362646248
 30
0.0
 11
289.1954527267263
 21
36.05713362646248
 31
0.0
  0
LINE
  5
697
330
693
100
AcDbEntity
  8
0
 62
     0
100
AcDbLine
 10
289.1954527267263
 20
37.04213362646248
 30
0.0
 11
289.1954527267263
 21
36.38713362646248
 31
0.0
  0
SOLID
  5
698
330
693
100
AcDbEntity
  8
0
 62
     0
100
AcDbTrace
 10
289.1654527267263
 20
35.40213362646248
 30
0.0
 11
289.2254527267263
 21
35.40213362646248
 31
0.0
 12
289.1954527267263
 22
35.22213362646247
 32
0.0
 13
289.1954527267263
 23
35.22213362646247
 33
0.0
  0
SOLID
  5
699
330
693
100
AcDbEntity
  8
0
 62
     0
100
AcDbTrace
 10
289.1654527267263
 20
37.04213362646248
 30
0.0
 11
289.2254527267263
 21
37.04213362646248
 31
0.0
 12
289.1954527267263
 22
37.22213362646248
 32
0.0
 13
289.1954527267263
 23
37.22213362646248
 33
0.0
  0
MTEXT
  5
69A
330
693
100
AcDbEntity
  8
0
 62
     0
100
AcDbMText
 10
289.1954527267263
 20
36.22213362646252
 30
0.0
 40
0.15
 41
0.0
 71
     5
 72
     1
  1
\A1;2.00
1001
ACAD
1000
MTEXTBEGIN
1070
    73
1070
     1
1070
    44
1040
1.0
1070
    74
1070
     0
1000
MTEXTEND
  0
POINT
  5
69B
330
693
100
AcDbEntity
  8
DEFPOINTS
 62
     0
100
AcDbPoint
 10
286.8603855587012
 20
35.22213362646247
 30
0.0
  0
POINT
  5
69C
330
693
100
AcDbEntity
  8
DEFPOINTS
 62
     0
100
AcDbPoint
 10
287.6603855587012
 20
37.22213362646248
 30
0.0
  0
POINT
  5
69D
330
693
100
AcDbEntity
  8
DEFPOINTS
 62
     0
100
AcDbPoint
 10
289.1954527267263
 20
37.22213362646248
 30
0.0
  0
ENDBLK
  5
69F
330
693
100
AcDbEntity
  8
0
100
AcDbBlockEnd
  0
BLOCK
  5
6F8
330
6ED
100
AcDbEntity
  8
0
100
AcDbBlockBegin
  2
*D19
 70
     1
 10
0.0
 20
0.0
 30
0.0
  3
*D19
  1

  0
LINE
  5
6EE
330
6ED
100
AcDbEntity
  8
0
 62
     0
100
AcDbLine
 10
284.9565822925582
 20
36.09627461559852
 30
0.0
 11
284.9565822925582
 21
34.53102651587975
 31
0.0
  0
LINE
  5
6EF
330
6ED
100
AcDbEntity
  8
0
 62
     0
100
AcDbLine
 10
287.4565822925582
 20
36.09627461559852
 30
0.0
 11
287.4565822925582
 21
34.53102651587975
 31
0.0
  0
LINE
  5
6F0
330
6ED
100
AcDbEntity
  8
0
 62
     0
100
AcDbLine
 10
285.1365822925582
 20
34.71102651587975
 30
0.0
 11
285.9040822925582
 21
34.71102651587975
 31
0.0
  0
LINE
  5
6F1
330
6ED
100
AcDbEntity
  8
0
 62
     0
100
AcDbLine
 10
287.2765822925582
 20
34.71102651587975
 30
0.0
 11
286.5090822925582
 21
34.71102651587975
 31
0.0
  0
SOLID
  5
6F2
330
6ED
100
AcDbEntity
  8
0
 62
     0
100
AcDbTrace
 10
285.1365822925582
 20
34.74102651587975
 30
0.0
 11
285.1365822925582
 21
34.68102651587975
 31
0.0
 12
284.9565822925582
 22
34.71102651587975
 32
0.0
 13
284.9565822925582
 23
34.71102651587975
 33
0.0
  0
SOLID
  5
6F3
330
6ED
100
AcDbEntity
  8
0
 62
     0
100
AcDbTrace
 10
287.2765822925582
 20
34.74102651587975
 30
0.0
 11
287.2765822925582
 21
34.68102651587975
 31
0.0
 12
287.4565822925582
 22
34.71102651587975
 32
0.0
 13
287.4565822925582
 23
34.71102651587975
 33
0.0
  0
MTEXT
  5
6F4
330
6ED
100
AcDbEntity
  8
0
 62
     0
100
AcDbMText
 10
286.2065822925582
 20
34.71102651587975
 30
0.0
 40
0.15
 41
0.0
 71
     5
 72
     1
  1
\A1;2.50
1001
ACAD
1000
MTEXTBEGIN
1070
    73
1070
     1
1070
    44
1040
1.0
1070
    74
1070
     0
1000
MTEXTEND
  0
POINT
  5
6F5
330
6ED
100
AcDbEntity
  8
DEFPOINTS
 62
     0
100
AcDbPoint
 10
284.9565822925582
 20
36.15877461559852
 30
0.0
  0
POINT
  5
6F6
330
6ED
100
AcDbEntity
  8
DEFPOINTS
 62
     0
100
AcDbPoint
 10
287.4565822925582
 20
36.15877461559852
 30
0.0
  0
POINT
  5
6F7
330
6ED
100
AcDbEntity
  8
DEFPOINTS
 62
     0
100
AcDbPoint
 10
287.4565822925582
 20
34.71102651587975
 30
0.0
  0
ENDBLK
  5
6F9
330
6ED
100
AcDbEntity
  8
0
100
AcDbBlockEnd
  0
BLOCK
  5
706
330
6FB
100
AcDbEntity
  8
0
100
AcDbBlockBegin
  2
*D20
 70
     1
 10
0.0
 20
0.0
 30
0.0
  3
*D20
  1

  0
LINE
  5
742
330
6FB
100
AcDbEntity
  8
0
 62
     0
100
AcDbLine
 10
285.2565822925582
 20
35.74627461559852
 30
0.0
 11
285.2565822925582
 21
34.97266004105156
 31
0.0
  0
LINE
  5
743
330
6FB
100
AcDbEntity
  8
0
 62
     0
100
AcDbLine
 10
286.6565822925581
 20
35.74627461559852
 30
0.0
 11
286.6565822925581
 21
34.97266004105156
 31
0.0
  0
LINE
  5
744
330
6FB
100
AcDbEntity
  8
0
 62
     0
100
AcDbLine
 10
285.4365822925582
 20
35.15266004105156
 30
0.0
 11
285.6790822925582
 21
35.15266004105156
 31
0.0
  0
LINE
  5
745
330
6FB
100
AcDbEntity
  8
0
 62
     0
100
AcDbLine
 10
286.4765822925582
 20
35.15266004105156
 30
0.0
 11
286.2340822925581
 21
35.15266004105156
 31
0.0
  0
SOLID
  5
746
330
6FB
100
AcDbEntity
  8
0
 62
     0
100
AcDbTrace
 10
285.4365822925582
 20
35.18266004105156
 30
0.0
 11
285.4365822925582
 21
35.12266004105156
 31
0.0
 12
285.2565822925582
 22
35.15266004105156
 32
0.0
 13
285.2565822925582
 23
35.15266004105156
 33
0.0
  0
SOLID
  5
747
330
6FB
100
AcDbEntity
  8
0
 62
     0
100
AcDbTrace
 10
286.4765822925582
 20
35.18266004105156
 30
0.0
 11
286.4765822925582
 21
35.12266004105156
 31
0.0
 12
286.6565822925581
 22
35.15266004105156
 32
0.0
 13
286.6565822925581
 23
35.15266004105156
 33
0.0
  0
MTEXT
  5
748
330
6FB
100
AcDbEntity
  8
0
 62
     0
100
AcDbMText
 10
285.9565822925582
 20
35.15266004105156
 30
0.0
 40
0.15
 41
0.0
 71
     5
 72
     1
  1
\A1;1.40
1001
ACAD
1000
MTEXTBEGIN
1070
    73
1070
     1
1070
    44
1040
1.0
1070
    74
1070
     0
1000
MTEXTEND
  0
POINT
  5
749
330
6FB
100
AcDbEntity
  8
DEFPOINTS
 62
     0
100
AcDbPoint
 10
285.2565822925582
 20
35.80877461559852
 30
0.0
  0
POINT
  5
74A
330
6FB
100
AcDbEntity
  8
DEFPOINTS
 62
     0
100
AcDbPoint
 10
286.6565822925581
 20
35.80877461559852
 30
0.0
  0
POINT
  5
74B
330
6FB
100
AcDbEntity
  8
DEFPOINTS
 62
     0
100
AcDbPoint
 10
286.6565822925581
 20
35.15266004105156
 30
0.0
  0
ENDBLK
  5
707
330
6FB
100
AcDbEntity
  8
0
100
AcDbBlockEnd
  0
BLOCK
  5
714
330
709
100
AcDbEntity
  8
0
100
AcDbBlockBegin
  2
*D21
 70
     1
 10
0.0
 20
0.0
 30
0.0
  3
*D21
  1

  0
LINE
  5
720
330
709
100
AcDbEntity
  8
0
 62
     0
100
AcDbLine
 10
286.6565822925581
 20
36.09627461559852
 30
0.0
 11
286.6565822925581
 21
35.3576738379033
 31
0.0
  0
LINE
  5
721
330
709
100
AcDbEntity
  8
0
 62
     0
100
AcDbLine
 10
287.4565822925582
 20
36.09627461559852
 30
0.0
 11
287.4565822925582
 21
35.3576738379033
 31
0.0
  0
LINE
  5
722
330
709
100
AcDbEntity
  8
0
 62
     0
100
AcDbLine
 10
286.4765822925582
 20
35.53767383790329
 30
0.0
 11
286.2965822925581
 21
35.53767383790329
 31
0.0
  0
LINE
  5
723
330
709
100
AcDbEntity
  8
0
 62
     0
100
AcDbLine
 10
287.6365822925582
 20
35.53767383790329
 30
0.0
 11
287.8165822925582
 21
35.53767383790329
 31
0.0
  0
SOLID
  5
724
330
709
100
AcDbEntity
  8
0
 62
     0
100
AcDbTrace
 10
286.4765822925582
 20
35.56767383790329
 30
0.0
 11
286.4765822925582
 21
35.50767383790329
 31
0.0
 12
286.6565822925581
 22
35.53767383790329
 32
0.0
 13
286.6565822925581
 23
35.53767383790329
 33
0.0
  0
SOLID
  5
725
330
709
100
AcDbEntity
  8
0
 62
     0
100
AcDbTrace
 10
287.6365822925582
 20
35.56767383790329
 30
0.0
 11
287.6365822925582
 21
35.50767383790329
 31
0.0
 12
287.4565822925582
 22
35.53767383790329
 32
0.0
 13
287.4565822925582
 23
35.53767383790329
 33
0.0
  0
MTEXT
  5
726
330
709
100
AcDbEntity
  8
0
 62
     0
100
AcDbMText
 10
287.0860335530502
 20
35.53767383790329
 30
0.0
 40
0.15
 41
0.0
 71
     5
 72
     1
  1
\A1;0.80
1001
ACAD
1000
MTEXTBEGIN
1070
    73
1070
     1
1070
    44
1040
1.0
1070
    74
1070
     0
1000
MTEXTEND
  0
POINT
  5
727
330
709
100
AcDbEntity
  8
DEFPOINTS
 62
     0
100
AcDbPoint
 10
286.6565822925581
 20
36.15877461559852
 30
0.0
  0
POINT
  5
728
330
709
100
AcDbEntity
  8
DEFPOINTS
 62
     0
100
AcDbPoint
 10
287.4565822925582
 20
36.15877461559852
 30
0.0
  0
POINT
  5
729
330
709
100
AcDbEntity
  8
DEFPOINTS
 62
     0
100
AcDbPoint
 10
287.4565822925582
 20
35.53767383790329
 30
0.0
  0
ENDBLK
  5
715
330
709
100
AcDbEntity
  8
0
100
AcDbBlockEnd
  0
BLOCK
  5
736
330
72B
100
AcDbEntity
  8
0
100
AcDbBlockBegin
  2
*D22
 70
     1
 10
0.0
 20
0.0
 30
0.0
  3
*D22
  1

  0
LINE
  5
792
330
72B
100
AcDbEntity
  8
0
 62
     0
100
AcDbLine
 10
284.9565822925582
 20
36.09627461559852
 30
0.0
 11
284.9565822925582
 21
35.38032174899381
 31
0.0
  0
LINE
  5
793
330
72B
100
AcDbEntity
  8
0
 62
     0
100
AcDbLine
 10
285.2565822925582
 20
36.09627461559852
 30
0.0
 11
285.2565822925582
 21
35.38032174899381
 31
0.0
  0
LINE
  5
794
330
72B
100
AcDbEntity
  8
0
 62
     0
100
AcDbLine
 10
285.4365822925582
 20
35.56032174899381
 30
0.0
 11
285.6165822925582
 21
35.56032174899381
 31
0.0
  0
LINE
  5
795
330
72B
100
AcDbEntity
  8
0
 62
     0
100
AcDbLine
 10
284.7765822925582
 20
35.56032174899381
 30
0.0
 11
284.5965822925582
 21
35.56032174899381
 31
0.0
  0
SOLID
  5
796
330
72B
100
AcDbEntity
  8
0
 62
     0
100
AcDbTrace
 10
285.4365822925582
 20
35.59032174899381
 30
0.0
 11
285.4365822925582
 21
35.53032174899381
 31
0.0
 12
285.2565822925582
 22
35.56032174899381
 32
0.0
 13
285.2565822925582
 23
35.56032174899381
 33
0.0
  0
SOLID
  5
797
330
72B
100
AcDbEntity
  8
0
 62
     0
100
AcDbTrace
 10
284.7765822925582
 20
35.59032174899381
 30
0.0
 11
284.7765822925582
 21
35.53032174899381
 31
0.0
 12
284.9565822925582
 22
35.56032174899381
 32
0.0
 13
284.9565822925582
 23
35.56032174899381
 33
0.0
  0
MTEXT
  5
798
330
72B
100
AcDbEntity
  8
0
 62
     0
100
AcDbMText
 10
284.3065822925582
 20
35.56032174899381
 30
0.0
 40
0.15
 41
0.0
 71
     5
 72
     1
  1
\A1;0.30
1001
ACAD
1000
MTEXTBEGIN
1070
    73
1070
     1
1070
    44
1040
1.0
1070
    74
1070
     0
1000
MTEXTEND
  0
POINT
  5
799
330
72B
100
AcDbEntity
  8
DEFPOINTS
 62
     0
100
AcDbPoint
 10
284.9565822925582
 20
36.15877461559852
 30
0.0
  0
POINT
  5
79A
330
72B
100
AcDbEntity
  8
DEFPOINTS
 62
     0
100
AcDbPoint
 10
285.2565822925582
 20
36.15877461559852
 30
0.0
  0
POINT
  5
79B
330
72B
100
AcDbEntity
  8
DEFPOINTS
 62
     0
100
AcDbPoint
 10
285.2565822925582
 20
35.56032174899381
 30
0.0
  0
ENDBLK
  5
737
330
72B
100
AcDbEntity
  8
0
100
AcDbBlockEnd
  0
BLOCK
  5
7A8
330
79D
100
AcDbEntity
  8
0
100
AcDbBlockBegin
  2
*D23
 70
     1
 10
0.0
 20
0.0
 30
0.0
  3
*D23
  1

  0
LINE
  5
7C2
330
79D
100
AcDbEntity
  8
0
 62
     0
100
AcDbLine
 10
286.7190822925582
 20
35.80877461559852
 30
0.0
 11
288.1026288223379
 21
35.80877461559852
 31
0.0
  0
LINE
  5
7C3
330
79D
100
AcDbEntity
  8
0
 62
     0
100
AcDbLine
 10
286.7190822925582
 20
36.15877461559852
 30
0.0
 11
288.1026288223379
 21
36.15877461559852
 31
0.0
  0
LINE
  5
7C4
330
79D
100
AcDbEntity
  8
0
 62
     0
100
AcDbLine
 10
287.9226288223379
 20
35.62877461559852
 30
0.0
 11
287.9226288223379
 21
35.44877461559852
 31
0.0
  0
LINE
  5
7C5
330
79D
100
AcDbEntity
  8
0
 62
     0
100
AcDbLine
 10
287.9226288223379
 20
36.33877461559852
 30
0.0
 11
287.9226288223379
 21
36.51877461559852
 31
0.0
  0
SOLID
  5
7C6
330
79D
100
AcDbEntity
  8
0
 62
     0
100
AcDbTrace
 10
287.892628822338
 20
35.62877461559852
 30
0.0
 11
287.9526288223379
 21
35.62877461559852
 31
0.0
 12
287.9226288223379
 22
35.80877461559852
 32
0.0
 13
287.9226288223379
 23
35.80877461559852
 33
0.0
  0
SOLID
  5
7C7
330
79D
100
AcDbEntity
  8
0
 62
     0
100
AcDbTrace
 10
287.892628822338
 20
36.33877461559852
 30
0.0
 11
287.9526288223379
 21
36.33877461559852
 31
0.0
 12
287.9226288223379
 22
36.15877461559852
 32
0.0
 13
287.9226288223379
 23
36.15877461559852
 33
0.0
  0
MTEXT
  5
7C8
330
79D
100
AcDbEntity
  8
0
 62
     0
100
AcDbMText
 10
287.9226288223379
 20
35.98377461559858
 30
0.0
 40
0.15
 41
0.0
 71
     5
 72
     1
  1
\A1;0.35
1001
ACAD
1000
MTEXTBEGIN
1070
    73
1070
     1
1070
    44
1040
1.0
1070
    74
1070
     0
1000
MTEXTEND
  0
POINT
  5
7C9
330
79D
100
AcDbEntity
  8
DEFPOINTS
 62
     0
100
AcDbPoint
 10
286.6565822925581
 20
35.80877461559852
 30
0.0
  0
POINT
  5
7CA
330
79D
100
AcDbEntity
  8
DEFPOINTS
 62
     0
100
AcDbPoint
 10
286.6565822925581
 20
36.15877461559852
 30
0.0
  0
POINT
  5
7CB
330
79D
100
AcDbEntity
  8
DEFPOINTS
 62
     0
100
AcDbPoint
 10
287.9226288223379
 20
36.15877461559852
 30
0.0
  0
ENDBLK
  5
7A9
330
79D
100
AcDbEntity
  8
0
100
AcDbBlockEnd
  0
BLOCK
  5
7B6
330
7AB
100
AcDbEntity
  8
0
100
AcDbBlockBegin
  2
*D24
 70
     1
 10
0.0
 20
0.0
 30
0.0
  3
*D24
  1

  0
LINE
  5
7EA
330
7AB
100
AcDbEntity
  8
0
 62
     0
100
AcDbLine
 10
286.7190822925582
 20
35.80877461559852
 30
0.0
 11
288.5357933706393
 21
35.80877461559852
 31
0.0
  0
LINE
  5
7EB
330
7AB
100
AcDbEntity
  8
0
 62
     0
100
AcDbLine
 10
287.5190822925582
 20
37.80877461559852
 30
0.0
 11
288.5357933706393
 21
37.80877461559852
 31
0.0
  0
LINE
  5
7EC
330
7AB
100
AcDbEntity
  8
0
 62
     0
100
AcDbLine
 10
288.3557933706393
 20
35.98877461559852
 30
0.0
 11
288.3557933706393
 21
36.75602464227301
 31
0.0
  0
LINE
  5
7ED
330
7AB
100
AcDbEntity
  8
0
 62
     0
100
AcDbLine
 10
288.3557933706393
 20
37.62877461559852
 30
0.0
 11
288.3557933706393
 21
37.08602464227301
 31
0.0
  0
SOLID
  5
7EE
330
7AB
100
AcDbEntity
  8
0
 62
     0
100
AcDbTrace
 10
288.3257933706393
 20
35.98877461559852
 30
0.0
 11
288.3857933706392
 21
35.98877461559852
 31
0.0
 12
288.3557933706393
 22
35.80877461559852
 32
0.0
 13
288.3557933706393
 23
35.80877461559852
 33
0.0
  0
SOLID
  5
7EF
330
7AB
100
AcDbEntity
  8
0
 62
     0
100
AcDbTrace
 10
288.3257933706393
 20
37.62877461559852
 30
0.0
 11
288.3857933706392
 21
37.62877461559852
 31
0.0
 12
288.3557933706393
 22
37.80877461559852
 32
0.0
 13
288.3557933706393
 23
37.80877461559852
 33
0.0
  0
MTEXT
  5
7F0
330
7AB
100
AcDbEntity
  8
0
 62
     0
100
AcDbMText
 10
288.3557933706393
 20
36.92102464227307
 30
0.0
 40
0.15
 41
0.0
 71
     5
 72
     1
  1
\A1;2.00
1001
ACAD
1000
MTEXTBEGIN
1070
    73
1070
     1
1070
    44
1040
1.0
1070
    74
1070
     0
1000
MTEXTEND
  0
POINT
  5
7F1
330
7AB
100
AcDbEntity
  8
DEFPOINTS
 62
     0
100
AcDbPoint
 10
286.6565822925581
 20
35.80877461559852
 30
0.0
  0
POINT
  5
7F2
330
7AB
100
AcDbEntity
  8
DEFPOINTS
 62
     0
100
AcDbPoint
 10
287.4565822925582
 20
37.80877461559852
 30
0.0
  0
POINT
  5
7F3
330
7AB
100
AcDbEntity
  8
DEFPOINTS
 62
     0
100
AcDbPoint
 10
288.3557933706393
 20
37.80877461559852
 30
0.0
  0
ENDBLK
  5
7B7
330
7AB
100
AcDbEntity
  8
0
100
AcDbBlockEnd
  0
ENDSEC
  0
SECTION
  2
ENTITIES
  0
TEXT
  5
2C
330
1E
100
AcDbEntity
  8
0
  6
CONTINUOUS
100
AcDbText
 10
287.1185593216528
 20
41.32981838511393
 30
0.0
 40
0.15
  1
2
  7
ROMANC
100
AcDbText
  0
TEXT
  5
2D
330
1E
100
AcDbEntity
  8
0
  6
CONTINUOUS
100
AcDbText
 10
283.9259999999999
 20
41.768
 30
0.0
 40
0.3
  1
ESCALA  1:50
  7
ROMANC
100
AcDbText
  0
LWPOLYLINE
  5
2E
330
1E
100
AcDbEntity
  8
NO_PRINT
  6
CONTINUOUS
100
AcDbPolyline
 90
        4
 70
     1
 43
0.0
 10
281.3959999999999
 20
44.747
 10
291.8959999999999
 20
44.747
 10
291.8959999999999
 20
29.897
 10
281.3959999999999
 20
29.897
  0
TEXT
  5
34
330
1E
100
AcDbEntity
  8
0
  6
CONTINUOUS
100
AcDbText
 10
283.9259999999999
 20
42.381
 30
0.0
 40
0.3
  1
TIPUS   NT462
  7
ROMANC
100
AcDbText
  0
TEXT
  5
36
330
1E
100
AcDbEntity
  8
0
  6
CONTINUOUS
100
AcDbText
 10
283.922
 20
40.529
 30
0.0
 40
0.3
  1
P = 90 dm
  7
ROMANC
100
AcDbText
  0
TEXT
  5
37
330
1E
100
AcDbEntity
  8
0
  6
CONTINUOUS
100
AcDbText
 10
283.9449999999999
 20
41.09899999999998
 30
0.0
 40
0.3
  1
S = 462 dm
  7
ROMANC
100
AcDbText
  0
LWPOLYLINE
  5
6EB
330
1E
100
AcDbEntity
  8
0
100
AcDbPolyline
 90
        8
 70
     1
 43
0.0
 10
285.2565822925582
 20
35.80877461559852
 10
285.2565822925582
 20
36.15877461559852
 10
284.9565822925582
 20
36.15877461559852
 10
284.9565822925582
 20
37.80877461559852
 10
287.4565822925582
 20
37.80877461559852
 10
287.4565822925582
 20
36.15877461559852
 10
286.6565822925581
 20
36.15877461559852
 10
286.6565822925581
 20
35.80877461559852
  0
DIMENSION
  5
6EC
330
1E
100
AcDbEntity
  8
0
100
AcDbDimension
  2
*D19
 10
287.4565822925582
 20
34.71102651587975
 30
0.0
 11
286.2065822925582
 21
34.71102651587975
 31
0.0
 70
    32
  3
STANDARD
100
AcDbAlignedDimension
 13
284.9565822925582
 23
36.15877461559852
 33
0.0
 14
287.4565822925582
 24
36.15877461559852
 34
0.0
100
AcDbRotatedDimension
  0
DIMENSION
  5
6FA
330
1E
100
AcDbEntity
  8
0
100
AcDbDimension
  2
*D20
 10
286.6565822925581
 20
35.15266004105156
 30
0.0
 11
285.9565822925582
 21
35.15266004105156
 31
0.0
 70
    32
  3
STANDARD
100
AcDbAlignedDimension
 13
285.2565822925582
 23
35.80877461559852
 33
0.0
 14
286.6565822925581
 24
35.80877461559852
 34
0.0
100
AcDbRotatedDimension
  0
DIMENSION
  5
708
330
1E
100
AcDbEntity
  8
0
100
AcDbDimension
  2
*D21
 10
287.4565822925582
 20
35.53767383790329
 30
0.0
 11
287.0860335530502
 21
35.53767383790329
 31
0.0
 70
   160
  3
STANDARD
100
AcDbAlignedDimension
 13
286.6565822925581
 23
36.15877461559852
 33
0.0
 14
287.4565822925582
 24
36.15877461559852
 34
0.0
100
AcDbRotatedDimension
  0
DIMENSION
  5
72A
330
1E
100
AcDbEntity
  8
0
100
AcDbDimension
  2
*D22
 10
285.2565822925582
 20
35.56032174899381
 30
0.0
 11
284.3065822925582
 21
35.56032174899381
 31
0.0
 70
   160
  3
STANDARD
100
AcDbAlignedDimension
 13
284.9565822925582
 23
36.15877461559852
 33
0.0
 14
285.2565822925582
 24
36.15877461559852
 34
0.0
100
AcDbRotatedDimension
  0
DIMENSION
  5
79C
330
1E
100
AcDbEntity
  8
0
100
AcDbDimension
  2
*D23
 10
287.9226288223379
 20
36.15877461559852
 30
0.0
 11
287.9226288223379
 21
35.98377461559858
 31
0.0
 70
   160
  3
STANDARD
100
AcDbAlignedDimension
 13
286.6565822925581
 23
35.80877461559852
 33
0.0
 14
286.6565822925581
 24
36.15877461559852
 34
0.0
 50
90.0
100
AcDbRotatedDimension
  0
DIMENSION
  5
7AA
330
1E
100
AcDbEntity
  8
0
100
AcDbDimension
  2
*D24
 10
288.3557933706393
 20
37.80877461559852
 30
0.0
 11
288.3557933706393
 21
36.92102464227307
 31
0.0
 70
   160
  3
STANDARD
100
AcDbAlignedDimension
 13
286.6565822925581
 23
35.80877461559852
 33
0.0
 14
287.4565822925582
 24
37.80877461559852
 34
0.0
 50
90.0
100
AcDbRotatedDimension
  0
LWPOLYLINE
  5
7F5
330
1E
100
AcDbEntity
  8
0
100
AcDbPolyline
 90
        8
 70
     1
 43
0.0
 10
285.2575822925582
 20
35.80977461559852
 10
285.2575822925582
 20
36.15977461559852
 10
284.9575822925582
 20
36.15977461559852
 10
284.9575822925582
 20
37.80777461559852
 10
287.4555822925582
 20
37.80777461559852
 10
287.4555822925582
 20
36.15977461559852
 10
286.6555822925582
 20
36.15977461559852
 10
286.6555822925582
 20
35.80977461559852
  0
LWPOLYLINE
  5
7F6
330
1E
100
AcDbEntity
  8
0
100
AcDbPolyline
 90
        8
 70
     1
 43
0.0
 10
285.2555822925582
 20
35.80777461559852
 10
285.2555822925582
 20
36.15777461559853
 10
284.9555822925582
 20
36.15777461559853
 10
284.9555822925582
 20
37.80977461559852
 10
287.4575822925582
 20
37.80977461559852
 10
287.4575822925582
 20
36.15777461559853
 10
286.6575822925581
 20
36.15777461559853
 10
286.6575822925581
 20
35.80777461559852
  0
ENDSEC
  0
SECTION
  2
OBJECTS
  0
DICTIONARY
  5
C
330
0
100
AcDbDictionary
  3
ACAD_GROUP
350
D
  3
ACAD_LAYOUT
350
19
  3
ACAD_MLINESTYLE
350
16
  3
ACAD_PLOTSETTINGS
350
18
  3
ACAD_PLOTSTYLENAME
350
E
  3
ACDBHEADERROUNDTRIPXREC
350
7F9
  3
ACDBVARIABLEDICTIONARY
350
6E
  3
DWGPROPS
350
271
  0
DICTIONARY
  5
39D
330
1E
100
AcDbDictionary
280
     1
  3
ACAD_LAYOUTSELFREF
360
81A
  0
DICTIONARY
  5
39F
330
1A
100
AcDbDictionary
280
     1
  3
ACAD_LAYOUTSELFREF
360
819
  0
DICTIONARY
  5
D
102
{ACAD_REACTORS
330
C
102
}
330
C
100
AcDbDictionary
  0
DICTIONARY
  5
19
102
{ACAD_REACTORS
330
C
102
}
330
C
100
AcDbDictionary
  0
DICTIONARY
  5
16
102
{ACAD_REACTORS
330
C
102
}
330
C
100
AcDbDictionary
  3
STANDARD
350
17
  0
DICTIONARY
  5
18
102
{ACAD_REACTORS
330
C
102
}
330
C
100
AcDbDictionary
  0
ACDBDICTIONARYWDFLT
  5
E
102
{ACAD_REACTORS
330
C
102
}
330
C
100
AcDbDictionary
281
     1
  3
Normal
350
F
100
AcDbDictionaryWithDefault
340
F
  0
DICTIONARY
  5
7F9
102
{ACAD_REACTORS
330
C
102
}
330
C
100
AcDbDictionary
  3
CEPSNTYPE
350
803
  3
FINGERPRINTGUID
350
804
  3
HYPERLINKBASE
350
7FC
  3
INSUNITS
350
802
  3
LAYOUTDICT
350
7FE
  3
LWETCUNION
350
801
  3
PLOTSETDICT
350
7FF
  3
PLOTSTYLNAMDICT
350
800
  3
PSVPSCALE
350
806
  3
PUCSBASE
350
809
  3
PUCSORGBACK
350
80F
  3
PUCSORGBOTTOM
350
80B
  3
PUCSORGFRONT
350
80E
  3
PUCSORGLEFT
350
80C
  3
PUCSORGRIGHT
350
80D
  3
PUCSORGTOP
350
80A
  3
PUCSORTHOREF
350
807
  3
PUCSORTHOVIEW
350
808
  3
STYLESHEET
350
7FD
  3
TSTACKALIGN
350
7FA
  3
TSTACKSIZE
350
7FB
  3
UCSBASE
350
812
  3
UCSORGBACK
350
818
  3
UCSORGBOTTOM
350
814
  3
UCSORGFRONT
350
817
  3
UCSORGLEFT
350
815
  3
UCSORGRIGHT
350
816
  3
UCSORGTOP
350
813
  3
UCSORTHOREF
350
810
  3
UCSORTHOVIEW
350
811
  3
VERSIONGUID
350
805
  0
DICTIONARY
  5
6E
102
{ACAD_REACTORS
330
C
102
}
330
C
100
AcDbDictionary
  3
DIMASSOC
350
6F
  0
XRECORD
  5
271
102
{ACAD_REACTORS
330
C
102
}
330
C
100
AcDbXrecord
  1
DWGPROPS COOKIE
  2

  3

  4

  6

  7

  8
JaumeTrias
  9

300
=
301
=
302
=
303
=
304
=
305
=
306
=
307
=
308
=
309
=
 40
0.0195228587962963
 41
2448315.331741435
 42
2452943.48254824
  1

 90
        0
  0
XRECORD
  5
81A
102
{ACAD_REACTORS
330
39D
102
}
330
39D
100
AcDbXrecord
340
1E
  0
XRECORD
  5
819
102
{ACAD_REACTORS
330
39F
102
}
330
39F
100
AcDbXrecord
340
1A
  0
MLINESTYLE
  5
17
102
{ACAD_REACTORS
330
16
102
}
330
16
100
AcDbMlineStyle
  2
STANDARD
 70
     0
  3

 62
   256
 51
90.0
 52
90.0
 71
     2
 49
0.5
 62
   256
  6
BYLAYER
 49
-0.5
 62
   256
  6
BYLAYER
  0
ACDBPLACEHOLDER
  5
F
102
{ACAD_REACTORS
330
E
102
}
330
E
100
AcDbPlaceHolder
280
     0
  0
XRECORD
  5
803
102
{ACAD_REACTORS
330
7F9
102
}
330
7F9
100
AcDbXrecord
 90
        0
  0
XRECORD
  5
804
102
{ACAD_REACTORS
330
7F9
102
}
330
7F9
100
AcDbXrecord
  1
{A6FCFFB5-5CE9-42DC-A06F-C5476E26D97B}
  0
XRECORD
  5
7FC
102
{ACAD_REACTORS
330
7F9
102
}
330
7F9
100
AcDbXrecord
  1

  0
XRECORD
  5
802
102
{ACAD_REACTORS
330
7F9
102
}
330
7F9
100
AcDbXrecord
 90
        0
  0
XRECORD
  5
7FE
102
{ACAD_REACTORS
330
7F9
102
}
330
7F9
100
AcDbXrecord
340
19
  0
XRECORD
  5
801
102
{ACAD_REACTORS
330
7F9
102
}
330
7F9
100
AcDbXrecord
 90
    10781
  0
XRECORD
  5
7FF
102
{ACAD_REACTORS
330
7F9
102
}
330
7F9
100
AcDbXrecord
340
18
  0
XRECORD
  5
800
102
{ACAD_REACTORS
330
7F9
102
}
330
7F9
100
AcDbXrecord
340
E
  0
XRECORD
  5
806
102
{ACAD_REACTORS
330
7F9
102
}
330
7F9
100
AcDbXrecord
 40
0.0
  0
XRECORD
  5
809
102
{ACAD_REACTORS
330
7F9
102
}
330
7F9
100
AcDbXrecord
340
0
  0
XRECORD
  5
80F
102
{ACAD_REACTORS
330
7F9
102
}
330
7F9
100
AcDbXrecord
 10
0.0
 20
0.0
 30
0.0
  0
XRECORD
  5
80B
102
{ACAD_REACTORS
330
7F9
102
}
330
7F9
100
AcDbXrecord
 10
0.0
 20
0.0
 30
0.0
  0
XRECORD
  5
80E
102
{ACAD_REACTORS
330
7F9
102
}
330
7F9
100
AcDbXrecord
 10
0.0
 20
0.0
 30
0.0
  0
XRECORD
  5
80C
102
{ACAD_REACTORS
330
7F9
102
}
330
7F9
100
AcDbXrecord
 10
0.0
 20
0.0
 30
0.0
  0
XRECORD
  5
80D
102
{ACAD_REACTORS
330
7F9
102
}
330
7F9
100
AcDbXrecord
 10
0.0
 20
0.0
 30
0.0
  0
XRECORD
  5
80A
102
{ACAD_REACTORS
330
7F9
102
}
330
7F9
100
AcDbXrecord
 10
0.0
 20
0.0
 30
0.0
  0
XRECORD
  5
807
102
{ACAD_REACTORS
330
7F9
102
}
330
7F9
100
AcDbXrecord
340
0
  0
XRECORD
  5
808
102
{ACAD_REACTORS
330
7F9
102
}
330
7F9
100
AcDbXrecord
 70
     0
  0
XRECORD
  5
7FD
102
{ACAD_REACTORS
330
7F9
102
}
330
7F9
100
AcDbXrecord
  1

  0
XRECORD
  5
7FA
102
{ACAD_REACTORS
330
7F9
102
}
330
7F9
100
AcDbXrecord
 90
        1
  0
XRECORD
  5
7FB
102
{ACAD_REACTORS
330
7F9
102
}
330
7F9
100
AcDbXrecord
 90
       70
  0
XRECORD
  5
812
102
{ACAD_REACTORS
330
7F9
102
}
330
7F9
100
AcDbXrecord
340
0
  0
XRECORD
  5
818
102
{ACAD_REACTORS
330
7F9
102
}
330
7F9
100
AcDbXrecord
 10
0.0
 20
0.0
 30
0.0
  0
XRECORD
  5
814
102
{ACAD_REACTORS
330
7F9
102
}
330
7F9
100
AcDbXrecord
 10
0.0
 20
0.0
 30
0.0
  0
XRECORD
  5
817
102
{ACAD_REACTORS
330
7F9
102
}
330
7F9
100
AcDbXrecord
 10
0.0
 20
0.0
 30
0.0
  0
XRECORD
  5
815
102
{ACAD_REACTORS
330
7F9
102
}
330
7F9
100
AcDbXrecord
 10
0.0
 20
0.0
 30
0.0
  0
XRECORD
  5
816
102
{ACAD_REACTORS
330
7F9
102
}
330
7F9
100
AcDbXrecord
 10
0.0
 20
0.0
 30
0.0
  0
XRECORD
  5
813
102
{ACAD_REACTORS
330
7F9
102
}
330
7F9
100
AcDbXrecord
 10
0.0
 20
0.0
 30
0.0
  0
XRECORD
  5
810
102
{ACAD_REACTORS
330
7F9
102
}
330
7F9
100
AcDbXrecord
340
0
  0
XRECORD
  5
811
102
{ACAD_REACTORS
330
7F9
102
}
330
7F9
100
AcDbXrecord
 70
     0
  0
XRECORD
  5
805
102
{ACAD_REACTORS
330
7F9
102
}
330
7F9
100
AcDbXrecord
  1
{FC168330-8900-455E-855F-AFAE21EE10D9}
  0
DICTIONARYVAR
  5
6F
102
{ACAD_REACTORS
330
6E
102
}
330
6E
100
DictionaryVariables
280
     0
  1
1
  0
ENDSEC
  0
EOF
