  0
SECTION
  2
HEADER
  9
$ACADVER
  1
AC1014
  9
$ACADMAINTVER
 70
     9
  9
$DWGCODEPAGE
  3
ANSI_1252
  9
$INSBASE
 10
0.0
 20
0.0
 30
0.0
  9
$EXTMIN
 10
281.3959999999999
 20
29.897
 30
0.0
  9
$EXTMAX
 10
291.8959999999999
 20
44.747
 30
0.0
  9
$LIMMIN
 10
280.3959999999999
 20
28.89699999999999
  9
$LIMMAX
 10
292.8959999999999
 20
43.74699999999999
  9
$ORTHOMODE
 70
     1
  9
$REGENMODE
 70
     1
  9
$FILLMODE
 70
     1
  9
$QTEXTMODE
 70
     0
  9
$MIRRTEXT
 70
     1
  9
$DRAGMODE
 70
     2
  9
$LTSCALE
 40
1.0
  9
$OSMODE
 70
     5
  9
$ATTMODE
 70
     1
  9
$TEXTSIZE
 40
0.2
  9
$TRACEWID
 40
0.05
  9
$TEXTSTYLE
  7
STANDARD
  9
$CLAYER
  8
0
  9
$CELTYPE
  6
BYLAYER
  9
$CECOLOR
 62
   256
  9
$CELTSCALE
 40
1.0
  9
$DELOBJ
 70
     1
  9
$DISPSILH
 70
     0
  9
$DIMSCALE
 40
1.0
  9
$DIMASZ
 40
0.18
  9
$DIMEXO
 40
0.0625
  9
$DIMDLI
 40
0.38
  9
$DIMRND
 40
0.0
  9
$DIMDLE
 40
0.0
  9
$DIMEXE
 40
0.18
  9
$DIMTP
 40
0.0
  9
$DIMTM
 40
0.0
  9
$DIMTXT
 40
0.18
  9
$DIMCEN
 40
0.09
  9
$DIMTSZ
 40
0.0
  9
$DIMTOL
 70
     0
  9
$DIMLIM
 70
     0
  9
$DIMTIH
 70
     1
  9
$DIMTOH
 70
     1
  9
$DIMSE1
 70
     0
  9
$DIMSE2
 70
     0
  9
$DIMTAD
 70
     0
  9
$DIMZIN
 70
     0
  9
$DIMBLK
  1

  9
$DIMASO
 70
     1
  9
$DIMSHO
 70
     1
  9
$DIMPOST
  1

  9
$DIMAPOST
  1

  9
$DIMALT
 70
     0
  9
$DIMALTD
 70
     2
  9
$DIMALTF
 40
25.4
  9
$DIMLFAC
 40
1.0
  9
$DIMTOFL
 70
     0
  9
$DIMTVP
 40
0.0
  9
$DIMTIX
 70
     0
  9
$DIMSOXD
 70
     0
  9
$DIMSAH
 70
     0
  9
$DIMBLK1
  1

  9
$DIMBLK2
  1

  9
$DIMSTYLE
  2
STANDARD
  9
$DIMCLRD
 70
     0
  9
$DIMCLRE
 70
     0
  9
$DIMCLRT
 70
     0
  9
$DIMTFAC
 40
1.0
  9
$DIMGAP
 40
0.09
  9
$DIMJUST
 70
     0
  9
$DIMSD1
 70
     0
  9
$DIMSD2
 70
     0
  9
$DIMTOLJ
 70
     1
  9
$DIMTZIN
 70
     0
  9
$DIMALTZ
 70
     0
  9
$DIMALTTZ
 70
     0
  9
$DIMFIT
 70
     3
  9
$DIMUPT
 70
     0
  9
$DIMUNIT
 70
     2
  9
$DIMDEC
 70
     4
  9
$DIMTDEC
 70
     4
  9
$DIMALTU
 70
     2
  9
$DIMALTTD
 70
     2
  9
$DIMTXSTY
  7
STANDARD
  9
$DIMAUNIT
 70
     0
  9
$LUNITS
 70
     2
  9
$LUPREC
 70
     4
  9
$SKETCHINC
 40
0.1
  9
$FILLETRAD
 40
0.0
  9
$AUNITS
 70
     0
  9
$AUPREC
 70
     0
  9
$MENU
  1
acad
  9
$ELEVATION
 40
0.0
  9
$PELEVATION
 40
0.0
  9
$THICKNESS
 40
0.0
  9
$LIMCHECK
 70
     0
  9
$BLIPMODE
 70
     0
  9
$CHAMFERA
 40
0.0
  9
$CHAMFERB
 40
0.0
  9
$CHAMFERC
 40
0.0
  9
$CHAMFERD
 40
0.0
  9
$SKPOLY
 70
     0
  9
$TDCREATE
 40
2448315.373408102
  9
$TDUPDATE
 40
2451717.731626933
  9
$TDINDWG
 40
0.0131893287
  9
$TDUSRTIMER
 40
0.0131853935
  9
$USRTIMER
 70
     1
  9
$ANGBASE
 50
0.0
  9
$ANGDIR
 70
     0
  9
$PDMODE
 70
     0
  9
$PDSIZE
 40
0.0
  9
$PLINEWID
 40
0.0
  9
$COORDS
 70
     0
  9
$SPLFRAME
 70
     0
  9
$SPLINETYPE
 70
     6
  9
$SPLINESEGS
 70
     8
  9
$ATTDIA
 70
     0
  9
$ATTREQ
 70
     1
  9
$HANDLING
 70
  4097
  9
$HANDSEED
  5
130
  9
$SURFTAB1
 70
     6
  9
$SURFTAB2
 70
     6
  9
$SURFTYPE
 70
     6
  9
$SURFU
 70
     6
  9
$SURFV
 70
     6
  9
$UCSNAME
  2

  9
$UCSORG
 10
0.0
 20
0.0
 30
0.0
  9
$UCSXDIR
 10
1.0
 20
0.0
 30
0.0
  9
$UCSYDIR
 10
0.0
 20
1.0
 30
0.0
  9
$PUCSNAME
  2

  9
$PUCSORG
 10
0.0
 20
0.0
 30
0.0
  9
$PUCSXDIR
 10
1.0
 20
0.0
 30
0.0
  9
$PUCSYDIR
 10
0.0
 20
1.0
 30
0.0
  9
$USERI1
 70
     0
  9
$USERI2
 70
     0
  9
$USERI3
 70
     0
  9
$USERI4
 70
     0
  9
$USERI5
 70
     0
  9
$USERR1
 40
0.0
  9
$USERR2
 40
0.0
  9
$USERR3
 40
0.0
  9
$USERR4
 40
0.0
  9
$USERR5
 40
0.0
  9
$WORLDVIEW
 70
     1
  9
$SHADEDGE
 70
     3
  9
$SHADEDIF
 70
    70
  9
$TILEMODE
 70
     1
  9
$MAXACTVP
 70
    16
  9
$PINSBASE
 10
0.0
 20
0.0
 30
0.0
  9
$PLIMCHECK
 70
     0
  9
$PEXTMIN
 10
1.000000000000000E+20
 20
1.000000000000000E+20
 30
1.000000000000000E+20
  9
$PEXTMAX
 10
-1.000000000000000E+20
 20
-1.000000000000000E+20
 30
-1.000000000000000E+20
  9
$PLIMMIN
 10
0.0
 20
0.0
  9
$PLIMMAX
 10
12.0
 20
9.0
  9
$UNITMODE
 70
     0
  9
$VISRETAIN
 70
     0
  9
$PLINEGEN
 70
     0
  9
$PSLTSCALE
 70
     1
  9
$TREEDEPTH
 70
  3020
  9
$PICKSTYLE
 70
     1
  9
$CMLSTYLE
  2
STANDARD
  9
$CMLJUST
 70
     0
  9
$CMLSCALE
 40
1.0
  9
$PROXYGRAPHICS
 70
     1
  9
$MEASUREMENT
 70
     0
  0
ENDSEC
  0
SECTION
  2
CLASSES
  0
CLASS
  1
ACDBDICTIONARYWDFLT
  2
AcDbDictionaryWithDefault
  3
AutoCAD 2000
 90
        0
280
     0
281
     0
  0
CLASS
  1
ACDBPLACEHOLDER
  2
AcDbPlaceHolder
  3
AutoCAD 2000
 90
        0
280
     0
281
     0
  0
CLASS
  1
LAYOUT
  2
AcDbLayout
  3
AutoCAD 2000
 90
        0
280
     0
281
     0
  0
CLASS
  1
LONG_TRANSACTION
  2
AcDbLongTransaction
  3
AutoCAD 2000
 90
        0
280
     0
281
     0
  0
CLASS
  1
LWPOLYLINE
  2
AcDbPolyline
  3
AutoCAD 2000
 90
        0
280
     0
281
     1
  0
CLASS
  1
HATCH
  2
AcDbHatch
  3
AutoCAD 2000
 90
        0
280
     0
281
     1
  0
CLASS
  1
XRECORD
  2
AcDbXrecord
  3
AutoCAD 2000
 90
        0
280
     0
281
     0
  0
ENDSEC
  0
SECTION
  2
TABLES
  0
TABLE
  2
VPORT
  5
8
330
0
100
AcDbSymbolTable
 70
     3
  0
VPORT
  5
10B
330
8
100
AcDbSymbolTableRecord
100
AcDbViewportTableRecord
  2
*ACTIVE
 70
     0
 10
0.0
 20
0.0
 11
1.0
 21
1.0
 12
286.6911907459074
 22
37.27550961349486
 13
0.0
 23
0.0
 14
1.0
 24
1.0
 15
0.0
 25
0.0
 16
0.0
 26
0.0
 36
1.0
 17
0.0
 27
0.0
 37
0.0
 40
15.28150080316349
 41
1.281582952815829
 42
50.0
 43
0.0
 44
0.0
 50
0.0
 51
0.0
 71
     0
 72
   100
 73
     1
 74
     1
 75
     0
 76
     0
 77
     0
 78
     0
  0
ENDTAB
  0
TABLE
  2
LTYPE
  5
5
330
0
100
AcDbSymbolTable
 70
     1
  0
LTYPE
  5
13
330
5
100
AcDbSymbolTableRecord
100
AcDbLinetypeTableRecord
  2
BYBLOCK
 70
     0
  3

 72
    65
 73
     0
 40
0.0
  0
LTYPE
  5
14
330
5
100
AcDbSymbolTableRecord
100
AcDbLinetypeTableRecord
  2
BYLAYER
 70
     0
  3

 72
    65
 73
     0
 40
0.0
  0
LTYPE
  5
15
330
5
100
AcDbSymbolTableRecord
100
AcDbLinetypeTableRecord
  2
CONTINUOUS
 70
     0
  3
Solid line
 72
    65
 73
     0
 40
0.0
  0
ENDTAB
  0
TABLE
  2
LAYER
  5
2
330
0
100
AcDbSymbolTable
 70
     8
  0
LAYER
  5
10
330
2
100
AcDbSymbolTableRecord
100
AcDbLayerTableRecord
  2
0
 70
     0
 62
     7
  6
CONTINUOUS
  0
LAYER
  5
22
330
2
100
AcDbSymbolTableRecord
100
AcDbLayerTableRecord
  2
1
 70
     0
 62
     7
  6
CONTINUOUS
  0
LAYER
  5
23
330
2
100
AcDbSymbolTableRecord
100
AcDbLayerTableRecord
  2
7
 70
     0
 62
     7
  6
CONTINUOUS
  0
LAYER
  5
24
330
2
100
AcDbSymbolTableRecord
100
AcDbLayerTableRecord
  2
8
 70
     0
 62
     7
  6
CONTINUOUS
  0
LAYER
  5
25
330
2
100
AcDbSymbolTableRecord
100
AcDbLayerTableRecord
  2
9
 70
     0
 62
     7
  6
CONTINUOUS
  0
LAYER
  5
26
330
2
100
AcDbSymbolTableRecord
100
AcDbLayerTableRecord
  2
22
 70
     0
 62
     7
  6
CONTINUOUS
  0
LAYER
  5
27
330
2
100
AcDbSymbolTableRecord
100
AcDbLayerTableRecord
  2
25
 70
     0
 62
     7
  6
CONTINUOUS
  0
LAYER
  5
7F
330
2
100
AcDbSymbolTableRecord
100
AcDbLayerTableRecord
  2
DEFPOINTS
 70
     0
 62
     7
  6
CONTINUOUS
  0
ENDTAB
  0
TABLE
  2
STYLE
  5
3
330
0
100
AcDbSymbolTable
 70
     2
  0
STYLE
  5
11
330
3
100
AcDbSymbolTableRecord
100
AcDbTextStyleTableRecord
  2
STANDARD
 70
     0
 40
0.0
 41
1.0
 50
0.0
 71
     0
 42
0.2
  3
txt
  4

  0
STYLE
  5
28
330
3
100
AcDbSymbolTableRecord
100
AcDbTextStyleTableRecord
  2
ROMANC
 70
     0
 40
0.0
 41
1.0
 50
0.0
 71
     0
 42
0.2
  3
ROMANC
  4

  0
ENDTAB
  0
TABLE
  2
VIEW
  5
6
330
0
100
AcDbSymbolTable
 70
     0
  0
ENDTAB
  0
TABLE
  2
UCS
  5
7
330
0
100
AcDbSymbolTable
 70
     0
  0
ENDTAB
  0
TABLE
  2
APPID
  5
9
330
0
100
AcDbSymbolTable
 70
     1
  0
APPID
  5
12
330
9
100
AcDbSymbolTableRecord
100
AcDbRegAppTableRecord
  2
ACAD
 70
     0
  0
ENDTAB
  0
TABLE
  2
DIMSTYLE
  5
A
330
0
100
AcDbSymbolTable
 70
     1
  0
DIMSTYLE
105
7A
102
{ACAD_REACTORS
330
8D
330
7E
330
BB
330
C9
330
E1
330
EF
330
FD
102
}
330
A
100
AcDbSymbolTableRecord
100
AcDbDimStyleTableRecord
  2
STANDARD
 70
     0
  3

  4

  5

  6

  7

 40
1.0
 41
0.18
 42
0.0625
 43
0.38
 44
0.18
 45
0.0
 46
0.0
 47
0.0
 48
0.0
140
0.18
141
0.09
142
0.0
143
25.4
144
1.0
145
0.0
146
1.0
147
0.09
 71
     0
 72
     0
 73
     1
 74
     1
 75
     0
 76
     0
 77
     0
 78
     0
170
     0
171
     2
172
     0
173
     0
174
     0
175
     0
176
     0
177
     0
178
     0
270
     2
271
     4
272
     4
273
     2
274
     2
340
11
275
     0
280
     0
281
     0
282
     0
283
     1
284
     0
285
     0
286
     0
287
     3
288
     0
  0
ENDTAB
  0
TABLE
  2
BLOCK_RECORD
  5
1
330
0
100
AcDbSymbolTable
 70
     7
  0
BLOCK_RECORD
  5
1E
102
{ACAD_XDICTIONARY
360
12E
102
}
330
1
100
AcDbSymbolTableRecord
100
AcDbBlockTableRecord
  2
*MODEL_SPACE
  0
BLOCK_RECORD
  5
1A
102
{ACAD_XDICTIONARY
360
12C
102
}
330
1
100
AcDbSymbolTableRecord
100
AcDbBlockTableRecord
  2
*PAPER_SPACE
  0
BLOCK_RECORD
  5
80
330
1
100
AcDbSymbolTableRecord
100
AcDbBlockTableRecord
  2
*D0
  0
BLOCK_RECORD
  5
8E
330
1
100
AcDbSymbolTableRecord
100
AcDbBlockTableRecord
  2
*D1
  0
BLOCK_RECORD
  5
BC
330
1
100
AcDbSymbolTableRecord
100
AcDbBlockTableRecord
  2
*D2
  0
BLOCK_RECORD
  5
CA
330
1
100
AcDbSymbolTableRecord
100
AcDbBlockTableRecord
  2
*D3
  0
BLOCK_RECORD
  5
E2
330
1
100
AcDbSymbolTableRecord
100
AcDbBlockTableRecord
  2
*D4
  0
BLOCK_RECORD
  5
F0
330
1
100
AcDbSymbolTableRecord
100
AcDbBlockTableRecord
  2
*D5
  0
BLOCK_RECORD
  5
FE
330
1
100
AcDbSymbolTableRecord
100
AcDbBlockTableRecord
  2
*D6
  0
ENDTAB
  0
ENDSEC
  0
SECTION
  2
BLOCKS
  0
BLOCK
  5
1F
330
1E
100
AcDbEntity
  8
0
100
AcDbBlockBegin
  2
*MODEL_SPACE
 70
     0
 10
0.0
 20
0.0
 30
0.0
  3
*MODEL_SPACE
  1

  0
ENDBLK
  5
20
330
1E
100
AcDbEntity
  8
0
100
AcDbBlockEnd
  0
BLOCK
  5
1B
330
1A
100
AcDbEntity
 67
     1
  8
0
100
AcDbBlockBegin
  2
*PAPER_SPACE
 70
     0
 10
0.0
 20
0.0
 30
0.0
  3
*PAPER_SPACE
  1

  0
ENDBLK
  5
1C
330
1A
100
AcDbEntity
 67
     1
  8
0
100
AcDbBlockEnd
  0
BLOCK
  5
8B
330
80
100
AcDbEntity
  8
0
100
AcDbBlockBegin
  2
*D0
 70
     1
 10
0.0
 20
0.0
 30
0.0
  3
*D0
  1

  0
LINE
  5
81
330
80
100
AcDbEntity
  8
0
 62
     0
100
AcDbLine
 10
288.468330118302
 20
37.02479861674854
 30
0.0
 11
289.3571735716714
 21
37.02479861674854
 31
0.0
  0
LINE
  5
82
330
80
100
AcDbEntity
  8
0
 62
     0
100
AcDbLine
 10
288.468330118302
 20
33.22479861674855
 30
0.0
 11
289.3571735716714
 21
33.22479861674855
 31
0.0
  0
LINE
  5
83
330
80
100
AcDbEntity
  8
0
 62
     0
100
AcDbLine
 10
289.1771735716714
 20
36.84479861674855
 30
0.0
 11
289.1771735716714
 21
35.30479861674855
 31
0.0
  0
LINE
  5
84
330
80
100
AcDbEntity
  8
0
 62
     0
100
AcDbLine
 10
289.1771735716714
 20
33.40479861674856
 30
0.0
 11
289.1771735716714
 21
34.94479861674856
 31
0.0
  0
SOLID
  5
85
330
80
100
AcDbEntity
  8
0
 62
     0
100
AcDbTrace
 10
289.1471735716716
 20
36.84479861674855
 30
0.0
 11
289.2071735716715
 21
36.84479861674855
 31
0.0
 12
289.1771735716714
 22
37.02479861674854
 32
0.0
 13
289.1771735716714
 23
37.02479861674854
 33
0.0
  0
SOLID
  5
86
330
80
100
AcDbEntity
  8
0
 62
     0
100
AcDbTrace
 10
289.1471735716716
 20
33.40479861674856
 30
0.0
 11
289.2071735716715
 21
33.40479861674856
 31
0.0
 12
289.1771735716714
 22
33.22479861674855
 32
0.0
 13
289.1771735716714
 23
33.22479861674855
 33
0.0
  0
MTEXT
  5
87
330
80
100
AcDbEntity
  8
0
 62
     0
100
AcDbMText
 10
289.1771735716714
 20
35.1247986167486
 30
0.0
 40
0.18
 41
0.0
 71
     5
 72
     1
  1
\A1;3.8000
1001
ACAD
1000
MTEXTBEGIN
1070
    73
1070
     1
1070
    44
1040
1.0
1070
    74
1070
     0
1000
MTEXTEND
  0
POINT
  5
88
330
80
100
AcDbEntity
  8
DEFPOINTS
 62
     0
100
AcDbPoint
 10
288.4058301183021
 20
37.02479861674854
 30
0.0
  0
POINT
  5
89
330
80
100
AcDbEntity
  8
DEFPOINTS
 62
     0
100
AcDbPoint
 10
288.4058301183021
 20
33.22479861674855
 30
0.0
  0
POINT
  5
8A
330
80
100
AcDbEntity
  8
DEFPOINTS
 62
     0
100
AcDbPoint
 10
289.1771735716714
 20
33.22479861674855
 30
0.0
  0
ENDBLK
  5
8C
330
80
100
AcDbEntity
  8
0
100
AcDbBlockEnd
  0
BLOCK
  5
99
330
8E
100
AcDbEntity
  8
0
100
AcDbBlockBegin
  2
*D1
 70
     1
 10
0.0
 20
0.0
 30
0.0
  3
*D1
  1

  0
LINE
  5
8F
330
8E
100
AcDbEntity
  8
0
 62
     0
100
AcDbLine
 10
283.9058301183021
 20
33.16229861674855
 30
0.0
 11
283.9058301183021
 21
32.34838586963878
 31
0.0
  0
LINE
  5
90
330
8E
100
AcDbEntity
  8
0
 62
     0
100
AcDbLine
 10
288.4058301183021
 20
33.16229861674855
 30
0.0
 11
288.4058301183021
 21
32.34838586963878
 31
0.0
  0
LINE
  5
91
330
8E
100
AcDbEntity
  8
0
 62
     0
100
AcDbLine
 10
284.085830118302
 20
32.52838586963878
 30
0.0
 11
285.6608301183021
 21
32.52838586963878
 31
0.0
  0
LINE
  5
92
330
8E
100
AcDbEntity
  8
0
 62
     0
100
AcDbLine
 10
288.225830118302
 20
32.52838586963878
 30
0.0
 11
286.6508301183021
 21
32.52838586963878
 31
0.0
  0
SOLID
  5
93
330
8E
100
AcDbEntity
  8
0
 62
     0
100
AcDbTrace
 10
284.085830118302
 20
32.55838586963878
 30
0.0
 11
284.085830118302
 21
32.49838586963878
 31
0.0
 12
283.9058301183021
 22
32.52838586963878
 32
0.0
 13
283.9058301183021
 23
32.52838586963878
 33
0.0
  0
SOLID
  5
94
330
8E
100
AcDbEntity
  8
0
 62
     0
100
AcDbTrace
 10
288.225830118302
 20
32.55838586963878
 30
0.0
 11
288.225830118302
 21
32.49838586963878
 31
0.0
 12
288.4058301183021
 22
32.52838586963878
 32
0.0
 13
288.4058301183021
 23
32.52838586963878
 33
0.0
  0
MTEXT
  5
95
330
8E
100
AcDbEntity
  8
0
 62
     0
100
AcDbMText
 10
286.1558301183021
 20
32.52838586963878
 30
0.0
 40
0.18
 41
0.0
 71
     5
 72
     1
  1
\A1;4.5000
1001
ACAD
1000
MTEXTBEGIN
1070
    73
1070
     1
1070
    44
1040
1.0
1070
    74
1070
     0
1000
MTEXTEND
  0
POINT
  5
96
330
8E
100
AcDbEntity
  8
DEFPOINTS
 62
     0
100
AcDbPoint
 10
283.9058301183021
 20
33.22479861674855
 30
0.0
  0
POINT
  5
97
330
8E
100
AcDbEntity
  8
DEFPOINTS
 62
     0
100
AcDbPoint
 10
288.4058301183021
 20
33.22479861674855
 30
0.0
  0
POINT
  5
98
330
8E
100
AcDbEntity
  8
DEFPOINTS
 62
     0
100
AcDbPoint
 10
288.4058301183021
 20
32.52838586963878
 30
0.0
  0
ENDBLK
  5
9A
330
8E
100
AcDbEntity
  8
0
100
AcDbBlockEnd
  0
BLOCK
  5
C7
330
BC
100
AcDbEntity
  8
0
100
AcDbBlockBegin
  2
*D2
 70
     1
 10
0.0
 20
0.0
 30
0.0
  3
*D2
  1

  0
LINE
  5
D7
330
BC
100
AcDbEntity
  8
0
 62
     0
100
AcDbLine
 10
286.8027030490703
 20
33.89639353514403
 30
0.0
 11
288.4741934088468
 21
33.89639353514403
 31
0.0
  0
LINE
  5
D8
330
BC
100
AcDbEntity
  8
0
 62
     0
100
AcDbLine
 10
286.4277030490703
 20
36.64639353514407
 30
0.0
 11
288.4741934088468
 21
36.64639353514407
 31
0.0
  0
LINE
  5
D9
330
BC
100
AcDbEntity
  8
0
 62
     0
100
AcDbLine
 10
288.2941934088468
 20
34.07639353514403
 30
0.0
 11
288.2941934088468
 21
35.09139353514405
 31
0.0
  0
LINE
  5
DA
330
BC
100
AcDbEntity
  8
0
 62
     0
100
AcDbLine
 10
288.2941934088468
 20
36.46639353514407
 30
0.0
 11
288.2941934088468
 21
35.45139353514405
 31
0.0
  0
SOLID
  5
DB
330
BC
100
AcDbEntity
  8
0
 62
     0
100
AcDbTrace
 10
288.2641934088468
 20
34.07639353514403
 30
0.0
 11
288.3241934088468
 21
34.07639353514403
 31
0.0
 12
288.2941934088468
 22
33.89639353514403
 32
0.0
 13
288.2941934088468
 23
33.89639353514403
 33
0.0
  0
SOLID
  5
DC
330
BC
100
AcDbEntity
  8
0
 62
     0
100
AcDbTrace
 10
288.2641934088468
 20
36.46639353514407
 30
0.0
 11
288.3241934088468
 21
36.46639353514407
 31
0.0
 12
288.2941934088468
 22
36.64639353514407
 32
0.0
 13
288.2941934088468
 23
36.64639353514407
 33
0.0
  0
MTEXT
  5
DD
330
BC
100
AcDbEntity
  8
0
 62
     0
100
AcDbMText
 10
288.2941934088468
 20
35.2713935351441
 30
0.0
 40
0.18
 41
0.0
 71
     5
 72
     1
  1
\A1;2.7500
1001
ACAD
1000
MTEXTBEGIN
1070
    73
1070
     1
1070
    44
1040
1.0
1070
    74
1070
     0
1000
MTEXTEND
  0
POINT
  5
DE
330
BC
100
AcDbEntity
  8
DEFPOINTS
 62
     0
100
AcDbPoint
 10
286.7402030490703
 20
33.89639353514403
 30
0.0
  0
POINT
  5
DF
330
BC
100
AcDbEntity
  8
DEFPOINTS
 62
     0
100
AcDbPoint
 10
286.3652030490703
 20
36.64639353514407
 30
0.0
  0
POINT
  5
E0
330
BC
100
AcDbEntity
  8
DEFPOINTS
 62
     0
100
AcDbPoint
 10
288.2941934088468
 20
36.64639353514407
 30
0.0
  0
ENDBLK
  5
C8
330
BC
100
AcDbEntity
  8
0
100
AcDbBlockEnd
  0
BLOCK
  5
D5
330
CA
100
AcDbEntity
  8
0
100
AcDbBlockBegin
  2
*D3
 70
     1
 10
0.0
 20
0.0
 30
0.0
  3
*D3
  1

  0
LINE
  5
CB
330
CA
100
AcDbEntity
  8
0
 62
     0
100
AcDbLine
 10
287.4027030490704
 20
34.29639353514403
 30
0.0
 11
287.8701633968838
 21
34.29639353514403
 31
0.0
  0
LINE
  5
CC
330
CA
100
AcDbEntity
  8
0
 62
     0
100
AcDbLine
 10
286.8027030490703
 20
33.89639353514403
 30
0.0
 11
287.8701633968838
 21
33.89639353514403
 31
0.0
  0
LINE
  5
CD
330
CA
100
AcDbEntity
  8
0
 62
     0
100
AcDbLine
 10
287.6901633968838
 20
34.47639353514403
 30
0.0
 11
287.6901633968838
 21
34.65639353514403
 31
0.0
  0
LINE
  5
CE
330
CA
100
AcDbEntity
  8
0
 62
     0
100
AcDbLine
 10
287.6901633968838
 20
33.71639353514403
 30
0.0
 11
287.6901633968838
 21
33.53639353514403
 31
0.0
  0
SOLID
  5
CF
330
CA
100
AcDbEntity
  8
0
 62
     0
100
AcDbTrace
 10
287.6601633968838
 20
34.47639353514403
 30
0.0
 11
287.7201633968837
 21
34.47639353514403
 31
0.0
 12
287.6901633968838
 22
34.29639353514403
 32
0.0
 13
287.6901633968838
 23
34.29639353514403
 33
0.0
  0
SOLID
  5
D0
330
CA
100
AcDbEntity
  8
0
 62
     0
100
AcDbTrace
 10
287.6601633968838
 20
33.71639353514403
 30
0.0
 11
287.7201633968837
 21
33.71639353514403
 31
0.0
 12
287.6901633968838
 22
33.89639353514403
 32
0.0
 13
287.6901633968838
 23
33.89639353514403
 33
0.0
  0
MTEXT
  5
D1
330
CA
100
AcDbEntity
  8
0
 62
     0
100
AcDbMText
 10
287.6901633968838
 20
34.09639353514409
 30
0.0
 40
0.18
 41
0.0
 71
     5
 72
     1
  1
\A1;0.4000
1001
ACAD
1000
MTEXTBEGIN
1070
    73
1070
     1
1070
    44
1040
1.0
1070
    74
1070
     0
1000
MTEXTEND
  0
POINT
  5
D2
330
CA
100
AcDbEntity
  8
DEFPOINTS
 62
     0
100
AcDbPoint
 10
287.3402030490704
 20
34.29639353514403
 30
0.0
  0
POINT
  5
D3
330
CA
100
AcDbEntity
  8
DEFPOINTS
 62
     0
100
AcDbPoint
 10
286.7402030490703
 20
33.89639353514403
 30
0.0
  0
POINT
  5
D4
330
CA
100
AcDbEntity
  8
DEFPOINTS
 62
     0
100
AcDbPoint
 10
287.6901633968838
 20
33.89639353514403
 30
0.0
  0
ENDBLK
  5
D6
330
CA
100
AcDbEntity
  8
0
100
AcDbBlockEnd
  0
BLOCK
  5
ED
330
E2
100
AcDbEntity
  8
0
100
AcDbBlockBegin
  2
*D4
 70
     1
 10
0.0
 20
0.0
 30
0.0
  3
*D4
  1

  0
LINE
  5
E3
330
E2
100
AcDbEntity
  8
0
 62
     0
100
AcDbLine
 10
287.3402030490704
 20
34.23389353514403
 30
0.0
 11
287.3402030490704
 21
32.81065108043303
 31
0.0
  0
LINE
  5
E4
330
E2
100
AcDbEntity
  8
0
 62
     0
100
AcDbLine
 10
285.3902030490703
 20
34.23389353514403
 30
0.0
 11
285.3902030490703
 21
32.81065108043303
 31
0.0
  0
LINE
  5
E5
330
E2
100
AcDbEntity
  8
0
 62
     0
100
AcDbLine
 10
287.1602030490704
 20
32.99065108043303
 30
0.0
 11
286.8452030490704
 21
32.99065108043303
 31
0.0
  0
LINE
  5
E6
330
E2
100
AcDbEntity
  8
0
 62
     0
100
AcDbLine
 10
285.5702030490703
 20
32.99065108043303
 30
0.0
 11
285.8852030490703
 21
32.99065108043303
 31
0.0
  0
SOLID
  5
E7
330
E2
100
AcDbEntity
  8
0
 62
     0
100
AcDbTrace
 10
287.1602030490704
 20
33.02065108043303
 30
0.0
 11
287.1602030490704
 21
32.96065108043303
 31
0.0
 12
287.3402030490704
 22
32.99065108043303
 32
0.0
 13
287.3402030490704
 23
32.99065108043303
 33
0.0
  0
SOLID
  5
E8
330
E2
100
AcDbEntity
  8
0
 62
     0
100
AcDbTrace
 10
285.5702030490703
 20
33.02065108043303
 30
0.0
 11
285.5702030490703
 21
32.96065108043303
 31
0.0
 12
285.3902030490703
 22
32.99065108043303
 32
0.0
 13
285.3902030490703
 23
32.99065108043303
 33
0.0
  0
MTEXT
  5
E9
330
E2
100
AcDbEntity
  8
0
 62
     0
100
AcDbMText
 10
286.3652030490703
 20
32.99065108043303
 30
0.0
 40
0.18
 41
0.0
 71
     5
 72
     1
  1
\A1;1.9500
1001
ACAD
1000
MTEXTBEGIN
1070
    73
1070
     1
1070
    44
1040
1.0
1070
    74
1070
     0
1000
MTEXTEND
  0
POINT
  5
EA
330
E2
100
AcDbEntity
  8
DEFPOINTS
 62
     0
100
AcDbPoint
 10
287.3402030490704
 20
34.29639353514403
 30
0.0
  0
POINT
  5
EB
330
E2
100
AcDbEntity
  8
DEFPOINTS
 62
     0
100
AcDbPoint
 10
285.3902030490703
 20
34.29639353514403
 30
0.0
  0
POINT
  5
EC
330
E2
100
AcDbEntity
  8
DEFPOINTS
 62
     0
100
AcDbPoint
 10
285.3902030490703
 20
32.99065108043303
 30
0.0
  0
ENDBLK
  5
EE
330
E2
100
AcDbEntity
  8
0
100
AcDbBlockEnd
  0
BLOCK
  5
FB
330
F0
100
AcDbEntity
  8
0
100
AcDbBlockBegin
  2
*D5
 70
     1
 10
0.0
 20
0.0
 30
0.0
  3
*D5
  1

  0
LINE
  5
F1
330
F0
100
AcDbEntity
  8
0
 62
     0
100
AcDbLine
 10
285.9902030490703
 20
33.83389353514403
 30
0.0
 11
285.9902030490703
 21
33.15901358181895
 31
0.0
  0
LINE
  5
F2
330
F0
100
AcDbEntity
  8
0
 62
     0
100
AcDbLine
 10
286.7402030490703
 20
33.83389353514403
 30
0.0
 11
286.7402030490703
 21
33.15901358181895
 31
0.0
  0
LINE
  5
F3
330
F0
100
AcDbEntity
  8
0
 62
     0
100
AcDbLine
 10
286.1702030490704
 20
33.33901358181894
 30
0.0
 11
286.5602030490703
 21
33.33901358181894
 31
0.0
  0
LINE
  5
F4
330
F0
100
AcDbEntity
  8
0
 62
     0
100
AcDbLine
 10
286.7402030490703
 20
33.33901358181894
 30
0.0
 11
286.9202030490703
 21
33.33901358181894
 31
0.0
  0
SOLID
  5
F5
330
F0
100
AcDbEntity
  8
0
 62
     0
100
AcDbTrace
 10
286.1702030490704
 20
33.36901358181894
 30
0.0
 11
286.1702030490704
 21
33.30901358181894
 31
0.0
 12
285.9902030490703
 22
33.33901358181894
 32
0.0
 13
285.9902030490703
 23
33.33901358181894
 33
0.0
  0
SOLID
  5
F6
330
F0
100
AcDbEntity
  8
0
 62
     0
100
AcDbTrace
 10
286.5602030490703
 20
33.36901358181894
 30
0.0
 11
286.5602030490703
 21
33.30901358181894
 31
0.0
 12
286.7402030490703
 22
33.33901358181894
 32
0.0
 13
286.7402030490703
 23
33.33901358181894
 33
0.0
  0
MTEXT
  5
F7
330
F0
100
AcDbEntity
  8
0
 62
     0
100
AcDbMText
 10
287.4152030490703
 20
33.33901358181894
 30
0.0
 40
0.18
 41
0.0
 71
     5
 72
     1
  1
\A1;0.7500
1001
ACAD
1000
MTEXTBEGIN
1070
    73
1070
     1
1070
    44
1040
1.0
1070
    74
1070
     0
1000
MTEXTEND
  0
POINT
  5
F8
330
F0
100
AcDbEntity
  8
DEFPOINTS
 62
     0
100
AcDbPoint
 10
285.9902030490703
 20
33.89639353514403
 30
0.0
  0
POINT
  5
F9
330
F0
100
AcDbEntity
  8
DEFPOINTS
 62
     0
100
AcDbPoint
 10
286.7402030490703
 20
33.89639353514403
 30
0.0
  0
POINT
  5
FA
330
F0
100
AcDbEntity
  8
DEFPOINTS
 62
     0
100
AcDbPoint
 10
286.7402030490703
 20
33.33901358181894
 30
0.0
  0
ENDBLK
  5
FC
330
F0
100
AcDbEntity
  8
0
100
AcDbBlockEnd
  0
BLOCK
  5
109
330
FE
100
AcDbEntity
  8
0
100
AcDbBlockBegin
  2
*D6
 70
     1
 10
0.0
 20
0.0
 30
0.0
  3
*D6
  1

  0
LINE
  5
FF
330
FE
100
AcDbEntity
  8
0
 62
     0
100
AcDbLine
 10
285.3277030490703
 20
35.64639353514403
 30
0.0
 11
284.5829411410214
 21
35.64639353514403
 31
0.0
  0
LINE
  5
100
330
FE
100
AcDbEntity
  8
0
 62
     0
100
AcDbLine
 10
285.3277030490703
 20
34.29639353514403
 30
0.0
 11
284.5829411410214
 21
34.29639353514403
 31
0.0
  0
LINE
  5
101
330
FE
100
AcDbEntity
  8
0
 62
     0
100
AcDbLine
 10
284.7629411410214
 20
35.46639353514403
 30
0.0
 11
284.7629411410214
 21
35.15139353514403
 31
0.0
  0
LINE
  5
102
330
FE
100
AcDbEntity
  8
0
 62
     0
100
AcDbLine
 10
284.7629411410214
 20
34.47639353514403
 30
0.0
 11
284.7629411410214
 21
34.79139353514403
 31
0.0
  0
SOLID
  5
103
330
FE
100
AcDbEntity
  8
0
 62
     0
100
AcDbTrace
 10
284.7329411410214
 20
35.46639353514403
 30
0.0
 11
284.7929411410214
 21
35.46639353514403
 31
0.0
 12
284.7629411410214
 22
35.64639353514403
 32
0.0
 13
284.7629411410214
 23
35.64639353514403
 33
0.0
  0
SOLID
  5
104
330
FE
100
AcDbEntity
  8
0
 62
     0
100
AcDbTrace
 10
284.7329411410214
 20
34.47639353514403
 30
0.0
 11
284.7929411410214
 21
34.47639353514403
 31
0.0
 12
284.7629411410214
 22
34.29639353514403
 32
0.0
 13
284.7629411410214
 23
34.29639353514403
 33
0.0
  0
MTEXT
  5
105
330
FE
100
AcDbEntity
  8
0
 62
     0
100
AcDbMText
 10
284.7629411410214
 20
34.97139353514409
 30
0.0
 40
0.18
 41
0.0
 71
     5
 72
     1
  1
\A1;1.3500
1001
ACAD
1000
MTEXTBEGIN
1070
    73
1070
     1
1070
    44
1040
1.0
1070
    74
1070
     0
1000
MTEXTEND
  0
POINT
  5
106
330
FE
100
AcDbEntity
  8
DEFPOINTS
 62
     0
100
AcDbPoint
 10
285.3902030490703
 20
35.64639353514403
 30
0.0
  0
POINT
  5
107
330
FE
100
AcDbEntity
  8
DEFPOINTS
 62
     0
100
AcDbPoint
 10
285.3902030490703
 20
34.29639353514403
 30
0.0
  0
POINT
  5
108
330
FE
100
AcDbEntity
  8
DEFPOINTS
 62
     0
100
AcDbPoint
 10
284.7629411410214
 20
34.29639353514403
 30
0.0
  0
ENDBLK
  5
10A
330
FE
100
AcDbEntity
  8
0
100
AcDbBlockEnd
  0
ENDSEC
  0
SECTION
  2
ENTITIES
  0
TEXT
  5
2C
330
1E
100
AcDbEntity
  8
0
  6
CONTINUOUS
100
AcDbText
 10
287.2805487186718
 20
41.39364127471099
 30
0.0
 40
0.1
  1
2
  7
ROMANC
100
AcDbText
  0
TEXT
  5
2D
330
1E
100
AcDbEntity
  8
0
  6
CONTINUOUS
100
AcDbText
 10
283.9259999999999
 20
41.768
 30
0.0
 40
0.3
  1
ESCALA  1:50
  7
ROMANC
100
AcDbText
  0
LWPOLYLINE
  5
2E
330
1E
100
AcDbEntity
  8
0
  6
CONTINUOUS
100
AcDbPolyline
 90
        4
 70
     1
 43
0.0
 10
281.3959999999999
 20
44.747
 10
291.8959999999999
 20
44.747
 10
291.8959999999999
 20
29.897
 10
281.3959999999999
 20
29.897
  0
TEXT
  5
34
330
1E
100
AcDbEntity
  8
0
  6
CONTINUOUS
100
AcDbText
 10
283.9259999999999
 20
42.381
 30
0.0
 40
0.3
  1
TIPUS   NT447B
  7
ROMANC
100
AcDbText
  0
TEXT
  5
3C
330
1E
100
AcDbEntity
  8
0
  6
CONTINUOUS
100
AcDbText
 10
283.9449999999999
 20
41.09899999999998
 30
0.0
 40
0.3
  1
S = 447 dm
  7
ROMANC
100
AcDbText
  0
TEXT
  5
3D
330
1E
100
AcDbEntity
  8
0
  6
CONTINUOUS
100
AcDbText
 10
283.922
 20
40.529
 30
0.0
 40
0.3
  1
P = 856 dm
  7
ROMANC
100
AcDbText
  0
LWPOLYLINE
  5
BA
330
1E
100
AcDbEntity
  8
0
100
AcDbPolyline
 90
        8
 70
     1
 43
0.0
 10
286.7402030490703
 20
33.89639353514403
 10
286.7402030490703
 20
34.29639353514403
 10
287.3402030490704
 20
34.29639353514403
 10
287.3402030490704
 20
35.64639353514403
 42
1.025641025641039
 10
285.3902030490703
 20
35.64639353514403
 10
285.3902030490703
 20
34.29639353514403
 10
285.9902030490703
 20
34.29639353514403
 10
285.9902030490703
 20
33.89639353514403
  0
DIMENSION
  5
BB
330
1E
100
AcDbEntity
  8
0
100
AcDbDimension
  2
*D2
 10
288.2941934088468
 20
36.64639353514407
 30
0.0
 11
288.2941934088468
 21
35.2713935351441
 31
0.0
 70
   160
  3
STANDARD
100
AcDbAlignedDimension
 13
286.7402030490703
 23
33.89639353514403
 33
0.0
 14
286.3652030490703
 24
36.64639353514407
 34
0.0
 50
90.0
100
AcDbRotatedDimension
  0
DIMENSION
  5
C9
330
1E
100
AcDbEntity
  8
0
100
AcDbDimension
  2
*D3
 10
287.6901633968838
 20
33.89639353514403
 30
0.0
 11
287.6901633968838
 21
34.09639353514409
 31
0.0
 70
    32
  3
STANDARD
100
AcDbAlignedDimension
 13
287.3402030490704
 23
34.29639353514403
 33
0.0
 14
286.7402030490703
 24
33.89639353514403
 34
0.0
 50
90.0
100
AcDbRotatedDimension
  0
DIMENSION
  5
E1
330
1E
100
AcDbEntity
  8
0
100
AcDbDimension
  2
*D4
 10
285.3902030490703
 20
32.99065108043303
 30
0.0
 11
286.3652030490703
 21
32.99065108043303
 31
0.0
 70
    32
  3
STANDARD
100
AcDbAlignedDimension
 13
287.3402030490704
 23
34.29639353514403
 33
0.0
 14
285.3902030490703
 24
34.29639353514403
 34
0.0
100
AcDbRotatedDimension
  0
DIMENSION
  5
EF
330
1E
100
AcDbEntity
  8
0
100
AcDbDimension
  2
*D5
 10
286.7402030490703
 20
33.33901358181894
 30
0.0
 11
287.4152030490703
 21
33.33901358181894
 31
0.0
 70
    32
  3
STANDARD
100
AcDbAlignedDimension
 13
285.9902030490703
 23
33.89639353514403
 33
0.0
 14
286.7402030490703
 24
33.89639353514403
 34
0.0
100
AcDbRotatedDimension
  0
DIMENSION
  5
FD
330
1E
100
AcDbEntity
  8
0
100
AcDbDimension
  2
*D6
 10
284.7629411410214
 20
34.29639353514403
 30
0.0
 11
284.7629411410214
 21
34.97139353514409
 31
0.0
 70
    32
  3
STANDARD
100
AcDbAlignedDimension
 13
285.3902030490703
 23
35.64639353514403
 33
0.0
 14
285.3902030490703
 24
34.29639353514403
 34
0.0
 50
90.0
100
AcDbRotatedDimension
  0
ENDSEC
  0
SECTION
  2
OBJECTS
  0
DICTIONARY
  5
C
330
0
100
AcDbDictionary
  3
ACAD_GROUP
350
D
  3
ACAD_LAYOUT
350
19
  3
ACAD_MLINESTYLE
350
16
  3
ACAD_PLOTSETTINGS
350
18
  3
ACAD_PLOTSTYLENAME
350
E
  3
ACDBHEADERROUNDTRIPXREC
350
10C
  0
DICTIONARY
  5
12E
330
1E
100
AcDbDictionary
280
     1
  3
ACAD_LAYOUTSELFREF
360
12F
  0
DICTIONARY
  5
12C
330
1A
100
AcDbDictionary
280
     1
  3
ACAD_LAYOUTSELFREF
360
12D
  0
DICTIONARY
  5
D
102
{ACAD_REACTORS
330
C
102
}
330
C
100
AcDbDictionary
  0
DICTIONARY
  5
19
102
{ACAD_REACTORS
330
C
102
}
330
C
100
AcDbDictionary
  0
DICTIONARY
  5
16
102
{ACAD_REACTORS
330
C
102
}
330
C
100
AcDbDictionary
  3
STANDARD
350
17
  0
DICTIONARY
  5
18
102
{ACAD_REACTORS
330
C
102
}
330
C
100
AcDbDictionary
  0
ACDBDICTIONARYWDFLT
  5
E
102
{ACAD_REACTORS
330
C
102
}
330
C
100
AcDbDictionary
281
     1
  3
Normal
350
F
100
AcDbDictionaryWithDefault
340
F
  0
DICTIONARY
  5
10C
102
{ACAD_REACTORS
330
C
102
}
330
C
100
AcDbDictionary
  3
TSTACKALIGN
350
10D
  3
TSTACKSIZE
350
10E
  3
HYPERLINKBASE
350
10F
  3
STYLESHEET
350
110
  3
LAYOUTDICT
350
111
  3
PLOTSETDICT
350
112
  3
PLOTSTYLNAMDICT
350
113
  3
LWETCUNION
350
114
  3
INSUNITS
350
115
  3
CEPSNTYPE
350
116
  3
FINGERPRINTGUID
350
117
  3
VERSIONGUID
350
118
  3
PSVPSCALE
350
119
  3
PUCSORTHOREF
350
11A
  3
PUCSORTHOVIEW
350
11B
  3
PUCSBASE
350
11C
  3
PUCSORGTOP
350
11D
  3
PUCSORGBOTTOM
350
11E
  3
PUCSORGLEFT
350
11F
  3
PUCSORGRIGHT
350
120
  3
PUCSORGFRONT
350
121
  3
PUCSORGBACK
350
122
  3
UCSORTHOREF
350
123
  3
UCSORTHOVIEW
350
124
  3
UCSBASE
350
125
  3
UCSORGTOP
350
126
  3
UCSORGBOTTOM
350
127
  3
UCSORGLEFT
350
128
  3
UCSORGRIGHT
350
129
  3
UCSORGFRONT
350
12A
  3
UCSORGBACK
350
12B
  0
XRECORD
  5
12F
102
{ACAD_REACTORS
330
12E
102
}
330
12E
100
AcDbXrecord
340
1E
  0
XRECORD
  5
12D
102
{ACAD_REACTORS
330
12C
102
}
330
12C
100
AcDbXrecord
340
1A
  0
MLINESTYLE
  5
17
102
{ACAD_REACTORS
330
16
102
}
330
16
100
AcDbMlineStyle
  2
STANDARD
 70
     0
  3

 62
   256
 51
90.0
 52
90.0
 71
     2
 49
0.5
 62
   256
  6
BYLAYER
 49
-0.5
 62
   256
  6
BYLAYER
  0
ACDBPLACEHOLDER
  5
F
102
{ACAD_REACTORS
330
E
102
}
330
E
100
AcDbPlaceHolder
280
     0
  0
XRECORD
  5
10D
102
{ACAD_REACTORS
330
10C
102
}
330
10C
100
AcDbXrecord
 90
        1
  0
XRECORD
  5
10E
102
{ACAD_REACTORS
330
10C
102
}
330
10C
100
AcDbXrecord
 90
       70
  0
XRECORD
  5
10F
102
{ACAD_REACTORS
330
10C
102
}
330
10C
100
AcDbXrecord
  1

  0
XRECORD
  5
110
102
{ACAD_REACTORS
330
10C
102
}
330
10C
100
AcDbXrecord
  1

  0
XRECORD
  5
111
102
{ACAD_REACTORS
330
10C
102
}
330
10C
100
AcDbXrecord
340
19
  0
XRECORD
  5
112
102
{ACAD_REACTORS
330
10C
102
}
330
10C
100
AcDbXrecord
340
18
  0
XRECORD
  5
113
102
{ACAD_REACTORS
330
10C
102
}
330
10C
100
AcDbXrecord
340
E
  0
XRECORD
  5
114
102
{ACAD_REACTORS
330
10C
102
}
330
10C
100
AcDbXrecord
 90
    10781
  0
XRECORD
  5
115
102
{ACAD_REACTORS
330
10C
102
}
330
10C
100
AcDbXrecord
 90
        0
  0
XRECORD
  5
116
102
{ACAD_REACTORS
330
10C
102
}
330
10C
100
AcDbXrecord
 90
        0
  0
XRECORD
  5
117
102
{ACAD_REACTORS
330
10C
102
}
330
10C
100
AcDbXrecord
  1
{A09CBBB2-476A-11D4-A5CD-0008C769B1B5}
  0
XRECORD
  5
118
102
{ACAD_REACTORS
330
10C
102
}
330
10C
100
AcDbXrecord
  1
{329E6C37-4785-11D4-A5CE-0008C769B1B5}
  0
XRECORD
  5
119
102
{ACAD_REACTORS
330
10C
102
}
330
10C
100
AcDbXrecord
 40
0.0
  0
XRECORD
  5
11A
102
{ACAD_REACTORS
330
10C
102
}
330
10C
100
AcDbXrecord
340
0
  0
XRECORD
  5
11B
102
{ACAD_REACTORS
330
10C
102
}
330
10C
100
AcDbXrecord
 70
     0
  0
XRECORD
  5
11C
102
{ACAD_REACTORS
330
10C
102
}
330
10C
100
AcDbXrecord
340
0
  0
XRECORD
  5
11D
102
{ACAD_REACTORS
330
10C
102
}
330
10C
100
AcDbXrecord
 10
0.0
 20
0.0
 30
0.0
  0
XRECORD
  5
11E
102
{ACAD_REACTORS
330
10C
102
}
330
10C
100
AcDbXrecord
 10
0.0
 20
0.0
 30
0.0
  0
XRECORD
  5
11F
102
{ACAD_REACTORS
330
10C
102
}
330
10C
100
AcDbXrecord
 10
0.0
 20
0.0
 30
0.0
  0
XRECORD
  5
120
102
{ACAD_REACTORS
330
10C
102
}
330
10C
100
AcDbXrecord
 10
0.0
 20
0.0
 30
0.0
  0
XRECORD
  5
121
102
{ACAD_REACTORS
330
10C
102
}
330
10C
100
AcDbXrecord
 10
0.0
 20
0.0
 30
0.0
  0
XRECORD
  5
122
102
{ACAD_REACTORS
330
10C
102
}
330
10C
100
AcDbXrecord
 10
0.0
 20
0.0
 30
0.0
  0
XRECORD
  5
123
102
{ACAD_REACTORS
330
10C
102
}
330
10C
100
AcDbXrecord
340
0
  0
XRECORD
  5
124
102
{ACAD_REACTORS
330
10C
102
}
330
10C
100
AcDbXrecord
 70
     0
  0
XRECORD
  5
125
102
{ACAD_REACTORS
330
10C
102
}
330
10C
100
AcDbXrecord
340
0
  0
XRECORD
  5
126
102
{ACAD_REACTORS
330
10C
102
}
330
10C
100
AcDbXrecord
 10
0.0
 20
0.0
 30
0.0
  0
XRECORD
  5
127
102
{ACAD_REACTORS
330
10C
102
}
330
10C
100
AcDbXrecord
 10
0.0
 20
0.0
 30
0.0
  0
XRECORD
  5
128
102
{ACAD_REACTORS
330
10C
102
}
330
10C
100
AcDbXrecord
 10
0.0
 20
0.0
 30
0.0
  0
XRECORD
  5
129
102
{ACAD_REACTORS
330
10C
102
}
330
10C
100
AcDbXrecord
 10
0.0
 20
0.0
 30
0.0
  0
XRECORD
  5
12A
102
{ACAD_REACTORS
330
10C
102
}
330
10C
100
AcDbXrecord
 10
0.0
 20
0.0
 30
0.0
  0
XRECORD
  5
12B
102
{ACAD_REACTORS
330
10C
102
}
330
10C
100
AcDbXrecord
 10
0.0
 20
0.0
 30
0.0
  0
ENDSEC
  0
EOF
