  0
SECTION
  2
HEADER
  9
$ACADVER
  1
AC1014
  9
$ACADMAINTVER
 70
     9
  9
$DWGCODEPAGE
  3
ANSI_1252
  9
$INSBASE
 10
0.0
 20
0.0
 30
0.0
  9
$EXTMIN
 10
281.395069244134
 20
29.89660406180441
 30
-0.0000000349181948
  9
$EXTMAX
 10
291.8969308140735
 20
44.74796749579872
 30
0.0000000814935746
  9
$LIMMIN
 10
280.3959999999999
 20
28.89699999999999
  9
$LIMMAX
 10
292.8959999999999
 20
43.74699999999999
  9
$ORTHOMODE
 70
     0
  9
$REGENMODE
 70
     1
  9
$FILLMODE
 70
     1
  9
$QTEXTMODE
 70
     0
  9
$MIRRTEXT
 70
     1
  9
$DRAGMODE
 70
     2
  9
$LTSCALE
 40
1.0
  9
$OSMODE
 70
   399
  9
$ATTMODE
 70
     1
  9
$TEXTSIZE
 40
0.2
  9
$TRACEWID
 40
0.05
  9
$TEXTSTYLE
  7
STANDARD
  9
$CLAYER
  8
0
  9
$CELTYPE
  6
BYLAYER
  9
$CECOLOR
 62
   256
  9
$CELTSCALE
 40
1.0
  9
$DELOBJ
 70
     1
  9
$DISPSILH
 70
     0
  9
$DIMSCALE
 40
1.0
  9
$DIMASZ
 40
0.18
  9
$DIMEXO
 40
0.0625
  9
$DIMDLI
 40
0.38
  9
$DIMRND
 40
0.0
  9
$DIMDLE
 40
0.0
  9
$DIMEXE
 40
0.18
  9
$DIMTP
 40
0.0
  9
$DIMTM
 40
0.0
  9
$DIMTXT
 40
0.15
  9
$DIMCEN
 40
0.09
  9
$DIMTSZ
 40
0.0
  9
$DIMTOL
 70
     0
  9
$DIMLIM
 70
     0
  9
$DIMTIH
 70
     1
  9
$DIMTOH
 70
     1
  9
$DIMSE1
 70
     0
  9
$DIMSE2
 70
     0
  9
$DIMTAD
 70
     0
  9
$DIMZIN
 70
     0
  9
$DIMBLK
  1

  9
$DIMASO
 70
     1
  9
$DIMSHO
 70
     1
  9
$DIMPOST
  1

  9
$DIMAPOST
  1

  9
$DIMALT
 70
     0
  9
$DIMALTD
 70
     2
  9
$DIMALTF
 40
25.4
  9
$DIMLFAC
 40
1.0
  9
$DIMTOFL
 70
     0
  9
$DIMTVP
 40
0.0
  9
$DIMTIX
 70
     0
  9
$DIMSOXD
 70
     0
  9
$DIMSAH
 70
     0
  9
$DIMBLK1
  1

  9
$DIMBLK2
  1

  9
$DIMSTYLE
  2
STANDARD
  9
$DIMCLRD
 70
     0
  9
$DIMCLRE
 70
     0
  9
$DIMCLRT
 70
     0
  9
$DIMTFAC
 40
1.0
  9
$DIMGAP
 40
0.09
  9
$DIMJUST
 70
     0
  9
$DIMSD1
 70
     0
  9
$DIMSD2
 70
     0
  9
$DIMTOLJ
 70
     1
  9
$DIMTZIN
 70
     0
  9
$DIMALTZ
 70
     0
  9
$DIMALTTZ
 70
     0
  9
$DIMFIT
 70
     3
  9
$DIMUPT
 70
     0
  9
$DIMUNIT
 70
     2
  9
$DIMDEC
 70
     2
  9
$DIMTDEC
 70
     2
  9
$DIMALTU
 70
     2
  9
$DIMALTTD
 70
     2
  9
$DIMTXSTY
  7
STANDARD
  9
$DIMAUNIT
 70
     0
  9
$LUNITS
 70
     2
  9
$LUPREC
 70
     4
  9
$SKETCHINC
 40
0.1
  9
$FILLETRAD
 40
0.0
  9
$AUNITS
 70
     0
  9
$AUPREC
 70
     0
  9
$MENU
  1
acad
  9
$ELEVATION
 40
0.0
  9
$PELEVATION
 40
0.0
  9
$THICKNESS
 40
0.0
  9
$LIMCHECK
 70
     0
  9
$BLIPMODE
 70
     0
  9
$CHAMFERA
 40
0.0
  9
$CHAMFERB
 40
0.0
  9
$CHAMFERC
 40
0.0
  9
$CHAMFERD
 40
0.0
  9
$SKPOLY
 70
     0
  9
$TDCREATE
 40
2448315.331741435
  9
$TDUPDATE
 40
2453124.569045775
  9
$TDINDWG
 40
0.1455796181
  9
$TDUSRTIMER
 40
0.1455789005
  9
$USRTIMER
 70
     1
  9
$ANGBASE
 50
0.0
  9
$ANGDIR
 70
     0
  9
$PDMODE
 70
     0
  9
$PDSIZE
 40
0.0
  9
$PLINEWID
 40
0.0
  9
$COORDS
 70
     1
  9
$SPLFRAME
 70
     0
  9
$SPLINETYPE
 70
     6
  9
$SPLINESEGS
 70
     8
  9
$ATTDIA
 70
     0
  9
$ATTREQ
 70
     1
  9
$HANDLING
 70
 22529
  9
$HANDSEED
  5
870
  9
$SURFTAB1
 70
     6
  9
$SURFTAB2
 70
     6
  9
$SURFTYPE
 70
     6
  9
$SURFU
 70
     6
  9
$SURFV
 70
     6
  9
$UCSNAME
  2

  9
$UCSORG
 10
0.0
 20
0.0
 30
0.0
  9
$UCSXDIR
 10
1.0
 20
0.0
 30
0.0
  9
$UCSYDIR
 10
0.0
 20
1.0
 30
0.0
  9
$PUCSNAME
  2

  9
$PUCSORG
 10
0.0
 20
0.0
 30
0.0
  9
$PUCSXDIR
 10
1.0
 20
0.0
 30
0.0
  9
$PUCSYDIR
 10
0.0
 20
1.0
 30
0.0
  9
$USERI1
 70
     0
  9
$USERI2
 70
     0
  9
$USERI3
 70
     0
  9
$USERI4
 70
     0
  9
$USERI5
 70
     0
  9
$USERR1
 40
0.0
  9
$USERR2
 40
0.0
  9
$USERR3
 40
0.0
  9
$USERR4
 40
0.0
  9
$USERR5
 40
0.0
  9
$WORLDVIEW
 70
     1
  9
$SHADEDGE
 70
     3
  9
$SHADEDIF
 70
    70
  9
$TILEMODE
 70
     1
  9
$MAXACTVP
 70
    16
  9
$PINSBASE
 10
0.0
 20
0.0
 30
0.0
  9
$PLIMCHECK
 70
     0
  9
$PEXTMIN
 10
1.000000000000000E+20
 20
1.000000000000000E+20
 30
1.000000000000000E+20
  9
$PEXTMAX
 10
-1.000000000000000E+20
 20
-1.000000000000000E+20
 30
-1.000000000000000E+20
  9
$PLIMMIN
 10
0.0
 20
0.0
  9
$PLIMMAX
 10
12.0
 20
9.0
  9
$UNITMODE
 70
     0
  9
$VISRETAIN
 70
     0
  9
$PLINEGEN
 70
     0
  9
$PSLTSCALE
 70
     1
  9
$TREEDEPTH
 70
  3020
  9
$PICKSTYLE
 70
     1
  9
$CMLSTYLE
  2
STANDARD
  9
$CMLJUST
 70
     0
  9
$CMLSCALE
 40
1.0
  9
$PROXYGRAPHICS
 70
     1
  9
$MEASUREMENT
 70
     0
  0
ENDSEC
  0
SECTION
  2
CLASSES
  0
CLASS
  1
ACDBDICTIONARYWDFLT
  2
AcDbDictionaryWithDefault
  3
AutoCAD 2000
 90
        0
280
     0
281
     0
  0
CLASS
  1
ACDBPLACEHOLDER
  2
AcDbPlaceHolder
  3
AutoCAD 2000
 90
        0
280
     0
281
     0
  0
CLASS
  1
LAYOUT
  2
AcDbLayout
  3
AutoCAD 2000
 90
        0
280
     0
281
     0
  0
CLASS
  1
DICTIONARYVAR
  2
AcDbDictionaryVar
  3
AutoCAD 2000
 90
        0
280
     0
281
     0
  0
CLASS
  1
LONG_TRANSACTION
  2
AcDbLongTransaction
  3
AutoCAD 2000
 90
        0
280
     0
281
     0
  0
CLASS
  1
LWPOLYLINE
  2
AcDbPolyline
  3
AutoCAD 2000
 90
        0
280
     0
281
     1
  0
CLASS
  1
HATCH
  2
AcDbHatch
  3
AutoCAD 2000
 90
        0
280
     0
281
     1
  0
CLASS
  1
XRECORD
  2
AcDbXrecord
  3
AutoCAD 2000
 90
        0
280
     0
281
     0
  0
CLASS
  1
LONG_TRANSACTION
  2
AcDbLongTransaction
  3
AutoCAD 2000
 90
        0
280
     0
281
     0
  0
CLASS
  1
LWPOLYLINE
  2
AcDbPolyline
  3
AutoCAD 2000
 90
        0
280
     0
281
     1
  0
CLASS
  1
HATCH
  2
AcDbHatch
  3
AutoCAD 2000
 90
        0
280
     0
281
     1
  0
CLASS
  1
XRECORD
  2
AcDbXrecord
  3
AutoCAD 2000
 90
        0
280
     0
281
     0
  0
CLASS
  1
LONG_TRANSACTION
  2
AcDbLongTransaction
  3
AutoCAD 2000
 90
        0
280
     0
281
     0
  0
CLASS
  1
LWPOLYLINE
  2
AcDbPolyline
  3
AutoCAD 2000
 90
        0
280
     0
281
     1
  0
CLASS
  1
HATCH
  2
AcDbHatch
  3
AutoCAD 2000
 90
        0
280
     0
281
     1
  0
CLASS
  1
XRECORD
  2
AcDbXrecord
  3
AutoCAD 2000
 90
        0
280
     0
281
     0
  0
ENDSEC
  0
SECTION
  2
TABLES
  0
TABLE
  2
VPORT
  5
8
330
0
100
AcDbSymbolTable
 70
     4
  0
VPORT
  5
84D
330
8
100
AcDbSymbolTableRecord
100
AcDbViewportTableRecord
  2
*ACTIVE
 70
     0
 10
0.0
 20
0.0
 11
1.0
 21
1.0
 12
287.3132384231499
 22
35.68961104238979
 13
0.0
 23
0.0
 14
1.0
 24
1.0
 15
0.0
 25
0.0
 16
0.0
 26
0.0
 36
1.0
 17
0.0
 27
0.0
 37
0.0
 40
14.01819005267485
 41
1.578186596583442
 42
50.0
 43
0.0
 44
0.0
 50
0.0
 51
0.0
 71
     0
 72
   100
 73
     1
 74
     1
 75
     0
 76
     0
 77
     0
 78
     0
  0
ENDTAB
  0
TABLE
  2
LTYPE
  5
5
330
0
100
AcDbSymbolTable
 70
     1
  0
LTYPE
  5
13
330
5
100
AcDbSymbolTableRecord
100
AcDbLinetypeTableRecord
  2
BYBLOCK
 70
     0
  3

 72
    65
 73
     0
 40
0.0
  0
LTYPE
  5
14
330
5
100
AcDbSymbolTableRecord
100
AcDbLinetypeTableRecord
  2
BYLAYER
 70
     0
  3

 72
    65
 73
     0
 40
0.0
  0
LTYPE
  5
15
330
5
100
AcDbSymbolTableRecord
100
AcDbLinetypeTableRecord
  2
CONTINUOUS
 70
     0
  3
Solid line
 72
    65
 73
     0
 40
0.0
  0
ENDTAB
  0
TABLE
  2
LAYER
  5
2
330
0
100
AcDbSymbolTable
 70
     9
  0
LAYER
  5
10
330
2
100
AcDbSymbolTableRecord
100
AcDbLayerTableRecord
  2
0
 70
     0
 62
     7
  6
CONTINUOUS
  0
LAYER
  5
22
330
2
100
AcDbSymbolTableRecord
100
AcDbLayerTableRecord
  2
1
 70
     0
 62
     7
  6
CONTINUOUS
  0
LAYER
  5
23
330
2
100
AcDbSymbolTableRecord
100
AcDbLayerTableRecord
  2
7
 70
     0
 62
     7
  6
CONTINUOUS
  0
LAYER
  5
24
330
2
100
AcDbSymbolTableRecord
100
AcDbLayerTableRecord
  2
8
 70
     0
 62
     7
  6
CONTINUOUS
  0
LAYER
  5
25
330
2
100
AcDbSymbolTableRecord
100
AcDbLayerTableRecord
  2
9
 70
     0
 62
     7
  6
CONTINUOUS
  0
LAYER
  5
26
330
2
100
AcDbSymbolTableRecord
100
AcDbLayerTableRecord
  2
22
 70
     0
 62
     7
  6
CONTINUOUS
  0
LAYER
  5
27
330
2
100
AcDbSymbolTableRecord
100
AcDbLayerTableRecord
  2
25
 70
     0
 62
     7
  6
CONTINUOUS
  0
LAYER
  5
78
330
2
100
AcDbSymbolTableRecord
100
AcDbLayerTableRecord
  2
DEFPOINTS
 70
     0
 62
     7
  6
CONTINUOUS
  0
LAYER
  5
1E7
330
2
100
AcDbSymbolTableRecord
100
AcDbLayerTableRecord
  2
NO_PRINT
 70
     0
 62
     7
  6
CONTINUOUS
  0
ENDTAB
  0
TABLE
  2
STYLE
  5
3
330
0
100
AcDbSymbolTable
 70
     2
  0
STYLE
  5
11
330
3
100
AcDbSymbolTableRecord
100
AcDbTextStyleTableRecord
  2
STANDARD
 70
     0
 40
0.0
 41
1.0
 50
0.0
 71
     0
 42
0.2
  3
txt
  4

  0
STYLE
  5
28
330
3
100
AcDbSymbolTableRecord
100
AcDbTextStyleTableRecord
  2
ROMANC
 70
     0
 40
0.0
 41
1.0
 50
0.0
 71
     0
 42
0.2
  3
ROMANC
  4

  0
ENDTAB
  0
TABLE
  2
VIEW
  5
6
330
0
100
AcDbSymbolTable
 70
     0
  0
ENDTAB
  0
TABLE
  2
UCS
  5
7
330
0
100
AcDbSymbolTable
 70
     0
  0
ENDTAB
  0
TABLE
  2
APPID
  5
9
330
0
100
AcDbSymbolTable
 70
     2
  0
APPID
  5
12
330
9
100
AcDbSymbolTableRecord
100
AcDbRegAppTableRecord
  2
ACAD
 70
     0
  0
APPID
  5
827
330
9
100
AcDbSymbolTableRecord
100
AcDbRegAppTableRecord
  2
DCO15
 70
     0
  0
ENDTAB
  0
TABLE
  2
DIMSTYLE
  5
A
330
0
100
AcDbSymbolTable
 70
     1
  0
DIMSTYLE
105
6B
102
{ACAD_REACTORS
330
807
330
815
102
}
330
A
100
AcDbSymbolTableRecord
100
AcDbDimStyleTableRecord
  2
STANDARD
 70
     0
  3

  4

  5

  6

  7

 40
1.0
 41
0.18
 42
0.0625
 43
0.38
 44
0.18
 45
0.0
 46
0.0
 47
0.0
 48
0.0
140
0.15
141
0.09
142
0.0
143
25.4
144
1.0
145
0.0
146
1.0
147
0.09
 71
     0
 72
     0
 73
     1
 74
     1
 75
     0
 76
     0
 77
     0
 78
     0
170
     0
171
     2
172
     0
173
     0
174
     0
175
     0
176
     0
177
     0
178
     0
270
     2
271
     2
272
     2
273
     2
274
     2
340
11
275
     0
280
     0
281
     0
282
     0
283
     1
284
     0
285
     0
286
     0
287
     3
288
     0
  0
ENDTAB
  0
TABLE
  2
BLOCK_RECORD
  5
1
330
0
100
AcDbSymbolTable
 70
    14
  0
BLOCK_RECORD
  5
1E
102
{ACAD_XDICTIONARY
360
39D
102
}
330
1
100
AcDbSymbolTableRecord
100
AcDbBlockTableRecord
  2
*MODEL_SPACE
  0
BLOCK_RECORD
  5
1A
102
{ACAD_XDICTIONARY
360
39F
102
}
330
1
100
AcDbSymbolTableRecord
100
AcDbBlockTableRecord
  2
*PAPER_SPACE
  0
BLOCK_RECORD
  5
6ED
330
1
100
AcDbSymbolTableRecord
100
AcDbBlockTableRecord
  2
*D6
  0
BLOCK_RECORD
  5
6FB
330
1
100
AcDbSymbolTableRecord
100
AcDbBlockTableRecord
  2
*D7
  0
BLOCK_RECORD
  5
709
330
1
100
AcDbSymbolTableRecord
100
AcDbBlockTableRecord
  2
*D8
  0
BLOCK_RECORD
  5
72B
330
1
100
AcDbSymbolTableRecord
100
AcDbBlockTableRecord
  2
*D9
  0
BLOCK_RECORD
  5
79D
330
1
100
AcDbSymbolTableRecord
100
AcDbBlockTableRecord
  2
*D10
  0
BLOCK_RECORD
  5
7AB
330
1
100
AcDbSymbolTableRecord
100
AcDbBlockTableRecord
  2
*D11
  0
BLOCK_RECORD
  5
808
330
1
100
AcDbSymbolTableRecord
100
AcDbBlockTableRecord
  2
*D12
  0
BLOCK_RECORD
  5
816
330
1
100
AcDbSymbolTableRecord
100
AcDbBlockTableRecord
  2
*D13
  0
ENDTAB
  0
ENDSEC
  0
SECTION
  2
BLOCKS
  0
BLOCK
  5
1F
330
1E
100
AcDbEntity
  8
0
100
AcDbBlockBegin
  2
*MODEL_SPACE
 70
     0
 10
0.0
 20
0.0
 30
0.0
  3
*MODEL_SPACE
  1

  0
ENDBLK
  5
20
330
1E
100
AcDbEntity
  8
0
100
AcDbBlockEnd
  0
BLOCK
  5
1B
330
1A
100
AcDbEntity
 67
     1
  8
0
100
AcDbBlockBegin
  2
*PAPER_SPACE
 70
     0
 10
0.0
 20
0.0
 30
0.0
  3
*PAPER_SPACE
  1

  0
ENDBLK
  5
1C
330
1A
100
AcDbEntity
 67
     1
  8
0
100
AcDbBlockEnd
  0
BLOCK
  5
6F8
330
6ED
100
AcDbEntity
  8
0
100
AcDbBlockBegin
  2
*D6
 70
     1
 10
0.0
 20
0.0
 30
0.0
  3
*D6
  1

  0
LINE
  5
6EE
330
6ED
100
AcDbEntity
  8
0
 62
     0
100
AcDbLine
 10
284.9565822925582
 20
36.09627461559852
 30
0.0
 11
284.9565822925582
 21
34.53102651587975
 31
0.0
  0
LINE
  5
6EF
330
6ED
100
AcDbEntity
  8
0
 62
     0
100
AcDbLine
 10
287.4565822925582
 20
36.09627461559852
 30
0.0
 11
287.4565822925582
 21
34.53102651587975
 31
0.0
  0
LINE
  5
6F0
330
6ED
100
AcDbEntity
  8
0
 62
     0
100
AcDbLine
 10
285.1365822925582
 20
34.71102651587975
 30
0.0
 11
285.9040822925582
 21
34.71102651587975
 31
0.0
  0
LINE
  5
6F1
330
6ED
100
AcDbEntity
  8
0
 62
     0
100
AcDbLine
 10
287.2765822925582
 20
34.71102651587975
 30
0.0
 11
286.5090822925582
 21
34.71102651587975
 31
0.0
  0
SOLID
  5
6F2
330
6ED
100
AcDbEntity
  8
0
 62
     0
100
AcDbTrace
 10
285.1365822925582
 20
34.74102651587975
 30
0.0
 11
285.1365822925582
 21
34.68102651587975
 31
0.0
 12
284.9565822925582
 22
34.71102651587975
 32
0.0
 13
284.9565822925582
 23
34.71102651587975
 33
0.0
  0
SOLID
  5
6F3
330
6ED
100
AcDbEntity
  8
0
 62
     0
100
AcDbTrace
 10
287.2765822925582
 20
34.74102651587975
 30
0.0
 11
287.2765822925582
 21
34.68102651587975
 31
0.0
 12
287.4565822925582
 22
34.71102651587975
 32
0.0
 13
287.4565822925582
 23
34.71102651587975
 33
0.0
  0
MTEXT
  5
6F4
330
6ED
100
AcDbEntity
  8
0
 62
     0
100
AcDbMText
 10
286.2065822925582
 20
34.71102651587975
 30
0.0
 40
0.15
 41
0.0
 71
     5
 72
     1
  1
\A1;2.50
1001
ACAD
1000
MTEXTBEGIN
1070
    73
1070
     1
1070
    44
1040
1.0
1070
    74
1070
     0
1000
MTEXTEND
  0
POINT
  5
6F5
330
6ED
100
AcDbEntity
  8
DEFPOINTS
 62
     0
100
AcDbPoint
 10
284.9565822925582
 20
36.15877461559852
 30
0.0
  0
POINT
  5
6F6
330
6ED
100
AcDbEntity
  8
DEFPOINTS
 62
     0
100
AcDbPoint
 10
287.4565822925582
 20
36.15877461559852
 30
0.0
  0
POINT
  5
6F7
330
6ED
100
AcDbEntity
  8
DEFPOINTS
 62
     0
100
AcDbPoint
 10
287.4565822925582
 20
34.71102651587975
 30
0.0
  0
ENDBLK
  5
6F9
330
6ED
100
AcDbEntity
  8
0
100
AcDbBlockEnd
  0
BLOCK
  5
706
330
6FB
100
AcDbEntity
  8
0
100
AcDbBlockBegin
  2
*D7
 70
     1
 10
0.0
 20
0.0
 30
0.0
  3
*D7
  1

  0
LINE
  5
742
330
6FB
100
AcDbEntity
  8
0
 62
     0
100
AcDbLine
 10
285.2565822925582
 20
35.74627461559852
 30
0.0
 11
285.2565822925582
 21
34.97266004105156
 31
0.0
  0
LINE
  5
743
330
6FB
100
AcDbEntity
  8
0
 62
     0
100
AcDbLine
 10
286.6565822925581
 20
35.74627461559852
 30
0.0
 11
286.6565822925581
 21
34.97266004105156
 31
0.0
  0
LINE
  5
744
330
6FB
100
AcDbEntity
  8
0
 62
     0
100
AcDbLine
 10
285.4365822925582
 20
35.15266004105156
 30
0.0
 11
285.6790822925582
 21
35.15266004105156
 31
0.0
  0
LINE
  5
745
330
6FB
100
AcDbEntity
  8
0
 62
     0
100
AcDbLine
 10
286.4765822925582
 20
35.15266004105156
 30
0.0
 11
286.2340822925581
 21
35.15266004105156
 31
0.0
  0
SOLID
  5
746
330
6FB
100
AcDbEntity
  8
0
 62
     0
100
AcDbTrace
 10
285.4365822925582
 20
35.18266004105156
 30
0.0
 11
285.4365822925582
 21
35.12266004105156
 31
0.0
 12
285.2565822925582
 22
35.15266004105156
 32
0.0
 13
285.2565822925582
 23
35.15266004105156
 33
0.0
  0
SOLID
  5
747
330
6FB
100
AcDbEntity
  8
0
 62
     0
100
AcDbTrace
 10
286.4765822925582
 20
35.18266004105156
 30
0.0
 11
286.4765822925582
 21
35.12266004105156
 31
0.0
 12
286.6565822925581
 22
35.15266004105156
 32
0.0
 13
286.6565822925581
 23
35.15266004105156
 33
0.0
  0
MTEXT
  5
748
330
6FB
100
AcDbEntity
  8
0
 62
     0
100
AcDbMText
 10
285.9565822925582
 20
35.15266004105156
 30
0.0
 40
0.15
 41
0.0
 71
     5
 72
     1
  1
\A1;1.40
1001
ACAD
1000
MTEXTBEGIN
1070
    73
1070
     1
1070
    44
1040
1.0
1070
    74
1070
     0
1000
MTEXTEND
  0
POINT
  5
749
330
6FB
100
AcDbEntity
  8
DEFPOINTS
 62
     0
100
AcDbPoint
 10
285.2565822925582
 20
35.80877461559852
 30
0.0
  0
POINT
  5
74A
330
6FB
100
AcDbEntity
  8
DEFPOINTS
 62
     0
100
AcDbPoint
 10
286.6565822925581
 20
35.80877461559852
 30
0.0
  0
POINT
  5
74B
330
6FB
100
AcDbEntity
  8
DEFPOINTS
 62
     0
100
AcDbPoint
 10
286.6565822925581
 20
35.15266004105156
 30
0.0
  0
ENDBLK
  5
707
330
6FB
100
AcDbEntity
  8
0
100
AcDbBlockEnd
  0
BLOCK
  5
714
330
709
100
AcDbEntity
  8
0
100
AcDbBlockBegin
  2
*D8
 70
     1
 10
0.0
 20
0.0
 30
0.0
  3
*D8
  1

  0
LINE
  5
720
330
709
100
AcDbEntity
  8
0
 62
     0
100
AcDbLine
 10
286.6565822925581
 20
36.09627461559852
 30
0.0
 11
286.6565822925581
 21
35.3576738379033
 31
0.0
  0
LINE
  5
721
330
709
100
AcDbEntity
  8
0
 62
     0
100
AcDbLine
 10
287.4565822925582
 20
36.09627461559852
 30
0.0
 11
287.4565822925582
 21
35.3576738379033
 31
0.0
  0
LINE
  5
722
330
709
100
AcDbEntity
  8
0
 62
     0
100
AcDbLine
 10
286.4765822925582
 20
35.53767383790329
 30
0.0
 11
286.2965822925581
 21
35.53767383790329
 31
0.0
  0
LINE
  5
723
330
709
100
AcDbEntity
  8
0
 62
     0
100
AcDbLine
 10
287.6365822925582
 20
35.53767383790329
 30
0.0
 11
287.8165822925582
 21
35.53767383790329
 31
0.0
  0
SOLID
  5
724
330
709
100
AcDbEntity
  8
0
 62
     0
100
AcDbTrace
 10
286.4765822925582
 20
35.56767383790329
 30
0.0
 11
286.4765822925582
 21
35.50767383790329
 31
0.0
 12
286.6565822925581
 22
35.53767383790329
 32
0.0
 13
286.6565822925581
 23
35.53767383790329
 33
0.0
  0
SOLID
  5
725
330
709
100
AcDbEntity
  8
0
 62
     0
100
AcDbTrace
 10
287.6365822925582
 20
35.56767383790329
 30
0.0
 11
287.6365822925582
 21
35.50767383790329
 31
0.0
 12
287.4565822925582
 22
35.53767383790329
 32
0.0
 13
287.4565822925582
 23
35.53767383790329
 33
0.0
  0
MTEXT
  5
726
330
709
100
AcDbEntity
  8
0
 62
     0
100
AcDbMText
 10
287.0860335530502
 20
35.53767383790329
 30
0.0
 40
0.15
 41
0.0
 71
     5
 72
     1
  1
\A1;0.80
1001
ACAD
1000
MTEXTBEGIN
1070
    73
1070
     1
1070
    44
1040
1.0
1070
    74
1070
     0
1000
MTEXTEND
  0
POINT
  5
727
330
709
100
AcDbEntity
  8
DEFPOINTS
 62
     0
100
AcDbPoint
 10
286.6565822925581
 20
36.15877461559852
 30
0.0
  0
POINT
  5
728
330
709
100
AcDbEntity
  8
DEFPOINTS
 62
     0
100
AcDbPoint
 10
287.4565822925582
 20
36.15877461559852
 30
0.0
  0
POINT
  5
729
330
709
100
AcDbEntity
  8
DEFPOINTS
 62
     0
100
AcDbPoint
 10
287.4565822925582
 20
35.53767383790329
 30
0.0
  0
ENDBLK
  5
715
330
709
100
AcDbEntity
  8
0
100
AcDbBlockEnd
  0
BLOCK
  5
736
330
72B
100
AcDbEntity
  8
0
100
AcDbBlockBegin
  2
*D9
 70
     1
 10
0.0
 20
0.0
 30
0.0
  3
*D9
  1

  0
LINE
  5
792
330
72B
100
AcDbEntity
  8
0
 62
     0
100
AcDbLine
 10
284.9565822925582
 20
36.09627461559852
 30
0.0
 11
284.9565822925582
 21
35.38032174899381
 31
0.0
  0
LINE
  5
793
330
72B
100
AcDbEntity
  8
0
 62
     0
100
AcDbLine
 10
285.2565822925582
 20
36.09627461559852
 30
0.0
 11
285.2565822925582
 21
35.38032174899381
 31
0.0
  0
LINE
  5
794
330
72B
100
AcDbEntity
  8
0
 62
     0
100
AcDbLine
 10
285.4365822925582
 20
35.56032174899381
 30
0.0
 11
285.6165822925582
 21
35.56032174899381
 31
0.0
  0
LINE
  5
795
330
72B
100
AcDbEntity
  8
0
 62
     0
100
AcDbLine
 10
284.7765822925582
 20
35.56032174899381
 30
0.0
 11
284.5965822925582
 21
35.56032174899381
 31
0.0
  0
SOLID
  5
796
330
72B
100
AcDbEntity
  8
0
 62
     0
100
AcDbTrace
 10
285.4365822925582
 20
35.59032174899381
 30
0.0
 11
285.4365822925582
 21
35.53032174899381
 31
0.0
 12
285.2565822925582
 22
35.56032174899381
 32
0.0
 13
285.2565822925582
 23
35.56032174899381
 33
0.0
  0
SOLID
  5
797
330
72B
100
AcDbEntity
  8
0
 62
     0
100
AcDbTrace
 10
284.7765822925582
 20
35.59032174899381
 30
0.0
 11
284.7765822925582
 21
35.53032174899381
 31
0.0
 12
284.9565822925582
 22
35.56032174899381
 32
0.0
 13
284.9565822925582
 23
35.56032174899381
 33
0.0
  0
MTEXT
  5
798
330
72B
100
AcDbEntity
  8
0
 62
     0
100
AcDbMText
 10
284.3065822925582
 20
35.56032174899381
 30
0.0
 40
0.15
 41
0.0
 71
     5
 72
     1
  1
\A1;0.30
1001
ACAD
1000
MTEXTBEGIN
1070
    73
1070
     1
1070
    44
1040
1.0
1070
    74
1070
     0
1000
MTEXTEND
  0
POINT
  5
799
330
72B
100
AcDbEntity
  8
DEFPOINTS
 62
     0
100
AcDbPoint
 10
284.9565822925582
 20
36.15877461559852
 30
0.0
  0
POINT
  5
79A
330
72B
100
AcDbEntity
  8
DEFPOINTS
 62
     0
100
AcDbPoint
 10
285.2565822925582
 20
36.15877461559852
 30
0.0
  0
POINT
  5
79B
330
72B
100
AcDbEntity
  8
DEFPOINTS
 62
     0
100
AcDbPoint
 10
285.2565822925582
 20
35.56032174899381
 30
0.0
  0
ENDBLK
  5
737
330
72B
100
AcDbEntity
  8
0
100
AcDbBlockEnd
  0
BLOCK
  5
7A8
330
79D
100
AcDbEntity
  8
0
100
AcDbBlockBegin
  2
*D10
 70
     1
 10
0.0
 20
0.0
 30
0.0
  3
*D10
  1

  0
LINE
  5
7C2
330
79D
100
AcDbEntity
  8
0
 62
     0
100
AcDbLine
 10
286.7190822925582
 20
35.80877461559852
 30
0.0
 11
288.1026288223379
 21
35.80877461559852
 31
0.0
  0
LINE
  5
7C3
330
79D
100
AcDbEntity
  8
0
 62
     0
100
AcDbLine
 10
286.7190822925582
 20
36.15877461559852
 30
0.0
 11
288.1026288223379
 21
36.15877461559852
 31
0.0
  0
LINE
  5
7C4
330
79D
100
AcDbEntity
  8
0
 62
     0
100
AcDbLine
 10
287.9226288223379
 20
35.62877461559852
 30
0.0
 11
287.9226288223379
 21
35.44877461559852
 31
0.0
  0
LINE
  5
7C5
330
79D
100
AcDbEntity
  8
0
 62
     0
100
AcDbLine
 10
287.9226288223379
 20
36.33877461559852
 30
0.0
 11
287.9226288223379
 21
36.51877461559852
 31
0.0
  0
SOLID
  5
7C6
330
79D
100
AcDbEntity
  8
0
 62
     0
100
AcDbTrace
 10
287.892628822338
 20
35.62877461559852
 30
0.0
 11
287.9526288223379
 21
35.62877461559852
 31
0.0
 12
287.9226288223379
 22
35.80877461559852
 32
0.0
 13
287.9226288223379
 23
35.80877461559852
 33
0.0
  0
SOLID
  5
7C7
330
79D
100
AcDbEntity
  8
0
 62
     0
100
AcDbTrace
 10
287.892628822338
 20
36.33877461559852
 30
0.0
 11
287.9526288223379
 21
36.33877461559852
 31
0.0
 12
287.9226288223379
 22
36.15877461559852
 32
0.0
 13
287.9226288223379
 23
36.15877461559852
 33
0.0
  0
MTEXT
  5
7C8
330
79D
100
AcDbEntity
  8
0
 62
     0
100
AcDbMText
 10
287.9226288223379
 20
35.98377461559858
 30
0.0
 40
0.15
 41
0.0
 71
     5
 72
     1
  1
\A1;0.35
1001
ACAD
1000
MTEXTBEGIN
1070
    73
1070
     1
1070
    44
1040
1.0
1070
    74
1070
     0
1000
MTEXTEND
  0
POINT
  5
7C9
330
79D
100
AcDbEntity
  8
DEFPOINTS
 62
     0
100
AcDbPoint
 10
286.6565822925581
 20
35.80877461559852
 30
0.0
  0
POINT
  5
7CA
330
79D
100
AcDbEntity
  8
DEFPOINTS
 62
     0
100
AcDbPoint
 10
286.6565822925581
 20
36.15877461559852
 30
0.0
  0
POINT
  5
7CB
330
79D
100
AcDbEntity
  8
DEFPOINTS
 62
     0
100
AcDbPoint
 10
287.9226288223379
 20
36.15877461559852
 30
0.0
  0
ENDBLK
  5
7A9
330
79D
100
AcDbEntity
  8
0
100
AcDbBlockEnd
  0
BLOCK
  5
7B6
330
7AB
100
AcDbEntity
  8
0
100
AcDbBlockBegin
  2
*D11
 70
     1
 10
0.0
 20
0.0
 30
0.0
  3
*D11
  1

  0
LINE
  5
7EA
330
7AB
100
AcDbEntity
  8
0
 62
     0
100
AcDbLine
 10
286.7190822925582
 20
35.80877461559852
 30
0.0
 11
288.5357933706393
 21
35.80877461559852
 31
0.0
  0
LINE
  5
7EB
330
7AB
100
AcDbEntity
  8
0
 62
     0
100
AcDbLine
 10
287.5190822925582
 20
37.80877461559852
 30
0.0
 11
288.5357933706393
 21
37.80877461559852
 31
0.0
  0
LINE
  5
7EC
330
7AB
100
AcDbEntity
  8
0
 62
     0
100
AcDbLine
 10
288.3557933706393
 20
35.98877461559852
 30
0.0
 11
288.3557933706393
 21
36.75602464227301
 31
0.0
  0
LINE
  5
7ED
330
7AB
100
AcDbEntity
  8
0
 62
     0
100
AcDbLine
 10
288.3557933706393
 20
37.62877461559852
 30
0.0
 11
288.3557933706393
 21
37.08602464227301
 31
0.0
  0
SOLID
  5
7EE
330
7AB
100
AcDbEntity
  8
0
 62
     0
100
AcDbTrace
 10
288.3257933706393
 20
35.98877461559852
 30
0.0
 11
288.3857933706392
 21
35.98877461559852
 31
0.0
 12
288.3557933706393
 22
35.80877461559852
 32
0.0
 13
288.3557933706393
 23
35.80877461559852
 33
0.0
  0
SOLID
  5
7EF
330
7AB
100
AcDbEntity
  8
0
 62
     0
100
AcDbTrace
 10
288.3257933706393
 20
37.62877461559852
 30
0.0
 11
288.3857933706392
 21
37.62877461559852
 31
0.0
 12
288.3557933706393
 22
37.80877461559852
 32
0.0
 13
288.3557933706393
 23
37.80877461559852
 33
0.0
  0
MTEXT
  5
7F0
330
7AB
100
AcDbEntity
  8
0
 62
     0
100
AcDbMText
 10
288.3557933706393
 20
36.92102464227307
 30
0.0
 40
0.15
 41
0.0
 71
     5
 72
     1
  1
\A1;2.00
1001
ACAD
1000
MTEXTBEGIN
1070
    73
1070
     1
1070
    44
1040
1.0
1070
    74
1070
     0
1000
MTEXTEND
  0
POINT
  5
7F1
330
7AB
100
AcDbEntity
  8
DEFPOINTS
 62
     0
100
AcDbPoint
 10
286.6565822925581
 20
35.80877461559852
 30
0.0
  0
POINT
  5
7F2
330
7AB
100
AcDbEntity
  8
DEFPOINTS
 62
     0
100
AcDbPoint
 10
287.4565822925582
 20
37.80877461559852
 30
0.0
  0
POINT
  5
7F3
330
7AB
100
AcDbEntity
  8
DEFPOINTS
 62
     0
100
AcDbPoint
 10
288.3557933706393
 20
37.80877461559852
 30
0.0
  0
ENDBLK
  5
7B7
330
7AB
100
AcDbEntity
  8
0
100
AcDbBlockEnd
  0
BLOCK
  5
813
330
808
100
AcDbEntity
  8
0
100
AcDbBlockBegin
  2
*D12
 70
     1
 10
0.0
 20
0.0
 30
0.0
  3
*D12
  1

  0
LINE
  5
809
330
808
100
AcDbEntity
  8
0
 62
     0
100
AcDbLine
 10
284.2333973766054
 20
37.50503734917494
 30
0.0
 11
284.2333973766054
 21
38.0762613258591
 31
0.0
  0
LINE
  5
80A
330
808
100
AcDbEntity
  8
0
 62
     0
100
AcDbLine
 10
288.3333973766054
 20
37.50503734917494
 30
0.0
 11
288.3333973766054
 21
38.0762613258591
 31
0.0
  0
LINE
  5
80B
330
808
100
AcDbEntity
  8
0
 62
     0
100
AcDbLine
 10
284.4133973766054
 20
37.8962613258591
 30
0.0
 11
286.0058973766054
 21
37.8962613258591
 31
0.0
  0
LINE
  5
80C
330
808
100
AcDbEntity
  8
0
 62
     0
100
AcDbLine
 10
288.1533973766054
 20
37.8962613258591
 30
0.0
 11
286.5608973766054
 21
37.8962613258591
 31
0.0
  0
SOLID
  5
80D
330
808
100
AcDbEntity
  8
0
 62
     0
100
AcDbTrace
 10
284.4133973766054
 20
37.9262613258591
 30
0.0
 11
284.4133973766054
 21
37.8662613258591
 31
0.0
 12
284.2333973766054
 22
37.8962613258591
 32
0.0
 13
284.2333973766054
 23
37.8962613258591
 33
0.0
  0
SOLID
  5
80E
330
808
100
AcDbEntity
  8
0
 62
     0
100
AcDbTrace
 10
288.1533973766054
 20
37.9262613258591
 30
0.0
 11
288.1533973766054
 21
37.8662613258591
 31
0.0
 12
288.3333973766054
 22
37.8962613258591
 32
0.0
 13
288.3333973766054
 23
37.8962613258591
 33
0.0
  0
MTEXT
  5
80F
330
808
100
AcDbEntity
  8
0
 62
     0
100
AcDbMText
 10
286.2833973766054
 20
37.8962613258591
 30
0.0
 40
0.15
 41
0.0
 71
     5
 72
     1
  1
\A1;4.10
1001
ACAD
1000
MTEXTBEGIN
1070
    73
1070
     1
1070
    44
1040
1.0
1070
    74
1070
     0
1000
MTEXTEND
  0
POINT
  5
810
330
808
100
AcDbEntity
  8
DEFPOINTS
 62
     0
100
AcDbPoint
 10
284.2333973766054
 20
37.44253734917494
 30
0.0
  0
POINT
  5
811
330
808
100
AcDbEntity
  8
DEFPOINTS
 62
     0
100
AcDbPoint
 10
288.3333973766054
 20
37.44253734917494
 30
0.0
  0
POINT
  5
812
330
808
100
AcDbEntity
  8
DEFPOINTS
 62
     0
100
AcDbPoint
 10
288.3333973766054
 20
37.8962613258591
 30
0.0
  0
ENDBLK
  5
814
330
808
100
AcDbEntity
  8
0
100
AcDbBlockEnd
  0
BLOCK
  5
821
330
816
100
AcDbEntity
  8
0
100
AcDbBlockBegin
  2
*D13
 70
     1
 10
0.0
 20
0.0
 30
0.0
  3
*D13
  1

  0
LINE
  5
817
330
816
100
AcDbEntity
  8
0
 62
     0
100
AcDbLine
 10
288.3958973766054
 20
37.44253734917494
 30
0.0
 11
289.4320146900784
 21
37.44253734917494
 31
0.0
  0
LINE
  5
818
330
816
100
AcDbEntity
  8
0
 62
     0
100
AcDbLine
 10
288.3958973766054
 20
36.44253734917494
 30
0.0
 11
289.4320146900784
 21
36.44253734917494
 31
0.0
  0
LINE
  5
819
330
816
100
AcDbEntity
  8
0
 62
     0
100
AcDbLine
 10
289.2520146900784
 20
37.26253734917494
 30
0.0
 11
289.2520146900784
 21
37.10753734917494
 31
0.0
  0
LINE
  5
81A
330
816
100
AcDbEntity
  8
0
 62
     0
100
AcDbLine
 10
289.2520146900784
 20
36.62253734917494
 30
0.0
 11
289.2520146900784
 21
36.77753734917494
 31
0.0
  0
SOLID
  5
81B
330
816
100
AcDbEntity
  8
0
 62
     0
100
AcDbTrace
 10
289.2220146900784
 20
37.26253734917494
 30
0.0
 11
289.2820146900784
 21
37.26253734917494
 31
0.0
 12
289.2520146900784
 22
37.44253734917494
 32
0.0
 13
289.2520146900784
 23
37.44253734917494
 33
0.0
  0
SOLID
  5
81C
330
816
100
AcDbEntity
  8
0
 62
     0
100
AcDbTrace
 10
289.2220146900784
 20
36.62253734917494
 30
0.0
 11
289.2820146900784
 21
36.62253734917494
 31
0.0
 12
289.2520146900784
 22
36.44253734917494
 32
0.0
 13
289.2520146900784
 23
36.44253734917494
 33
0.0
  0
MTEXT
  5
81D
330
816
100
AcDbEntity
  8
0
 62
     0
100
AcDbMText
 10
289.2520146900784
 20
36.94253734917499
 30
0.0
 40
0.15
 41
0.0
 71
     5
 72
     1
  1
\A1;1.00
1001
ACAD
1000
MTEXTBEGIN
1070
    73
1070
     1
1070
    44
1040
1.0
1070
    74
1070
     0
1000
MTEXTEND
  0
POINT
  5
81E
330
816
100
AcDbEntity
  8
DEFPOINTS
 62
     0
100
AcDbPoint
 10
288.3333973766054
 20
37.44253734917494
 30
0.0
  0
POINT
  5
81F
330
816
100
AcDbEntity
  8
DEFPOINTS
 62
     0
100
AcDbPoint
 10
288.3333973766054
 20
36.44253734917494
 30
0.0
  0
POINT
  5
820
330
816
100
AcDbEntity
  8
DEFPOINTS
 62
     0
100
AcDbPoint
 10
289.2520146900784
 20
36.44253734917494
 30
0.0
  0
ENDBLK
  5
822
330
816
100
AcDbEntity
  8
0
100
AcDbBlockEnd
  0
ENDSEC
  0
SECTION
  2
ENTITIES
  0
TEXT
  5
2C
330
1E
100
AcDbEntity
  8
0
  6
CONTINUOUS
100
AcDbText
 10
287.1185593216528
 20
41.32981838511393
 30
0.0
 40
0.15
  1
2
  7
ROMANC
100
AcDbText
  0
TEXT
  5
2D
330
1E
100
AcDbEntity
  8
0
  6
CONTINUOUS
100
AcDbText
 10
283.9259999999999
 20
41.768
 30
0.0
 40
0.3
  1
ESCALA  1:50
  7
ROMANC
100
AcDbText
  0
LWPOLYLINE
  5
2E
330
1E
100
AcDbEntity
  8
NO_PRINT
  6
CONTINUOUS
100
AcDbPolyline
 90
        4
 70
     1
 43
0.0
 10
281.3959999999999
 20
44.747
 10
291.8959999999999
 20
44.747
 10
291.8959999999999
 20
29.897
 10
281.3959999999999
 20
29.897
  0
TEXT
  5
34
330
1E
100
AcDbEntity
  8
0
  6
CONTINUOUS
100
AcDbText
 10
283.9259999999999
 20
42.381
 30
0.0
 40
0.3
  1
TIPUS   NT410
  7
ROMANC
100
AcDbText
  0
TEXT
  5
36
330
1E
100
AcDbEntity
  8
0
  6
CONTINUOUS
100
AcDbText
 10
283.922
 20
40.529
 30
0.0
 40
0.3
  1
P = 102 dm
  7
ROMANC
100
AcDbText
  0
TEXT
  5
37
330
1E
100
AcDbEntity
  8
0
  6
CONTINUOUS
100
AcDbText
 10
283.9449999999999
 20
41.09899999999998
 30
0.0
 40
0.3
  1
S = 410 dm
  7
ROMANC
100
AcDbText
  0
LWPOLYLINE
  5
804
330
1E
100
AcDbEntity
  8
0
100
AcDbPolyline
 90
        4
 70
     1
 43
0.0
 10
284.2333973766054
 20
36.44253734917494
 10
284.2333973766054
 20
37.44253734917494
 10
288.3333973766054
 20
37.44253734917494
 10
288.3333973766054
 20
36.44253734917494
  0
DIMENSION
  5
807
330
1E
100
AcDbEntity
  8
0
100
AcDbDimension
  2
*D12
 10
288.3333973766054
 20
37.8962613258591
 30
0.0
 11
286.2833973766054
 21
37.8962613258591
 31
0.0
 70
    32
  3
STANDARD
100
AcDbAlignedDimension
 13
284.2333973766054
 23
37.44253734917494
 33
0.0
 14
288.3333973766054
 24
37.44253734917494
 34
0.0
100
AcDbRotatedDimension
  0
DIMENSION
  5
815
330
1E
100
AcDbEntity
  8
0
100
AcDbDimension
  2
*D13
 10
289.2520146900784
 20
36.44253734917494
 30
0.0
 11
289.2520146900784
 21
36.94253734917499
 31
0.0
 70
    32
  3
STANDARD
100
AcDbAlignedDimension
 13
288.3333973766054
 23
37.44253734917494
 33
0.0
 14
288.3333973766054
 24
36.44253734917494
 34
0.0
 50
90.0
100
AcDbRotatedDimension
  0
LWPOLYLINE
  5
823
330
1E
100
AcDbEntity
  8
0
100
AcDbPolyline
 90
        4
 70
     1
 43
0.0
 10
284.2233973766054
 20
36.43253734917494
 10
284.2233973766054
 20
37.45253734917493
 10
288.3433973766054
 20
37.45253734917493
 10
288.3433973766054
 20
36.43253734917494
  0
LWPOLYLINE
  5
824
330
1E
100
AcDbEntity
  8
0
100
AcDbPolyline
 90
        4
 70
     1
 43
0.0
 10
284.2433973766054
 20
36.45253734917494
 10
284.2433973766054
 20
37.43253734917494
 10
288.3233973766054
 20
37.43253734917494
 10
288.3233973766054
 20
36.45253734917494
  0
ENDSEC
  0
SECTION
  2
OBJECTS
  0
DICTIONARY
  5
C
330
0
100
AcDbDictionary
  3
ACAD_GROUP
350
D
  3
ACAD_LAYOUT
350
19
  3
ACAD_MLINESTYLE
350
16
  3
ACAD_PLOTSETTINGS
350
18
  3
ACAD_PLOTSTYLENAME
350
E
  3
ACDBHEADERROUNDTRIPXREC
350
84E
  3
ACDBVARIABLEDICTIONARY
350
6E
  3
DWGPROPS
350
271
  0
DICTIONARY
  5
39D
330
1E
100
AcDbDictionary
280
     1
  3
ACAD_LAYOUTSELFREF
360
86F
  0
DICTIONARY
  5
39F
330
1A
100
AcDbDictionary
280
     1
  3
ACAD_LAYOUTSELFREF
360
86E
  0
DICTIONARY
  5
D
102
{ACAD_REACTORS
330
C
102
}
330
C
100
AcDbDictionary
  0
DICTIONARY
  5
19
102
{ACAD_REACTORS
330
C
102
}
330
C
100
AcDbDictionary
  0
DICTIONARY
  5
16
102
{ACAD_REACTORS
330
C
102
}
330
C
100
AcDbDictionary
  3
STANDARD
350
17
  0
DICTIONARY
  5
18
102
{ACAD_REACTORS
330
C
102
}
330
C
100
AcDbDictionary
  0
ACDBDICTIONARYWDFLT
  5
E
102
{ACAD_REACTORS
330
C
102
}
330
C
100
AcDbDictionary
281
     1
  3
Normal
350
F
100
AcDbDictionaryWithDefault
340
F
  0
DICTIONARY
  5
84E
102
{ACAD_REACTORS
330
C
102
}
330
C
100
AcDbDictionary
  3
CEPSNTYPE
350
858
  3
FINGERPRINTGUID
350
859
  3
HYPERLINKBASE
350
851
  3
INSUNITS
350
857
  3
LAYOUTDICT
350
853
  3
LWETCUNION
350
856
  3
PLOTSETDICT
350
854
  3
PLOTSTYLNAMDICT
350
855
  3
PSVPSCALE
350
85B
  3
PUCSBASE
350
85E
  3
PUCSORGBACK
350
864
  3
PUCSORGBOTTOM
350
860
  3
PUCSORGFRONT
350
863
  3
PUCSORGLEFT
350
861
  3
PUCSORGRIGHT
350
862
  3
PUCSORGTOP
350
85F
  3
PUCSORTHOREF
350
85C
  3
PUCSORTHOVIEW
350
85D
  3
STYLESHEET
350
852
  3
TSTACKALIGN
350
84F
  3
TSTACKSIZE
350
850
  3
UCSBASE
350
867
  3
UCSORGBACK
350
86D
  3
UCSORGBOTTOM
350
869
  3
UCSORGFRONT
350
86C
  3
UCSORGLEFT
350
86A
  3
UCSORGRIGHT
350
86B
  3
UCSORGTOP
350
868
  3
UCSORTHOREF
350
865
  3
UCSORTHOVIEW
350
866
  3
VERSIONGUID
350
85A
  0
DICTIONARY
  5
6E
102
{ACAD_REACTORS
330
C
102
}
330
C
100
AcDbDictionary
  3
DIMASSOC
350
6F
  0
XRECORD
  5
271
102
{ACAD_REACTORS
330
C
102
}
330
C
100
AcDbXrecord
  1
DWGPROPS COOKIE
  2

  3

  4

  6

  7

  8
JaumeTrias
  9

300
=
301
=
302
=
303
=
304
=
305
=
306
=
307
=
308
=
309
=
 40
0.0195228587962963
 41
2448315.331741435
 42
2452943.48254824
  1

 90
        0
  0
XRECORD
  5
86F
102
{ACAD_REACTORS
330
39D
102
}
330
39D
100
AcDbXrecord
340
1E
  0
XRECORD
  5
86E
102
{ACAD_REACTORS
330
39F
102
}
330
39F
100
AcDbXrecord
340
1A
  0
MLINESTYLE
  5
17
102
{ACAD_REACTORS
330
16
102
}
330
16
100
AcDbMlineStyle
  2
STANDARD
 70
     0
  3

 62
   256
 51
90.0
 52
90.0
 71
     2
 49
0.5
 62
   256
  6
BYLAYER
 49
-0.5
 62
   256
  6
BYLAYER
  0
ACDBPLACEHOLDER
  5
F
102
{ACAD_REACTORS
330
E
102
}
330
E
100
AcDbPlaceHolder
280
     0
  0
XRECORD
  5
858
102
{ACAD_REACTORS
330
84E
102
}
330
84E
100
AcDbXrecord
 90
        0
  0
XRECORD
  5
859
102
{ACAD_REACTORS
330
84E
102
}
330
84E
100
AcDbXrecord
  1
{A6FCFFB5-5CE9-42DC-A06F-C5476E26D97B}
  0
XRECORD
  5
851
102
{ACAD_REACTORS
330
84E
102
}
330
84E
100
AcDbXrecord
  1

  0
XRECORD
  5
857
102
{ACAD_REACTORS
330
84E
102
}
330
84E
100
AcDbXrecord
 90
        0
  0
XRECORD
  5
853
102
{ACAD_REACTORS
330
84E
102
}
330
84E
100
AcDbXrecord
340
19
  0
XRECORD
  5
856
102
{ACAD_REACTORS
330
84E
102
}
330
84E
100
AcDbXrecord
 90
    10781
  0
XRECORD
  5
854
102
{ACAD_REACTORS
330
84E
102
}
330
84E
100
AcDbXrecord
340
18
  0
XRECORD
  5
855
102
{ACAD_REACTORS
330
84E
102
}
330
84E
100
AcDbXrecord
340
E
  0
XRECORD
  5
85B
102
{ACAD_REACTORS
330
84E
102
}
330
84E
100
AcDbXrecord
 40
0.0
  0
XRECORD
  5
85E
102
{ACAD_REACTORS
330
84E
102
}
330
84E
100
AcDbXrecord
340
0
  0
XRECORD
  5
864
102
{ACAD_REACTORS
330
84E
102
}
330
84E
100
AcDbXrecord
 10
0.0
 20
0.0
 30
0.0
  0
XRECORD
  5
860
102
{ACAD_REACTORS
330
84E
102
}
330
84E
100
AcDbXrecord
 10
0.0
 20
0.0
 30
0.0
  0
XRECORD
  5
863
102
{ACAD_REACTORS
330
84E
102
}
330
84E
100
AcDbXrecord
 10
0.0
 20
0.0
 30
0.0
  0
XRECORD
  5
861
102
{ACAD_REACTORS
330
84E
102
}
330
84E
100
AcDbXrecord
 10
0.0
 20
0.0
 30
0.0
  0
XRECORD
  5
862
102
{ACAD_REACTORS
330
84E
102
}
330
84E
100
AcDbXrecord
 10
0.0
 20
0.0
 30
0.0
  0
XRECORD
  5
85F
102
{ACAD_REACTORS
330
84E
102
}
330
84E
100
AcDbXrecord
 10
0.0
 20
0.0
 30
0.0
  0
XRECORD
  5
85C
102
{ACAD_REACTORS
330
84E
102
}
330
84E
100
AcDbXrecord
340
0
  0
XRECORD
  5
85D
102
{ACAD_REACTORS
330
84E
102
}
330
84E
100
AcDbXrecord
 70
     0
  0
XRECORD
  5
852
102
{ACAD_REACTORS
330
84E
102
}
330
84E
100
AcDbXrecord
  1

  0
XRECORD
  5
84F
102
{ACAD_REACTORS
330
84E
102
}
330
84E
100
AcDbXrecord
 90
        1
  0
XRECORD
  5
850
102
{ACAD_REACTORS
330
84E
102
}
330
84E
100
AcDbXrecord
 90
       70
  0
XRECORD
  5
867
102
{ACAD_REACTORS
330
84E
102
}
330
84E
100
AcDbXrecord
340
0
  0
XRECORD
  5
86D
102
{ACAD_REACTORS
330
84E
102
}
330
84E
100
AcDbXrecord
 10
0.0
 20
0.0
 30
0.0
  0
XRECORD
  5
869
102
{ACAD_REACTORS
330
84E
102
}
330
84E
100
AcDbXrecord
 10
0.0
 20
0.0
 30
0.0
  0
XRECORD
  5
86C
102
{ACAD_REACTORS
330
84E
102
}
330
84E
100
AcDbXrecord
 10
0.0
 20
0.0
 30
0.0
  0
XRECORD
  5
86A
102
{ACAD_REACTORS
330
84E
102
}
330
84E
100
AcDbXrecord
 10
0.0
 20
0.0
 30
0.0
  0
XRECORD
  5
86B
102
{ACAD_REACTORS
330
84E
102
}
330
84E
100
AcDbXrecord
 10
0.0
 20
0.0
 30
0.0
  0
XRECORD
  5
868
102
{ACAD_REACTORS
330
84E
102
}
330
84E
100
AcDbXrecord
 10
0.0
 20
0.0
 30
0.0
  0
XRECORD
  5
865
102
{ACAD_REACTORS
330
84E
102
}
330
84E
100
AcDbXrecord
340
0
  0
XRECORD
  5
866
102
{ACAD_REACTORS
330
84E
102
}
330
84E
100
AcDbXrecord
 70
     0
  0
XRECORD
  5
85A
102
{ACAD_REACTORS
330
84E
102
}
330
84E
100
AcDbXrecord
  1
{973E6225-AF86-49F8-A37F-CA26786DD489}
  0
DICTIONARYVAR
  5
6F
102
{ACAD_REACTORS
330
6E
102
}
330
6E
100
DictionaryVariables
280
     0
  1
1
  0
ENDSEC
  0
EOF
