  0
SECTION
  2
HEADER
  9
$ACADVER
  1
AC1014
  9
$ACADMAINTVER
 70
     9
  9
$DWGCODEPAGE
  3
ANSI_1252
  9
$INSBASE
 10
286.1746514617411
 20
42.37695996300206
 30
0.0
  9
$EXTMIN
 10
281.3950692441339
 20
29.89658881231517
 30
-0.0000000000000058
  9
$EXTMAX
 10
291.8969308140734
 20
44.7477256808967
 30
0.0000000000000104
  9
$LIMMIN
 10
280.3959999999999
 20
28.89699999999999
  9
$LIMMAX
 10
292.8959999999999
 20
43.74699999999999
  9
$ORTHOMODE
 70
     1
  9
$REGENMODE
 70
     1
  9
$FILLMODE
 70
     1
  9
$QTEXTMODE
 70
     0
  9
$MIRRTEXT
 70
     1
  9
$DRAGMODE
 70
     2
  9
$LTSCALE
 40
1.0
  9
$OSMODE
 70
   295
  9
$ATTMODE
 70
     1
  9
$TEXTSIZE
 40
0.3
  9
$TRACEWID
 40
0.05
  9
$TEXTSTYLE
  7
ROMANC
  9
$CLAYER
  8
0
  9
$CELTYPE
  6
BYLAYER
  9
$CECOLOR
 62
   256
  9
$CELTSCALE
 40
1.0
  9
$DELOBJ
 70
     1
  9
$DISPSILH
 70
     0
  9
$DIMSCALE
 40
1.0
  9
$DIMASZ
 40
0.18
  9
$DIMEXO
 40
0.0625
  9
$DIMDLI
 40
0.38
  9
$DIMRND
 40
0.0
  9
$DIMDLE
 40
0.0
  9
$DIMEXE
 40
0.18
  9
$DIMTP
 40
0.0
  9
$DIMTM
 40
0.0
  9
$DIMTXT
 40
0.18
  9
$DIMCEN
 40
0.09
  9
$DIMTSZ
 40
0.0
  9
$DIMTOL
 70
     0
  9
$DIMLIM
 70
     0
  9
$DIMTIH
 70
     1
  9
$DIMTOH
 70
     1
  9
$DIMSE1
 70
     0
  9
$DIMSE2
 70
     0
  9
$DIMTAD
 70
     0
  9
$DIMZIN
 70
     0
  9
$DIMBLK
  1

  9
$DIMASO
 70
     1
  9
$DIMSHO
 70
     1
  9
$DIMPOST
  1

  9
$DIMAPOST
  1

  9
$DIMALT
 70
     0
  9
$DIMALTD
 70
     2
  9
$DIMALTF
 40
25.4
  9
$DIMLFAC
 40
1.0
  9
$DIMTOFL
 70
     0
  9
$DIMTVP
 40
0.0
  9
$DIMTIX
 70
     0
  9
$DIMSOXD
 70
     0
  9
$DIMSAH
 70
     0
  9
$DIMBLK1
  1

  9
$DIMBLK2
  1

  9
$DIMSTYLE
  2
STANDARD
  9
$DIMCLRD
 70
     0
  9
$DIMCLRE
 70
     0
  9
$DIMCLRT
 70
     0
  9
$DIMTFAC
 40
1.0
  9
$DIMGAP
 40
0.09
  9
$DIMJUST
 70
     0
  9
$DIMSD1
 70
     0
  9
$DIMSD2
 70
     0
  9
$DIMTOLJ
 70
     1
  9
$DIMTZIN
 70
     0
  9
$DIMALTZ
 70
     0
  9
$DIMALTTZ
 70
     0
  9
$DIMFIT
 70
     3
  9
$DIMUPT
 70
     0
  9
$DIMUNIT
 70
     2
  9
$DIMDEC
 70
     2
  9
$DIMTDEC
 70
     2
  9
$DIMALTU
 70
     2
  9
$DIMALTTD
 70
     2
  9
$DIMTXSTY
  7
STANDARD
  9
$DIMAUNIT
 70
     0
  9
$LUNITS
 70
     2
  9
$LUPREC
 70
     4
  9
$SKETCHINC
 40
0.1
  9
$FILLETRAD
 40
0.0
  9
$AUNITS
 70
     0
  9
$AUPREC
 70
     0
  9
$MENU
  1
acad
  9
$ELEVATION
 40
0.0
  9
$PELEVATION
 40
0.0
  9
$THICKNESS
 40
0.0
  9
$LIMCHECK
 70
     0
  9
$BLIPMODE
 70
     0
  9
$CHAMFERA
 40
0.0
  9
$CHAMFERB
 40
0.0
  9
$CHAMFERC
 40
0.0
  9
$CHAMFERD
 40
0.0
  9
$SKPOLY
 70
     0
  9
$TDCREATE
 40
2448315.331741435
  9
$TDUPDATE
 40
2452304.449466146
  9
$TDINDWG
 40
0.1808099884
  9
$TDUSRTIMER
 40
0.1807203935
  9
$USRTIMER
 70
     1
  9
$ANGBASE
 50
0.0
  9
$ANGDIR
 70
     0
  9
$PDMODE
 70
     2
  9
$PDSIZE
 40
-2.5
  9
$PLINEWID
 40
0.0
  9
$COORDS
 70
     1
  9
$SPLFRAME
 70
     0
  9
$SPLINETYPE
 70
     6
  9
$SPLINESEGS
 70
     8
  9
$ATTDIA
 70
     0
  9
$ATTREQ
 70
     1
  9
$HANDLING
 70
  4097
  9
$HANDSEED
  5
11CB
  9
$SURFTAB1
 70
     6
  9
$SURFTAB2
 70
     6
  9
$SURFTYPE
 70
     6
  9
$SURFU
 70
     6
  9
$SURFV
 70
     6
  9
$UCSNAME
  2

  9
$UCSORG
 10
0.0
 20
0.0
 30
0.0
  9
$UCSXDIR
 10
1.0
 20
0.0
 30
0.0
  9
$UCSYDIR
 10
0.0
 20
1.0
 30
0.0
  9
$PUCSNAME
  2

  9
$PUCSORG
 10
0.0
 20
0.0
 30
0.0
  9
$PUCSXDIR
 10
1.0
 20
0.0
 30
0.0
  9
$PUCSYDIR
 10
0.0
 20
1.0
 30
0.0
  9
$USERI1
 70
     0
  9
$USERI2
 70
     0
  9
$USERI3
 70
     0
  9
$USERI4
 70
     0
  9
$USERI5
 70
     0
  9
$USERR1
 40
0.0
  9
$USERR2
 40
0.0
  9
$USERR3
 40
0.0
  9
$USERR4
 40
0.0
  9
$USERR5
 40
0.0
  9
$WORLDVIEW
 70
     1
  9
$SHADEDGE
 70
     3
  9
$SHADEDIF
 70
    70
  9
$TILEMODE
 70
     1
  9
$MAXACTVP
 70
    16
  9
$PINSBASE
 10
0.0
 20
0.0
 30
0.0
  9
$PLIMCHECK
 70
     0
  9
$PEXTMIN
 10
0.3341875024984802
 20
0.4535837131396649
 30
-0.0015258207003583
  9
$PEXTMAX
 10
199.6273174580067
 20
286.3335861727313
 30
0.0000000349246037
  9
$PLIMMIN
 10
-2.801048903799753
 20
-1.822119893084443
  9
$PLIMMAX
 10
202.4504644270626
 20
288.4680724023113
  9
$UNITMODE
 70
     0
  9
$VISRETAIN
 70
     0
  9
$PLINEGEN
 70
     0
  9
$PSLTSCALE
 70
     1
  9
$TREEDEPTH
 70
  3020
  9
$PICKSTYLE
 70
     1
  9
$CMLSTYLE
  2
STANDARD
  9
$CMLJUST
 70
     0
  9
$CMLSCALE
 40
1.0
  9
$PROXYGRAPHICS
 70
     1
  9
$MEASUREMENT
 70
     0
  0
ENDSEC
  0
SECTION
  2
CLASSES
  0
CLASS
  1
ACDBDICTIONARYWDFLT
  2
AcDbDictionaryWithDefault
  3
AutoCAD 2000
 90
        0
280
     0
281
     0
  0
CLASS
  1
ACDBPLACEHOLDER
  2
AcDbPlaceHolder
  3
AutoCAD 2000
 90
        0
280
     0
281
     0
  0
CLASS
  1
LAYOUT
  2
AcDbLayout
  3
AutoCAD 2000
 90
        0
280
     0
281
     0
  0
CLASS
  1
LONG_TRANSACTION
  2
AcDbLongTransaction
  3
AutoCAD 2000
 90
        0
280
     0
281
     0
  0
CLASS
  1
LWPOLYLINE
  2
AcDbPolyline
  3
AutoCAD 2000
 90
        0
280
     0
281
     1
  0
CLASS
  1
HATCH
  2
AcDbHatch
  3
AutoCAD 2000
 90
        0
280
     0
281
     1
  0
CLASS
  1
XRECORD
  2
AcDbXrecord
  3
AutoCAD 2000
 90
        0
280
     0
281
     0
  0
CLASS
  1
LONG_TRANSACTION
  2
AcDbLongTransaction
  3
AutoCAD 2000
 90
        0
280
     0
281
     0
  0
CLASS
  1
LWPOLYLINE
  2
AcDbPolyline
  3
AutoCAD 2000
 90
        0
280
     0
281
     1
  0
CLASS
  1
HATCH
  2
AcDbHatch
  3
AutoCAD 2000
 90
        0
280
     0
281
     1
  0
CLASS
  1
XRECORD
  2
AcDbXrecord
  3
AutoCAD 2000
 90
        0
280
     0
281
     0
  0
CLASS
  1
PLOTSETTINGS
  2
AcDbPlotSettings
  3
AutoCAD 2000
 90
        0
280
     0
281
     0
  0
CLASS
  1
LONG_TRANSACTION
  2
AcDbLongTransaction
  3
AutoCAD 2000
 90
        0
280
     0
281
     0
  0
CLASS
  1
LWPOLYLINE
  2
AcDbPolyline
  3
AutoCAD 2000
 90
        0
280
     0
281
     1
  0
CLASS
  1
HATCH
  2
AcDbHatch
  3
AutoCAD 2000
 90
        0
280
     0
281
     1
  0
CLASS
  1
XRECORD
  2
AcDbXrecord
  3
AutoCAD 2000
 90
        0
280
     0
281
     0
  0
CLASS
  1
DICTIONARYVAR
  2
AcDbDictionaryVar
  3
AutoCAD 2000
 90
        0
280
     0
281
     0
  0
CLASS
  1
SORTENTSTABLE
  2
AcDbSortentsTable
  3
AutoCAD 2000
 90
        0
280
     0
281
     0
  0
CLASS
  1
LONG_TRANSACTION
  2
AcDbLongTransaction
  3
AutoCAD 2000
 90
        0
280
     0
281
     0
  0
CLASS
  1
LWPOLYLINE
  2
AcDbPolyline
  3
AutoCAD 2000
 90
        0
280
     0
281
     1
  0
CLASS
  1
HATCH
  2
AcDbHatch
  3
AutoCAD 2000
 90
        0
280
     0
281
     1
  0
CLASS
  1
XRECORD
  2
AcDbXrecord
  3
AutoCAD 2000
 90
        0
280
     0
281
     0
  0
CLASS
  1
LONG_TRANSACTION
  2
AcDbLongTransaction
  3
AutoCAD 2000
 90
        0
280
     0
281
     0
  0
CLASS
  1
LWPOLYLINE
  2
AcDbPolyline
  3
AutoCAD 2000
 90
        0
280
     0
281
     1
  0
CLASS
  1
HATCH
  2
AcDbHatch
  3
AutoCAD 2000
 90
        0
280
     0
281
     1
  0
CLASS
  1
XRECORD
  2
AcDbXrecord
  3
AutoCAD 2000
 90
        0
280
     0
281
     0
  0
CLASS
  1
LONG_TRANSACTION
  2
AcDbLongTransaction
  3
AutoCAD 2000
 90
        0
280
     0
281
     0
  0
CLASS
  1
LWPOLYLINE
  2
AcDbPolyline
  3
AutoCAD 2000
 90
        0
280
     0
281
     1
  0
CLASS
  1
HATCH
  2
AcDbHatch
  3
AutoCAD 2000
 90
        0
280
     0
281
     1
  0
CLASS
  1
XRECORD
  2
AcDbXrecord
  3
AutoCAD 2000
 90
        0
280
     0
281
     0
  0
CLASS
  1
LONG_TRANSACTION
  2
AcDbLongTransaction
  3
AutoCAD 2000
 90
        0
280
     0
281
     0
  0
CLASS
  1
LWPOLYLINE
  2
AcDbPolyline
  3
AutoCAD 2000
 90
        0
280
     0
281
     1
  0
CLASS
  1
HATCH
  2
AcDbHatch
  3
AutoCAD 2000
 90
        0
280
     0
281
     1
  0
CLASS
  1
XRECORD
  2
AcDbXrecord
  3
AutoCAD 2000
 90
        0
280
     0
281
     0
  0
CLASS
  1
LONG_TRANSACTION
  2
AcDbLongTransaction
  3
AutoCAD 2000
 90
        0
280
     0
281
     0
  0
CLASS
  1
LWPOLYLINE
  2
AcDbPolyline
  3
AutoCAD 2000
 90
        0
280
     0
281
     1
  0
CLASS
  1
HATCH
  2
AcDbHatch
  3
AutoCAD 2000
 90
        0
280
     0
281
     1
  0
CLASS
  1
XRECORD
  2
AcDbXrecord
  3
AutoCAD 2000
 90
        0
280
     0
281
     0
  0
CLASS
  1
LONG_TRANSACTION
  2
AcDbLongTransaction
  3
AutoCAD 2000
 90
        0
280
     0
281
     0
  0
CLASS
  1
LWPOLYLINE
  2
AcDbPolyline
  3
AutoCAD 2000
 90
        0
280
     0
281
     1
  0
CLASS
  1
HATCH
  2
AcDbHatch
  3
AutoCAD 2000
 90
        0
280
     0
281
     1
  0
CLASS
  1
XRECORD
  2
AcDbXrecord
  3
AutoCAD 2000
 90
        0
280
     0
281
     0
  0
CLASS
  1
LONG_TRANSACTION
  2
AcDbLongTransaction
  3
AutoCAD 2000
 90
        0
280
     0
281
     0
  0
CLASS
  1
LWPOLYLINE
  2
AcDbPolyline
  3
AutoCAD 2000
 90
        0
280
     0
281
     1
  0
CLASS
  1
HATCH
  2
AcDbHatch
  3
AutoCAD 2000
 90
        0
280
     0
281
     1
  0
CLASS
  1
XRECORD
  2
AcDbXrecord
  3
AutoCAD 2000
 90
        0
280
     0
281
     0
  0
CLASS
  1
LONG_TRANSACTION
  2
AcDbLongTransaction
  3
AutoCAD 2000
 90
        0
280
     0
281
     0
  0
CLASS
  1
LWPOLYLINE
  2
AcDbPolyline
  3
AutoCAD 2000
 90
        0
280
     0
281
     1
  0
CLASS
  1
HATCH
  2
AcDbHatch
  3
AutoCAD 2000
 90
        0
280
     0
281
     1
  0
CLASS
  1
XRECORD
  2
AcDbXrecord
  3
AutoCAD 2000
 90
        0
280
     0
281
     0
  0
ENDSEC
  0
SECTION
  2
TABLES
  0
TABLE
  2
VPORT
  5
8
330
0
100
AcDbSymbolTable
 70
     3
  0
VPORT
  5
1182
330
8
100
AcDbSymbolTableRecord
100
AcDbViewportTableRecord
  2
*ACTIVE
 70
     0
 10
0.0
 20
0.0
 11
1.0
 21
1.0
 12
288.1710936458143
 22
37.02333886891571
 13
0.0
 23
0.0
 14
1.0
 24
1.0
 15
0.0
 25
0.0
 16
0.0
 26
0.0
 36
1.0
 17
0.0
 27
0.0
 37
0.0
 40
16.18441757974035
 41
1.519546027742749
 42
50.0
 43
0.0
 44
0.0
 50
0.0
 51
0.0
 71
     0
 72
   100
 73
     1
 74
     1
 75
     0
 76
     0
 77
     0
 78
     0
  0
ENDTAB
  0
TABLE
  2
LTYPE
  5
5
330
0
100
AcDbSymbolTable
 70
     1
  0
LTYPE
  5
13
330
5
100
AcDbSymbolTableRecord
100
AcDbLinetypeTableRecord
  2
BYBLOCK
 70
     0
  3

 72
    65
 73
     0
 40
0.0
  0
LTYPE
  5
14
330
5
100
AcDbSymbolTableRecord
100
AcDbLinetypeTableRecord
  2
BYLAYER
 70
     0
  3

 72
    65
 73
     0
 40
0.0
  0
LTYPE
  5
15
330
5
100
AcDbSymbolTableRecord
100
AcDbLinetypeTableRecord
  2
CONTINUOUS
 70
     0
  3
Solid line
 72
    65
 73
     0
 40
0.0
  0
ENDTAB
  0
TABLE
  2
LAYER
  5
2
330
0
100
AcDbSymbolTable
 70
     3
  0
LAYER
  5
10
330
2
100
AcDbSymbolTableRecord
100
AcDbLayerTableRecord
  2
0
 70
     0
 62
     7
  6
CONTINUOUS
  0
LAYER
  5
7F
330
2
100
AcDbSymbolTableRecord
100
AcDbLayerTableRecord
  2
DEFPOINTS
 70
     0
 62
     7
  6
CONTINUOUS
  0
LAYER
  5
4B6
330
2
100
AcDbSymbolTableRecord
100
AcDbLayerTableRecord
  2
NO_PRINT
 70
     0
 62
     7
  6
CONTINUOUS
  0
ENDTAB
  0
TABLE
  2
STYLE
  5
3
330
0
100
AcDbSymbolTable
 70
     2
  0
STYLE
  5
11
330
3
100
AcDbSymbolTableRecord
100
AcDbTextStyleTableRecord
  2
STANDARD
 70
     0
 40
0.0
 41
1.0
 50
0.0
 71
     0
 42
0.2
  3
txt
  4

  0
STYLE
  5
28
330
3
100
AcDbSymbolTableRecord
100
AcDbTextStyleTableRecord
  2
ROMANC
 70
     0
 40
0.0
 41
1.0
 50
0.0
 71
     0
 42
0.3
  3
ROMANC
  4

  0
ENDTAB
  0
TABLE
  2
VIEW
  5
6
330
0
100
AcDbSymbolTable
 70
     0
  0
ENDTAB
  0
TABLE
  2
UCS
  5
7
330
0
100
AcDbSymbolTable
 70
     0
  0
ENDTAB
  0
TABLE
  2
APPID
  5
9
330
0
100
AcDbSymbolTable
 70
     3
  0
APPID
  5
12
330
9
100
AcDbSymbolTableRecord
100
AcDbRegAppTableRecord
  2
ACAD
 70
     0
  0
APPID
  5
31D
330
9
100
AcDbSymbolTableRecord
100
AcDbRegAppTableRecord
  2
CONTENTBLOCKDESCRIPTION
 70
     0
  0
APPID
  5
31E
330
9
100
AcDbSymbolTableRecord
100
AcDbRegAppTableRecord
  2
CONTENTBLOCKICON
 70
     0
  0
ENDTAB
  0
TABLE
  2
DIMSTYLE
  5
A
330
0
100
AcDbSymbolTable
 70
     1
  0
DIMSTYLE
105
7A
102
{ACAD_REACTORS
330
1067
330
1075
330
1083
102
}
330
A
100
AcDbSymbolTableRecord
100
AcDbDimStyleTableRecord
  2
STANDARD
 70
     0
  3

  4

  5

  6

  7

 40
1.0
 41
0.18
 42
0.0625
 43
0.38
 44
0.18
 45
0.0
 46
0.0
 47
0.0
 48
0.0
140
0.18
141
0.09
142
0.0
143
25.4
144
1.0
145
0.0
146
1.0
147
0.09
 71
     0
 72
     0
 73
     1
 74
     1
 75
     0
 76
     0
 77
     0
 78
     0
170
     0
171
     2
172
     0
173
     0
174
     0
175
     0
176
     0
177
     0
178
     0
270
     2
271
     2
272
     2
273
     2
274
     2
340
11
275
     0
280
     0
281
     0
282
     0
283
     1
284
     0
285
     0
286
     0
287
     3
288
     0
  0
ENDTAB
  0
TABLE
  2
BLOCK_RECORD
  5
1
330
0
100
AcDbSymbolTable
 70
    55
  0
BLOCK_RECORD
  5
1E
102
{ACAD_XDICTIONARY
360
1AC
102
}
330
1
100
AcDbSymbolTableRecord
100
AcDbBlockTableRecord
  2
*MODEL_SPACE
  0
BLOCK_RECORD
  5
1A
102
{ACAD_XDICTIONARY
360
1AA
102
}
330
1
100
AcDbSymbolTableRecord
100
AcDbBlockTableRecord
  2
*PAPER_SPACE
  0
BLOCK_RECORD
  5
23B
330
1
100
AcDbSymbolTableRecord
100
AcDbBlockTableRecord
  2
TIPUS
1001
CONTENTBLOCKDESCRIPTION
1071
        0
1000
Tipus de Seccio
1001
CONTENTBLOCKICON
1071
        0
1004
2800000020000000200000000100080000000000000400000000000000000000000000000000000000000000000080000080000000808000800000008000800080800000C0C0C000C0DCC000F0CAA6000020400000206000002080000020A0000020C0000020E00000400000004020000040400000406000004080000040A0
1004
000040C0000040E00000600000006020000060400000606000006080000060A0000060C0000060E00000800000008020000080400000806000008080000080A0000080C0000080E00000A0000000A0200000A0400000A0600000A0800000A0A00000A0C00000A0E00000C0000000C0200000C0400000C0600000C0800000C0
1004
A00000C0C00000C0E00000E0000000E0200000E0400000E0600000E0800000E0A00000E0C00000E0E00040000000400020004000400040006000400080004000A0004000C0004000E00040200000402020004020400040206000402080004020A0004020C0004020E000404000004040200040404000404060004040800040
1004
40A0004040C0004040E00040600000406020004060400040606000406080004060A0004060C0004060E00040800000408020004080400040806000408080004080A0004080C0004080E00040A0000040A0200040A0400040A0600040A0800040A0A00040A0C00040A0E00040C0000040C0200040C0400040C0600040C08000
1004
40C0A00040C0C00040C0E00040E0000040E0200040E0400040E0600040E0800040E0A00040E0C00040E0E00080000000800020008000400080006000800080008000A0008000C0008000E00080200000802020008020400080206000802080008020A0008020C0008020E00080400000804020008040400080406000804080
1004
008040A0008040C0008040E00080600000806020008060400080606000806080008060A0008060C0008060E00080800000808020008080400080806000808080008080A0008080C0008080E00080A0000080A0200080A0400080A0600080A0800080A0A00080A0C00080A0E00080C0000080C0200080C0400080C0600080C0
1004
800080C0A00080C0C00080C0E00080E0000080E0200080E0400080E0600080E0800080E0A00080E0C00080E0E000C0000000C0002000C0004000C0006000C0008000C000A000C000C000C000E000C0200000C0202000C0204000C0206000C0208000C020A000C020C000C020E000C0400000C0402000C0404000C0406000C0
1004
408000C040A000C040C000C040E000C0600000C0602000C0604000C0606000C0608000C060A000C060C000C060E000C0800000C0802000C0804000C0806000C0808000C080A000C080C000C080E000C0A00000C0A02000C0A04000C0A06000C0A08000C0A0A000C0A0C000C0A0E000C0C00000C0C02000C0C04000C0C06000
1004
C0C08000C0C0A000F0FBFF00A4A0A000808080000000FF0000FF000000FFFF00FF000000FF00FF00FFFF0000FFFFFF0000000000000000000000000000000000000000000000000000000000000000000000000000000000000000000000000000000000000000000000000000000000000000000000000000000000000000
1004
00000000000000000000000000000000000000000000000000000000000000000000000000000000000000000000000000000000000000000000000000000000000000000000000000000000000000000000000000000000000000000000000000000000000000000000000000000000000000000000000000000000000000
1004
00000000000000000000000000000000000000000000000000000000000000000000000000000000000000000000000000000000000000000000000000000000000000000000000000000000000000000000000000000000000000000000000000000000000000000000000000000000000000000000000000000000000000
1004
000000000000000000000000000000000000000000000000000000000000000000000000000000000000000000000000000000000000000000000000000000000000000000000000000000000000000000000000FFFFFF00FF0000FFFF00FFFF00FFFFFFFF00FFFFFFFFFFFFFF00FFFF0000000000FF00FFFF0000FFFF0000
1004
00FFFF0000FFFF000000FFFF000000FF000000000000FF00FFFF0000FFFF000000FFFF0000FFFF000000FFFF000000FF000000000000FFFFFFFF0000FFFF000000FFFF0000FFFF000000FFFF000000FFFF0000000000FFFF00FF00FFFFFFFF0000FFFF0000FFFF000000FFFF0000FF00FF00000000FFFF00FFFFFFFFFFFFFF
1004
FFFF00FFFFFFFF00FFFFFFFFFFFFFFFFFFFFFFFF0000000000000000000000000000000000000000000000000000000000000000000000000000000000000000000000000000000000000000000000000000000000000000000000000000000000000000000000000000000000000000000000000000000000000000000000
1004
00000000000000000000000000000000000000000000000000000000000000000000000000000000000000000000000000000000000000000000000000000000000000000000000000000000000000000000000000000000000000000000000000000000000000000000000000000000000000000000000000000000000000
1004
00000000000000000000000000000000000000000000000000000000000000000000000000000000000000000000000000000000000000000000000000000000000000000000000000000000000000000000000000000000000000000000000000000000000000000000000000000000000000000000000000000000000000
1004
0000000000000000000000000000000000000000000000000000000000000000000000000000000000000000000000000000000000000000
  0
BLOCK_RECORD
  5
240
330
1
100
AcDbSymbolTableRecord
100
AcDbBlockTableRecord
  2
SUPERFICIE
1001
CONTENTBLOCKDESCRIPTION
1071
        0
1000
Supercie lliure de la seccio
1001
CONTENTBLOCKICON
1071
        0
1004
2800000020000000200000000100080000000000000400000000000000000000000000000000000000000000000080000080000000808000800000008000800080800000C0C0C000C0DCC000F0CAA6000020400000206000002080000020A0000020C0000020E00000400000004020000040400000406000004080000040A0
1004
000040C0000040E00000600000006020000060400000606000006080000060A0000060C0000060E00000800000008020000080400000806000008080000080A0000080C0000080E00000A0000000A0200000A0400000A0600000A0800000A0A00000A0C00000A0E00000C0000000C0200000C0400000C0600000C0800000C0
1004
A00000C0C00000C0E00000E0000000E0200000E0400000E0600000E0800000E0A00000E0C00000E0E00040000000400020004000400040006000400080004000A0004000C0004000E00040200000402020004020400040206000402080004020A0004020C0004020E000404000004040200040404000404060004040800040
1004
40A0004040C0004040E00040600000406020004060400040606000406080004060A0004060C0004060E00040800000408020004080400040806000408080004080A0004080C0004080E00040A0000040A0200040A0400040A0600040A0800040A0A00040A0C00040A0E00040C0000040C0200040C0400040C0600040C08000
1004
40C0A00040C0C00040C0E00040E0000040E0200040E0400040E0600040E0800040E0A00040E0C00040E0E00080000000800020008000400080006000800080008000A0008000C0008000E00080200000802020008020400080206000802080008020A0008020C0008020E00080400000804020008040400080406000804080
1004
008040A0008040C0008040E00080600000806020008060400080606000806080008060A0008060C0008060E00080800000808020008080400080806000808080008080A0008080C0008080E00080A0000080A0200080A0400080A0600080A0800080A0A00080A0C00080A0E00080C0000080C0200080C0400080C0600080C0
1004
800080C0A00080C0C00080C0E00080E0000080E0200080E0400080E0600080E0800080E0A00080E0C00080E0E000C0000000C0002000C0004000C0006000C0008000C000A000C000C000C000E000C0200000C0202000C0204000C0206000C0208000C020A000C020C000C020E000C0400000C0402000C0404000C0406000C0
1004
408000C040A000C040C000C040E000C0600000C0602000C0604000C0606000C0608000C060A000C060C000C060E000C0800000C0802000C0804000C0806000C0808000C080A000C080C000C080E000C0A00000C0A02000C0A04000C0A06000C0A08000C0A0A000C0A0C000C0A0E000C0C00000C0C02000C0C04000C0C06000
1004
C0C08000C0C0A000F0FBFF00A4A0A000808080000000FF0000FF000000FFFF00FF000000FF00FF00FFFF0000FFFFFF0000000000000000000000000000000000000000000000000000000000000000000000000000000000000000000000000000000000000000000000000000000000000000000000000000000000000000
1004
00000000000000000000000000000000000000000000000000000000000000000000000000000000000000000000000000000000000000000000000000000000000000000000000000000000000000000000000000000000000000000000000000000000000000000000000000000000000000000000000000000000000000
1004
00000000000000000000000000000000000000000000000000000000000000000000000000000000000000000000000000000000000000000000000000000000000000000000000000000000000000000000000000000000000000000000000000000000000000000000000000000000000000FFFFFFFF0000FFFFFFFFFFFF
1004
FFFF0000FFFFFFFFFFFFFFFF0000FFFFFFFF00000000FF00000000FF00000000FF000000FFFF00000000FF000000FFFF000000000000FF00000000FF00000000FF000000FFFF00000000FF000000FFFF00000000000000FF0000FF000000000000FF00FFFF000000000000FF00FFFF000000000000000000FFFFFF00000000
1004
000000FFFFFF00000000000000FFFF00000000000000000000FFFF0000000000000000FFFF0000000000000000FFFF00000000000000000000FFFF0000000000000000FFFF0000000000000000FFFF00000000000000000000FFFF00000000000000FFFFFF00000000000000FFFFFF000000000000000000FFFF00FF000000
1004
000000FFFF00FF000000000000FF0000FF00000000000000FFFF000000FF00000000FFFF000000FF00000000FF00000000FF000000000000FFFF000000FF00000000FFFF000000FF00000000FF00000000FF00000000FFFFFFFF0000FFFFFFFFFFFFFFFF0000FFFFFFFFFFFFFFFF0000FFFFFFFF0000000000000000000000
1004
00000000000000000000000000000000000000000000000000000000000000000000000000000000000000000000000000000000000000000000000000000000000000000000000000000000000000000000000000000000000000000000000000000000000000000000000000000000000000000000000000000000000000
1004
00000000000000000000000000000000000000000000000000000000000000000000000000000000000000000000000000000000000000000000000000000000000000000000000000000000000000000000000000000000000000000000000000000000000000000000000000000000000000000000000000000000000000
1004
0000000000000000000000000000000000000000000000000000000000000000000000000000000000000000000000000000000000000000
  0
BLOCK_RECORD
  5
245
330
1
100
AcDbSymbolTableRecord
100
AcDbBlockTableRecord
  2
PERIMETRE
1001
CONTENTBLOCKDESCRIPTION
1071
        0
1000
Perimetre de la seccio
1001
CONTENTBLOCKICON
1071
        0
1004
2800000020000000200000000100080000000000000400000000000000000000000000000000000000000000000080000080000000808000800000008000800080800000C0C0C000C0DCC000F0CAA6000020400000206000002080000020A0000020C0000020E00000400000004020000040400000406000004080000040A0
1004
000040C0000040E00000600000006020000060400000606000006080000060A0000060C0000060E00000800000008020000080400000806000008080000080A0000080C0000080E00000A0000000A0200000A0400000A0600000A0800000A0A00000A0C00000A0E00000C0000000C0200000C0400000C0600000C0800000C0
1004
A00000C0C00000C0E00000E0000000E0200000E0400000E0600000E0800000E0A00000E0C00000E0E00040000000400020004000400040006000400080004000A0004000C0004000E00040200000402020004020400040206000402080004020A0004020C0004020E000404000004040200040404000404060004040800040
1004
40A0004040C0004040E00040600000406020004060400040606000406080004060A0004060C0004060E00040800000408020004080400040806000408080004080A0004080C0004080E00040A0000040A0200040A0400040A0600040A0800040A0A00040A0C00040A0E00040C0000040C0200040C0400040C0600040C08000
1004
40C0A00040C0C00040C0E00040E0000040E0200040E0400040E0600040E0800040E0A00040E0C00040E0E00080000000800020008000400080006000800080008000A0008000C0008000E00080200000802020008020400080206000802080008020A0008020C0008020E00080400000804020008040400080406000804080
1004
008040A0008040C0008040E00080600000806020008060400080606000806080008060A0008060C0008060E00080800000808020008080400080806000808080008080A0008080C0008080E00080A0000080A0200080A0400080A0600080A0800080A0A00080A0C00080A0E00080C0000080C0200080C0400080C0600080C0
1004
800080C0A00080C0C00080C0E00080E0000080E0200080E0400080E0600080E0800080E0A00080E0C00080E0E000C0000000C0002000C0004000C0006000C0008000C000A000C000C000C000E000C0200000C0202000C0204000C0206000C0208000C020A000C020C000C020E000C0400000C0402000C0404000C0406000C0
1004
408000C040A000C040C000C040E000C0600000C0602000C0604000C0606000C0608000C060A000C060C000C060E000C0800000C0802000C0804000C0806000C0808000C080A000C080C000C080E000C0A00000C0A02000C0A04000C0A06000C0A08000C0A0A000C0A0C000C0A0E000C0C00000C0C02000C0C04000C0C06000
1004
C0C08000C0C0A000F0FBFF00A4A0A000808080000000FF0000FF000000FFFF00FF000000FF00FF00FFFF0000FFFFFF0000000000000000000000000000000000000000000000000000000000000000000000000000000000000000000000000000000000000000000000000000000000000000000000000000000000000000
1004
00000000000000000000000000000000000000000000000000000000000000000000000000000000000000000000000000000000000000000000000000000000000000000000000000000000000000000000000000000000000000000000000000000000000000000000000000000000000000000000000000000000000000
1004
00000000000000000000000000000000000000000000000000000000000000000000000000000000000000000000000000000000000000000000000000000000000000000000000000000000000000000000000000000000000000000000000000000000000000000000000000000000000000FFFFFFFF0000FFFFFFFFFFFF
1004
FFFF0000FFFFFFFFFFFFFFFF0000FFFFFFFF00000000FF00000000FF00000000FF000000FFFF00000000FF000000FFFF000000000000FF00000000FF00000000FF000000FFFF00000000FF000000FFFF00000000000000FF0000FF000000000000FF00FFFF000000000000FF00FFFF000000000000000000FFFFFF00000000
1004
000000FFFFFF00000000000000FFFF00000000000000000000FFFF0000000000000000FFFF0000000000000000FFFF00000000000000000000FFFF0000000000000000FFFF0000000000000000FFFF00000000000000000000FFFF00000000000000FFFFFF00000000000000FFFFFF000000000000000000FFFF00FF000000
1004
000000FFFF00FF000000000000FF0000FF00000000000000FFFF000000FF00000000FFFF000000FF00000000FF00000000FF000000000000FFFF000000FF00000000FFFF000000FF00000000FF00000000FF00000000FFFFFFFF0000FFFFFFFFFFFFFFFF0000FFFFFFFFFFFFFFFF0000FFFFFFFF0000000000000000000000
1004
00000000000000000000000000000000000000000000000000000000000000000000000000000000000000000000000000000000000000000000000000000000000000000000000000000000000000000000000000000000000000000000000000000000000000000000000000000000000000000000000000000000000000
1004
00000000000000000000000000000000000000000000000000000000000000000000000000000000000000000000000000000000000000000000000000000000000000000000000000000000000000000000000000000000000000000000000000000000000000000000000000000000000000000000000000000000000000
1004
0000000000000000000000000000000000000000000000000000000000000000000000000000000000000000000000000000000000000000
  0
BLOCK_RECORD
  5
24F
330
1
100
AcDbSymbolTableRecord
100
AcDbBlockTableRecord
  2
1
1001
CONTENTBLOCKICON
1071
        0
1004
2800000020000000200000000100080000000000000400000000000000000000000000000000000000000000000080000080000000808000800000008000800080800000C0C0C000C0DCC000F0CAA6000020400000206000002080000020A0000020C0000020E00000400000004020000040400000406000004080000040A0
1004
000040C0000040E00000600000006020000060400000606000006080000060A0000060C0000060E00000800000008020000080400000806000008080000080A0000080C0000080E00000A0000000A0200000A0400000A0600000A0800000A0A00000A0C00000A0E00000C0000000C0200000C0400000C0600000C0800000C0
1004
A00000C0C00000C0E00000E0000000E0200000E0400000E0600000E0800000E0A00000E0C00000E0E00040000000400020004000400040006000400080004000A0004000C0004000E00040200000402020004020400040206000402080004020A0004020C0004020E000404000004040200040404000404060004040800040
1004
40A0004040C0004040E00040600000406020004060400040606000406080004060A0004060C0004060E00040800000408020004080400040806000408080004080A0004080C0004080E00040A0000040A0200040A0400040A0600040A0800040A0A00040A0C00040A0E00040C0000040C0200040C0400040C0600040C08000
1004
40C0A00040C0C00040C0E00040E0000040E0200040E0400040E0600040E0800040E0A00040E0C00040E0E00080000000800020008000400080006000800080008000A0008000C0008000E00080200000802020008020400080206000802080008020A0008020C0008020E00080400000804020008040400080406000804080
1004
008040A0008040C0008040E00080600000806020008060400080606000806080008060A0008060C0008060E00080800000808020008080400080806000808080008080A0008080C0008080E00080A0000080A0200080A0400080A0600080A0800080A0A00080A0C00080A0E00080C0000080C0200080C0400080C0600080C0
1004
800080C0A00080C0C00080C0E00080E0000080E0200080E0400080E0600080E0800080E0A00080E0C00080E0E000C0000000C0002000C0004000C0006000C0008000C000A000C000C000C000E000C0200000C0202000C0204000C0206000C0208000C020A000C020C000C020E000C0400000C0402000C0404000C0406000C0
1004
408000C040A000C040C000C040E000C0600000C0602000C0604000C0606000C0608000C060A000C060C000C060E000C0800000C0802000C0804000C0806000C0808000C080A000C080C000C080E000C0A00000C0A02000C0A04000C0A06000C0A08000C0A0A000C0A0C000C0A0E000C0C00000C0C02000C0C04000C0C06000
1004
C0C08000C0C0A000F0FBFF00A4A0A000808080000000FF0000FF000000FFFF00FF000000FF00FF00FFFF0000FFFFFF0000000000000000000000000000000000000000000000000000000000000000000000000000000000000000000000000000000000000000000000000000000000000000000000000000000000000000
1004
00000000000000000000000000000000000000000000000000000000000000000000000000000000000000000000000000000000000000000000000000000000000000000000000000000000000000000000000000000000000000000000000000000000000000000000000000000000000000000000000000000000000000
1004
00000000000000000000000000000000000000000000000000000000000000000000000000000000000000000000000000000000000000000000000000000000000000000000000000000000000000000000000000000000000000000000000000000000000000000000000000000000000000FFFF0000FFFF00FFFFFFFFFF
1004
FFFFFFFFFF0000FFFFFFFFFFFF00000000000000FFFFFF00FFFF00FFFFFFFFFFFFFFFFFFFF0000FFFFFFFFFF0000000000000000000000000000000000000000000000000000000000000000000000000000000000FFFF00FFFF00FFFFFFFFFFFFFFFFFFFF000000FFFFFFFFFFFF00000000000000FFFF00FFFF00FFFFFFFF
1004
FFFFFFFFFFFFFF0000FFFFFFFFFFFF00000000000000000000000000000000000000000000FFFF0000000000000000000000000000FFFFFFFFFFFFFFFFFFFFFF0000FFFFFFFFFF000000000000000000000000000000FFFFFFFFFFFFFFFFFF000000FFFFFFFFFFFF00000000000000000000000000FFFFFFFFFFFFFFFF00FF
1004
000000FFFFFFFFFFFF00000000000000000000000000000000000000000000000000000000000000000000000000000000000000000000FFFFFF00FFFFFFFF000000FFFFFFFFFFFFFFFFFFFF0000FFFFFFFFFFFF0000FFFFFFFFFFFFFFFFFF000000FFFFFFFFFFFFFFFFFFFFFF00FFFFFFFFFFFF0000000000000000000000
1004
00000000000000000000000000000000000000000000000000000000000000000000000000000000000000000000000000000000000000000000000000000000000000000000000000000000000000000000000000000000000000000000000000000000000000000000000000000000000000000000000000000000000000
1004
00000000000000000000000000000000000000000000000000000000000000000000000000000000000000000000000000000000000000000000000000000000000000000000000000000000000000000000000000000000000000000000000000000000000000000000000000000000000000000000000000000000000000
1004
0000000000000000000000000000000000000000000000000000000000000000000000000000000000000000000000000000000000000000
  0
BLOCK_RECORD
  5
26D
330
1
100
AcDbSymbolTableRecord
100
AcDbBlockTableRecord
  2
CARACTERISTIQUES
1001
CONTENTBLOCKDESCRIPTION
1071
        0
1000
Caracteristiques de la seccio
1001
CONTENTBLOCKICON
1071
        0
1004
2800000020000000200000000100080000000000000400000000000000000000000000000000000000000000000080000080000000808000800000008000800080800000C0C0C000C0DCC000F0CAA6000020400000206000002080000020A0000020C0000020E00000400000004020000040400000406000004080000040A0
1004
000040C0000040E00000600000006020000060400000606000006080000060A0000060C0000060E00000800000008020000080400000806000008080000080A0000080C0000080E00000A0000000A0200000A0400000A0600000A0800000A0A00000A0C00000A0E00000C0000000C0200000C0400000C0600000C0800000C0
1004
A00000C0C00000C0E00000E0000000E0200000E0400000E0600000E0800000E0A00000E0C00000E0E00040000000400020004000400040006000400080004000A0004000C0004000E00040200000402020004020400040206000402080004020A0004020C0004020E000404000004040200040404000404060004040800040
1004
40A0004040C0004040E00040600000406020004060400040606000406080004060A0004060C0004060E00040800000408020004080400040806000408080004080A0004080C0004080E00040A0000040A0200040A0400040A0600040A0800040A0A00040A0C00040A0E00040C0000040C0200040C0400040C0600040C08000
1004
40C0A00040C0C00040C0E00040E0000040E0200040E0400040E0600040E0800040E0A00040E0C00040E0E00080000000800020008000400080006000800080008000A0008000C0008000E00080200000802020008020400080206000802080008020A0008020C0008020E00080400000804020008040400080406000804080
1004
008040A0008040C0008040E00080600000806020008060400080606000806080008060A0008060C0008060E00080800000808020008080400080806000808080008080A0008080C0008080E00080A0000080A0200080A0400080A0600080A0800080A0A00080A0C00080A0E00080C0000080C0200080C0400080C0600080C0
1004
800080C0A00080C0C00080C0E00080E0000080E0200080E0400080E0600080E0800080E0A00080E0C00080E0E000C0000000C0002000C0004000C0006000C0008000C000A000C000C000C000E000C0200000C0202000C0204000C0206000C0208000C020A000C020C000C020E000C0400000C0402000C0404000C0406000C0
1004
408000C040A000C040C000C040E000C0600000C0602000C0604000C0606000C0608000C060A000C060C000C060E000C0800000C0802000C0804000C0806000C0808000C080A000C080C000C080E000C0A00000C0A02000C0A04000C0A06000C0A08000C0A0A000C0A0C000C0A0E000C0C00000C0C02000C0C04000C0C06000
1004
C0C08000C0C0A000F0FBFF00A4A0A000808080000000FF0000FF000000FFFF00FF000000FF00FF00FFFF0000FFFFFF000000000000000000000000000000000000000000000000000000000000000000000000000000000000000000000000FFFFFFFFFFFFFFFFFF0000000000000000000000000000000000000000000000
1004
FFFFFFFFFFFFFFFFFF00000000000000000000000000000000000000000000000000000000000000000000000000000000000000000000000000000000000000000000000000000000000000000000000000000000000000000000000000000000000000000000000000000000000000000000000000000000000000000000
1004
00000000000000000000000000000000000000000000000000000000000000000000000000000000000000000000000000000000000000000000000000000000000000000000000000000000000000000000000000000000000000000000000000000000000000000000000000000000000000000000000000000000000000
1004
00000000000000000000000000000000000000000000000000000000000000000000000000000000000000000000000000000000000000000000000000000000000000000000000000000000000000000000000000000000000000000000000000000000000000000000000000000000000000000000000000000000000000
1004
00000000000000000000000000000000000000000000000000000000000000000000000000000000000000000000000000000000000000000000000000000000000000000000000000000000000000000000000000000000000000000000000000000000000000000000000000000000000000000000000000000000000000
1004
00000000000000000000000000000000000000000000000000000000000000000000000000000000000000000000000000000000000000000000000000000000000000000000000000000000000000000000000000000000000000000000000000000000000000000000000000000000000000000000000000000000000000
1004
00000000000000000000000000000000000000000000000000000000000000000000000000000000000000000000000000000000000000000000000000000000000000000000000000000000000000000000000000000000000000000000FFFFFF0000000000000000000000000000000000000000000000000000000000FF
1004
FFFF0000000000000000000000000000000000000000000000000000000000FFFFFFFFFFFF0000000000000000000000000000000000000000000000000000000000FFFFFF0000000000000000000000000000000000000000000000000000000000FFFFFFFF00000000000000000000000000000000000000000000000000
1004
000000FFFFFFFFFF000000000000000000000000000000000000000000000000000000000000000000000000000000000000000000000000
  0
BLOCK_RECORD
  5
28C
330
1
100
AcDbSymbolTableRecord
100
AcDbBlockTableRecord
  2
PERIMETRO
1001
CONTENTBLOCKICON
1071
        0
1004
2800000020000000200000000100080000000000000400000000000000000000000000000000000000000000000080000080000000808000800000008000800080800000C0C0C000C0DCC000F0CAA6000020400000206000002080000020A0000020C0000020E00000400000004020000040400000406000004080000040A0
1004
000040C0000040E00000600000006020000060400000606000006080000060A0000060C0000060E00000800000008020000080400000806000008080000080A0000080C0000080E00000A0000000A0200000A0400000A0600000A0800000A0A00000A0C00000A0E00000C0000000C0200000C0400000C0600000C0800000C0
1004
A00000C0C00000C0E00000E0000000E0200000E0400000E0600000E0800000E0A00000E0C00000E0E00040000000400020004000400040006000400080004000A0004000C0004000E00040200000402020004020400040206000402080004020A0004020C0004020E000404000004040200040404000404060004040800040
1004
40A0004040C0004040E00040600000406020004060400040606000406080004060A0004060C0004060E00040800000408020004080400040806000408080004080A0004080C0004080E00040A0000040A0200040A0400040A0600040A0800040A0A00040A0C00040A0E00040C0000040C0200040C0400040C0600040C08000
1004
40C0A00040C0C00040C0E00040E0000040E0200040E0400040E0600040E0800040E0A00040E0C00040E0E00080000000800020008000400080006000800080008000A0008000C0008000E00080200000802020008020400080206000802080008020A0008020C0008020E00080400000804020008040400080406000804080
1004
008040A0008040C0008040E00080600000806020008060400080606000806080008060A0008060C0008060E00080800000808020008080400080806000808080008080A0008080C0008080E00080A0000080A0200080A0400080A0600080A0800080A0A00080A0C00080A0E00080C0000080C0200080C0400080C0600080C0
1004
800080C0A00080C0C00080C0E00080E0000080E0200080E0400080E0600080E0800080E0A00080E0C00080E0E000C0000000C0002000C0004000C0006000C0008000C000A000C000C000C000E000C0200000C0202000C0204000C0206000C0208000C020A000C020C000C020E000C0400000C0402000C0404000C0406000C0
1004
408000C040A000C040C000C040E000C0600000C0602000C0604000C0606000C0608000C060A000C060C000C060E000C0800000C0802000C0804000C0806000C0808000C080A000C080C000C080E000C0A00000C0A02000C0A04000C0A06000C0A08000C0A0A000C0A0C000C0A0E000C0C00000C0C02000C0C04000C0C06000
1004
C0C08000C0C0A000F0FBFF00A4A0A000808080000000FF0000FF000000FFFF00FF000000FF00FF00FFFF0000FFFFFF0000000000000000000000000000000000000000000000000000000000000000000000000000000000000000000000000000000000000000000000000000000000000000000000000000000000000000
1004
00000000000000000000000000000000000000000000000000000000000000000000000000000000000000000000000000000000000000000000000000000000000000000000000000000000000000000000000000000000000000000000000000000000000000000000000000000000000000000000000000000000000000
1004
00000000000000000000000000000000000000000000000000000000000000000000000000000000000000000000000000000000000000000000000000000000000000000000000000000000000000000000000000000000000000000000000000000000000000000000000000000000000000FFFFFFFF0000FFFFFFFFFFFF
1004
FFFF0000FFFFFFFFFFFFFFFF0000FFFFFFFF00000000FF00000000FF00000000FF000000FFFF00000000FF000000FFFF000000000000FF00000000FF00000000FF000000FFFF00000000FF000000FFFF00000000000000FF0000FF000000000000FF00FFFF000000000000FF00FFFF000000000000000000FFFFFF00000000
1004
000000FFFFFF00000000000000FFFF00000000000000000000FFFF0000000000000000FFFF0000000000000000FFFF00000000000000000000FFFF0000000000000000FFFF0000000000000000FFFF00000000000000000000FFFF00000000000000FFFFFF00000000000000FFFFFF000000000000000000FFFF00FF000000
1004
000000FFFF00FF000000000000FF0000FF00000000000000FFFF000000FF00000000FFFF000000FF00000000FF00000000FF000000000000FFFF000000FF00000000FFFF000000FF00000000FF00000000FF00000000FFFFFFFF0000FFFFFFFFFFFFFFFF0000FFFFFFFFFFFFFFFF0000FFFFFFFF0000000000000000000000
1004
00000000000000000000000000000000000000000000000000000000000000000000000000000000000000000000000000000000000000000000000000000000000000000000000000000000000000000000000000000000000000000000000000000000000000000000000000000000000000000000000000000000000000
1004
00000000000000000000000000000000000000000000000000000000000000000000000000000000000000000000000000000000000000000000000000000000000000000000000000000000000000000000000000000000000000000000000000000000000000000000000000000000000000000000000000000000000000
1004
0000000000000000000000000000000000000000000000000000000000000000000000000000000000000000000000000000000000000000
  0
BLOCK_RECORD
  5
2AB
330
1
100
AcDbSymbolTableRecord
100
AcDbBlockTableRecord
  2
PERSONA
1001
CONTENTBLOCKICON
1071
        0
1004
2800000020000000200000000100080000000000000400000000000000000000000000000000000000000000000080000080000000808000800000008000800080800000C0C0C000C0DCC000F0CAA6000020400000206000002080000020A0000020C0000020E00000400000004020000040400000406000004080000040A0
1004
000040C0000040E00000600000006020000060400000606000006080000060A0000060C0000060E00000800000008020000080400000806000008080000080A0000080C0000080E00000A0000000A0200000A0400000A0600000A0800000A0A00000A0C00000A0E00000C0000000C0200000C0400000C0600000C0800000C0
1004
A00000C0C00000C0E00000E0000000E0200000E0400000E0600000E0800000E0A00000E0C00000E0E00040000000400020004000400040006000400080004000A0004000C0004000E00040200000402020004020400040206000402080004020A0004020C0004020E000404000004040200040404000404060004040800040
1004
40A0004040C0004040E00040600000406020004060400040606000406080004060A0004060C0004060E00040800000408020004080400040806000408080004080A0004080C0004080E00040A0000040A0200040A0400040A0600040A0800040A0A00040A0C00040A0E00040C0000040C0200040C0400040C0600040C08000
1004
40C0A00040C0C00040C0E00040E0000040E0200040E0400040E0600040E0800040E0A00040E0C00040E0E00080000000800020008000400080006000800080008000A0008000C0008000E00080200000802020008020400080206000802080008020A0008020C0008020E00080400000804020008040400080406000804080
1004
008040A0008040C0008040E00080600000806020008060400080606000806080008060A0008060C0008060E00080800000808020008080400080806000808080008080A0008080C0008080E00080A0000080A0200080A0400080A0600080A0800080A0A00080A0C00080A0E00080C0000080C0200080C0400080C0600080C0
1004
800080C0A00080C0C00080C0E00080E0000080E0200080E0400080E0600080E0800080E0A00080E0C00080E0E000C0000000C0002000C0004000C0006000C0008000C000A000C000C000C000E000C0200000C0202000C0204000C0206000C0208000C020A000C020C000C020E000C0400000C0402000C0404000C0406000C0
1004
408000C040A000C040C000C040E000C0600000C0602000C0604000C0606000C0608000C060A000C060C000C060E000C0800000C0802000C0804000C0806000C0808000C080A000C080C000C080E000C0A00000C0A02000C0A04000C0A06000C0A08000C0A0A000C0A0C000C0A0E000C0C00000C0C02000C0C04000C0C06000
1004
C0C08000C0C0A000F0FBFF00A4A0A000808080000000FF0000FF000000FFFF00FF000000FF00FF00FFFF0000FFFFFF0000000000000000000000000000000000000000000000000000000000000000000000000000000000000000000000000000000000000000000000000000000000000000000000000000000000000000
1004
0000000000000000000000000000000000000000000000000000000000000000000000000000000000000000000000000000000000000000000000000000000000000000000000000000000000000000000000000000000000000000000000000000000000000000000000000000000000000000FFFFFFFFFFFFFFFFFFFFFF
1004
FFFFFFFF00FFFFFFFFFFFFFFFFFF00FF0000000000FFFFFFFFFFFFFFFF0000FFFFFFFFFFFFFFFFFF00FFFFFFFFFFFFFFFF00000000FFFFFFFFFFFFFFFF0000FFFF00FFFFFFFFFFFF00FF00FFFFFFFFFFFF00000000FFFFFFFFFFFFFFFF0000FFFF00FFFFFFFFFFFFFFFFFFFFFFFF00FF000000000000000000000000000000
1004
00000000000000000000000000000000000000000000000000000000000000000000000000000000000000000000000000000000000000000000000000000000000000000000000000000000000000000000000000000000000000000000000000000000000000000000000000000000000000000000000000000000000000
1004
0000000000000000000000000000000000000000000000000000000000FFFFFF000000000000000000000000000000000000000000FFFFFFFFFFFFFFFF0000FFFFFFFF00FFFFFFFFFFFFFFFFFFFFFF00000000000000FFFFFFFFFFFFFF000000FFFFFFFFFFFFFF00FF00FFFFFFFFFF000000000000FFFFFFFFFFFFFFFFFF00
1004
00FFFFFFFFFFFFFF00FFFFFFFFFFFFFF000000000000000000000000000000000000000000000000000000000000000000000000000000000000000000000000000000000000000000000000000000000000000000000000000000000000000000000000000000000000000000000000000000000000000000000000000000
1004
FFFFFF000000000000000000000000000000000000000000FFFFFFFFFFFFFFFF000000FFFFFFFFFFFFFFFFFFFFFFFFFFFF0000000000000000FFFFFFFFFFFFFF000000FFFFFFFFFFFFFFFFFFFFFFFFFFFF00000000000000FFFFFFFFFFFFFFFFFF0000FFFFFFFFFF00FFFFFFFFFFFFFFFF0000000000000000000000000000
1004
00000000000000000000000000000000000000000000000000000000000000000000000000000000000000000000000000000000000000000000000000000000000000000000000000000000000000000000000000000000000000000000000000000000000000000000000000000000000000000000000000000000000000
1004
0000000000000000000000000000000000000000000000000000000000000000000000000000000000000000000000000000000000000000
  0
BLOCK_RECORD
  5
2B8
330
1
100
AcDbSymbolTableRecord
100
AcDbBlockTableRecord
  2
PRUEVA
1001
CONTENTBLOCKICON
1071
        0
1004
2800000020000000200000000100080000000000000400000000000000000000000000000000000000000000000080000080000000808000800000008000800080800000C0C0C000C0DCC000F0CAA6000020400000206000002080000020A0000020C0000020E00000400000004020000040400000406000004080000040A0
1004
000040C0000040E00000600000006020000060400000606000006080000060A0000060C0000060E00000800000008020000080400000806000008080000080A0000080C0000080E00000A0000000A0200000A0400000A0600000A0800000A0A00000A0C00000A0E00000C0000000C0200000C0400000C0600000C0800000C0
1004
A00000C0C00000C0E00000E0000000E0200000E0400000E0600000E0800000E0A00000E0C00000E0E00040000000400020004000400040006000400080004000A0004000C0004000E00040200000402020004020400040206000402080004020A0004020C0004020E000404000004040200040404000404060004040800040
1004
40A0004040C0004040E00040600000406020004060400040606000406080004060A0004060C0004060E00040800000408020004080400040806000408080004080A0004080C0004080E00040A0000040A0200040A0400040A0600040A0800040A0A00040A0C00040A0E00040C0000040C0200040C0400040C0600040C08000
1004
40C0A00040C0C00040C0E00040E0000040E0200040E0400040E0600040E0800040E0A00040E0C00040E0E00080000000800020008000400080006000800080008000A0008000C0008000E00080200000802020008020400080206000802080008020A0008020C0008020E00080400000804020008040400080406000804080
1004
008040A0008040C0008040E00080600000806020008060400080606000806080008060A0008060C0008060E00080800000808020008080400080806000808080008080A0008080C0008080E00080A0000080A0200080A0400080A0600080A0800080A0A00080A0C00080A0E00080C0000080C0200080C0400080C0600080C0
1004
800080C0A00080C0C00080C0E00080E0000080E0200080E0400080E0600080E0800080E0A00080E0C00080E0E000C0000000C0002000C0004000C0006000C0008000C000A000C000C000C000E000C0200000C0202000C0204000C0206000C0208000C020A000C020C000C020E000C0400000C0402000C0404000C0406000C0
1004
408000C040A000C040C000C040E000C0600000C0602000C0604000C0606000C0608000C060A000C060C000C060E000C0800000C0802000C0804000C0806000C0808000C080A000C080C000C080E000C0A00000C0A02000C0A04000C0A06000C0A08000C0A0A000C0A0C000C0A0E000C0C00000C0C02000C0C04000C0C06000
1004
C0C08000C0C0A000F0FBFF00A4A0A000808080000000FF0000FF000000FFFF00FF000000FF00FF00FFFF0000FFFFFF0000000000000000000000000000000000000000000000000000000000000000000000000000000000000000000000000000000000000000000000000000000000000000000000000000000000000000
1004
00000000000000000000000000000000000000000000000000000000000000000000000000000000000000000000000000000000000000000000000000000000000000000000000000000000000000000000000000000000000000000000000000000000000000000000000000000000000000FFFFFFFFFFFFFFFF0000FFFF
1004
FFFFFFFFFFFFFF0000FF00FF0000FFFF0000000000FF0000FFFF0000FF0000FF000000FF00FF0000FFFF00FFFFFF0000FF00000000FF0000FFFF0000FFFF00FF00FF00FF00FF0000FFFF0000FF0000000000000000FF0000FFFF0000FFFF00FFFFFF000000FF00FF00FF000000FFFF000000000000FF0000FFFF0000FFFF00
1004
FF00FF00FF00FFFF0000FF0000FF0000FFFF00000000FF0000FFFF0000FF0000FF000000FF00FFFF0000FF00FFFF0000FFFF000000FFFFFFFFFFFFFFFF0000FFFFFFFFFFFFFFFF0000FFFFFF00FFFFFFFF00000000000000000000000000000000000000000000000000000000000000000000000000000000000000000000
1004
00000000000000000000000000000000000000000000000000000000000000000000000000000000000000000000000000000000000000000000000000000000000000000000000000000000000000000000000000000000000000000000000000000000000000000000000000000000000000000000000000000000000000
1004
00000000000000000000000000000000000000000000FFFFFF00FFFFFFFFFF00FFFFFFFFFFFF00FFFF0000FF0000FFFFFF000000000000FFFF0000FF0000FF0000FF000000FF00FF000000FF000000FF00000000000000FFFF0000FF0000FFFF00FF00FF00FF00FF0000FFFF000000FF00000000000000FFFF0000FF0000FF
1004
FF00FFFFFF000000FF0000FFFF000000FF00000000000000FFFF0000FF0000FFFF00FF00FF00FF00FF00FF00FF000000FF00000000000000FFFF0000FF0000FF0000FF000000FF00FF00FF00FF0000FFFF000000000000FFFFFF00FFFFFFFFFF00FFFFFFFFFFFF00FFFF00FFFFFF0000FF0000000000000000000000000000
1004
00000000000000000000000000000000000000000000000000000000000000000000000000000000000000000000000000000000000000000000000000000000000000000000000000000000000000000000000000000000000000000000000000000000000000000000000000000000000000000000000000000000000000
1004
0000000000000000000000000000000000000000000000000000000000000000000000000000000000000000000000000000000000000000
  0
BLOCK_RECORD
  5
408
330
1
100
AcDbSymbolTableRecord
100
AcDbBlockTableRecord
  2
*D8
  0
BLOCK_RECORD
  5
416
330
1
100
AcDbSymbolTableRecord
100
AcDbBlockTableRecord
  2
*D9
  0
BLOCK_RECORD
  5
4B9
330
1
100
AcDbSymbolTableRecord
100
AcDbBlockTableRecord
  2
*D10
  0
BLOCK_RECORD
  5
4C7
330
1
100
AcDbSymbolTableRecord
100
AcDbBlockTableRecord
  2
*D11
  0
BLOCK_RECORD
  5
54C
330
1
100
AcDbSymbolTableRecord
100
AcDbBlockTableRecord
  2
*D12
  0
BLOCK_RECORD
  5
55A
330
1
100
AcDbSymbolTableRecord
100
AcDbBlockTableRecord
  2
*D13
  0
BLOCK_RECORD
  5
5C7
330
1
100
AcDbSymbolTableRecord
100
AcDbBlockTableRecord
  2
*D14
  0
BLOCK_RECORD
  5
5D5
330
1
100
AcDbSymbolTableRecord
100
AcDbBlockTableRecord
  2
*D15
  0
BLOCK_RECORD
  5
646
330
1
100
AcDbSymbolTableRecord
100
AcDbBlockTableRecord
  2
*D16
  0
BLOCK_RECORD
  5
654
330
1
100
AcDbSymbolTableRecord
100
AcDbBlockTableRecord
  2
*D17
  0
BLOCK_RECORD
  5
6CB
330
1
100
AcDbSymbolTableRecord
100
AcDbBlockTableRecord
  2
*D18
  0
BLOCK_RECORD
  5
6D9
330
1
100
AcDbSymbolTableRecord
100
AcDbBlockTableRecord
  2
*D19
  0
BLOCK_RECORD
  5
748
330
1
100
AcDbSymbolTableRecord
100
AcDbBlockTableRecord
  2
*D20
  0
BLOCK_RECORD
  5
756
330
1
100
AcDbSymbolTableRecord
100
AcDbBlockTableRecord
  2
*D21
  0
BLOCK_RECORD
  5
7C9
330
1
100
AcDbSymbolTableRecord
100
AcDbBlockTableRecord
  2
*D22
  0
BLOCK_RECORD
  5
7D7
330
1
100
AcDbSymbolTableRecord
100
AcDbBlockTableRecord
  2
*D23
  0
BLOCK_RECORD
  5
824
330
1
100
AcDbSymbolTableRecord
100
AcDbBlockTableRecord
  2
*D24
  0
BLOCK_RECORD
  5
8C6
330
1
100
AcDbSymbolTableRecord
100
AcDbBlockTableRecord
  2
*D25
  0
BLOCK_RECORD
  5
8D4
330
1
100
AcDbSymbolTableRecord
100
AcDbBlockTableRecord
  2
*D26
  0
BLOCK_RECORD
  5
8E2
330
1
100
AcDbSymbolTableRecord
100
AcDbBlockTableRecord
  2
*D27
  0
BLOCK_RECORD
  5
96D
330
1
100
AcDbSymbolTableRecord
100
AcDbBlockTableRecord
  2
*D28
  0
BLOCK_RECORD
  5
97B
330
1
100
AcDbSymbolTableRecord
100
AcDbBlockTableRecord
  2
*D29
  0
BLOCK_RECORD
  5
992
330
1
100
AcDbSymbolTableRecord
100
AcDbBlockTableRecord
  2
*D30
  0
BLOCK_RECORD
  5
A11
330
1
100
AcDbSymbolTableRecord
100
AcDbBlockTableRecord
  2
*D31
  0
BLOCK_RECORD
  5
A1F
330
1
100
AcDbSymbolTableRecord
100
AcDbBlockTableRecord
  2
*D32
  0
BLOCK_RECORD
  5
A2D
330
1
100
AcDbSymbolTableRecord
100
AcDbBlockTableRecord
  2
*D33
  0
BLOCK_RECORD
  5
ADB
330
1
100
AcDbSymbolTableRecord
100
AcDbBlockTableRecord
  2
*D34
  0
BLOCK_RECORD
  5
AE9
330
1
100
AcDbSymbolTableRecord
100
AcDbBlockTableRecord
  2
*D35
  0
BLOCK_RECORD
  5
AF7
330
1
100
AcDbSymbolTableRecord
100
AcDbBlockTableRecord
  2
*D36
  0
BLOCK_RECORD
  5
BA0
330
1
100
AcDbSymbolTableRecord
100
AcDbBlockTableRecord
  2
*D37
  0
BLOCK_RECORD
  5
BAE
330
1
100
AcDbSymbolTableRecord
100
AcDbBlockTableRecord
  2
*D38
  0
BLOCK_RECORD
  5
BBC
330
1
100
AcDbSymbolTableRecord
100
AcDbBlockTableRecord
  2
*D39
  0
BLOCK_RECORD
  5
C64
330
1
100
AcDbSymbolTableRecord
100
AcDbBlockTableRecord
  2
*D40
  0
BLOCK_RECORD
  5
C72
330
1
100
AcDbSymbolTableRecord
100
AcDbBlockTableRecord
  2
*D41
  0
BLOCK_RECORD
  5
C80
330
1
100
AcDbSymbolTableRecord
100
AcDbBlockTableRecord
  2
*D42
  0
BLOCK_RECORD
  5
D28
330
1
100
AcDbSymbolTableRecord
100
AcDbBlockTableRecord
  2
*D43
  0
BLOCK_RECORD
  5
D36
330
1
100
AcDbSymbolTableRecord
100
AcDbBlockTableRecord
  2
*D44
  0
BLOCK_RECORD
  5
D44
330
1
100
AcDbSymbolTableRecord
100
AcDbBlockTableRecord
  2
*D45
  0
BLOCK_RECORD
  5
E35
330
1
100
AcDbSymbolTableRecord
100
AcDbBlockTableRecord
  2
*D46
  0
BLOCK_RECORD
  5
E43
330
1
100
AcDbSymbolTableRecord
100
AcDbBlockTableRecord
  2
*D47
  0
BLOCK_RECORD
  5
E51
330
1
100
AcDbSymbolTableRecord
100
AcDbBlockTableRecord
  2
*D48
  0
BLOCK_RECORD
  5
F42
330
1
100
AcDbSymbolTableRecord
100
AcDbBlockTableRecord
  2
*D49
  0
BLOCK_RECORD
  5
F50
330
1
100
AcDbSymbolTableRecord
100
AcDbBlockTableRecord
  2
*D50
  0
BLOCK_RECORD
  5
F5E
330
1
100
AcDbSymbolTableRecord
100
AcDbBlockTableRecord
  2
*D51
  0
BLOCK_RECORD
  5
1068
330
1
100
AcDbSymbolTableRecord
100
AcDbBlockTableRecord
  2
*D52
  0
BLOCK_RECORD
  5
1076
330
1
100
AcDbSymbolTableRecord
100
AcDbBlockTableRecord
  2
*D53
  0
BLOCK_RECORD
  5
1084
330
1
100
AcDbSymbolTableRecord
100
AcDbBlockTableRecord
  2
*D54
  0
ENDTAB
  0
ENDSEC
  0
SECTION
  2
BLOCKS
  0
BLOCK
  5
1F
330
1E
100
AcDbEntity
  8
0
100
AcDbBlockBegin
  2
*MODEL_SPACE
 70
     0
 10
0.0
 20
0.0
 30
0.0
  3
*MODEL_SPACE
  1

  0
ENDBLK
  5
20
330
1E
100
AcDbEntity
  8
0
100
AcDbBlockEnd
  0
BLOCK
  5
1B
330
1A
100
AcDbEntity
 67
     1
  8
0
100
AcDbBlockBegin
  2
*PAPER_SPACE
 70
     0
 10
0.0
 20
0.0
 30
0.0
  3
*PAPER_SPACE
  1

  0
ENDBLK
  5
1C
330
1A
100
AcDbEntity
 67
     1
  8
0
100
AcDbBlockEnd
  0
BLOCK
  5
23C
330
23B
100
AcDbEntity
  8
0
100
AcDbBlockBegin
  2
TIPUS
 70
     0
 10
0.0
 20
0.0
 30
0.0
  3
TIPUS
  1

  0
TEXT
  5
293
330
23B
100
AcDbEntity
  8
0
  6
CONTINUOUS
100
AcDbText
 10
286.1177180249413
 20
42.37875471737599
 30
0.0
 40
0.3
  1
NTXXXY
  7
ROMANC
100
AcDbText
  0
ENDBLK
  5
23D
330
23B
100
AcDbEntity
  8
0
100
AcDbBlockEnd
  0
BLOCK
  5
241
330
240
100
AcDbEntity
  8
0
100
AcDbBlockBegin
  2
SUPERFICIE
 70
     0
 10
0.0
 20
0.0
 30
0.0
  3
SUPERFICIE
  1

  0
TEXT
  5
291
330
240
100
AcDbEntity
  8
0
  6
CONTINUOUS
100
AcDbText
 10
285.1576974311999
 20
41.09913197584499
 30
0.0
 40
0.3
  1
XXX
  7
ROMANC
100
AcDbText
  0
ENDBLK
  5
242
330
240
100
AcDbEntity
  8
0
100
AcDbBlockEnd
  0
BLOCK
  5
246
330
245
100
AcDbEntity
  8
0
100
AcDbBlockBegin
  2
PERIMETRE
 70
     0
 10
0.0
 20
0.0
 30
0.0
  3
PERIMETRE
  1

  0
TEXT
  5
248
330
245
100
AcDbEntity
  8
0
  6
CONTINUOUS
100
AcDbText
 10
-0.0273031851410224
 20
0.0018352306916185
 30
0.0
 40
0.3
  1
XXX
  7
ROMANC
100
AcDbText
  0
ENDBLK
  5
247
330
245
100
AcDbEntity
  8
0
100
AcDbBlockEnd
  0
BLOCK
  5
250
330
24F
100
AcDbEntity
  8
0
100
AcDbBlockBegin
  2
1
 70
     2
 10
0.0
 20
0.0
 30
0.0
  3
1
  1

  0
TEXT
  5
252
330
24F
100
AcDbEntity
  8
0
  6
CONTINUOUS
100
AcDbText
 10
0.1822521001187169
 20
0.7599981843347125
 30
0.0
 40
0.3
  1
S =    dm
  7
ROMANC
100
AcDbText
  0
INSERT
  5
253
330
24F
100
AcDbEntity
  8
0
100
AcDbBlockReference
  2
TIPUS
 10
2.38227331020124
 20
2.026069320385408
 30
0.0
  0
TEXT
  5
254
330
24F
100
AcDbEntity
  8
0
  6
CONTINUOUS
100
AcDbText
 10
0.1592521001188629
 20
0.1899981843347476
 30
0.0
 40
0.3
  1
P =    dm
  7
ROMANC
100
AcDbText
  0
TEXT
  5
255
330
24F
100
AcDbEntity
  8
0
  6
CONTINUOUS
100
AcDbText
 10
0.1632521001187115
 20
1.428998184334743
 30
0.0
 40
0.3
  1
ESCALA  1:50
  7
ROMANC
100
AcDbText
  0
INSERT
  5
256
330
24F
100
AcDbEntity
  8
0
100
AcDbBlockReference
  2
PERIMETRE
 10
1.422252716459752
 20
0.2014221004675178
 30
0.0
  0
INSERT
  5
257
330
24F
100
AcDbEntity
  8
0
100
AcDbBlockReference
  2
SUPERFICIE
 10
1.434104793966465
 20
0.7582949294881374
 30
0.0
  0
TEXT
  5
258
330
24F
100
AcDbEntity
  8
0
  6
CONTINUOUS
100
AcDbText
 10
0.1632521001187115
 20
2.041998184334743
 30
0.0
 40
0.3
  1
TIPUS   
  7
ROMANC
100
AcDbText
  0
ATTDEF
  5
259
330
24F
100
AcDbEntity
  8
0
100
AcDbText
 10
3.579335975109017
 20
0.1777253642765615
 30
0.0
 40
0.2
  1
x
100
AcDbAttributeDefinition
  3
tipus
  2
TIPUS
 70
     0
  0
ATTDEF
  5
25A
330
24F
100
AcDbEntity
  8
0
100
AcDbText
 10
3.733413387943357
 20
0.734598228220662
 30
0.0
 40
0.2
  1
x
100
AcDbAttributeDefinition
  3
tipus
  2
TIPUS
 70
     0
  0
TEXT
  5
25B
330
24F
100
AcDbEntity
  8
0
  6
CONTINUOUS
100
AcDbText
 10
3.10297712188418
 20
1.019094372221033
 30
0.0
 40
0.1
  1
2
  7
ROMANC
100
AcDbText
  0
ATTDEF
  5
25C
330
24F
100
AcDbEntity
  8
0
100
AcDbText
 10
4.480096065531991
 20
2.049766056576372
 30
0.0
 40
0.2
  1
x
100
AcDbAttributeDefinition
  3
tipus
  2
TIPUS
 70
     0
  0
ENDBLK
  5
251
330
24F
100
AcDbEntity
  8
0
100
AcDbBlockEnd
  0
BLOCK
  5
26E
330
26D
100
AcDbEntity
  8
0
100
AcDbBlockBegin
  2
CARACTERISTIQUES
 70
     2
 10
0.0
 20
0.0
 30
0.0
  3
CARACTERISTIQUES
  1

  0
ATTDEF
  5
309
330
26D
100
AcDbEntity
  8
0
100
AcDbText
 10
286.2722613402651
 20
41.75273550800127
 30
0.0
 40
0.3
  1
1:50
  7
ROMANC
100
AcDbAttributeDefinition
  3
Escala
  2
1:50
 70
     0
  0
ATTDEF
  5
30A
330
26D
100
AcDbEntity
  8
0
100
AcDbText
 10
286.2281292928555
 20
42.38557741488182
 30
0.0
 40
0.3
  1
NTXXXY
  7
ROMANC
100
AcDbAttributeDefinition
  3
Tipus de Seccio
  2
NTXXY
 70
     0
  0
ATTDEF
  5
30B
330
26D
100
AcDbEntity
  8
0
100
AcDbText
 10
285.02615359101
 20
41.10070262236148
 30
0.0
 40
0.3
  1
XXX
  7
ROMANC
100
AcDbAttributeDefinition
  3
Superficie de la seccio
  2
XXX
 70
     0
  0
ATTDEF
  5
30C
330
26D
100
AcDbEntity
  8
0
100
AcDbText
 10
285.049954865421
 20
40.52964709849685
 30
0.0
 40
0.3
  1
XX
  7
ROMANC
100
AcDbAttributeDefinition
  3
Perimetre de la Seccio
  2
XX
 70
     0
  0
ATTDEF
  5
30D
330
26D
100
AcDbEntity
  8
0
100
AcDbText
 10
287.7675284271763
 20
30.62335152191192
 30
0.0
 40
0.3
  1
Xxxxxxxxxxxx
  7
ROMANC
 72
     2
 11
291.1675284271763
 21
30.62335152191192
 31
0.0
100
AcDbAttributeDefinition
  3
Ubicaciò
  2
Xxxxxxxxxxxx
 70
     0
  0
ENDBLK
  5
26F
330
26D
100
AcDbEntity
  8
0
100
AcDbBlockEnd
  0
BLOCK
  5
28D
330
28C
100
AcDbEntity
  8
0
100
AcDbBlockBegin
  2
PERIMETRO
 70
     0
 10
0.0
 20
0.0
 30
0.0
  3
PERIMETRO
  1

  0
TEXT
  5
28F
330
28C
100
AcDbEntity
  8
0
  6
CONTINUOUS
100
AcDbText
 10
285.1576974311999
 20
40.54225914682437
 30
0.0
 40
0.3
  1
XXX
  7
ROMANC
100
AcDbText
  0
ENDBLK
  5
28E
330
28C
100
AcDbEntity
  8
0
100
AcDbBlockEnd
  0
BLOCK
  5
2AC
330
2AB
100
AcDbEntity
  8
0
100
AcDbBlockBegin
  2
PERSONA
 70
     2
 10
0.0
 20
0.0
 30
0.0
  3
PERSONA
  1

  0
ATTDEF
  5
2AE
330
2AB
100
AcDbEntity
  8
0
100
AcDbText
 10
0.3477492763984173
 20
1.891334330655126
 30
0.0
 40
0.2
  1
val:nombre
  7
ROMANC
100
AcDbAttributeDefinition
  3
sol_nombre
  2
IDEN_NOMBRE
 70
     0
  0
ATTDEF
  5
2AF
330
2AB
100
AcDbEntity
  8
0
100
AcDbText
 10
0.2447312480355777
 20
1.208599186397186
 30
0.0
 40
0.2
  1
val_apellido
  7
ROMANC
100
AcDbAttributeDefinition
  3
sol_apellido
  2
IDEN_APELLIDO
 70
     0
  0
ATTDEF
  5
2B0
330
2AB
100
AcDbEntity
  8
0
100
AcDbText
 10
0.3651607346860146
 20
0.342229907808246
 30
0.0
 40
0.2
  1
val_2apellido
  7
ROMANC
100
AcDbAttributeDefinition
  3
sol_2apellido
  2
IDEN_2APELLIDO
 70
     0
  0
ENDBLK
  5
2AD
330
2AB
100
AcDbEntity
  8
0
100
AcDbBlockEnd
  0
BLOCK
  5
2B9
330
2B8
100
AcDbEntity
  8
0
100
AcDbBlockBegin
  2
PRUEVA
 70
     2
 10
0.0
 20
0.0
 30
0.0
  3
PRUEVA
  1

  0
ATTDEF
  5
2BB
330
2B8
100
AcDbEntity
  8
0
100
AcDbText
 10
-0.0238012744110847
 20
0.107073217119698
 30
0.0
 40
0.2
  1
val1
  7
ROMANC
100
AcDbAttributeDefinition
  3
sol1
  2
IDEN1
 70
     0
  0
ATTDEF
  5
2BC
330
2B8
100
AcDbEntity
  8
0
100
AcDbText
 10
-0.0000000000000568
 20
-0.3093217193975377
 30
0.0
 40
0.2
  1
val2
  7
ROMANC
100
AcDbAttributeDefinition
  3
sol2
  2
IDEN2
 70
     0
  0
ENDBLK
  5
2BA
330
2B8
100
AcDbEntity
  8
0
100
AcDbBlockEnd
  0
BLOCK
  5
413
330
408
100
AcDbEntity
  8
0
100
AcDbBlockBegin
  2
*D8
 70
     1
 10
0.0
 20
0.0
 30
0.0
  3
*D8
  1

  0
LINE
  5
44B
330
408
100
AcDbEntity
  8
0
 62
     0
100
AcDbLine
 10
286.7941093898692
 20
38.25060401570361
 30
0.0
 11
284.9873161137836
 21
38.25060401570361
 31
0.0
  0
LINE
  5
44C
330
408
100
AcDbEntity
  8
0
 62
     0
100
AcDbLine
 10
286.7991702272023
 20
35.85027535586603
 30
0.0
 11
284.9873161137836
 21
35.85027535586603
 31
0.0
  0
LINE
  5
44D
330
408
100
AcDbEntity
  8
0
 62
     0
100
AcDbLine
 10
285.1673161137836
 20
38.0706040157036
 30
0.0
 11
285.1673161137836
 21
37.23043968578481
 31
0.0
  0
LINE
  5
44E
330
408
100
AcDbEntity
  8
0
 62
     0
100
AcDbLine
 10
285.1673161137836
 20
36.03027535586603
 30
0.0
 11
285.1673161137836
 21
36.87043968578481
 31
0.0
  0
SOLID
  5
44F
330
408
100
AcDbEntity
  8
0
 62
     0
100
AcDbTrace
 10
285.1373161137837
 20
38.0706040157036
 30
0.0
 11
285.1973161137836
 21
38.0706040157036
 31
0.0
 12
285.1673161137836
 22
38.25060401570361
 32
0.0
 13
285.1673161137836
 23
38.25060401570361
 33
0.0
  0
SOLID
  5
450
330
408
100
AcDbEntity
  8
0
 62
     0
100
AcDbTrace
 10
285.1373161137837
 20
36.03027535586603
 30
0.0
 11
285.1973161137836
 21
36.03027535586603
 31
0.0
 12
285.1673161137836
 22
35.85027535586603
 32
0.0
 13
285.1673161137836
 23
35.85027535586603
 33
0.0
  0
MTEXT
  5
451
330
408
100
AcDbEntity
  8
0
 62
     0
100
AcDbMText
 10
285.1673161137836
 20
37.05043968578486
 30
0.0
 40
0.18
 41
0.0
 71
     5
 72
     1
  1
\A1;2.40
1001
ACAD
1000
MTEXTBEGIN
1070
    73
1070
     1
1070
    44
1040
1.0
1070
    74
1070
     0
1000
MTEXTEND
1000
MTEXTBEGIN
1070
    73
1070
     1
1070
    44
1040
1.0
1070
    74
1070
     0
1000
MTEXTEND
1000
MTEXTBEGIN
1070
    73
1070
     1
1070
    44
1040
1.0
1070
    74
1070
     0
1000
MTEXTEND
1000
MTEXTBEGIN
1070
    73
1070
     1
1070
    44
1040
1.0
1070
    74
1070
     0
1000
MTEXTEND
  0
POINT
  5
452
330
408
100
AcDbEntity
  8
DEFPOINTS
 62
     0
100
AcDbPoint
 10
286.8566093898692
 20
38.25060401570361
 30
0.0
  0
POINT
  5
453
330
408
100
AcDbEntity
  8
DEFPOINTS
 62
     0
100
AcDbPoint
 10
286.8616702272023
 20
35.85027535586603
 30
0.0
  0
POINT
  5
454
330
408
100
AcDbEntity
  8
DEFPOINTS
 62
     0
100
AcDbPoint
 10
285.1673161137836
 20
35.85027535586603
 30
0.0
  0
ENDBLK
  5
414
330
408
100
AcDbEntity
  8
0
100
AcDbBlockEnd
  0
BLOCK
  5
421
330
416
100
AcDbEntity
  8
0
100
AcDbBlockBegin
  2
*D9
 70
     1
 10
0.0
 20
0.0
 30
0.0
  3
*D9
  1

  0
LINE
  5
441
330
416
100
AcDbEntity
  8
0
 62
     0
100
AcDbLine
 10
285.860826871679
 20
37.18402042322699
 30
0.0
 11
285.860826871679
 21
37.42695264859853
 31
0.0
  0
LINE
  5
442
330
416
100
AcDbEntity
  8
0
 62
     0
100
AcDbLine
 10
287.8523919080563
 20
37.30988487397006
 30
0.0
 11
287.8523919080563
 21
37.06695264859853
 31
0.0
  0
LINE
  5
443
330
416
100
AcDbEntity
  8
0
 62
     0
100
AcDbLine
 10
286.0408268716787
 20
37.24695264859853
 30
0.0
 11
286.5266093898677
 21
37.24695264859853
 31
0.0
  0
LINE
  5
444
330
416
100
AcDbEntity
  8
0
 62
     0
100
AcDbLine
 10
287.6723919080564
 20
37.24695264859853
 30
0.0
 11
287.1866093898677
 21
37.24695264859853
 31
0.0
  0
SOLID
  5
445
330
416
100
AcDbEntity
  8
0
 62
     0
100
AcDbTrace
 10
286.0408268716787
 20
37.27695264859853
 30
0.0
 11
286.0408268716787
 21
37.21695264859853
 31
0.0
 12
285.860826871679
 22
37.24695264859853
 32
0.0
 13
285.860826871679
 23
37.24695264859853
 33
0.0
  0
SOLID
  5
446
330
416
100
AcDbEntity
  8
0
 62
     0
100
AcDbTrace
 10
287.6723919080564
 20
37.27695264859853
 30
0.0
 11
287.6723919080564
 21
37.21695264859853
 31
0.0
 12
287.8523919080563
 22
37.24695264859853
 32
0.0
 13
287.8523919080563
 23
37.24695264859853
 33
0.0
  0
MTEXT
  5
447
330
416
100
AcDbEntity
  8
0
 62
     0
100
AcDbMText
 10
286.8566093898676
 20
37.24695264859853
 30
0.0
 40
0.18
 41
0.0
 71
     5
 72
     1
  1
\A1;2.00
1001
ACAD
1000
MTEXTBEGIN
1070
    73
1070
     1
1070
    44
1040
1.0
1070
    74
1070
     0
1000
MTEXTEND
1000
MTEXTBEGIN
1070
    73
1070
     1
1070
    44
1040
1.0
1070
    74
1070
     0
1000
MTEXTEND
1000
MTEXTBEGIN
1070
    73
1070
     1
1070
    44
1040
1.0
1070
    74
1070
     0
1000
MTEXTEND
1000
MTEXTBEGIN
1070
    73
1070
     1
1070
    44
1040
1.0
1070
    74
1070
     0
1000
MTEXTEND
  0
POINT
  5
448
330
416
100
AcDbEntity
  8
DEFPOINTS
 62
     0
100
AcDbPoint
 10
285.860826871679
 20
37.12152042322699
 30
0.0
  0
POINT
  5
449
330
416
100
AcDbEntity
  8
DEFPOINTS
 62
     0
100
AcDbPoint
 10
287.8523919080563
 20
37.37238487397006
 30
0.0
  0
POINT
  5
44A
330
416
100
AcDbEntity
  8
DEFPOINTS
 62
     0
100
AcDbPoint
 10
287.8523919080563
 20
37.24695264859853
 30
0.0
  0
ENDBLK
  5
422
330
416
100
AcDbEntity
  8
0
100
AcDbBlockEnd
  0
BLOCK
  5
4C4
330
4B9
100
AcDbEntity
  8
0
100
AcDbBlockBegin
  2
*D10
 70
     1
 10
0.0
 20
0.0
 30
0.0
  3
*D10
  1

  0
LINE
  5
4D6
330
4B9
100
AcDbEntity
  8
0
 62
     0
100
AcDbLine
 10
285.2791303198133
 20
35.34673508866141
 30
0.0
 11
285.2791303198133
 21
34.77799326410328
 31
0.0
  0
LINE
  5
4D7
330
4B9
100
AcDbEntity
  8
0
 62
     0
100
AcDbLine
 10
286.8791303198133
 20
35.34673508866141
 30
0.0
 11
286.8791303198133
 21
34.77799326410328
 31
0.0
  0
LINE
  5
4D8
330
4B9
100
AcDbEntity
  8
0
 62
     0
100
AcDbLine
 10
285.4591303198133
 20
34.95799326410327
 30
0.0
 11
285.7641303198133
 21
34.95799326410327
 31
0.0
  0
LINE
  5
4D9
330
4B9
100
AcDbEntity
  8
0
 62
     0
100
AcDbLine
 10
286.6991303198133
 20
34.95799326410327
 30
0.0
 11
286.3941303198133
 21
34.95799326410327
 31
0.0
  0
SOLID
  5
4DA
330
4B9
100
AcDbEntity
  8
0
 62
     0
100
AcDbTrace
 10
285.4591303198133
 20
34.98799326410328
 30
0.0
 11
285.4591303198133
 21
34.92799326410327
 31
0.0
 12
285.2791303198133
 22
34.95799326410327
 32
0.0
 13
285.2791303198133
 23
34.95799326410327
 33
0.0
  0
SOLID
  5
4DB
330
4B9
100
AcDbEntity
  8
0
 62
     0
100
AcDbTrace
 10
286.6991303198133
 20
34.98799326410328
 30
0.0
 11
286.6991303198133
 21
34.92799326410327
 31
0.0
 12
286.8791303198133
 22
34.95799326410327
 32
0.0
 13
286.8791303198133
 23
34.95799326410327
 33
0.0
  0
MTEXT
  5
4DC
330
4B9
100
AcDbEntity
  8
0
 62
     0
100
AcDbMText
 10
286.0791303198133
 20
34.95799326410327
 30
0.0
 40
0.18
 41
0.0
 71
     5
 72
     1
  1
\A1;1.60
1001
ACAD
1000
MTEXTBEGIN
1070
    73
1070
     1
1070
    44
1040
1.0
1070
    74
1070
     0
1000
MTEXTEND
1000
MTEXTBEGIN
1070
    73
1070
     1
1070
    44
1040
1.0
1070
    74
1070
     0
1000
MTEXTEND
1000
MTEXTBEGIN
1070
    73
1070
     1
1070
    44
1040
1.0
1070
    74
1070
     0
1000
MTEXTEND
1000
MTEXTBEGIN
1070
    73
1070
     1
1070
    44
1040
1.0
1070
    74
1070
     0
1000
MTEXTEND
  0
POINT
  5
4DD
330
4B9
100
AcDbEntity
  8
DEFPOINTS
 62
     0
100
AcDbPoint
 10
285.2791303198133
 20
35.40923508866141
 30
0.0
  0
POINT
  5
4DE
330
4B9
100
AcDbEntity
  8
DEFPOINTS
 62
     0
100
AcDbPoint
 10
286.8791303198133
 20
35.40923508866141
 30
0.0
  0
POINT
  5
4DF
330
4B9
100
AcDbEntity
  8
DEFPOINTS
 62
     0
100
AcDbPoint
 10
286.8791303198133
 20
34.95799326410327
 30
0.0
  0
ENDBLK
  5
4C5
330
4B9
100
AcDbEntity
  8
0
100
AcDbBlockEnd
  0
BLOCK
  5
4D2
330
4C7
100
AcDbEntity
  8
0
100
AcDbBlockBegin
  2
*D11
 70
     1
 10
0.0
 20
0.0
 30
0.0
  3
*D11
  1

  0
LINE
  5
4E0
330
4C7
100
AcDbEntity
  8
0
 62
     0
100
AcDbLine
 10
286.9416303198133
 20
37.2592350886614
 30
0.0
 11
287.5938595527128
 21
37.2592350886614
 31
0.0
  0
LINE
  5
4E1
330
4C7
100
AcDbEntity
  8
0
 62
     0
100
AcDbLine
 10
286.9416303198133
 20
35.40923508866141
 30
0.0
 11
287.5938595527128
 21
35.40923508866141
 31
0.0
  0
LINE
  5
4E2
330
4C7
100
AcDbEntity
  8
0
 62
     0
100
AcDbLine
 10
287.4138595527128
 20
37.07923508866142
 30
0.0
 11
287.4138595527128
 21
36.51423508866142
 31
0.0
  0
LINE
  5
4E3
330
4C7
100
AcDbEntity
  8
0
 62
     0
100
AcDbLine
 10
287.4138595527128
 20
35.58923508866142
 30
0.0
 11
287.4138595527128
 21
36.15423508866142
 31
0.0
  0
SOLID
  5
4E4
330
4C7
100
AcDbEntity
  8
0
 62
     0
100
AcDbTrace
 10
287.3838595527128
 20
37.07923508866142
 30
0.0
 11
287.4438595527128
 21
37.07923508866142
 31
0.0
 12
287.4138595527128
 22
37.2592350886614
 32
0.0
 13
287.4138595527128
 23
37.2592350886614
 33
0.0
  0
SOLID
  5
4E5
330
4C7
100
AcDbEntity
  8
0
 62
     0
100
AcDbTrace
 10
287.3838595527128
 20
35.58923508866142
 30
0.0
 11
287.4438595527128
 21
35.58923508866142
 31
0.0
 12
287.4138595527128
 22
35.40923508866141
 32
0.0
 13
287.4138595527128
 23
35.40923508866141
 33
0.0
  0
MTEXT
  5
4E6
330
4C7
100
AcDbEntity
  8
0
 62
     0
100
AcDbMText
 10
287.4138595527128
 20
36.33423508866147
 30
0.0
 40
0.18
 41
0.0
 71
     5
 72
     1
  1
\A1;1.85
1001
ACAD
1000
MTEXTBEGIN
1070
    73
1070
     1
1070
    44
1040
1.0
1070
    74
1070
     0
1000
MTEXTEND
1000
MTEXTBEGIN
1070
    73
1070
     1
1070
    44
1040
1.0
1070
    74
1070
     0
1000
MTEXTEND
1000
MTEXTBEGIN
1070
    73
1070
     1
1070
    44
1040
1.0
1070
    74
1070
     0
1000
MTEXTEND
1000
MTEXTBEGIN
1070
    73
1070
     1
1070
    44
1040
1.0
1070
    74
1070
     0
1000
MTEXTEND
  0
POINT
  5
4E7
330
4C7
100
AcDbEntity
  8
DEFPOINTS
 62
     0
100
AcDbPoint
 10
286.8791303198133
 20
37.2592350886614
 30
0.0
  0
POINT
  5
4E8
330
4C7
100
AcDbEntity
  8
DEFPOINTS
 62
     0
100
AcDbPoint
 10
286.8791303198133
 20
35.40923508866141
 30
0.0
  0
POINT
  5
4E9
330
4C7
100
AcDbEntity
  8
DEFPOINTS
 62
     0
100
AcDbPoint
 10
287.4138595527128
 20
35.40923508866141
 30
0.0
  0
ENDBLK
  5
4D3
330
4C7
100
AcDbEntity
  8
0
100
AcDbBlockEnd
  0
BLOCK
  5
557
330
54C
100
AcDbEntity
  8
0
100
AcDbBlockBegin
  2
*D12
 70
     1
 10
0.0
 20
0.0
 30
0.0
  3
*D12
  1

  0
LINE
  5
54D
330
54C
100
AcDbEntity
  8
0
 62
     0
100
AcDbLine
 10
284.7889425627235
 20
35.83671177052997
 30
0.0
 11
284.7889425627235
 21
35.31387464911134
 31
0.0
  0
LINE
  5
54E
330
54C
100
AcDbEntity
  8
0
 62
     0
100
AcDbLine
 10
287.7889425627234
 20
35.83671177052997
 30
0.0
 11
287.7889425627234
 21
35.31387464911134
 31
0.0
  0
LINE
  5
54F
330
54C
100
AcDbEntity
  8
0
 62
     0
100
AcDbLine
 10
284.9689425627234
 20
35.49387464911134
 30
0.0
 11
285.9589425627234
 21
35.49387464911134
 31
0.0
  0
LINE
  5
550
330
54C
100
AcDbEntity
  8
0
 62
     0
100
AcDbLine
 10
287.6089425627233
 20
35.49387464911134
 30
0.0
 11
286.6189425627232
 21
35.49387464911134
 31
0.0
  0
SOLID
  5
551
330
54C
100
AcDbEntity
  8
0
 62
     0
100
AcDbTrace
 10
284.9689425627234
 20
35.52387464911134
 30
0.0
 11
284.9689425627234
 21
35.46387464911134
 31
0.0
 12
284.7889425627235
 22
35.49387464911134
 32
0.0
 13
284.7889425627235
 23
35.49387464911134
 33
0.0
  0
SOLID
  5
552
330
54C
100
AcDbEntity
  8
0
 62
     0
100
AcDbTrace
 10
287.6089425627233
 20
35.52387464911134
 30
0.0
 11
287.6089425627233
 21
35.46387464911134
 31
0.0
 12
287.7889425627234
 22
35.49387464911134
 32
0.0
 13
287.7889425627234
 23
35.49387464911134
 33
0.0
  0
MTEXT
  5
553
330
54C
100
AcDbEntity
  8
0
 62
     0
100
AcDbMText
 10
286.2889425627233
 20
35.49387464911134
 30
0.0
 40
0.18
 41
0.0
 71
     5
 72
     1
  1
\A1;3.00
1001
ACAD
1000
MTEXTBEGIN
1070
    73
1070
     1
1070
    44
1040
1.0
1070
    74
1070
     0
1000
MTEXTEND
1000
MTEXTBEGIN
1070
    73
1070
     1
1070
    44
1040
1.0
1070
    74
1070
     0
1000
MTEXTEND
1000
MTEXTBEGIN
1070
    73
1070
     1
1070
    44
1040
1.0
1070
    74
1070
     0
1000
MTEXTEND
1000
MTEXTBEGIN
1070
    73
1070
     1
1070
    44
1040
1.0
1070
    74
1070
     0
1000
MTEXTEND
  0
POINT
  5
554
330
54C
100
AcDbEntity
  8
DEFPOINTS
 62
     0
100
AcDbPoint
 10
284.7889425627235
 20
35.89921177052997
 30
0.0
  0
POINT
  5
555
330
54C
100
AcDbEntity
  8
DEFPOINTS
 62
     0
100
AcDbPoint
 10
287.7889425627234
 20
35.89921177052997
 30
0.0
  0
POINT
  5
556
330
54C
100
AcDbEntity
  8
DEFPOINTS
 62
     0
100
AcDbPoint
 10
287.7889425627234
 20
35.49387464911134
 30
0.0
  0
ENDBLK
  5
558
330
54C
100
AcDbEntity
  8
0
100
AcDbBlockEnd
  0
BLOCK
  5
565
330
55A
100
AcDbEntity
  8
0
100
AcDbBlockBegin
  2
*D13
 70
     1
 10
0.0
 20
0.0
 30
0.0
  3
*D13
  1

  0
LINE
  5
55B
330
55A
100
AcDbEntity
  8
0
 62
     0
100
AcDbLine
 10
287.8514425627233
 20
36.94921177052999
 30
0.0
 11
288.4164760698942
 21
36.94921177052999
 31
0.0
  0
LINE
  5
55C
330
55A
100
AcDbEntity
  8
0
 62
     0
100
AcDbLine
 10
287.8514425627233
 20
35.89921177052997
 30
0.0
 11
288.4164760698942
 21
35.89921177052997
 31
0.0
  0
LINE
  5
55D
330
55A
100
AcDbEntity
  8
0
 62
     0
100
AcDbLine
 10
288.2364760698941
 20
36.76921177052999
 30
0.0
 11
288.2364760698941
 21
36.60421177052999
 31
0.0
  0
LINE
  5
55E
330
55A
100
AcDbEntity
  8
0
 62
     0
100
AcDbLine
 10
288.2364760698941
 20
36.07921177052999
 30
0.0
 11
288.2364760698941
 21
36.24421177052999
 31
0.0
  0
SOLID
  5
55F
330
55A
100
AcDbEntity
  8
0
 62
     0
100
AcDbTrace
 10
288.2064760698941
 20
36.76921177052999
 30
0.0
 11
288.2664760698941
 21
36.76921177052999
 31
0.0
 12
288.2364760698941
 22
36.94921177052999
 32
0.0
 13
288.2364760698941
 23
36.94921177052999
 33
0.0
  0
SOLID
  5
560
330
55A
100
AcDbEntity
  8
0
 62
     0
100
AcDbTrace
 10
288.2064760698941
 20
36.07921177052999
 30
0.0
 11
288.2664760698941
 21
36.07921177052999
 31
0.0
 12
288.2364760698941
 22
35.89921177052997
 32
0.0
 13
288.2364760698941
 23
35.89921177052997
 33
0.0
  0
MTEXT
  5
561
330
55A
100
AcDbEntity
  8
0
 62
     0
100
AcDbMText
 10
288.2364760698941
 20
36.42421177053003
 30
0.0
 40
0.18
 41
0.0
 71
     5
 72
     1
  1
\A1;1.05
1001
ACAD
1000
MTEXTBEGIN
1070
    73
1070
     1
1070
    44
1040
1.0
1070
    74
1070
     0
1000
MTEXTEND
1000
MTEXTBEGIN
1070
    73
1070
     1
1070
    44
1040
1.0
1070
    74
1070
     0
1000
MTEXTEND
1000
MTEXTBEGIN
1070
    73
1070
     1
1070
    44
1040
1.0
1070
    74
1070
     0
1000
MTEXTEND
1000
MTEXTBEGIN
1070
    73
1070
     1
1070
    44
1040
1.0
1070
    74
1070
     0
1000
MTEXTEND
  0
POINT
  5
562
330
55A
100
AcDbEntity
  8
DEFPOINTS
 62
     0
100
AcDbPoint
 10
287.7889425627234
 20
36.94921177052999
 30
0.0
  0
POINT
  5
563
330
55A
100
AcDbEntity
  8
DEFPOINTS
 62
     0
100
AcDbPoint
 10
287.7889425627234
 20
35.89921177052997
 30
0.0
  0
POINT
  5
564
330
55A
100
AcDbEntity
  8
DEFPOINTS
 62
     0
100
AcDbPoint
 10
288.2364760698941
 20
35.89921177052997
 30
0.0
  0
ENDBLK
  5
566
330
55A
100
AcDbEntity
  8
0
100
AcDbBlockEnd
  0
BLOCK
  5
5D2
330
5C7
100
AcDbEntity
  8
0
100
AcDbBlockBegin
  2
*D14
 70
     1
 10
0.0
 20
0.0
 30
0.0
  3
*D14
  1

  0
LINE
  5
5C8
330
5C7
100
AcDbEntity
  8
0
 62
     0
100
AcDbLine
 10
284.8643560718976
 20
34.91329419506639
 30
0.0
 11
284.8643560718976
 21
34.36235330147141
 31
0.0
  0
LINE
  5
5C9
330
5C7
100
AcDbEntity
  8
0
 62
     0
100
AcDbLine
 10
286.9643560718976
 20
34.91329419506639
 30
0.0
 11
286.9643560718976
 21
34.36235330147141
 31
0.0
  0
LINE
  5
5CA
330
5C7
100
AcDbEntity
  8
0
 62
     0
100
AcDbLine
 10
285.0443560718975
 20
34.5423533014714
 30
0.0
 11
285.5993560718975
 21
34.5423533014714
 31
0.0
  0
LINE
  5
5CB
330
5C7
100
AcDbEntity
  8
0
 62
     0
100
AcDbLine
 10
286.7843560718976
 20
34.5423533014714
 30
0.0
 11
286.2293560718973
 21
34.5423533014714
 31
0.0
  0
SOLID
  5
5CC
330
5C7
100
AcDbEntity
  8
0
 62
     0
100
AcDbTrace
 10
285.0443560718975
 20
34.57235330147141
 30
0.0
 11
285.0443560718975
 21
34.5123533014714
 31
0.0
 12
284.8643560718976
 22
34.5423533014714
 32
0.0
 13
284.8643560718976
 23
34.5423533014714
 33
0.0
  0
SOLID
  5
5CD
330
5C7
100
AcDbEntity
  8
0
 62
     0
100
AcDbTrace
 10
286.7843560718976
 20
34.57235330147141
 30
0.0
 11
286.7843560718976
 21
34.5123533014714
 31
0.0
 12
286.9643560718976
 22
34.5423533014714
 32
0.0
 13
286.9643560718976
 23
34.5423533014714
 33
0.0
  0
MTEXT
  5
5CE
330
5C7
100
AcDbEntity
  8
0
 62
     0
100
AcDbMText
 10
285.9143560718976
 20
34.5423533014714
 30
0.0
 40
0.18
 41
0.0
 71
     5
 72
     1
  1
\A1;2.10
1001
ACAD
1000
MTEXTBEGIN
1070
    73
1070
     1
1070
    44
1040
1.0
1070
    74
1070
     0
1000
MTEXTEND
1000
MTEXTBEGIN
1070
    73
1070
     1
1070
    44
1040
1.0
1070
    74
1070
     0
1000
MTEXTEND
1000
MTEXTBEGIN
1070
    73
1070
     1
1070
    44
1040
1.0
1070
    74
1070
     0
1000
MTEXTEND
1000
MTEXTBEGIN
1070
    73
1070
     1
1070
    44
1040
1.0
1070
    74
1070
     0
1000
MTEXTEND
  0
POINT
  5
5CF
330
5C7
100
AcDbEntity
  8
DEFPOINTS
 62
     0
100
AcDbPoint
 10
284.8643560718976
 20
34.9757941950664
 30
0.0
  0
POINT
  5
5D0
330
5C7
100
AcDbEntity
  8
DEFPOINTS
 62
     0
100
AcDbPoint
 10
286.9643560718976
 20
34.9757941950664
 30
0.0
  0
POINT
  5
5D1
330
5C7
100
AcDbEntity
  8
DEFPOINTS
 62
     0
100
AcDbPoint
 10
286.9643560718976
 20
34.5423533014714
 30
0.0
  0
ENDBLK
  5
5D3
330
5C7
100
AcDbEntity
  8
0
100
AcDbBlockEnd
  0
BLOCK
  5
5E0
330
5D5
100
AcDbEntity
  8
0
100
AcDbBlockBegin
  2
*D15
 70
     1
 10
0.0
 20
0.0
 30
0.0
  3
*D15
  1

  0
LINE
  5
5D6
330
5D5
100
AcDbEntity
  8
0
 62
     0
100
AcDbLine
 10
287.0268560718976
 20
37.3257941950664
 30
0.0
 11
287.796948841501
 21
37.3257941950664
 31
0.0
  0
LINE
  5
5D7
330
5D5
100
AcDbEntity
  8
0
 62
     0
100
AcDbLine
 10
287.0268560718976
 20
34.9757941950664
 30
0.0
 11
287.796948841501
 21
34.9757941950664
 31
0.0
  0
LINE
  5
5D8
330
5D5
100
AcDbEntity
  8
0
 62
     0
100
AcDbLine
 10
287.616948841501
 20
37.14579419506641
 30
0.0
 11
287.616948841501
 21
36.3307941950664
 31
0.0
  0
LINE
  5
5D9
330
5D5
100
AcDbEntity
  8
0
 62
     0
100
AcDbLine
 10
287.616948841501
 20
35.15579419506639
 30
0.0
 11
287.616948841501
 21
35.9707941950664
 31
0.0
  0
SOLID
  5
5DA
330
5D5
100
AcDbEntity
  8
0
 62
     0
100
AcDbTrace
 10
287.5869488415009
 20
37.14579419506641
 30
0.0
 11
287.6469488415009
 21
37.14579419506641
 31
0.0
 12
287.616948841501
 22
37.3257941950664
 32
0.0
 13
287.616948841501
 23
37.3257941950664
 33
0.0
  0
SOLID
  5
5DB
330
5D5
100
AcDbEntity
  8
0
 62
     0
100
AcDbTrace
 10
287.5869488415009
 20
35.15579419506639
 30
0.0
 11
287.6469488415009
 21
35.15579419506639
 31
0.0
 12
287.616948841501
 22
34.9757941950664
 32
0.0
 13
287.616948841501
 23
34.9757941950664
 33
0.0
  0
MTEXT
  5
5DC
330
5D5
100
AcDbEntity
  8
0
 62
     0
100
AcDbMText
 10
287.616948841501
 20
36.15079419506646
 30
0.0
 40
0.18
 41
0.0
 71
     5
 72
     1
  1
\A1;2.35
1001
ACAD
1000
MTEXTBEGIN
1070
    73
1070
     1
1070
    44
1040
1.0
1070
    74
1070
     0
1000
MTEXTEND
1000
MTEXTBEGIN
1070
    73
1070
     1
1070
    44
1040
1.0
1070
    74
1070
     0
1000
MTEXTEND
1000
MTEXTBEGIN
1070
    73
1070
     1
1070
    44
1040
1.0
1070
    74
1070
     0
1000
MTEXTEND
1000
MTEXTBEGIN
1070
    73
1070
     1
1070
    44
1040
1.0
1070
    74
1070
     0
1000
MTEXTEND
  0
POINT
  5
5DD
330
5D5
100
AcDbEntity
  8
DEFPOINTS
 62
     0
100
AcDbPoint
 10
286.9643560718976
 20
37.3257941950664
 30
0.0
  0
POINT
  5
5DE
330
5D5
100
AcDbEntity
  8
DEFPOINTS
 62
     0
100
AcDbPoint
 10
286.9643560718976
 20
34.9757941950664
 30
0.0
  0
POINT
  5
5DF
330
5D5
100
AcDbEntity
  8
DEFPOINTS
 62
     0
100
AcDbPoint
 10
287.616948841501
 20
34.9757941950664
 30
0.0
  0
ENDBLK
  5
5E1
330
5D5
100
AcDbEntity
  8
0
100
AcDbBlockEnd
  0
BLOCK
  5
651
330
646
100
AcDbEntity
  8
0
100
AcDbBlockBegin
  2
*D16
 70
     1
 10
0.0
 20
0.0
 30
0.0
  3
*D16
  1

  0
LINE
  5
647
330
646
100
AcDbEntity
  8
0
 62
     0
100
AcDbLine
 10
284.3176081566563
 20
35.13943727900575
 30
0.0
 11
284.3176081566563
 21
34.56962970767326
 31
0.0
  0
LINE
  5
648
330
646
100
AcDbEntity
  8
0
 62
     0
100
AcDbLine
 10
287.3176081566563
 20
35.13943727900575
 30
0.0
 11
287.3176081566563
 21
34.56962970767326
 31
0.0
  0
LINE
  5
649
330
646
100
AcDbEntity
  8
0
 62
     0
100
AcDbLine
 10
284.4976081566563
 20
34.74962970767326
 30
0.0
 11
285.4876081566562
 21
34.74962970767326
 31
0.0
  0
LINE
  5
64A
330
646
100
AcDbEntity
  8
0
 62
     0
100
AcDbLine
 10
287.1376081566562
 20
34.74962970767326
 30
0.0
 11
286.1476081566562
 21
34.74962970767326
 31
0.0
  0
SOLID
  5
64B
330
646
100
AcDbEntity
  8
0
 62
     0
100
AcDbTrace
 10
284.4976081566563
 20
34.77962970767326
 30
0.0
 11
284.4976081566563
 21
34.71962970767326
 31
0.0
 12
284.3176081566563
 22
34.74962970767326
 32
0.0
 13
284.3176081566563
 23
34.74962970767326
 33
0.0
  0
SOLID
  5
64C
330
646
100
AcDbEntity
  8
0
 62
     0
100
AcDbTrace
 10
287.1376081566562
 20
34.77962970767326
 30
0.0
 11
287.1376081566562
 21
34.71962970767326
 31
0.0
 12
287.3176081566563
 22
34.74962970767326
 32
0.0
 13
287.3176081566563
 23
34.74962970767326
 33
0.0
  0
MTEXT
  5
64D
330
646
100
AcDbEntity
  8
0
 62
     0
100
AcDbMText
 10
285.8176081566563
 20
34.74962970767326
 30
0.0
 40
0.18
 41
0.0
 71
     5
 72
     1
  1
\A1;3.00
1001
ACAD
1000
MTEXTBEGIN
1070
    73
1070
     1
1070
    44
1040
1.0
1070
    74
1070
     0
1000
MTEXTEND
1000
MTEXTBEGIN
1070
    73
1070
     1
1070
    44
1040
1.0
1070
    74
1070
     0
1000
MTEXTEND
1000
MTEXTBEGIN
1070
    73
1070
     1
1070
    44
1040
1.0
1070
    74
1070
     0
1000
MTEXTEND
1000
MTEXTBEGIN
1070
    73
1070
     1
1070
    44
1040
1.0
1070
    74
1070
     0
1000
MTEXTEND
  0
POINT
  5
64E
330
646
100
AcDbEntity
  8
DEFPOINTS
 62
     0
100
AcDbPoint
 10
284.3176081566563
 20
35.20193727900575
 30
0.0
  0
POINT
  5
64F
330
646
100
AcDbEntity
  8
DEFPOINTS
 62
     0
100
AcDbPoint
 10
287.3176081566563
 20
35.20193727900575
 30
0.0
  0
POINT
  5
650
330
646
100
AcDbEntity
  8
DEFPOINTS
 62
     0
100
AcDbPoint
 10
287.3176081566563
 20
34.74962970767326
 30
0.0
  0
ENDBLK
  5
652
330
646
100
AcDbEntity
  8
0
100
AcDbBlockEnd
  0
BLOCK
  5
65F
330
654
100
AcDbEntity
  8
0
100
AcDbBlockBegin
  2
*D17
 70
     1
 10
0.0
 20
0.0
 30
0.0
  3
*D17
  1

  0
LINE
  5
655
330
654
100
AcDbEntity
  8
0
 62
     0
100
AcDbLine
 10
287.3801081566563
 20
37.00193727900575
 30
0.0
 11
287.98067449081
 21
37.00193727900575
 31
0.0
  0
LINE
  5
656
330
654
100
AcDbEntity
  8
0
 62
     0
100
AcDbLine
 10
287.3801081566563
 20
35.20193727900575
 30
0.0
 11
287.98067449081
 21
35.20193727900575
 31
0.0
  0
LINE
  5
657
330
654
100
AcDbEntity
  8
0
 62
     0
100
AcDbLine
 10
287.80067449081
 20
36.82193727900575
 30
0.0
 11
287.80067449081
 21
36.28193727900575
 31
0.0
  0
LINE
  5
658
330
654
100
AcDbEntity
  8
0
 62
     0
100
AcDbLine
 10
287.80067449081
 20
35.38193727900575
 30
0.0
 11
287.80067449081
 21
35.92193727900575
 31
0.0
  0
SOLID
  5
659
330
654
100
AcDbEntity
  8
0
 62
     0
100
AcDbTrace
 10
287.7706744908101
 20
36.82193727900575
 30
0.0
 11
287.8306744908099
 21
36.82193727900575
 31
0.0
 12
287.80067449081
 22
37.00193727900575
 32
0.0
 13
287.80067449081
 23
37.00193727900575
 33
0.0
  0
SOLID
  5
65A
330
654
100
AcDbEntity
  8
0
 62
     0
100
AcDbTrace
 10
287.7706744908101
 20
35.38193727900575
 30
0.0
 11
287.8306744908099
 21
35.38193727900575
 31
0.0
 12
287.80067449081
 22
35.20193727900575
 32
0.0
 13
287.80067449081
 23
35.20193727900575
 33
0.0
  0
MTEXT
  5
65B
330
654
100
AcDbEntity
  8
0
 62
     0
100
AcDbMText
 10
287.80067449081
 20
36.10193727900579
 30
0.0
 40
0.18
 41
0.0
 71
     5
 72
     1
  1
\A1;1.80
1001
ACAD
1000
MTEXTBEGIN
1070
    73
1070
     1
1070
    44
1040
1.0
1070
    74
1070
     0
1000
MTEXTEND
1000
MTEXTBEGIN
1070
    73
1070
     1
1070
    44
1040
1.0
1070
    74
1070
     0
1000
MTEXTEND
1000
MTEXTBEGIN
1070
    73
1070
     1
1070
    44
1040
1.0
1070
    74
1070
     0
1000
MTEXTEND
1000
MTEXTBEGIN
1070
    73
1070
     1
1070
    44
1040
1.0
1070
    74
1070
     0
1000
MTEXTEND
  0
POINT
  5
65C
330
654
100
AcDbEntity
  8
DEFPOINTS
 62
     0
100
AcDbPoint
 10
287.3176081566563
 20
37.00193727900575
 30
0.0
  0
POINT
  5
65D
330
654
100
AcDbEntity
  8
DEFPOINTS
 62
     0
100
AcDbPoint
 10
287.3176081566563
 20
35.20193727900575
 30
0.0
  0
POINT
  5
65E
330
654
100
AcDbEntity
  8
DEFPOINTS
 62
     0
100
AcDbPoint
 10
287.80067449081
 20
35.20193727900575
 30
0.0
  0
ENDBLK
  5
660
330
654
100
AcDbEntity
  8
0
100
AcDbBlockEnd
  0
BLOCK
  5
6D6
330
6CB
100
AcDbEntity
  8
0
100
AcDbBlockBegin
  2
*D18
 70
     1
 10
0.0
 20
0.0
 30
0.0
  3
*D18
  1

  0
LINE
  5
6CC
330
6CB
100
AcDbEntity
  8
0
 62
     0
100
AcDbLine
 10
283.9974388198556
 20
34.60892039302148
 30
0.0
 11
283.9974388198556
 21
33.89440641313147
 31
0.0
  0
LINE
  5
6CD
330
6CB
100
AcDbEntity
  8
0
 62
     0
100
AcDbLine
 10
288.4974388198556
 20
34.60892039302148
 30
0.0
 11
288.4974388198556
 21
33.89440641313147
 31
0.0
  0
LINE
  5
6CE
330
6CB
100
AcDbEntity
  8
0
 62
     0
100
AcDbLine
 10
284.1774388198556
 20
34.07440641313147
 30
0.0
 11
285.9024388198556
 21
34.07440641313147
 31
0.0
  0
LINE
  5
6CF
330
6CB
100
AcDbEntity
  8
0
 62
     0
100
AcDbLine
 10
288.3174388198556
 20
34.07440641313147
 30
0.0
 11
286.5924388198556
 21
34.07440641313147
 31
0.0
  0
SOLID
  5
6D0
330
6CB
100
AcDbEntity
  8
0
 62
     0
100
AcDbTrace
 10
284.1774388198556
 20
34.10440641313147
 30
0.0
 11
284.1774388198556
 21
34.04440641313148
 31
0.0
 12
283.9974388198556
 22
34.07440641313147
 32
0.0
 13
283.9974388198556
 23
34.07440641313147
 33
0.0
  0
SOLID
  5
6D1
330
6CB
100
AcDbEntity
  8
0
 62
     0
100
AcDbTrace
 10
288.3174388198556
 20
34.10440641313147
 30
0.0
 11
288.3174388198556
 21
34.04440641313148
 31
0.0
 12
288.4974388198556
 22
34.07440641313147
 32
0.0
 13
288.4974388198556
 23
34.07440641313147
 33
0.0
  0
MTEXT
  5
6D2
330
6CB
100
AcDbEntity
  8
0
 62
     0
100
AcDbMText
 10
286.2474388198556
 20
34.07440641313147
 30
0.0
 40
0.18
 41
0.0
 71
     5
 72
     1
  1
\A1;4.50
1001
ACAD
1000
MTEXTBEGIN
1070
    73
1070
     1
1070
    44
1040
1.0
1070
    74
1070
     0
1000
MTEXTEND
1000
MTEXTBEGIN
1070
    73
1070
     1
1070
    44
1040
1.0
1070
    74
1070
     0
1000
MTEXTEND
1000
MTEXTBEGIN
1070
    73
1070
     1
1070
    44
1040
1.0
1070
    74
1070
     0
1000
MTEXTEND
  0
POINT
  5
6D3
330
6CB
100
AcDbEntity
  8
DEFPOINTS
 62
     0
100
AcDbPoint
 10
283.9974388198556
 20
34.67142039302148
 30
0.0
  0
POINT
  5
6D4
330
6CB
100
AcDbEntity
  8
DEFPOINTS
 62
     0
100
AcDbPoint
 10
288.4974388198556
 20
34.67142039302148
 30
0.0
  0
POINT
  5
6D5
330
6CB
100
AcDbEntity
  8
DEFPOINTS
 62
     0
100
AcDbPoint
 10
288.4974388198556
 20
34.07440641313147
 30
0.0
  0
ENDBLK
  5
6D7
330
6CB
100
AcDbEntity
  8
0
100
AcDbBlockEnd
  0
BLOCK
  5
6E4
330
6D9
100
AcDbEntity
  8
0
100
AcDbBlockBegin
  2
*D19
 70
     1
 10
0.0
 20
0.0
 30
0.0
  3
*D19
  1

  0
LINE
  5
6DA
330
6D9
100
AcDbEntity
  8
0
 62
     0
100
AcDbLine
 10
288.5599388198556
 20
37.32142039302146
 30
0.0
 11
289.4035613607012
 21
37.32142039302146
 31
0.0
  0
LINE
  5
6DB
330
6D9
100
AcDbEntity
  8
0
 62
     0
100
AcDbLine
 10
288.5599388198556
 20
34.67142039302148
 30
0.0
 11
289.4035613607012
 21
34.67142039302148
 31
0.0
  0
LINE
  5
6DC
330
6D9
100
AcDbEntity
  8
0
 62
     0
100
AcDbLine
 10
289.2235613607013
 20
37.14142039302148
 30
0.0
 11
289.2235613607013
 21
36.17642039302149
 31
0.0
  0
LINE
  5
6DD
330
6D9
100
AcDbEntity
  8
0
 62
     0
100
AcDbLine
 10
289.2235613607013
 20
34.85142039302147
 30
0.0
 11
289.2235613607013
 21
35.81642039302149
 31
0.0
  0
SOLID
  5
6DE
330
6D9
100
AcDbEntity
  8
0
 62
     0
100
AcDbTrace
 10
289.1935613607011
 20
37.14142039302148
 30
0.0
 11
289.2535613607011
 21
37.14142039302148
 31
0.0
 12
289.2235613607013
 22
37.32142039302146
 32
0.0
 13
289.2235613607013
 23
37.32142039302146
 33
0.0
  0
SOLID
  5
6DF
330
6D9
100
AcDbEntity
  8
0
 62
     0
100
AcDbTrace
 10
289.1935613607011
 20
34.85142039302147
 30
0.0
 11
289.2535613607011
 21
34.85142039302147
 31
0.0
 12
289.2235613607013
 22
34.67142039302148
 32
0.0
 13
289.2235613607013
 23
34.67142039302148
 33
0.0
  0
MTEXT
  5
6E0
330
6D9
100
AcDbEntity
  8
0
 62
     0
100
AcDbMText
 10
289.2235613607013
 20
35.99642039302153
 30
0.0
 40
0.18
 41
0.0
 71
     5
 72
     1
  1
\A1;2.65
1001
ACAD
1000
MTEXTBEGIN
1070
    73
1070
     1
1070
    44
1040
1.0
1070
    74
1070
     0
1000
MTEXTEND
1000
MTEXTBEGIN
1070
    73
1070
     1
1070
    44
1040
1.0
1070
    74
1070
     0
1000
MTEXTEND
1000
MTEXTBEGIN
1070
    73
1070
     1
1070
    44
1040
1.0
1070
    74
1070
     0
1000
MTEXTEND
  0
POINT
  5
6E1
330
6D9
100
AcDbEntity
  8
DEFPOINTS
 62
     0
100
AcDbPoint
 10
288.4974388198556
 20
37.32142039302146
 30
0.0
  0
POINT
  5
6E2
330
6D9
100
AcDbEntity
  8
DEFPOINTS
 62
     0
100
AcDbPoint
 10
288.4974388198556
 20
34.67142039302148
 30
0.0
  0
POINT
  5
6E3
330
6D9
100
AcDbEntity
  8
DEFPOINTS
 62
     0
100
AcDbPoint
 10
289.2235613607013
 20
34.67142039302148
 30
0.0
  0
ENDBLK
  5
6E5
330
6D9
100
AcDbEntity
  8
0
100
AcDbBlockEnd
  0
BLOCK
  5
753
330
748
100
AcDbEntity
  8
0
100
AcDbBlockBegin
  2
*D20
 70
     1
 10
0.0
 20
0.0
 30
0.0
  3
*D20
  1

  0
LINE
  5
749
330
748
100
AcDbEntity
  8
0
 62
     0
100
AcDbLine
 10
284.0186089142781
 20
35.13601731029007
 30
0.0
 11
284.0186089142781
 21
34.48209409743864
 31
0.0
  0
LINE
  5
74A
330
748
100
AcDbEntity
  8
0
 62
     0
100
AcDbLine
 10
288.5186089142781
 20
35.13601731029007
 30
0.0
 11
288.5186089142781
 21
34.48209409743864
 31
0.0
  0
LINE
  5
74B
330
748
100
AcDbEntity
  8
0
 62
     0
100
AcDbLine
 10
284.198608914278
 20
34.66209409743864
 30
0.0
 11
285.923608914278
 21
34.66209409743864
 31
0.0
  0
LINE
  5
74C
330
748
100
AcDbEntity
  8
0
 62
     0
100
AcDbLine
 10
288.338608914278
 20
34.66209409743864
 30
0.0
 11
286.6136089142781
 21
34.66209409743864
 31
0.0
  0
SOLID
  5
74D
330
748
100
AcDbEntity
  8
0
 62
     0
100
AcDbTrace
 10
284.198608914278
 20
34.69209409743864
 30
0.0
 11
284.198608914278
 21
34.63209409743865
 31
0.0
 12
284.0186089142781
 22
34.66209409743864
 32
0.0
 13
284.0186089142781
 23
34.66209409743864
 33
0.0
  0
SOLID
  5
74E
330
748
100
AcDbEntity
  8
0
 62
     0
100
AcDbTrace
 10
288.338608914278
 20
34.69209409743864
 30
0.0
 11
288.338608914278
 21
34.63209409743865
 31
0.0
 12
288.5186089142781
 22
34.66209409743864
 32
0.0
 13
288.5186089142781
 23
34.66209409743864
 33
0.0
  0
MTEXT
  5
74F
330
748
100
AcDbEntity
  8
0
 62
     0
100
AcDbMText
 10
286.2686089142781
 20
34.66209409743864
 30
0.0
 40
0.18
 41
0.0
 71
     5
 72
     1
  1
\A1;4.50
1001
ACAD
1000
MTEXTBEGIN
1070
    73
1070
     1
1070
    44
1040
1.0
1070
    74
1070
     0
1000
MTEXTEND
1000
MTEXTBEGIN
1070
    73
1070
     1
1070
    44
1040
1.0
1070
    74
1070
     0
1000
MTEXTEND
1000
MTEXTBEGIN
1070
    73
1070
     1
1070
    44
1040
1.0
1070
    74
1070
     0
1000
MTEXTEND
  0
POINT
  5
750
330
748
100
AcDbEntity
  8
DEFPOINTS
 62
     0
100
AcDbPoint
 10
284.0186089142781
 20
35.19851731029008
 30
0.0
  0
POINT
  5
751
330
748
100
AcDbEntity
  8
DEFPOINTS
 62
     0
100
AcDbPoint
 10
288.5186089142781
 20
35.19851731029008
 30
0.0
  0
POINT
  5
752
330
748
100
AcDbEntity
  8
DEFPOINTS
 62
     0
100
AcDbPoint
 10
288.5186089142781
 20
34.66209409743864
 30
0.0
  0
ENDBLK
  5
754
330
748
100
AcDbEntity
  8
0
100
AcDbBlockEnd
  0
BLOCK
  5
761
330
756
100
AcDbEntity
  8
0
100
AcDbBlockBegin
  2
*D21
 70
     1
 10
0.0
 20
0.0
 30
0.0
  3
*D21
  1

  0
LINE
  5
757
330
756
100
AcDbEntity
  8
0
 62
     0
100
AcDbLine
 10
288.581108914278
 20
35.19851731029008
 30
0.0
 11
289.2431591948691
 21
35.19851731029008
 31
0.0
  0
LINE
  5
758
330
756
100
AcDbEntity
  8
0
 62
     0
100
AcDbLine
 10
288.581108914278
 20
37.59851731029007
 30
0.0
 11
289.2431591948691
 21
37.59851731029007
 31
0.0
  0
LINE
  5
759
330
756
100
AcDbEntity
  8
0
 62
     0
100
AcDbLine
 10
289.0631591948691
 20
35.37851731029007
 30
0.0
 11
289.0631591948691
 21
36.21851731029008
 31
0.0
  0
LINE
  5
75A
330
756
100
AcDbEntity
  8
0
 62
     0
100
AcDbLine
 10
289.0631591948691
 20
37.41851731029008
 30
0.0
 11
289.0631591948691
 21
36.57851731029008
 31
0.0
  0
SOLID
  5
75B
330
756
100
AcDbEntity
  8
0
 62
     0
100
AcDbTrace
 10
289.0331591948691
 20
35.37851731029007
 30
0.0
 11
289.0931591948691
 21
35.37851731029007
 31
0.0
 12
289.0631591948691
 22
35.19851731029008
 32
0.0
 13
289.0631591948691
 23
35.19851731029008
 33
0.0
  0
SOLID
  5
75C
330
756
100
AcDbEntity
  8
0
 62
     0
100
AcDbTrace
 10
289.0331591948691
 20
37.41851731029008
 30
0.0
 11
289.0931591948691
 21
37.41851731029008
 31
0.0
 12
289.0631591948691
 22
37.59851731029007
 32
0.0
 13
289.0631591948691
 23
37.59851731029007
 33
0.0
  0
MTEXT
  5
75D
330
756
100
AcDbEntity
  8
0
 62
     0
100
AcDbMText
 10
289.0631591948691
 20
36.39851731029013
 30
0.0
 40
0.18
 41
0.0
 71
     5
 72
     1
  1
\A1;2.40
1001
ACAD
1000
MTEXTBEGIN
1070
    73
1070
     1
1070
    44
1040
1.0
1070
    74
1070
     0
1000
MTEXTEND
1000
MTEXTBEGIN
1070
    73
1070
     1
1070
    44
1040
1.0
1070
    74
1070
     0
1000
MTEXTEND
1000
MTEXTBEGIN
1070
    73
1070
     1
1070
    44
1040
1.0
1070
    74
1070
     0
1000
MTEXTEND
  0
POINT
  5
75E
330
756
100
AcDbEntity
  8
DEFPOINTS
 62
     0
100
AcDbPoint
 10
288.5186089142781
 20
35.19851731029008
 30
0.0
  0
POINT
  5
75F
330
756
100
AcDbEntity
  8
DEFPOINTS
 62
     0
100
AcDbPoint
 10
288.5186089142781
 20
37.59851731029007
 30
0.0
  0
POINT
  5
760
330
756
100
AcDbEntity
  8
DEFPOINTS
 62
     0
100
AcDbPoint
 10
289.0631591948691
 20
37.59851731029007
 30
0.0
  0
ENDBLK
  5
762
330
756
100
AcDbEntity
  8
0
100
AcDbBlockEnd
  0
BLOCK
  5
7D4
330
7C9
100
AcDbEntity
  8
0
100
AcDbBlockBegin
  2
*D22
 70
     1
 10
0.0
 20
0.0
 30
0.0
  3
*D22
  1

  0
LINE
  5
7CA
330
7C9
100
AcDbEntity
  8
0
 62
     0
100
AcDbLine
 10
284.2111885814345
 20
34.57773936144763
 30
0.0
 11
284.2111885814345
 21
33.7949807958241
 31
0.0
  0
LINE
  5
7CB
330
7C9
100
AcDbEntity
  8
0
 62
     0
100
AcDbLine
 10
288.7111885814345
 20
34.57773936144763
 30
0.0
 11
288.7111885814345
 21
33.7949807958241
 31
0.0
  0
LINE
  5
7CC
330
7C9
100
AcDbEntity
  8
0
 62
     0
100
AcDbLine
 10
284.3911885814345
 20
33.9749807958241
 30
0.0
 11
286.1161885814343
 21
33.9749807958241
 31
0.0
  0
LINE
  5
7CD
330
7C9
100
AcDbEntity
  8
0
 62
     0
100
AcDbLine
 10
288.5311885814345
 20
33.9749807958241
 30
0.0
 11
286.8061885814345
 21
33.9749807958241
 31
0.0
  0
SOLID
  5
7CE
330
7C9
100
AcDbEntity
  8
0
 62
     0
100
AcDbTrace
 10
284.3911885814345
 20
34.0049807958241
 30
0.0
 11
284.3911885814345
 21
33.9449807958241
 31
0.0
 12
284.2111885814345
 22
33.9749807958241
 32
0.0
 13
284.2111885814345
 23
33.9749807958241
 33
0.0
  0
SOLID
  5
7CF
330
7C9
100
AcDbEntity
  8
0
 62
     0
100
AcDbTrace
 10
288.5311885814345
 20
34.0049807958241
 30
0.0
 11
288.5311885814345
 21
33.9449807958241
 31
0.0
 12
288.7111885814345
 22
33.9749807958241
 32
0.0
 13
288.7111885814345
 23
33.9749807958241
 33
0.0
  0
MTEXT
  5
7D0
330
7C9
100
AcDbEntity
  8
0
 62
     0
100
AcDbMText
 10
286.4611885814344
 20
33.9749807958241
 30
0.0
 40
0.18
 41
0.0
 71
     5
 72
     1
  1
\A1;4.50
1001
ACAD
1000
MTEXTBEGIN
1070
    73
1070
     1
1070
    44
1040
1.0
1070
    74
1070
     0
1000
MTEXTEND
1000
MTEXTBEGIN
1070
    73
1070
     1
1070
    44
1040
1.0
1070
    74
1070
     0
1000
MTEXTEND
1000
MTEXTBEGIN
1070
    73
1070
     1
1070
    44
1040
1.0
1070
    74
1070
     0
1000
MTEXTEND
  0
POINT
  5
7D1
330
7C9
100
AcDbEntity
  8
DEFPOINTS
 62
     0
100
AcDbPoint
 10
284.2111885814345
 20
34.64023936144762
 30
0.0
  0
POINT
  5
7D2
330
7C9
100
AcDbEntity
  8
DEFPOINTS
 62
     0
100
AcDbPoint
 10
288.7111885814345
 20
34.64023936144762
 30
0.0
  0
POINT
  5
7D3
330
7C9
100
AcDbEntity
  8
DEFPOINTS
 62
     0
100
AcDbPoint
 10
288.7111885814345
 20
33.9749807958241
 30
0.0
  0
ENDBLK
  5
7D5
330
7C9
100
AcDbEntity
  8
0
100
AcDbBlockEnd
  0
BLOCK
  5
7E2
330
7D7
100
AcDbEntity
  8
0
100
AcDbBlockBegin
  2
*D23
 70
     1
 10
0.0
 20
0.0
 30
0.0
  3
*D23
  1

  0
LINE
  5
7D8
330
7D7
100
AcDbEntity
  8
0
 62
     0
100
AcDbLine
 10
288.7736885814343
 20
34.64023936144762
 30
0.0
 11
289.6940804391224
 21
34.64023936144762
 31
0.0
  0
LINE
  5
7D9
330
7D7
100
AcDbEntity
  8
0
 62
     0
100
AcDbLine
 10
286.5236885814343
 20
37.49023936144761
 30
0.0
 11
289.6940804391224
 21
37.49023936144761
 31
0.0
  0
LINE
  5
7DA
330
7D7
100
AcDbEntity
  8
0
 62
     0
100
AcDbLine
 10
289.5140804391223
 20
34.82023936144762
 30
0.0
 11
289.5140804391223
 21
35.88523936144762
 31
0.0
  0
LINE
  5
7DB
330
7D7
100
AcDbEntity
  8
0
 62
     0
100
AcDbLine
 10
289.5140804391223
 20
37.31023936144761
 30
0.0
 11
289.5140804391223
 21
36.24523936144761
 31
0.0
  0
SOLID
  5
7DC
330
7D7
100
AcDbEntity
  8
0
 62
     0
100
AcDbTrace
 10
289.4840804391225
 20
34.82023936144762
 30
0.0
 11
289.5440804391225
 21
34.82023936144762
 31
0.0
 12
289.5140804391223
 22
34.64023936144762
 32
0.0
 13
289.5140804391223
 23
34.64023936144762
 33
0.0
  0
SOLID
  5
7DD
330
7D7
100
AcDbEntity
  8
0
 62
     0
100
AcDbTrace
 10
289.4840804391225
 20
37.31023936144761
 30
0.0
 11
289.5440804391225
 21
37.31023936144761
 31
0.0
 12
289.5140804391223
 22
37.49023936144761
 32
0.0
 13
289.5140804391223
 23
37.49023936144761
 33
0.0
  0
MTEXT
  5
7DE
330
7D7
100
AcDbEntity
  8
0
 62
     0
100
AcDbMText
 10
289.5140804391223
 20
36.06523936144766
 30
0.0
 40
0.18
 41
0.0
 71
     5
 72
     1
  1
\A1;2.85
1001
ACAD
1000
MTEXTBEGIN
1070
    73
1070
     1
1070
    44
1040
1.0
1070
    74
1070
     0
1000
MTEXTEND
1000
MTEXTBEGIN
1070
    73
1070
     1
1070
    44
1040
1.0
1070
    74
1070
     0
1000
MTEXTEND
1000
MTEXTBEGIN
1070
    73
1070
     1
1070
    44
1040
1.0
1070
    74
1070
     0
1000
MTEXTEND
  0
POINT
  5
7DF
330
7D7
100
AcDbEntity
  8
DEFPOINTS
 62
     0
100
AcDbPoint
 10
288.7111885814345
 20
34.64023936144762
 30
0.0
  0
POINT
  5
7E0
330
7D7
100
AcDbEntity
  8
DEFPOINTS
 62
     0
100
AcDbPoint
 10
286.4611885814344
 20
37.49023936144761
 30
0.0
  0
POINT
  5
7E1
330
7D7
100
AcDbEntity
  8
DEFPOINTS
 62
     0
100
AcDbPoint
 10
289.5140804391223
 20
37.49023936144761
 30
0.0
  0
ENDBLK
  5
7E3
330
7D7
100
AcDbEntity
  8
0
100
AcDbBlockEnd
  0
BLOCK
  5
82B
330
824
100
AcDbEntity
  8
0
100
AcDbBlockBegin
  2
*D24
 70
     1
 10
0.0
 20
0.0
 30
0.0
  3
*D24
  1

  0
LINE
  5
82E
330
824
100
AcDbEntity
  8
0
 62
     0
100
AcDbLine
 10
286.2824796246072
 20
35.24871667422559
 30
0.0
 11
286.4624796246072
 21
35.24871667422559
 31
0.0
  0
LINE
  5
82F
330
824
100
AcDbEntity
  8
0
 62
     0
100
AcDbLine
 10
286.4624796246072
 20
35.24871667422559
 30
0.0
 11
287.3214904514615
 21
37.12865783509686
 31
0.0
  0
MTEXT
  5
830
330
824
100
AcDbEntity
  8
0
 62
     0
100
AcDbMText
 10
285.8324796246071
 20
35.2487166742256
 30
0.0
 40
0.18
 41
0.0
 71
     5
 72
     1
  1
\A1;R2.25
1001
ACAD
1000
MTEXTBEGIN
1070
    73
1070
     1
1070
    44
1040
1.0
1070
    74
1070
     0
1000
MTEXTEND
1000
MTEXTBEGIN
1070
    73
1070
     1
1070
    44
1040
1.0
1070
    74
1070
     0
1000
MTEXTEND
  0
SOLID
  5
831
330
824
100
AcDbEntity
  8
0
 62
     0
100
AcDbTrace
 10
287.2942040725293
 20
37.14112593538432
 30
0.0
 11
287.3487768303935
 21
37.11618973480942
 31
0.0
 12
287.3962990531861
 22
37.29237610868904
 32
0.0
 13
287.3962990531861
 23
37.29237610868904
 33
0.0
  0
POINT
  5
832
330
824
100
AcDbEntity
  8
DEFPOINTS
 62
     0
100
AcDbPoint
 10
287.3962990531861
 20
37.29237610868904
 30
0.0
  0
POINT
  5
833
330
824
100
AcDbEntity
  8
DEFPOINTS
 62
     0
100
AcDbPoint
 10
286.4611885814353
 20
35.24589123230622
 30
0.0
  0
ENDBLK
  5
82C
330
824
100
AcDbEntity
  8
0
100
AcDbBlockEnd
  0
BLOCK
  5
8D1
330
8C6
100
AcDbEntity
  8
0
100
AcDbBlockBegin
  2
*D25
 70
     1
 10
0.0
 20
0.0
 30
0.0
  3
*D25
  1

  0
LINE
  5
8F3
330
8C6
100
AcDbEntity
  8
0
 62
     0
100
AcDbLine
 10
285.1838182471533
 20
36.54019305066964
 30
0.0
 11
285.1838182471533
 21
36.1660691280491
 31
0.0
  0
LINE
  5
8F4
330
8C6
100
AcDbEntity
  8
0
 62
     0
100
AcDbLine
 10
287.1838182471533
 20
36.54019305066964
 30
0.0
 11
287.1838182471533
 21
36.1660691280491
 31
0.0
  0
LINE
  5
8F5
330
8C6
100
AcDbEntity
  8
0
 62
     0
100
AcDbLine
 10
285.3638182471533
 20
36.3460691280491
 30
0.0
 11
285.8538182471533
 21
36.3460691280491
 31
0.0
  0
LINE
  5
8F6
330
8C6
100
AcDbEntity
  8
0
 62
     0
100
AcDbLine
 10
287.0038182471533
 20
36.3460691280491
 30
0.0
 11
286.5138182471533
 21
36.3460691280491
 31
0.0
  0
SOLID
  5
8F7
330
8C6
100
AcDbEntity
  8
0
 62
     0
100
AcDbTrace
 10
285.3638182471533
 20
36.3760691280491
 30
0.0
 11
285.3638182471533
 21
36.3160691280491
 31
0.0
 12
285.1838182471533
 22
36.3460691280491
 32
0.0
 13
285.1838182471533
 23
36.3460691280491
 33
0.0
  0
SOLID
  5
8F8
330
8C6
100
AcDbEntity
  8
0
 62
     0
100
AcDbTrace
 10
287.0038182471533
 20
36.3760691280491
 30
0.0
 11
287.0038182471533
 21
36.3160691280491
 31
0.0
 12
287.1838182471533
 22
36.3460691280491
 32
0.0
 13
287.1838182471533
 23
36.3460691280491
 33
0.0
  0
MTEXT
  5
8F9
330
8C6
100
AcDbEntity
  8
0
 62
     0
100
AcDbMText
 10
286.1838182471533
 20
36.3460691280491
 30
0.0
 40
0.18
 41
0.0
 71
     5
 72
     1
  1
\A1;2.00
1001
ACAD
1000
MTEXTBEGIN
1070
    73
1070
     1
1070
    44
1040
1.0
1070
    74
1070
     0
1000
MTEXTEND
1000
MTEXTBEGIN
1070
    73
1070
     1
1070
    44
1040
1.0
1070
    74
1070
     0
1000
MTEXTEND
  0
POINT
  5
8FA
330
8C6
100
AcDbEntity
  8
DEFPOINTS
 62
     0
100
AcDbPoint
 10
285.1838182471533
 20
36.60269305066964
 30
0.0
  0
POINT
  5
8FB
330
8C6
100
AcDbEntity
  8
DEFPOINTS
 62
     0
100
AcDbPoint
 10
287.1838182471533
 20
36.60269305066964
 30
0.0
  0
POINT
  5
8FC
330
8C6
100
AcDbEntity
  8
DEFPOINTS
 62
     0
100
AcDbPoint
 10
287.1838182471533
 20
36.3460691280491
 30
0.0
  0
ENDBLK
  5
8D2
330
8C6
100
AcDbEntity
  8
0
100
AcDbBlockEnd
  0
BLOCK
  5
8DF
330
8D4
100
AcDbEntity
  8
0
100
AcDbBlockBegin
  2
*D26
 70
     1
 10
0.0
 20
0.0
 30
0.0
  3
*D26
  1

  0
LINE
  5
8FD
330
8D4
100
AcDbEntity
  8
0
 62
     0
100
AcDbLine
 10
285.1213182471533
 20
36.60269305066964
 30
0.0
 11
284.5232522329709
 21
36.60269305066964
 31
0.0
  0
LINE
  5
8FE
330
8D4
100
AcDbEntity
  8
0
 62
     0
100
AcDbLine
 10
286.1213182471533
 20
37.60269305066964
 30
0.0
 11
284.5232522329709
 21
37.60269305066964
 31
0.0
  0
LINE
  5
8FF
330
8D4
100
AcDbEntity
  8
0
 62
     0
100
AcDbLine
 10
284.703252232971
 20
36.78269305066964
 30
0.0
 11
284.703252232971
 21
36.92269305066964
 31
0.0
  0
LINE
  5
900
330
8D4
100
AcDbEntity
  8
0
 62
     0
100
AcDbLine
 10
284.703252232971
 20
37.42269305066964
 30
0.0
 11
284.703252232971
 21
37.28269305066964
 31
0.0
  0
SOLID
  5
901
330
8D4
100
AcDbEntity
  8
0
 62
     0
100
AcDbTrace
 10
284.6732522329709
 20
36.78269305066964
 30
0.0
 11
284.7332522329708
 21
36.78269305066964
 31
0.0
 12
284.703252232971
 22
36.60269305066964
 32
0.0
 13
284.703252232971
 23
36.60269305066964
 33
0.0
  0
SOLID
  5
902
330
8D4
100
AcDbEntity
  8
0
 62
     0
100
AcDbTrace
 10
284.6732522329709
 20
37.42269305066964
 30
0.0
 11
284.7332522329708
 21
37.42269305066964
 31
0.0
 12
284.703252232971
 22
37.60269305066964
 32
0.0
 13
284.703252232971
 23
37.60269305066964
 33
0.0
  0
MTEXT
  5
903
330
8D4
100
AcDbEntity
  8
0
 62
     0
100
AcDbMText
 10
284.703252232971
 20
37.10269305066971
 30
0.0
 40
0.18
 41
0.0
 71
     5
 72
     1
  1
\A1;1.00
1001
ACAD
1000
MTEXTBEGIN
1070
    73
1070
     1
1070
    44
1040
1.0
1070
    74
1070
     0
1000
MTEXTEND
1000
MTEXTBEGIN
1070
    73
1070
     1
1070
    44
1040
1.0
1070
    74
1070
     0
1000
MTEXTEND
  0
POINT
  5
904
330
8D4
100
AcDbEntity
  8
DEFPOINTS
 62
     0
100
AcDbPoint
 10
285.1838182471533
 20
36.60269305066964
 30
0.0
  0
POINT
  5
905
330
8D4
100
AcDbEntity
  8
DEFPOINTS
 62
     0
100
AcDbPoint
 10
286.1838182471533
 20
37.60269305066964
 30
0.0
  0
POINT
  5
906
330
8D4
100
AcDbEntity
  8
DEFPOINTS
 62
     0
100
AcDbPoint
 10
284.703252232971
 20
37.60269305066964
 30
0.0
  0
ENDBLK
  5
8E0
330
8D4
100
AcDbEntity
  8
0
100
AcDbBlockEnd
  0
BLOCK
  5
8E9
330
8E2
100
AcDbEntity
  8
0
100
AcDbBlockBegin
  2
*D27
 70
     1
 10
0.0
 20
0.0
 30
0.0
  3
*D27
  1

  0
LINE
  5
8ED
330
8E2
100
AcDbEntity
  8
0
 62
     0
100
AcDbLine
 10
286.1528541114495
 20
36.86045865136746
 30
0.0
 11
286.3328541114496
 21
36.86045865136746
 31
0.0
  0
LINE
  5
8EE
330
8E2
100
AcDbEntity
  8
0
 62
     0
100
AcDbLine
 10
286.3328541114496
 20
36.86045865136746
 30
0.0
 11
286.5942618876469
 21
37.3125775609799
 31
0.0
  0
MTEXT
  5
8EF
330
8E2
100
AcDbEntity
  8
0
 62
     0
100
AcDbMText
 10
285.7628541114495
 20
36.86045865136752
 30
0.0
 40
0.18
 41
0.0
 71
     5
 72
     1
  1
\A1;R1.00
1001
ACAD
1000
MTEXTBEGIN
1070
    73
1070
     1
1070
    44
1040
1.0
1070
    74
1070
     0
1000
MTEXTEND
1000
MTEXTBEGIN
1070
    73
1070
     1
1070
    44
1040
1.0
1070
    74
1070
     0
1000
MTEXTEND
  0
SOLID
  5
8F0
330
8E2
100
AcDbEntity
  8
0
 62
     0
100
AcDbTrace
 10
286.5682905031233
 20
37.32759379172965
 30
0.0
 11
286.6202332721703
 21
37.29756133023015
 31
0.0
 12
286.6843592721453
 22
37.46840586812119
 32
0.0
 13
286.6843592721453
 23
37.46840586812119
 33
0.0
  0
POINT
  5
8F1
330
8E2
100
AcDbEntity
  8
DEFPOINTS
 62
     0
100
AcDbPoint
 10
286.6843592721453
 20
37.46840586812119
 30
0.0
  0
POINT
  5
8F2
330
8E2
100
AcDbEntity
  8
DEFPOINTS
 62
     0
100
AcDbPoint
 10
286.1838182471536
 20
36.60269305066964
 30
0.0
  0
ENDBLK
  5
8EA
330
8E2
100
AcDbEntity
  8
0
100
AcDbBlockEnd
  0
BLOCK
  5
978
330
96D
100
AcDbEntity
  8
0
100
AcDbBlockBegin
  2
*D28
 70
     1
 10
0.0
 20
0.0
 30
0.0
  3
*D28
  1

  0
LINE
  5
96E
330
96D
100
AcDbEntity
  8
0
 62
     0
100
AcDbLine
 10
284.8363755350882
 20
36.25517477610668
 30
0.0
 11
284.8363755350882
 21
35.73284110264839
 31
0.0
  0
LINE
  5
96F
330
96D
100
AcDbEntity
  8
0
 62
     0
100
AcDbLine
 10
287.2363755350881
 20
36.25517477610668
 30
0.0
 11
287.2363755350881
 21
35.73284110264839
 31
0.0
  0
LINE
  5
970
330
96D
100
AcDbEntity
  8
0
 62
     0
100
AcDbLine
 10
285.0163755350881
 20
35.91284110264839
 30
0.0
 11
285.6913755350881
 21
35.91284110264839
 31
0.0
  0
LINE
  5
971
330
96D
100
AcDbEntity
  8
0
 62
     0
100
AcDbLine
 10
287.0563755350882
 20
35.91284110264839
 30
0.0
 11
286.3813755350881
 21
35.91284110264839
 31
0.0
  0
SOLID
  5
972
330
96D
100
AcDbEntity
  8
0
 62
     0
100
AcDbTrace
 10
285.0163755350881
 20
35.94284110264839
 30
0.0
 11
285.0163755350881
 21
35.8828411026484
 31
0.0
 12
284.8363755350882
 22
35.91284110264839
 32
0.0
 13
284.8363755350882
 23
35.91284110264839
 33
0.0
  0
SOLID
  5
973
330
96D
100
AcDbEntity
  8
0
 62
     0
100
AcDbTrace
 10
287.0563755350882
 20
35.94284110264839
 30
0.0
 11
287.0563755350882
 21
35.8828411026484
 31
0.0
 12
287.2363755350881
 22
35.91284110264839
 32
0.0
 13
287.2363755350881
 23
35.91284110264839
 33
0.0
  0
MTEXT
  5
974
330
96D
100
AcDbEntity
  8
0
 62
     0
100
AcDbMText
 10
286.0363755350882
 20
35.91284110264839
 30
0.0
 40
0.18
 41
0.0
 71
     5
 72
     1
  1
\A1;2.40
1001
ACAD
1000
MTEXTBEGIN
1070
    73
1070
     1
1070
    44
1040
1.0
1070
    74
1070
     0
1000
MTEXTEND
1000
MTEXTBEGIN
1070
    73
1070
     1
1070
    44
1040
1.0
1070
    74
1070
     0
1000
MTEXTEND
  0
POINT
  5
975
330
96D
100
AcDbEntity
  8
DEFPOINTS
 62
     0
100
AcDbPoint
 10
284.8363755350882
 20
36.31767477610668
 30
0.0
  0
POINT
  5
976
330
96D
100
AcDbEntity
  8
DEFPOINTS
 62
     0
100
AcDbPoint
 10
287.2363755350881
 20
36.31767477610668
 30
0.0
  0
POINT
  5
977
330
96D
100
AcDbEntity
  8
DEFPOINTS
 62
     0
100
AcDbPoint
 10
287.2363755350881
 20
35.91284110264839
 30
0.0
  0
ENDBLK
  5
979
330
96D
100
AcDbEntity
  8
0
100
AcDbBlockEnd
  0
BLOCK
  5
986
330
97B
100
AcDbEntity
  8
0
100
AcDbBlockBegin
  2
*D29
 70
     1
 10
0.0
 20
0.0
 30
0.0
  3
*D29
  1

  0
LINE
  5
97C
330
97B
100
AcDbEntity
  8
0
 62
     0
100
AcDbLine
 10
284.7738755350882
 20
36.31767477610668
 30
0.0
 11
284.1990673887345
 21
36.31767477610668
 31
0.0
  0
LINE
  5
97D
330
97B
100
AcDbEntity
  8
0
 62
     0
100
AcDbLine
 10
285.9738755350882
 20
38.11767477610672
 30
0.0
 11
284.1990673887345
 21
38.11767477610672
 31
0.0
  0
LINE
  5
97E
330
97B
100
AcDbEntity
  8
0
 62
     0
100
AcDbLine
 10
284.3790673887346
 20
36.49767477610668
 30
0.0
 11
284.3790673887346
 21
37.03767477610671
 31
0.0
  0
LINE
  5
97F
330
97B
100
AcDbEntity
  8
0
 62
     0
100
AcDbLine
 10
284.3790673887346
 20
37.93767477610672
 30
0.0
 11
284.3790673887346
 21
37.39767477610671
 31
0.0
  0
SOLID
  5
980
330
97B
100
AcDbEntity
  8
0
 62
     0
100
AcDbTrace
 10
284.3490673887346
 20
36.49767477610668
 30
0.0
 11
284.4090673887345
 21
36.49767477610668
 31
0.0
 12
284.3790673887346
 22
36.31767477610668
 32
0.0
 13
284.3790673887346
 23
36.31767477610668
 33
0.0
  0
SOLID
  5
981
330
97B
100
AcDbEntity
  8
0
 62
     0
100
AcDbTrace
 10
284.3490673887346
 20
37.93767477610672
 30
0.0
 11
284.4090673887345
 21
37.93767477610672
 31
0.0
 12
284.3790673887346
 22
38.11767477610672
 32
0.0
 13
284.3790673887346
 23
38.11767477610672
 33
0.0
  0
MTEXT
  5
982
330
97B
100
AcDbEntity
  8
0
 62
     0
100
AcDbMText
 10
284.3790673887346
 20
37.21767477610676
 30
0.0
 40
0.18
 41
0.0
 71
     5
 72
     1
  1
\A1;1.80
1001
ACAD
1000
MTEXTBEGIN
1070
    73
1070
     1
1070
    44
1040
1.0
1070
    74
1070
     0
1000
MTEXTEND
1000
MTEXTBEGIN
1070
    73
1070
     1
1070
    44
1040
1.0
1070
    74
1070
     0
1000
MTEXTEND
  0
POINT
  5
983
330
97B
100
AcDbEntity
  8
DEFPOINTS
 62
     0
100
AcDbPoint
 10
284.8363755350882
 20
36.31767477610668
 30
0.0
  0
POINT
  5
984
330
97B
100
AcDbEntity
  8
DEFPOINTS
 62
     0
100
AcDbPoint
 10
286.0363755350882
 20
38.11767477610672
 30
0.0
  0
POINT
  5
985
330
97B
100
AcDbEntity
  8
DEFPOINTS
 62
     0
100
AcDbPoint
 10
284.3790673887346
 20
38.11767477610672
 30
0.0
  0
ENDBLK
  5
987
330
97B
100
AcDbEntity
  8
0
100
AcDbBlockEnd
  0
BLOCK
  5
999
330
992
100
AcDbEntity
  8
0
100
AcDbBlockBegin
  2
*D30
 70
     1
 10
0.0
 20
0.0
 30
0.0
  3
*D30
  1

  0
LINE
  5
993
330
992
100
AcDbEntity
  8
0
 62
     0
100
AcDbLine
 10
285.7666620396846
 20
36.77213835641403
 30
0.0
 11
285.9466620396846
 21
36.77213835641397
 31
0.0
  0
LINE
  5
994
330
992
100
AcDbEntity
  8
0
 62
     0
100
AcDbLine
 10
285.9466620396846
 20
36.77213835641397
 30
0.0
 11
286.5716152013771
 21
37.78595957940054
 31
0.0
  0
MTEXT
  5
995
330
992
100
AcDbEntity
  8
0
 62
     0
100
AcDbMText
 10
285.3616620396847
 20
36.77213835641412
 30
0.0
 40
0.18
 41
0.0
 71
     5
 72
     1
  1
\A1;R1.20
1001
ACAD
1000
MTEXTBEGIN
1070
    73
1070
     1
1070
    44
1040
1.0
1070
    74
1070
     0
1000
MTEXTEND
1000
MTEXTBEGIN
1070
    73
1070
     1
1070
    44
1040
1.0
1070
    74
1070
     0
1000
MTEXTEND
  0
SOLID
  5
996
330
992
100
AcDbEntity
  8
0
 62
     0
100
AcDbTrace
 10
286.546077413045
 20
37.80170192252668
 30
0.0
 11
286.5971529897093
 21
37.77021723627439
 31
0.0
 12
286.666069260134
 22
37.93918630939355
 32
0.0
 13
286.666069260134
 23
37.93918630939355
 33
0.0
  0
POINT
  5
997
330
992
100
AcDbEntity
  8
DEFPOINTS
 62
     0
100
AcDbPoint
 10
286.666069260134
 20
37.93918630939355
 30
0.0
  0
POINT
  5
998
330
992
100
AcDbEntity
  8
DEFPOINTS
 62
     0
100
AcDbPoint
 10
286.0363755350882
 20
36.91767477610679
 30
0.0
  0
ENDBLK
  5
99A
330
992
100
AcDbEntity
  8
0
100
AcDbBlockEnd
  0
BLOCK
  5
A1C
330
A11
100
AcDbEntity
  8
0
100
AcDbBlockBegin
  2
*D31
 70
     1
 10
0.0
 20
0.0
 30
0.0
  3
*D31
  1

  0
LINE
  5
A12
330
A11
100
AcDbEntity
  8
0
 62
     0
100
AcDbLine
 10
284.5877770217077
 20
35.78777348707977
 30
0.0
 11
284.5877770217077
 21
35.22243262375324
 31
0.0
  0
LINE
  5
A13
330
A11
100
AcDbEntity
  8
0
 62
     0
100
AcDbLine
 10
287.3877770217079
 20
35.78777348707977
 30
0.0
 11
287.3877770217079
 21
35.22243262375324
 31
0.0
  0
LINE
  5
A14
330
A11
100
AcDbEntity
  8
0
 62
     0
100
AcDbLine
 10
284.7677770217078
 20
35.40243262375324
 30
0.0
 11
285.6427770217077
 21
35.40243262375324
 31
0.0
  0
LINE
  5
A15
330
A11
100
AcDbEntity
  8
0
 62
     0
100
AcDbLine
 10
287.2077770217078
 20
35.40243262375324
 30
0.0
 11
286.3327770217079
 21
35.40243262375324
 31
0.0
  0
SOLID
  5
A16
330
A11
100
AcDbEntity
  8
0
 62
     0
100
AcDbTrace
 10
284.7677770217078
 20
35.43243262375324
 30
0.0
 11
284.7677770217078
 21
35.37243262375324
 31
0.0
 12
284.5877770217077
 22
35.40243262375324
 32
0.0
 13
284.5877770217077
 23
35.40243262375324
 33
0.0
  0
SOLID
  5
A17
330
A11
100
AcDbEntity
  8
0
 62
     0
100
AcDbTrace
 10
287.2077770217078
 20
35.43243262375324
 30
0.0
 11
287.2077770217078
 21
35.37243262375324
 31
0.0
 12
287.3877770217079
 22
35.40243262375324
 32
0.0
 13
287.3877770217079
 23
35.40243262375324
 33
0.0
  0
MTEXT
  5
A18
330
A11
100
AcDbEntity
  8
0
 62
     0
100
AcDbMText
 10
285.9877770217078
 20
35.40243262375324
 30
0.0
 40
0.18
 41
0.0
 71
     5
 72
     1
  1
\A1;2.80
1001
ACAD
1000
MTEXTBEGIN
1070
    73
1070
     1
1070
    44
1040
1.0
1070
    74
1070
     0
1000
MTEXTEND
1000
MTEXTBEGIN
1070
    73
1070
     1
1070
    44
1040
1.0
1070
    74
1070
     0
1000
MTEXTEND
  0
POINT
  5
A19
330
A11
100
AcDbEntity
  8
DEFPOINTS
 62
     0
100
AcDbPoint
 10
284.5877770217077
 20
35.85027348707977
 30
0.0
  0
POINT
  5
A1A
330
A11
100
AcDbEntity
  8
DEFPOINTS
 62
     0
100
AcDbPoint
 10
287.3877770217079
 20
35.85027348707977
 30
0.0
  0
POINT
  5
A1B
330
A11
100
AcDbEntity
  8
DEFPOINTS
 62
     0
100
AcDbPoint
 10
287.3877770217079
 20
35.40243262375324
 30
0.0
  0
ENDBLK
  5
A1D
330
A11
100
AcDbEntity
  8
0
100
AcDbBlockEnd
  0
BLOCK
  5
A2A
330
A1F
100
AcDbEntity
  8
0
100
AcDbBlockBegin
  2
*D32
 70
     1
 10
0.0
 20
0.0
 30
0.0
  3
*D32
  1

  0
LINE
  5
A20
330
A1F
100
AcDbEntity
  8
0
 62
     0
100
AcDbLine
 10
284.5252770217078
 20
35.85027348707977
 30
0.0
 11
283.9099617260608
 21
35.85027348707977
 31
0.0
  0
LINE
  5
A21
330
A1F
100
AcDbEntity
  8
0
 62
     0
100
AcDbLine
 10
285.9252770217078
 20
37.65027348707982
 30
0.0
 11
283.9099617260608
 21
37.65027348707982
 31
0.0
  0
LINE
  5
A22
330
A1F
100
AcDbEntity
  8
0
 62
     0
100
AcDbLine
 10
284.0899617260609
 20
36.03027348707977
 30
0.0
 11
284.0899617260609
 21
36.57027348707979
 31
0.0
  0
LINE
  5
A23
330
A1F
100
AcDbEntity
  8
0
 62
     0
100
AcDbLine
 10
284.0899617260609
 20
37.47027348707982
 30
0.0
 11
284.0899617260609
 21
36.93027348707979
 31
0.0
  0
SOLID
  5
A24
330
A1F
100
AcDbEntity
  8
0
 62
     0
100
AcDbTrace
 10
284.0599617260608
 20
36.03027348707977
 30
0.0
 11
284.1199617260608
 21
36.03027348707977
 31
0.0
 12
284.0899617260609
 22
35.85027348707977
 32
0.0
 13
284.0899617260609
 23
35.85027348707977
 33
0.0
  0
SOLID
  5
A25
330
A1F
100
AcDbEntity
  8
0
 62
     0
100
AcDbTrace
 10
284.0599617260608
 20
37.47027348707982
 30
0.0
 11
284.1199617260608
 21
37.47027348707982
 31
0.0
 12
284.0899617260609
 22
37.65027348707982
 32
0.0
 13
284.0899617260609
 23
37.65027348707982
 33
0.0
  0
MTEXT
  5
A26
330
A1F
100
AcDbEntity
  8
0
 62
     0
100
AcDbMText
 10
284.0899617260609
 20
36.75027348707985
 30
0.0
 40
0.18
 41
0.0
 71
     5
 72
     1
  1
\A1;1.80
1001
ACAD
1000
MTEXTBEGIN
1070
    73
1070
     1
1070
    44
1040
1.0
1070
    74
1070
     0
1000
MTEXTEND
1000
MTEXTBEGIN
1070
    73
1070
     1
1070
    44
1040
1.0
1070
    74
1070
     0
1000
MTEXTEND
  0
POINT
  5
A27
330
A1F
100
AcDbEntity
  8
DEFPOINTS
 62
     0
100
AcDbPoint
 10
284.5877770217077
 20
35.85027348707977
 30
0.0
  0
POINT
  5
A28
330
A1F
100
AcDbEntity
  8
DEFPOINTS
 62
     0
100
AcDbPoint
 10
285.9877770217078
 20
37.65027348707982
 30
0.0
  0
POINT
  5
A29
330
A1F
100
AcDbEntity
  8
DEFPOINTS
 62
     0
100
AcDbPoint
 10
284.0899617260609
 20
37.65027348707982
 30
0.0
  0
ENDBLK
  5
A2B
330
A1F
100
AcDbEntity
  8
0
100
AcDbBlockEnd
  0
BLOCK
  5
A34
330
A2D
100
AcDbEntity
  8
0
100
AcDbBlockBegin
  2
*D33
 70
     1
 10
0.0
 20
0.0
 30
0.0
  3
*D33
  1

  0
LINE
  5
A39
330
A2D
100
AcDbEntity
  8
0
 62
     0
100
AcDbLine
 10
285.8077770217078
 20
36.25027348707966
 30
0.0
 11
285.9877770217078
 21
36.25027348707967
 31
0.0
  0
LINE
  5
A3A
330
A2D
100
AcDbEntity
  8
0
 62
     0
100
AcDbLine
 10
285.9877770217078
 20
36.25027348707967
 30
0.0
 11
286.7796445164913
 21
37.17836069780153
 31
0.0
  0
MTEXT
  5
A3B
330
A2D
100
AcDbEntity
  8
0
 62
     0
100
AcDbMText
 10
285.4027770217078
 20
36.25027348707968
 30
0.0
 40
0.18
 41
0.0
 71
     5
 72
     1
  1
\A1;R1.40
1001
ACAD
1000
MTEXTBEGIN
1070
    73
1070
     1
1070
    44
1040
1.0
1070
    74
1070
     0
1000
MTEXTEND
1000
MTEXTBEGIN
1070
    73
1070
     1
1070
    44
1040
1.0
1070
    74
1070
     0
1000
MTEXTEND
  0
SOLID
  5
A3C
330
A2D
100
AcDbEntity
  8
0
 62
     0
100
AcDbTrace
 10
286.7568226998343
 20
37.1978328493126
 30
0.0
 11
286.8024663331484
 21
37.15888854629047
 31
0.0
 12
286.8964774255577
 22
37.3152915977441
 32
0.0
 13
286.8964774255577
 23
37.3152915977441
 33
0.0
  0
POINT
  5
A3D
330
A2D
100
AcDbEntity
  8
DEFPOINTS
 62
     0
100
AcDbPoint
 10
286.8964774255577
 20
37.3152915977441
 30
0.0
  0
POINT
  5
A3E
330
A2D
100
AcDbEntity
  8
DEFPOINTS
 62
     0
100
AcDbPoint
 10
285.9877770217078
 20
36.25027348707972
 30
0.0
  0
ENDBLK
  5
A35
330
A2D
100
AcDbEntity
  8
0
100
AcDbBlockEnd
  0
BLOCK
  5
AE6
330
ADB
100
AcDbEntity
  8
0
100
AcDbBlockBegin
  2
*D34
 70
     1
 10
0.0
 20
0.0
 30
0.0
  3
*D34
  1

  0
LINE
  5
ADC
330
ADB
100
AcDbEntity
  8
0
 62
     0
100
AcDbLine
 10
284.2932435647471
 20
34.89688720137614
 30
0.0
 11
284.2932435647471
 21
34.38646873337212
 31
0.0
  0
LINE
  5
ADD
330
ADB
100
AcDbEntity
  8
0
 62
     0
100
AcDbLine
 10
286.7932435647471
 20
34.89688720137614
 30
0.0
 11
286.7932435647471
 21
34.38646873337212
 31
0.0
  0
LINE
  5
ADE
330
ADB
100
AcDbEntity
  8
0
 62
     0
100
AcDbLine
 10
284.4732435647472
 20
34.56646873337211
 30
0.0
 11
285.1982435647471
 21
34.56646873337211
 31
0.0
  0
LINE
  5
ADF
330
ADB
100
AcDbEntity
  8
0
 62
     0
100
AcDbLine
 10
286.6132435647471
 20
34.56646873337211
 30
0.0
 11
285.8882435647472
 21
34.56646873337211
 31
0.0
  0
SOLID
  5
AE0
330
ADB
100
AcDbEntity
  8
0
 62
     0
100
AcDbTrace
 10
284.4732435647472
 20
34.59646873337212
 30
0.0
 11
284.4732435647472
 21
34.53646873337211
 31
0.0
 12
284.2932435647471
 22
34.56646873337211
 32
0.0
 13
284.2932435647471
 23
34.56646873337211
 33
0.0
  0
SOLID
  5
AE1
330
ADB
100
AcDbEntity
  8
0
 62
     0
100
AcDbTrace
 10
286.6132435647471
 20
34.59646873337212
 30
0.0
 11
286.6132435647471
 21
34.53646873337211
 31
0.0
 12
286.7932435647471
 22
34.56646873337211
 32
0.0
 13
286.7932435647471
 23
34.56646873337211
 33
0.0
  0
MTEXT
  5
AE2
330
ADB
100
AcDbEntity
  8
0
 62
     0
100
AcDbMText
 10
285.5432435647471
 20
34.56646873337211
 30
0.0
 40
0.18
 41
0.0
 71
     5
 72
     1
  1
\A1;2.50
1001
ACAD
1000
MTEXTBEGIN
1070
    73
1070
     1
1070
    44
1040
1.0
1070
    74
1070
     0
1000
MTEXTEND
1000
MTEXTBEGIN
1070
    73
1070
     1
1070
    44
1040
1.0
1070
    74
1070
     0
1000
MTEXTEND
  0
POINT
  5
AE3
330
ADB
100
AcDbEntity
  8
DEFPOINTS
 62
     0
100
AcDbPoint
 10
284.2932435647471
 20
34.95938720137614
 30
0.0
  0
POINT
  5
AE4
330
ADB
100
AcDbEntity
  8
DEFPOINTS
 62
     0
100
AcDbPoint
 10
286.7932435647471
 20
34.95938720137614
 30
0.0
  0
POINT
  5
AE5
330
ADB
100
AcDbEntity
  8
DEFPOINTS
 62
     0
100
AcDbPoint
 10
286.7932435647471
 20
34.56646873337211
 30
0.0
  0
ENDBLK
  5
AE7
330
ADB
100
AcDbEntity
  8
0
100
AcDbBlockEnd
  0
BLOCK
  5
AF4
330
AE9
100
AcDbEntity
  8
0
100
AcDbBlockBegin
  2
*D35
 70
     1
 10
0.0
 20
0.0
 30
0.0
  3
*D35
  1

  0
LINE
  5
AEA
330
AE9
100
AcDbEntity
  8
0
 62
     0
100
AcDbLine
 10
284.2307435647471
 20
34.95938720137614
 30
0.0
 11
283.5753340372655
 21
34.95938720137614
 31
0.0
  0
LINE
  5
AEB
330
AE9
100
AcDbEntity
  8
0
 62
     0
100
AcDbLine
 10
285.4807435647471
 20
37.80938720137614
 30
0.0
 11
283.5753340372655
 21
37.80938720137614
 31
0.0
  0
LINE
  5
AEC
330
AE9
100
AcDbEntity
  8
0
 62
     0
100
AcDbLine
 10
283.7553340372655
 20
35.13938720137613
 30
0.0
 11
283.7553340372655
 21
36.20438720137615
 31
0.0
  0
LINE
  5
AED
330
AE9
100
AcDbEntity
  8
0
 62
     0
100
AcDbLine
 10
283.7553340372655
 20
37.62938720137614
 30
0.0
 11
283.7553340372655
 21
36.56438720137614
 31
0.0
  0
SOLID
  5
AEE
330
AE9
100
AcDbEntity
  8
0
 62
     0
100
AcDbTrace
 10
283.7253340372654
 20
35.13938720137613
 30
0.0
 11
283.7853340372653
 21
35.13938720137613
 31
0.0
 12
283.7553340372655
 22
34.95938720137614
 32
0.0
 13
283.7553340372655
 23
34.95938720137614
 33
0.0
  0
SOLID
  5
AEF
330
AE9
100
AcDbEntity
  8
0
 62
     0
100
AcDbTrace
 10
283.7253340372654
 20
37.62938720137614
 30
0.0
 11
283.7853340372653
 21
37.62938720137614
 31
0.0
 12
283.7553340372655
 22
37.80938720137614
 32
0.0
 13
283.7553340372655
 23
37.80938720137614
 33
0.0
  0
MTEXT
  5
AF0
330
AE9
100
AcDbEntity
  8
0
 62
     0
100
AcDbMText
 10
283.7553340372655
 20
36.3843872013762
 30
0.0
 40
0.18
 41
0.0
 71
     5
 72
     1
  1
\A1;2.85
1001
ACAD
1000
MTEXTBEGIN
1070
    73
1070
     1
1070
    44
1040
1.0
1070
    74
1070
     0
1000
MTEXTEND
1000
MTEXTBEGIN
1070
    73
1070
     1
1070
    44
1040
1.0
1070
    74
1070
     0
1000
MTEXTEND
  0
POINT
  5
AF1
330
AE9
100
AcDbEntity
  8
DEFPOINTS
 62
     0
100
AcDbPoint
 10
284.2932435647471
 20
34.95938720137614
 30
0.0
  0
POINT
  5
AF2
330
AE9
100
AcDbEntity
  8
DEFPOINTS
 62
     0
100
AcDbPoint
 10
285.5432435647471
 20
37.80938720137614
 30
0.0
  0
POINT
  5
AF3
330
AE9
100
AcDbEntity
  8
DEFPOINTS
 62
     0
100
AcDbPoint
 10
283.7553340372655
 20
37.80938720137614
 30
0.0
  0
ENDBLK
  5
AF5
330
AE9
100
AcDbEntity
  8
0
100
AcDbBlockEnd
  0
BLOCK
  5
AFE
330
AF7
100
AcDbEntity
  8
0
100
AcDbBlockBegin
  2
*D36
 70
     1
 10
0.0
 20
0.0
 30
0.0
  3
*D36
  1

  0
LINE
  5
AF8
330
AF7
100
AcDbEntity
  8
0
 62
     0
100
AcDbLine
 10
285.3632435647471
 20
36.55938720137612
 30
0.0
 11
285.5432435647471
 21
36.55938720137612
 31
0.0
  0
LINE
  5
AF9
330
AF7
100
AcDbEntity
  8
0
 62
     0
100
AcDbLine
 10
285.5432435647471
 20
36.55938720137612
 30
0.0
 11
286.1389825425693
 21
37.44820386993231
 31
0.0
  0
MTEXT
  5
AFA
330
AF7
100
AcDbEntity
  8
0
 62
     0
100
AcDbMText
 10
284.9432435647471
 20
36.55938720137617
 30
0.0
 40
0.18
 41
0.0
 71
     5
 72
     1
  1
\A1;R1.25
1001
ACAD
1000
MTEXTBEGIN
1070
    73
1070
     1
1070
    44
1040
1.0
1070
    74
1070
     0
1000
MTEXTEND
1000
MTEXTBEGIN
1070
    73
1070
     1
1070
    44
1040
1.0
1070
    74
1070
     0
1000
MTEXTEND
  0
SOLID
  5
AFB
330
AF7
100
AcDbEntity
  8
0
 62
     0
100
AcDbTrace
 10
286.1140624490585
 20
37.46490683192731
 30
0.0
 11
286.1639026360803
 21
37.43150090793729
 31
0.0
 12
286.2392003145395
 22
37.59772443099786
 32
0.0
 13
286.2392003145395
 23
37.59772443099786
 33
0.0
  0
POINT
  5
AFC
330
AF7
100
AcDbEntity
  8
DEFPOINTS
 62
     0
100
AcDbPoint
 10
286.2392003145395
 20
37.59772443099786
 30
0.0
  0
POINT
  5
AFD
330
AF7
100
AcDbEntity
  8
DEFPOINTS
 62
     0
100
AcDbPoint
 10
285.5432435647471
 20
36.55938720137614
 30
0.0
  0
ENDBLK
  5
AFF
330
AF7
100
AcDbEntity
  8
0
100
AcDbBlockEnd
  0
BLOCK
  5
BAB
330
BA0
100
AcDbEntity
  8
0
100
AcDbBlockBegin
  2
*D37
 70
     1
 10
0.0
 20
0.0
 30
0.0
  3
*D37
  1

  0
LINE
  5
BA1
330
BA0
100
AcDbEntity
  8
0
 62
     0
100
AcDbLine
 10
283.7584700362686
 20
35.02570918003942
 30
0.0
 11
283.7584700362686
 21
34.25485156749299
 31
0.0
  0
LINE
  5
BA2
330
BA0
100
AcDbEntity
  8
0
 62
     0
100
AcDbLine
 10
288.2584700362686
 20
35.02570918003942
 30
0.0
 11
288.2584700362686
 21
34.25485156749299
 31
0.0
  0
LINE
  5
BA3
330
BA0
100
AcDbEntity
  8
0
 62
     0
100
AcDbLine
 10
283.9384700362687
 20
34.434851567493
 30
0.0
 11
285.6634700362686
 21
34.434851567493
 31
0.0
  0
LINE
  5
BA4
330
BA0
100
AcDbEntity
  8
0
 62
     0
100
AcDbLine
 10
288.0784700362687
 20
34.434851567493
 30
0.0
 11
286.3534700362686
 21
34.434851567493
 31
0.0
  0
SOLID
  5
BA5
330
BA0
100
AcDbEntity
  8
0
 62
     0
100
AcDbTrace
 10
283.9384700362687
 20
34.464851567493
 30
0.0
 11
283.9384700362687
 21
34.40485156749299
 31
0.0
 12
283.7584700362686
 22
34.434851567493
 32
0.0
 13
283.7584700362686
 23
34.434851567493
 33
0.0
  0
SOLID
  5
BA6
330
BA0
100
AcDbEntity
  8
0
 62
     0
100
AcDbTrace
 10
288.0784700362687
 20
34.464851567493
 30
0.0
 11
288.0784700362687
 21
34.40485156749299
 31
0.0
 12
288.2584700362686
 22
34.434851567493
 32
0.0
 13
288.2584700362686
 23
34.434851567493
 33
0.0
  0
MTEXT
  5
BA7
330
BA0
100
AcDbEntity
  8
0
 62
     0
100
AcDbMText
 10
286.0084700362687
 20
34.434851567493
 30
0.0
 40
0.18
 41
0.0
 71
     5
 72
     1
  1
\A1;4.50
1001
ACAD
1000
MTEXTBEGIN
1070
    73
1070
     1
1070
    44
1040
1.0
1070
    74
1070
     0
1000
MTEXTEND
1000
MTEXTBEGIN
1070
    73
1070
     1
1070
    44
1040
1.0
1070
    74
1070
     0
1000
MTEXTEND
  0
POINT
  5
BA8
330
BA0
100
AcDbEntity
  8
DEFPOINTS
 62
     0
100
AcDbPoint
 10
283.7584700362686
 20
35.08820918003942
 30
0.0
  0
POINT
  5
BA9
330
BA0
100
AcDbEntity
  8
DEFPOINTS
 62
     0
100
AcDbPoint
 10
288.2584700362686
 20
35.08820918003942
 30
0.0
  0
POINT
  5
BAA
330
BA0
100
AcDbEntity
  8
DEFPOINTS
 62
     0
100
AcDbPoint
 10
288.2584700362686
 20
34.434851567493
 30
0.0
  0
ENDBLK
  5
BAC
330
BA0
100
AcDbEntity
  8
0
100
AcDbBlockEnd
  0
BLOCK
  5
BB9
330
BAE
100
AcDbEntity
  8
0
100
AcDbBlockBegin
  2
*D38
 70
     1
 10
0.0
 20
0.0
 30
0.0
  3
*D38
  1

  0
LINE
  5
BAF
330
BAE
100
AcDbEntity
  8
0
 62
     0
100
AcDbLine
 10
283.6959700362687
 20
35.08820918003942
 30
0.0
 11
283.0773467534198
 21
35.08820918003942
 31
0.0
  0
LINE
  5
BB0
330
BAE
100
AcDbEntity
  8
0
 62
     0
100
AcDbLine
 10
285.9459700362687
 20
37.93820918003945
 30
0.0
 11
283.0773467534198
 21
37.93820918003945
 31
0.0
  0
LINE
  5
BB1
330
BAE
100
AcDbEntity
  8
0
 62
     0
100
AcDbLine
 10
283.2573467534198
 20
35.26820918003942
 30
0.0
 11
283.2573467534198
 21
36.33320918003943
 31
0.0
  0
LINE
  5
BB2
330
BAE
100
AcDbEntity
  8
0
 62
     0
100
AcDbLine
 10
283.2573467534198
 20
37.75820918003945
 30
0.0
 11
283.2573467534198
 21
36.69320918003943
 31
0.0
  0
SOLID
  5
BB3
330
BAE
100
AcDbEntity
  8
0
 62
     0
100
AcDbTrace
 10
283.2273467534198
 20
35.26820918003942
 30
0.0
 11
283.2873467534198
 21
35.26820918003942
 31
0.0
 12
283.2573467534198
 22
35.08820918003942
 32
0.0
 13
283.2573467534198
 23
35.08820918003942
 33
0.0
  0
SOLID
  5
BB4
330
BAE
100
AcDbEntity
  8
0
 62
     0
100
AcDbTrace
 10
283.2273467534198
 20
37.75820918003945
 30
0.0
 11
283.2873467534198
 21
37.75820918003945
 31
0.0
 12
283.2573467534198
 22
37.93820918003945
 32
0.0
 13
283.2573467534198
 23
37.93820918003945
 33
0.0
  0
MTEXT
  5
BB5
330
BAE
100
AcDbEntity
  8
0
 62
     0
100
AcDbMText
 10
283.2573467534198
 20
36.51320918003947
 30
0.0
 40
0.18
 41
0.0
 71
     5
 72
     1
  1
\A1;2.85
1001
ACAD
1000
MTEXTBEGIN
1070
    73
1070
     1
1070
    44
1040
1.0
1070
    74
1070
     0
1000
MTEXTEND
1000
MTEXTBEGIN
1070
    73
1070
     1
1070
    44
1040
1.0
1070
    74
1070
     0
1000
MTEXTEND
  0
POINT
  5
BB6
330
BAE
100
AcDbEntity
  8
DEFPOINTS
 62
     0
100
AcDbPoint
 10
283.7584700362686
 20
35.08820918003942
 30
0.0
  0
POINT
  5
BB7
330
BAE
100
AcDbEntity
  8
DEFPOINTS
 62
     0
100
AcDbPoint
 10
286.0084700362687
 20
37.93820918003945
 30
0.0
  0
POINT
  5
BB8
330
BAE
100
AcDbEntity
  8
DEFPOINTS
 62
     0
100
AcDbPoint
 10
283.2573467534198
 20
37.93820918003945
 30
0.0
  0
ENDBLK
  5
BBA
330
BAE
100
AcDbEntity
  8
0
100
AcDbBlockEnd
  0
BLOCK
  5
BC3
330
BBC
100
AcDbEntity
  8
0
100
AcDbBlockBegin
  2
*D39
 70
     1
 10
0.0
 20
0.0
 30
0.0
  3
*D39
  1

  0
LINE
  5
BBD
330
BBC
100
AcDbEntity
  8
0
 62
     0
100
AcDbLine
 10
285.8284700362688
 20
35.68820918003945
 30
0.0
 11
286.0084700362688
 21
35.68820918003946
 31
0.0
  0
LINE
  5
BBE
330
BBC
100
AcDbEntity
  8
0
 62
     0
100
AcDbLine
 10
286.0084700362688
 20
35.68820918003946
 30
0.0
 11
287.2622206415513
 21
37.33533073589173
 31
0.0
  0
MTEXT
  5
BBF
330
BBC
100
AcDbEntity
  8
0
 62
     0
100
AcDbMText
 10
285.3784700362688
 20
35.68820918003946
 30
0.0
 40
0.18
 41
0.0
 71
     5
 72
     1
  1
\A1;R2.25
1001
ACAD
1000
MTEXTBEGIN
1070
    73
1070
     1
1070
    44
1040
1.0
1070
    74
1070
     0
1000
MTEXTEND
1000
MTEXTBEGIN
1070
    73
1070
     1
1070
    44
1040
1.0
1070
    74
1070
     0
1000
MTEXTEND
  0
SOLID
  5
BC0
330
BBC
100
AcDbEntity
  8
0
 62
     0
100
AcDbTrace
 10
287.238349314655
 20
37.35350103451901
 30
0.0
 11
287.2860919684478
 21
37.31716043726445
 31
0.0
 12
287.3712424333151
 22
37.4785586972702
 32
0.0
 13
287.3712424333151
 23
37.4785586972702
 33
0.0
  0
POINT
  5
BC1
330
BBC
100
AcDbEntity
  8
DEFPOINTS
 62
     0
100
AcDbPoint
 10
287.3712424333151
 20
37.4785586972702
 30
0.0
  0
POINT
  5
BC2
330
BBC
100
AcDbEntity
  8
DEFPOINTS
 62
     0
100
AcDbPoint
 10
286.0084700362687
 20
35.68820918003943
 30
0.0
  0
ENDBLK
  5
BC4
330
BBC
100
AcDbEntity
  8
0
100
AcDbBlockEnd
  0
BLOCK
  5
C6F
330
C64
100
AcDbEntity
  8
0
100
AcDbBlockBegin
  2
*D40
 70
     1
 10
0.0
 20
0.0
 30
0.0
  3
*D40
  1

  0
LINE
  5
C65
330
C64
100
AcDbEntity
  8
0
 62
     0
100
AcDbLine
 10
284.7607165986005
 20
35.06926634846102
 30
0.0
 11
284.7607165986005
 21
34.32018733977848
 31
0.0
  0
LINE
  5
C66
330
C64
100
AcDbEntity
  8
0
 62
     0
100
AcDbLine
 10
288.7607165986005
 20
35.06926634846102
 30
0.0
 11
288.7607165986005
 21
34.32018733977848
 31
0.0
  0
LINE
  5
C67
330
C64
100
AcDbEntity
  8
0
 62
     0
100
AcDbLine
 10
284.9407165986006
 20
34.50018733977847
 30
0.0
 11
286.4307165986005
 21
34.50018733977847
 31
0.0
  0
LINE
  5
C68
330
C64
100
AcDbEntity
  8
0
 62
     0
100
AcDbLine
 10
288.5807165986006
 20
34.50018733977847
 30
0.0
 11
287.0907165986006
 21
34.50018733977847
 31
0.0
  0
SOLID
  5
C69
330
C64
100
AcDbEntity
  8
0
 62
     0
100
AcDbTrace
 10
284.9407165986006
 20
34.53018733977847
 30
0.0
 11
284.9407165986006
 21
34.47018733977847
 31
0.0
 12
284.7607165986005
 22
34.50018733977847
 32
0.0
 13
284.7607165986005
 23
34.50018733977847
 33
0.0
  0
SOLID
  5
C6A
330
C64
100
AcDbEntity
  8
0
 62
     0
100
AcDbTrace
 10
288.5807165986006
 20
34.53018733977847
 30
0.0
 11
288.5807165986006
 21
34.47018733977847
 31
0.0
 12
288.7607165986005
 22
34.50018733977847
 32
0.0
 13
288.7607165986005
 23
34.50018733977847
 33
0.0
  0
MTEXT
  5
C6B
330
C64
100
AcDbEntity
  8
0
 62
     0
100
AcDbMText
 10
286.7607165986005
 20
34.50018733977847
 30
0.0
 40
0.18
 41
0.0
 71
     5
 72
     1
  1
\A1;4.00
1001
ACAD
1000
MTEXTBEGIN
1070
    73
1070
     1
1070
    44
1040
1.0
1070
    74
1070
     0
1000
MTEXTEND
1000
MTEXTBEGIN
1070
    73
1070
     1
1070
    44
1040
1.0
1070
    74
1070
     0
1000
MTEXTEND
  0
POINT
  5
C6C
330
C64
100
AcDbEntity
  8
DEFPOINTS
 62
     0
100
AcDbPoint
 10
284.7607165986005
 20
35.13176634846102
 30
0.0
  0
POINT
  5
C6D
330
C64
100
AcDbEntity
  8
DEFPOINTS
 62
     0
100
AcDbPoint
 10
288.7607165986005
 20
35.13176634846102
 30
0.0
  0
POINT
  5
C6E
330
C64
100
AcDbEntity
  8
DEFPOINTS
 62
     0
100
AcDbPoint
 10
288.7607165986005
 20
34.50018733977847
 30
0.0
  0
ENDBLK
  5
C70
330
C64
100
AcDbEntity
  8
0
100
AcDbBlockEnd
  0
BLOCK
  5
C7D
330
C72
100
AcDbEntity
  8
0
100
AcDbBlockBegin
  2
*D41
 70
     1
 10
0.0
 20
0.0
 30
0.0
  3
*D41
  1

  0
LINE
  5
C73
330
C72
100
AcDbEntity
  8
0
 62
     0
100
AcDbLine
 10
284.6982165986005
 20
35.13176634846102
 30
0.0
 11
284.0795933117212
 21
35.13176634846102
 31
0.0
  0
LINE
  5
C74
330
C72
100
AcDbEntity
  8
0
 62
     0
100
AcDbLine
 10
286.6982165986005
 20
38.031766348461
 30
0.0
 11
284.0795933117212
 21
38.031766348461
 31
0.0
  0
LINE
  5
C75
330
C72
100
AcDbEntity
  8
0
 62
     0
100
AcDbLine
 10
284.2595933117213
 20
35.31176634846102
 30
0.0
 11
284.2595933117213
 21
36.40176634846102
 31
0.0
  0
LINE
  5
C76
330
C72
100
AcDbEntity
  8
0
 62
     0
100
AcDbLine
 10
284.2595933117213
 20
37.85176634846102
 30
0.0
 11
284.2595933117213
 21
36.76176634846102
 31
0.0
  0
SOLID
  5
C77
330
C72
100
AcDbEntity
  8
0
 62
     0
100
AcDbTrace
 10
284.2295933117213
 20
35.31176634846102
 30
0.0
 11
284.2895933117213
 21
35.31176634846102
 31
0.0
 12
284.2595933117213
 22
35.13176634846102
 32
0.0
 13
284.2595933117213
 23
35.13176634846102
 33
0.0
  0
SOLID
  5
C78
330
C72
100
AcDbEntity
  8
0
 62
     0
100
AcDbTrace
 10
284.2295933117213
 20
37.85176634846102
 30
0.0
 11
284.2895933117213
 21
37.85176634846102
 31
0.0
 12
284.2595933117213
 22
38.031766348461
 32
0.0
 13
284.2595933117213
 23
38.031766348461
 33
0.0
  0
MTEXT
  5
C79
330
C72
100
AcDbEntity
  8
0
 62
     0
100
AcDbMText
 10
284.2595933117213
 20
36.58176634846107
 30
0.0
 40
0.18
 41
0.0
 71
     5
 72
     1
  1
\A1;2.90
1001
ACAD
1000
MTEXTBEGIN
1070
    73
1070
     1
1070
    44
1040
1.0
1070
    74
1070
     0
1000
MTEXTEND
1000
MTEXTBEGIN
1070
    73
1070
     1
1070
    44
1040
1.0
1070
    74
1070
     0
1000
MTEXTEND
  0
POINT
  5
C7A
330
C72
100
AcDbEntity
  8
DEFPOINTS
 62
     0
100
AcDbPoint
 10
284.7607165986005
 20
35.13176634846102
 30
0.0
  0
POINT
  5
C7B
330
C72
100
AcDbEntity
  8
DEFPOINTS
 62
     0
100
AcDbPoint
 10
286.7607165986005
 20
38.031766348461
 30
0.0
  0
POINT
  5
C7C
330
C72
100
AcDbEntity
  8
DEFPOINTS
 62
     0
100
AcDbPoint
 10
284.2595933117213
 20
38.031766348461
 30
0.0
  0
ENDBLK
  5
C7E
330
C72
100
AcDbEntity
  8
0
100
AcDbBlockEnd
  0
BLOCK
  5
C87
330
C80
100
AcDbEntity
  8
0
100
AcDbBlockBegin
  2
*D42
 70
     1
 10
0.0
 20
0.0
 30
0.0
  3
*D42
  1

  0
LINE
  5
C81
330
C80
100
AcDbEntity
  8
0
 62
     0
100
AcDbLine
 10
286.5807165986004
 20
36.03176634846103
 30
0.0
 11
286.7607165986005
 21
36.03176634846103
 31
0.0
  0
LINE
  5
C82
330
C80
100
AcDbEntity
  8
0
 62
     0
100
AcDbLine
 10
286.7607165986005
 20
36.03176634846103
 30
0.0
 11
287.6046771042867
 21
37.64425841505914
 31
0.0
  0
MTEXT
  5
C83
330
C80
100
AcDbEntity
  8
0
 62
     0
100
AcDbMText
 10
286.1607165986006
 20
36.03176634846102
 30
0.0
 40
0.18
 41
0.0
 71
     5
 72
     1
  1
\A1;R2.00
1001
ACAD
1000
MTEXTBEGIN
1070
    73
1070
     1
1070
    44
1040
1.0
1070
    74
1070
     0
1000
MTEXTEND
1000
MTEXTBEGIN
1070
    73
1070
     1
1070
    44
1040
1.0
1070
    74
1070
     0
1000
MTEXTEND
  0
SOLID
  5
C84
330
C80
100
AcDbEntity
  8
0
 62
     0
100
AcDbTrace
 10
287.5780975647275
 20
37.65816985196605
 30
0.0
 11
287.6312566438461
 21
37.63034697815221
 31
0.0
 12
287.6881457257283
 22
37.803735652415
 32
0.0
 13
287.6881457257283
 23
37.803735652415
 33
0.0
  0
POINT
  5
C85
330
C80
100
AcDbEntity
  8
DEFPOINTS
 62
     0
100
AcDbPoint
 10
287.6881457257283
 20
37.803735652415
 30
0.0
  0
POINT
  5
C86
330
C80
100
AcDbEntity
  8
DEFPOINTS
 62
     0
100
AcDbPoint
 10
286.7607165986005
 20
36.03176634846102
 30
0.0
  0
ENDBLK
  5
C88
330
C80
100
AcDbEntity
  8
0
100
AcDbBlockEnd
  0
BLOCK
  5
D33
330
D28
100
AcDbEntity
  8
0
100
AcDbBlockBegin
  2
*D43
 70
     1
 10
0.0
 20
0.0
 30
0.0
  3
*D43
  1

  0
LINE
  5
D55
330
D28
100
AcDbEntity
  8
0
 62
     0
100
AcDbLine
 10
284.78250461557
 20
35.33060938892128
 30
0.0
 11
284.78250461557
 21
34.71220190046887
 31
0.0
  0
LINE
  5
D56
330
D28
100
AcDbEntity
  8
0
 62
     0
100
AcDbLine
 10
287.78250461557
 20
35.33060938892128
 30
0.0
 11
287.78250461557
 21
34.71220190046887
 31
0.0
  0
LINE
  5
D57
330
D28
100
AcDbEntity
  8
0
 62
     0
100
AcDbLine
 10
284.96250461557
 20
34.89220190046887
 30
0.0
 11
285.95250461557
 21
34.89220190046887
 31
0.0
  0
LINE
  5
D58
330
D28
100
AcDbEntity
  8
0
 62
     0
100
AcDbLine
 10
287.6025046155699
 20
34.89220190046887
 30
0.0
 11
286.6125046155699
 21
34.89220190046887
 31
0.0
  0
SOLID
  5
D59
330
D28
100
AcDbEntity
  8
0
 62
     0
100
AcDbTrace
 10
284.96250461557
 20
34.92220190046887
 30
0.0
 11
284.96250461557
 21
34.86220190046886
 31
0.0
 12
284.78250461557
 22
34.89220190046887
 32
0.0
 13
284.78250461557
 23
34.89220190046887
 33
0.0
  0
SOLID
  5
D5A
330
D28
100
AcDbEntity
  8
0
 62
     0
100
AcDbTrace
 10
287.6025046155699
 20
34.92220190046887
 30
0.0
 11
287.6025046155699
 21
34.86220190046886
 31
0.0
 12
287.78250461557
 22
34.89220190046887
 32
0.0
 13
287.78250461557
 23
34.89220190046887
 33
0.0
  0
MTEXT
  5
D5B
330
D28
100
AcDbEntity
  8
0
 62
     0
100
AcDbMText
 10
286.28250461557
 20
34.89220190046887
 30
0.0
 40
0.18
 41
0.0
 71
     5
 72
     1
  1
\A1;3.00
1001
ACAD
1000
MTEXTBEGIN
1070
    73
1070
     1
1070
    44
1040
1.0
1070
    74
1070
     0
1000
MTEXTEND
1000
MTEXTBEGIN
1070
    73
1070
     1
1070
    44
1040
1.0
1070
    74
1070
     0
1000
MTEXTEND
  0
POINT
  5
D5C
330
D28
100
AcDbEntity
  8
DEFPOINTS
 62
     0
100
AcDbPoint
 10
284.78250461557
 20
35.39310938892128
 30
0.0
  0
POINT
  5
D5D
330
D28
100
AcDbEntity
  8
DEFPOINTS
 62
     0
100
AcDbPoint
 10
287.78250461557
 20
35.39310938892128
 30
0.0
  0
POINT
  5
D5E
330
D28
100
AcDbEntity
  8
DEFPOINTS
 62
     0
100
AcDbPoint
 10
287.78250461557
 20
34.89220190046887
 30
0.0
  0
ENDBLK
  5
D34
330
D28
100
AcDbEntity
  8
0
100
AcDbBlockEnd
  0
BLOCK
  5
D41
330
D36
100
AcDbEntity
  8
0
100
AcDbBlockBegin
  2
*D44
 70
     1
 10
0.0
 20
0.0
 30
0.0
  3
*D44
  1

  0
LINE
  5
D5F
330
D36
100
AcDbEntity
  8
0
 62
     0
100
AcDbLine
 10
284.72000461557
 20
35.39310938892128
 30
0.0
 11
284.1449572575421
 21
35.39310938892128
 31
0.0
  0
LINE
  5
D60
330
D36
100
AcDbEntity
  8
0
 62
     0
100
AcDbLine
 10
286.22000461557
 20
37.0931093889213
 30
0.0
 11
284.1449572575421
 21
37.0931093889213
 31
0.0
  0
LINE
  5
D61
330
D36
100
AcDbEntity
  8
0
 62
     0
100
AcDbLine
 10
284.324957257542
 20
35.57310938892128
 30
0.0
 11
284.324957257542
 21
36.06310938892129
 31
0.0
  0
LINE
  5
D62
330
D36
100
AcDbEntity
  8
0
 62
     0
100
AcDbLine
 10
284.324957257542
 20
36.91310938892129
 30
0.0
 11
284.324957257542
 21
36.42310938892129
 31
0.0
  0
SOLID
  5
D63
330
D36
100
AcDbEntity
  8
0
 62
     0
100
AcDbTrace
 10
284.2949572575422
 20
35.57310938892128
 30
0.0
 11
284.3549572575421
 21
35.57310938892128
 31
0.0
 12
284.324957257542
 22
35.39310938892128
 32
0.0
 13
284.324957257542
 23
35.39310938892128
 33
0.0
  0
SOLID
  5
D64
330
D36
100
AcDbEntity
  8
0
 62
     0
100
AcDbTrace
 10
284.2949572575422
 20
36.91310938892129
 30
0.0
 11
284.3549572575421
 21
36.91310938892129
 31
0.0
 12
284.324957257542
 22
37.0931093889213
 32
0.0
 13
284.324957257542
 23
37.0931093889213
 33
0.0
  0
MTEXT
  5
D65
330
D36
100
AcDbEntity
  8
0
 62
     0
100
AcDbMText
 10
284.324957257542
 20
36.24310938892134
 30
0.0
 40
0.18
 41
0.0
 71
     5
 72
     1
  1
\A1;1.70
1001
ACAD
1000
MTEXTBEGIN
1070
    73
1070
     1
1070
    44
1040
1.0
1070
    74
1070
     0
1000
MTEXTEND
1000
MTEXTBEGIN
1070
    73
1070
     1
1070
    44
1040
1.0
1070
    74
1070
     0
1000
MTEXTEND
  0
POINT
  5
D66
330
D36
100
AcDbEntity
  8
DEFPOINTS
 62
     0
100
AcDbPoint
 10
284.78250461557
 20
35.39310938892128
 30
0.0
  0
POINT
  5
D67
330
D36
100
AcDbEntity
  8
DEFPOINTS
 62
     0
100
AcDbPoint
 10
286.28250461557
 20
37.0931093889213
 30
0.0
  0
POINT
  5
D68
330
D36
100
AcDbEntity
  8
DEFPOINTS
 62
     0
100
AcDbPoint
 10
284.324957257542
 20
37.0931093889213
 30
0.0
  0
ENDBLK
  5
D42
330
D36
100
AcDbEntity
  8
0
100
AcDbBlockEnd
  0
BLOCK
  5
D4B
330
D44
100
AcDbEntity
  8
0
100
AcDbBlockBegin
  2
*D45
 70
     1
 10
0.0
 20
0.0
 30
0.0
  3
*D45
  1

  0
LINE
  5
D4F
330
D44
100
AcDbEntity
  8
0
 62
     0
100
AcDbLine
 10
286.1025046155699
 20
35.59310938892129
 30
0.0
 11
286.2825046155699
 21
35.59310938892128
 31
0.0
  0
LINE
  5
D50
330
D44
100
AcDbEntity
  8
0
 62
     0
100
AcDbLine
 10
286.2825046155699
 20
35.59310938892128
 30
0.0
 11
287.5004667295373
 21
36.1019986587433
 31
0.0
  0
MTEXT
  5
D51
330
D44
100
AcDbEntity
  8
0
 62
     0
100
AcDbMText
 10
285.6975046155698
 20
35.59310938892129
 30
0.0
 40
0.18
 41
0.0
 71
     5
 72
     1
  1
\A1;R1.50
1001
ACAD
1000
MTEXTBEGIN
1070
    73
1070
     1
1070
    44
1040
1.0
1070
    74
1070
     0
1000
MTEXTEND
1000
MTEXTBEGIN
1070
    73
1070
     1
1070
    44
1040
1.0
1070
    74
1070
     0
1000
MTEXTEND
  0
SOLID
  5
D52
330
D44
100
AcDbEntity
  8
0
 62
     0
100
AcDbTrace
 10
287.4889010643141
 20
36.12967961587893
 30
0.0
 11
287.5120323947606
 21
36.07431770160767
 31
0.0
 12
287.666552472351
 22
36.17139265008265
 32
0.0
 13
287.666552472351
 23
36.17139265008265
 33
0.0
  0
POINT
  5
D53
330
D44
100
AcDbEntity
  8
DEFPOINTS
 62
     0
100
AcDbPoint
 10
287.666552472351
 20
36.17139265008265
 30
0.0
  0
POINT
  5
D54
330
D44
100
AcDbEntity
  8
DEFPOINTS
 62
     0
100
AcDbPoint
 10
286.2825046155699
 20
35.59310938892128
 30
0.0
  0
ENDBLK
  5
D4C
330
D44
100
AcDbEntity
  8
0
100
AcDbBlockEnd
  0
BLOCK
  5
E40
330
E35
100
AcDbEntity
  8
0
100
AcDbBlockBegin
  2
*D46
 70
     1
 10
0.0
 20
0.0
 30
0.0
  3
*D46
  1

  0
LINE
  5
E36
330
E35
100
AcDbEntity
  8
0
 62
     0
100
AcDbLine
 10
284.8260805444213
 20
35.48305950161952
 30
0.0
 11
284.8260805444213
 21
34.95176634846102
 31
0.0
  0
LINE
  5
E37
330
E35
100
AcDbEntity
  8
0
 62
     0
100
AcDbLine
 10
287.8260805444215
 20
35.48305950161952
 30
0.0
 11
287.8260805444215
 21
34.95176634846102
 31
0.0
  0
LINE
  5
E38
330
E35
100
AcDbEntity
  8
0
 62
     0
100
AcDbLine
 10
285.0060805444215
 20
35.13176634846102
 30
0.0
 11
285.9960805444215
 21
35.13176634846102
 31
0.0
  0
LINE
  5
E39
330
E35
100
AcDbEntity
  8
0
 62
     0
100
AcDbLine
 10
287.6460805444214
 20
35.13176634846102
 30
0.0
 11
286.6560805444214
 21
35.13176634846102
 31
0.0
  0
SOLID
  5
E3A
330
E35
100
AcDbEntity
  8
0
 62
     0
100
AcDbTrace
 10
285.0060805444215
 20
35.16176634846101
 30
0.0
 11
285.0060805444215
 21
35.10176634846102
 31
0.0
 12
284.8260805444213
 22
35.13176634846102
 32
0.0
 13
284.8260805444213
 23
35.13176634846102
 33
0.0
  0
SOLID
  5
E3B
330
E35
100
AcDbEntity
  8
0
 62
     0
100
AcDbTrace
 10
287.6460805444214
 20
35.16176634846101
 30
0.0
 11
287.6460805444214
 21
35.10176634846102
 31
0.0
 12
287.8260805444215
 22
35.13176634846102
 32
0.0
 13
287.8260805444215
 23
35.13176634846102
 33
0.0
  0
MTEXT
  5
E3C
330
E35
100
AcDbEntity
  8
0
 62
     0
100
AcDbMText
 10
286.3260805444213
 20
35.13176634846102
 30
0.0
 40
0.18
 41
0.0
 71
     5
 72
     1
  1
\A1;3.00
1001
ACAD
1000
MTEXTBEGIN
1070
    73
1070
     1
1070
    44
1040
1.0
1070
    74
1070
     0
1000
MTEXTEND
1000
MTEXTBEGIN
1070
    73
1070
     1
1070
    44
1040
1.0
1070
    74
1070
     0
1000
MTEXTEND
  0
POINT
  5
E3D
330
E35
100
AcDbEntity
  8
DEFPOINTS
 62
     0
100
AcDbPoint
 10
284.8260805444213
 20
35.54555950161952
 30
0.0
  0
POINT
  5
E3E
330
E35
100
AcDbEntity
  8
DEFPOINTS
 62
     0
100
AcDbPoint
 10
287.8260805444215
 20
35.54555950161952
 30
0.0
  0
POINT
  5
E3F
330
E35
100
AcDbEntity
  8
DEFPOINTS
 62
     0
100
AcDbPoint
 10
287.8260805444215
 20
35.13176634846102
 30
0.0
  0
ENDBLK
  5
E41
330
E35
100
AcDbEntity
  8
0
100
AcDbBlockEnd
  0
BLOCK
  5
E4E
330
E43
100
AcDbEntity
  8
0
100
AcDbBlockBegin
  2
*D47
 70
     1
 10
0.0
 20
0.0
 30
0.0
  3
*D47
  1

  0
LINE
  5
E44
330
E43
100
AcDbEntity
  8
0
 62
     0
100
AcDbLine
 10
284.7635805444213
 20
35.54555950161952
 30
0.0
 11
284.2321091152451
 21
35.54555950161952
 31
0.0
  0
LINE
  5
E45
330
E43
100
AcDbEntity
  8
0
 62
     0
100
AcDbLine
 10
286.2635805444215
 20
37.44555950161952
 30
0.0
 11
284.2321091152451
 21
37.44555950161952
 31
0.0
  0
LINE
  5
E46
330
E43
100
AcDbEntity
  8
0
 62
     0
100
AcDbLine
 10
284.4121091152451
 20
35.72555950161952
 30
0.0
 11
284.4121091152451
 21
36.3155595016195
 31
0.0
  0
LINE
  5
E47
330
E43
100
AcDbEntity
  8
0
 62
     0
100
AcDbLine
 10
284.4121091152451
 20
37.26555950161952
 30
0.0
 11
284.4121091152451
 21
36.6755595016195
 31
0.0
  0
SOLID
  5
E48
330
E43
100
AcDbEntity
  8
0
 62
     0
100
AcDbTrace
 10
284.3821091152451
 20
35.72555950161952
 30
0.0
 11
284.4421091152451
 21
35.72555950161952
 31
0.0
 12
284.4121091152451
 22
35.54555950161952
 32
0.0
 13
284.4121091152451
 23
35.54555950161952
 33
0.0
  0
SOLID
  5
E49
330
E43
100
AcDbEntity
  8
0
 62
     0
100
AcDbTrace
 10
284.3821091152451
 20
37.26555950161952
 30
0.0
 11
284.4421091152451
 21
37.26555950161952
 31
0.0
 12
284.4121091152451
 22
37.44555950161952
 32
0.0
 13
284.4121091152451
 23
37.44555950161952
 33
0.0
  0
MTEXT
  5
E4A
330
E43
100
AcDbEntity
  8
0
 62
     0
100
AcDbMText
 10
284.4121091152451
 20
36.49555950161956
 30
0.0
 40
0.18
 41
0.0
 71
     5
 72
     1
  1
\A1;1.90
1001
ACAD
1000
MTEXTBEGIN
1070
    73
1070
     1
1070
    44
1040
1.0
1070
    74
1070
     0
1000
MTEXTEND
1000
MTEXTBEGIN
1070
    73
1070
     1
1070
    44
1040
1.0
1070
    74
1070
     0
1000
MTEXTEND
  0
POINT
  5
E4B
330
E43
100
AcDbEntity
  8
DEFPOINTS
 62
     0
100
AcDbPoint
 10
284.8260805444213
 20
35.54555950161952
 30
0.0
  0
POINT
  5
E4C
330
E43
100
AcDbEntity
  8
DEFPOINTS
 62
     0
100
AcDbPoint
 10
286.3260805444213
 20
37.44555950161952
 30
0.0
  0
POINT
  5
E4D
330
E43
100
AcDbEntity
  8
DEFPOINTS
 62
     0
100
AcDbPoint
 10
284.4121091152451
 20
37.44555950161952
 30
0.0
  0
ENDBLK
  5
E4F
330
E43
100
AcDbEntity
  8
0
100
AcDbBlockEnd
  0
BLOCK
  5
E58
330
E51
100
AcDbEntity
  8
0
100
AcDbBlockBegin
  2
*D48
 70
     1
 10
0.0
 20
0.0
 30
0.0
  3
*D48
  1

  0
LINE
  5
E52
330
E51
100
AcDbEntity
  8
0
 62
     0
100
AcDbLine
 10
286.1460805444214
 20
35.94555950161955
 30
0.0
 11
286.3260805444213
 21
35.94555950161955
 31
0.0
  0
LINE
  5
E53
330
E51
100
AcDbEntity
  8
0
 62
     0
100
AcDbLine
 10
286.3260805444213
 20
35.94555950161955
 30
0.0
 11
287.0224580040148
 21
37.06692404260075
 31
0.0
  0
MTEXT
  5
E54
330
E51
100
AcDbEntity
  8
0
 62
     0
100
AcDbMText
 10
285.7410805444215
 20
35.94555950161954
 30
0.0
 40
0.18
 41
0.0
 71
     5
 72
     1
  1
\A1;R1.50
1001
ACAD
1000
MTEXTBEGIN
1070
    73
1070
     1
1070
    44
1040
1.0
1070
    74
1070
     0
1000
MTEXTEND
1000
MTEXTBEGIN
1070
    73
1070
     1
1070
    44
1040
1.0
1070
    74
1070
     0
1000
MTEXTEND
  0
SOLID
  5
E55
330
E51
100
AcDbEntity
  8
0
 62
     0
100
AcDbTrace
 10
286.9969724462653
 20
37.08275080304606
 30
0.0
 11
287.0479435617644
 21
37.05109728215545
 31
0.0
 12
287.1174185666868
 22
37.21983738909822
 32
0.0
 13
287.1174185666868
 23
37.21983738909822
 33
0.0
  0
POINT
  5
E56
330
E51
100
AcDbEntity
  8
DEFPOINTS
 62
     0
100
AcDbPoint
 10
287.1174185666868
 20
37.21983738909822
 30
0.0
  0
POINT
  5
E57
330
E51
100
AcDbEntity
  8
DEFPOINTS
 62
     0
100
AcDbPoint
 10
286.3260805444213
 20
35.94555950161952
 30
0.0
  0
ENDBLK
  5
E59
330
E51
100
AcDbEntity
  8
0
100
AcDbBlockEnd
  0
BLOCK
  5
F4D
330
F42
100
AcDbEntity
  8
0
100
AcDbBlockBegin
  2
*D49
 70
     1
 10
0.0
 20
0.0
 30
0.0
  3
*D49
  1

  0
LINE
  5
F6A
330
F42
100
AcDbEntity
  8
0
 62
     0
100
AcDbLine
 10
284.6517767764718
 20
35.52661668655574
 30
0.0
 11
284.6517767764718
 21
34.86465201316711
 31
0.0
  0
LINE
  5
F6B
330
F42
100
AcDbEntity
  8
0
 62
     0
100
AcDbLine
 10
287.651776776472
 20
35.52661668655574
 30
0.0
 11
287.651776776472
 21
34.86465201316711
 31
0.0
  0
LINE
  5
F6C
330
F42
100
AcDbEntity
  8
0
 62
     0
100
AcDbLine
 10
284.831776776472
 20
35.04465201316711
 30
0.0
 11
285.821776776472
 21
35.04465201316711
 31
0.0
  0
LINE
  5
F6D
330
F42
100
AcDbEntity
  8
0
 62
     0
100
AcDbLine
 10
287.4717767764718
 20
35.04465201316711
 30
0.0
 11
286.4817767764718
 21
35.04465201316711
 31
0.0
  0
SOLID
  5
F6E
330
F42
100
AcDbEntity
  8
0
 62
     0
100
AcDbTrace
 10
284.831776776472
 20
35.07465201316711
 30
0.0
 11
284.831776776472
 21
35.0146520131671
 31
0.0
 12
284.6517767764718
 22
35.04465201316711
 32
0.0
 13
284.6517767764718
 23
35.04465201316711
 33
0.0
  0
SOLID
  5
F6F
330
F42
100
AcDbEntity
  8
0
 62
     0
100
AcDbTrace
 10
287.4717767764718
 20
35.07465201316711
 30
0.0
 11
287.4717767764718
 21
35.0146520131671
 31
0.0
 12
287.651776776472
 22
35.04465201316711
 32
0.0
 13
287.651776776472
 23
35.04465201316711
 33
0.0
  0
MTEXT
  5
F70
330
F42
100
AcDbEntity
  8
0
 62
     0
100
AcDbMText
 10
286.1517767764718
 20
35.04465201316711
 30
0.0
 40
0.18
 41
0.0
 71
     5
 72
     1
  1
\A1;3.00
1001
ACAD
1000
MTEXTBEGIN
1070
    73
1070
     1
1070
    44
1040
1.0
1070
    74
1070
     0
1000
MTEXTEND
1000
MTEXTBEGIN
1070
    73
1070
     1
1070
    44
1040
1.0
1070
    74
1070
     0
1000
MTEXTEND
  0
POINT
  5
F71
330
F42
100
AcDbEntity
  8
DEFPOINTS
 62
     0
100
AcDbPoint
 10
284.6517767764718
 20
35.58911668655574
 30
0.0
  0
POINT
  5
F72
330
F42
100
AcDbEntity
  8
DEFPOINTS
 62
     0
100
AcDbPoint
 10
287.651776776472
 20
35.58911668655574
 30
0.0
  0
POINT
  5
F73
330
F42
100
AcDbEntity
  8
DEFPOINTS
 62
     0
100
AcDbPoint
 10
287.651776776472
 20
35.04465201316711
 30
0.0
  0
ENDBLK
  5
F4E
330
F42
100
AcDbEntity
  8
0
100
AcDbBlockEnd
  0
BLOCK
  5
F5B
330
F50
100
AcDbEntity
  8
0
100
AcDbBlockBegin
  2
*D50
 70
     1
 10
0.0
 20
0.0
 30
0.0
  3
*D50
  1

  0
LINE
  5
F7A
330
F50
100
AcDbEntity
  8
0
 62
     0
100
AcDbLine
 10
284.5892767764718
 20
35.58911668655574
 30
0.0
 11
283.9488655251668
 21
35.58911668655574
 31
0.0
  0
LINE
  5
F7B
330
F50
100
AcDbEntity
  8
0
 62
     0
100
AcDbLine
 10
286.0892767764718
 20
38.08911668655568
 30
0.0
 11
283.9488655251668
 21
38.08911668655568
 31
0.0
  0
LINE
  5
F7C
330
F50
100
AcDbEntity
  8
0
 62
     0
100
AcDbLine
 10
284.1288655251668
 20
35.76911668655574
 30
0.0
 11
284.1288655251668
 21
36.65911668655572
 31
0.0
  0
LINE
  5
F7D
330
F50
100
AcDbEntity
  8
0
 62
     0
100
AcDbLine
 10
284.1288655251668
 20
37.90911668655568
 30
0.0
 11
284.1288655251668
 21
37.01911668655572
 31
0.0
  0
SOLID
  5
F7E
330
F50
100
AcDbEntity
  8
0
 62
     0
100
AcDbTrace
 10
284.0988655251669
 20
35.76911668655574
 30
0.0
 11
284.1588655251667
 21
35.76911668655574
 31
0.0
 12
284.1288655251668
 22
35.58911668655574
 32
0.0
 13
284.1288655251668
 23
35.58911668655574
 33
0.0
  0
SOLID
  5
F7F
330
F50
100
AcDbEntity
  8
0
 62
     0
100
AcDbTrace
 10
284.0988655251669
 20
37.90911668655568
 30
0.0
 11
284.1588655251667
 21
37.90911668655568
 31
0.0
 12
284.1288655251668
 22
38.08911668655568
 32
0.0
 13
284.1288655251668
 23
38.08911668655568
 33
0.0
  0
MTEXT
  5
F80
330
F50
100
AcDbEntity
  8
0
 62
     0
100
AcDbMText
 10
284.1288655251668
 20
36.83911668655577
 30
0.0
 40
0.18
 41
0.0
 71
     5
 72
     1
  1
\A1;2.50
1001
ACAD
1000
MTEXTBEGIN
1070
    73
1070
     1
1070
    44
1040
1.0
1070
    74
1070
     0
1000
MTEXTEND
1000
MTEXTBEGIN
1070
    73
1070
     1
1070
    44
1040
1.0
1070
    74
1070
     0
1000
MTEXTEND
  0
POINT
  5
F81
330
F50
100
AcDbEntity
  8
DEFPOINTS
 62
     0
100
AcDbPoint
 10
284.6517767764718
 20
35.58911668655574
 30
0.0
  0
POINT
  5
F82
330
F50
100
AcDbEntity
  8
DEFPOINTS
 62
     0
100
AcDbPoint
 10
286.1517767764718
 20
38.08911668655568
 30
0.0
  0
POINT
  5
F83
330
F50
100
AcDbEntity
  8
DEFPOINTS
 62
     0
100
AcDbPoint
 10
284.1288655251668
 20
38.08911668655568
 30
0.0
  0
ENDBLK
  5
F5C
330
F50
100
AcDbEntity
  8
0
100
AcDbBlockEnd
  0
BLOCK
  5
F65
330
F5E
100
AcDbEntity
  8
0
100
AcDbBlockBegin
  2
*D51
 70
     1
 10
0.0
 20
0.0
 30
0.0
  3
*D51
  1

  0
LINE
  5
F74
330
F5E
100
AcDbEntity
  8
0
 62
     0
100
AcDbLine
 10
285.971776776472
 20
36.58911668655574
 30
0.0
 11
286.1517767764719
 21
36.58911668655574
 31
0.0
  0
LINE
  5
F75
330
F5E
100
AcDbEntity
  8
0
 62
     0
100
AcDbLine
 10
286.1517767764719
 20
36.58911668655574
 30
0.0
 11
286.4283560747503
 21
37.87981568003321
 31
0.0
  0
MTEXT
  5
F76
330
F5E
100
AcDbEntity
  8
0
 62
     0
100
AcDbMText
 10
285.566776776472
 20
36.58911668655572
 30
0.0
 40
0.18
 41
0.0
 71
     5
 72
     1
  1
\A1;R1.50
1001
ACAD
1000
MTEXTBEGIN
1070
    73
1070
     1
1070
    44
1040
1.0
1070
    74
1070
     0
1000
MTEXTEND
1000
MTEXTBEGIN
1070
    73
1070
     1
1070
    44
1040
1.0
1070
    74
1070
     0
1000
MTEXTEND
  0
SOLID
  5
F77
330
F5E
100
AcDbEntity
  8
0
 62
     0
100
AcDbTrace
 10
286.3990220067167
 20
37.8861015731759
 30
0.0
 11
286.4576901427838
 21
37.87352978689053
 31
0.0
 12
286.4660714336063
 22
38.05582008823469
 32
0.0
 13
286.4660714336063
 23
38.05582008823469
 33
0.0
  0
POINT
  5
F78
330
F5E
100
AcDbEntity
  8
DEFPOINTS
 62
     0
100
AcDbPoint
 10
286.4660714336063
 20
38.05582008823469
 30
0.0
  0
POINT
  5
F79
330
F5E
100
AcDbEntity
  8
DEFPOINTS
 62
     0
100
AcDbPoint
 10
286.1517767764719
 20
36.58911668655572
 30
0.0
  0
ENDBLK
  5
F66
330
F5E
100
AcDbEntity
  8
0
100
AcDbBlockEnd
  0
BLOCK
  5
1073
330
1068
100
AcDbEntity
  8
0
100
AcDbBlockBegin
  2
*D52
 70
     1
 10
0.0
 20
0.0
 30
0.0
  3
*D52
  1

  0
LINE
  5
11B1
330
1068
100
AcDbEntity
  8
0
 62
     0
100
AcDbLine
 10
285.1093241344998
 20
35.59195242938155
 30
0.0
 11
285.1093241344998
 21
35.06710509366675
 31
0.0
  0
LINE
  5
11B2
330
1068
100
AcDbEntity
  8
0
 62
     0
100
AcDbLine
 10
288.2093241344998
 20
35.59195242938155
 30
0.0
 11
288.2093241344998
 21
35.06710509366675
 31
0.0
  0
LINE
  5
11B3
330
1068
100
AcDbEntity
  8
0
 62
     0
100
AcDbLine
 10
285.2893241344998
 20
35.24710509366674
 30
0.0
 11
286.3443241344997
 21
35.24710509366674
 31
0.0
  0
LINE
  5
11B4
330
1068
100
AcDbEntity
  8
0
 62
     0
100
AcDbLine
 10
288.0293241344998
 20
35.24710509366674
 30
0.0
 11
286.9743241344997
 21
35.24710509366674
 31
0.0
  0
SOLID
  5
11B5
330
1068
100
AcDbEntity
  8
0
 62
     0
100
AcDbTrace
 10
285.2893241344998
 20
35.27710509366674
 30
0.0
 11
285.2893241344998
 21
35.21710509366674
 31
0.0
 12
285.1093241344998
 22
35.24710509366674
 32
0.0
 13
285.1093241344998
 23
35.24710509366674
 33
0.0
  0
SOLID
  5
11B6
330
1068
100
AcDbEntity
  8
0
 62
     0
100
AcDbTrace
 10
288.0293241344998
 20
35.27710509366674
 30
0.0
 11
288.0293241344998
 21
35.21710509366674
 31
0.0
 12
288.2093241344998
 22
35.24710509366674
 32
0.0
 13
288.2093241344998
 23
35.24710509366674
 33
0.0
  0
MTEXT
  5
11B7
330
1068
100
AcDbEntity
  8
0
 62
     0
100
AcDbMText
 10
286.6593241344998
 20
35.24710509366674
 30
0.0
 40
0.18
 41
0.0
 71
     5
 72
     1
  1
\A1;3.10
  0
POINT
  5
11B8
330
1068
100
AcDbEntity
  8
DEFPOINTS
 62
     0
100
AcDbPoint
 10
285.1093241344998
 20
35.65445242938155
 30
0.0
  0
POINT
  5
11B9
330
1068
100
AcDbEntity
  8
DEFPOINTS
 62
     0
100
AcDbPoint
 10
288.2093241344998
 20
35.65445242938155
 30
0.0
  0
POINT
  5
11BA
330
1068
100
AcDbEntity
  8
DEFPOINTS
 62
     0
100
AcDbPoint
 10
288.2093241344998
 20
35.24710509366674
 30
0.0
  0
ENDBLK
  5
1074
330
1068
100
AcDbEntity
  8
0
100
AcDbBlockEnd
  0
BLOCK
  5
1081
330
1076
100
AcDbEntity
  8
0
100
AcDbBlockBegin
  2
*D53
 70
     1
 10
0.0
 20
0.0
 30
0.0
  3
*D53
  1

  0
LINE
  5
11BB
330
1076
100
AcDbEntity
  8
0
 62
     0
100
AcDbLine
 10
285.0476307960168
 20
35.70445242938153
 30
0.0
 11
284.5661181306935
 21
35.70445242938153
 31
0.0
  0
LINE
  5
11BC
330
1076
100
AcDbEntity
  8
0
 62
     0
100
AcDbLine
 10
286.5968241344997
 20
37.20445242938153
 30
0.0
 11
284.5661181306935
 21
37.20445242938153
 31
0.0
  0
LINE
  5
11BD
330
1076
100
AcDbEntity
  8
0
 62
     0
100
AcDbLine
 10
284.7461181306935
 20
35.88445242938153
 30
0.0
 11
284.7461181306935
 21
36.27445242938153
 31
0.0
  0
LINE
  5
11BE
330
1076
100
AcDbEntity
  8
0
 62
     0
100
AcDbLine
 10
284.7461181306935
 20
37.02445242938153
 30
0.0
 11
284.7461181306935
 21
36.63445242938153
 31
0.0
  0
SOLID
  5
11BF
330
1076
100
AcDbEntity
  8
0
 62
     0
100
AcDbTrace
 10
284.7161181306935
 20
35.88445242938153
 30
0.0
 11
284.7761181306935
 21
35.88445242938153
 31
0.0
 12
284.7461181306935
 22
35.70445242938153
 32
0.0
 13
284.7461181306935
 23
35.70445242938153
 33
0.0
  0
SOLID
  5
11C0
330
1076
100
AcDbEntity
  8
0
 62
     0
100
AcDbTrace
 10
284.7161181306935
 20
37.02445242938153
 30
0.0
 11
284.7761181306935
 21
37.02445242938153
 31
0.0
 12
284.7461181306935
 22
37.20445242938153
 32
0.0
 13
284.7461181306935
 23
37.20445242938153
 33
0.0
  0
MTEXT
  5
11C1
330
1076
100
AcDbEntity
  8
0
 62
     0
100
AcDbMText
 10
284.7461181306935
 20
36.45445242938158
 30
0.0
 40
0.18
 41
0.0
 71
     5
 72
     1
  1
\A1;1.50
  0
POINT
  5
11C2
330
1076
100
AcDbEntity
  8
DEFPOINTS
 62
     0
100
AcDbPoint
 10
285.1101307960169
 20
35.70445242938153
 30
0.0
  0
POINT
  5
11C3
330
1076
100
AcDbEntity
  8
DEFPOINTS
 62
     0
100
AcDbPoint
 10
286.6593241344998
 20
37.20445242938153
 30
0.0
  0
POINT
  5
11C4
330
1076
100
AcDbEntity
  8
DEFPOINTS
 62
     0
100
AcDbPoint
 10
284.7461181306935
 20
37.20445242938153
 30
0.0
  0
ENDBLK
  5
1082
330
1076
100
AcDbEntity
  8
0
100
AcDbBlockEnd
  0
BLOCK
  5
108B
330
1084
100
AcDbEntity
  8
0
100
AcDbBlockBegin
  2
*D54
 70
     1
 10
0.0
 20
0.0
 30
0.0
  3
*D54
  1

  0
LINE
  5
11C5
330
1084
100
AcDbEntity
  8
0
 62
     0
100
AcDbLine
 10
286.4793241344999
 20
35.65445242938152
 30
0.0
 11
286.6593241344999
 21
35.65445242938151
 31
0.0
  0
LINE
  5
11C6
330
1084
100
AcDbEntity
  8
0
 62
     0
100
AcDbLine
 10
286.6593241344999
 20
35.65445242938151
 30
0.0
 11
286.7711107176552
 21
37.0198841412685
 31
0.0
  0
MTEXT
  5
11C7
330
1084
100
AcDbEntity
  8
0
 62
     0
100
AcDbMText
 10
286.0593241344999
 20
35.6544524293815
 30
0.0
 40
0.18
 41
0.0
 71
     5
 72
     1
  1
\A1;R1.55
  0
SOLID
  5
11C8
330
1084
100
AcDbEntity
  8
0
 62
     0
100
AcDbTrace
 10
286.7412107531614
 20
37.02233202265146
 30
0.0
 11
286.801010682149
 21
37.01743625988554
 31
0.0
 12
286.7857980059529
 22
37.19928392823174
 32
0.0
 13
286.7857980059529
 23
37.19928392823174
 33
0.0
  0
POINT
  5
11C9
330
1084
100
AcDbEntity
  8
DEFPOINTS
 62
     0
100
AcDbPoint
 10
286.7857980059529
 20
37.19928392823174
 30
0.0
  0
POINT
  5
11CA
330
1084
100
AcDbEntity
  8
DEFPOINTS
 62
     0
100
AcDbPoint
 10
286.6593241344999
 20
35.65445242938153
 30
0.0
  0
ENDBLK
  5
108C
330
1084
100
AcDbEntity
  8
0
100
AcDbBlockEnd
  0
ENDSEC
  0
SECTION
  2
ENTITIES
  0
TEXT
  5
2C
330
1E
100
AcDbEntity
  8
0
  6
CONTINUOUS
100
AcDbText
 10
286.8657250217653
 20
41.35809618788629
 30
0.0
 40
0.1
  1
2
  7
ROMANC
100
AcDbText
  0
TEXT
  5
2D
330
1E
100
AcDbEntity
  8
0
  6
CONTINUOUS
100
AcDbText
 10
283.9259999999999
 20
41.768
 30
0.0
 40
0.3
  1
ESCALA  
  7
ROMANC
100
AcDbText
  0
LWPOLYLINE
  5
2E
330
1E
100
AcDbEntity
  8
NO_PRINT
  6
CONTINUOUS
100
AcDbPolyline
 90
        4
 70
     1
 43
0.0
 10
281.3959999999998
 20
44.747
 10
291.8959999999998
 20
44.747
 10
291.8959999999998
 20
29.897
 10
281.3959999999998
 20
29.897
  0
TEXT
  5
34
330
1E
100
AcDbEntity
  8
0
  6
CONTINUOUS
100
AcDbText
 10
283.9259999999999
 20
42.381
 30
0.0
 40
0.3
  1
TIPUS   
  7
ROMANC
100
AcDbText
  0
TEXT
  5
3C
330
1E
100
AcDbEntity
  8
0
  6
CONTINUOUS
100
AcDbText
 10
283.9449999999998
 20
41.09899999999997
 30
0.0
 40
0.3
  1
S =    dm
  7
ROMANC
100
AcDbText
  0
TEXT
  5
3D
330
1E
100
AcDbEntity
  8
0
  6
CONTINUOUS
100
AcDbText
 10
283.922
 20
40.529
 30
0.0
 40
0.3
  1
P =    dm
  7
ROMANC
100
AcDbText
  0
INSERT
  5
30E
330
1E
100
AcDbEntity
  8
0
100
AcDbBlockReference
 66
     1
  2
CARACTERISTIQUES
 10
0.0
 20
0.0
 30
0.0
  0
ATTRIB
  5
310
330
30E
100
AcDbEntity
  8
0
100
AcDbText
 10
286.2722613402651
 20
41.75273550800127
 30
0.0
 40
0.3
  1
1:50
  7
ROMANC
100
AcDbAttribute
  2
1:50
 70
     0
  0
ATTRIB
  5
311
330
30E
100
AcDbEntity
  8
0
100
AcDbText
 10
286.2281292928555
 20
42.38557741488182
 30
0.0
 40
0.3
  1
NT361B
  7
ROMANC
100
AcDbAttribute
  2
NTXXY
 70
     0
  0
ATTRIB
  5
312
330
30E
100
AcDbEntity
  8
0
100
AcDbText
 10
285.02615359101
 20
41.10070262236148
 30
0.0
 40
0.3
  1
361
  7
ROMANC
100
AcDbAttribute
  2
XXX
 70
     0
  0
ATTRIB
  5
313
330
30E
100
AcDbEntity
  8
0
100
AcDbText
 10
285.049954865421
 20
40.52964709849685
 30
0.0
 40
0.3
  1
78
  7
ROMANC
100
AcDbAttribute
  2
XX
 70
     0
  0
ATTRIB
  5
314
330
30E
100
AcDbEntity
  8
0
100
AcDbText
 10
288.7246712843191
 20
30.62335152191192
 30
0.0
 40
0.3
  1
Hospitalet
  7
ROMANC
 72
     2
 11
291.1675284271763
 21
30.62335152191192
 31
0.0
100
AcDbAttribute
  2
Xxxxxxxxxxxx
 70
     0
  0
SEQEND
  5
30F
330
30E
100
AcDbEntity
  8
0
  0
LWPOLYLINE
  5
1066
330
1E
100
AcDbEntity
  8
0
100
AcDbPolyline
 90
        2
 70
     1
 43
0.0
 10
288.2085174729827
 20
35.70445242938153
 42
0.9682458365502537
 10
285.1101307960169
 20
35.70445242938153
  0
DIMENSION
  5
1067
330
1E
100
AcDbEntity
  8
0
100
AcDbDimension
  2
*D52
 10
288.2093241344998
 20
35.24710509366674
 30
0.0
 11
286.6593241344998
 21
35.24710509366674
 31
0.0
 70
    32
  3
STANDARD
100
AcDbAlignedDimension
 13
285.1093241344998
 23
35.65445242938155
 33
0.0
 14
288.2093241344998
 24
35.65445242938155
 34
0.0
100
AcDbRotatedDimension
1001
ACAD
1000
DSTYLE
1002
{
1070
   287
1070
     4
1070
   287
1070
     4
1070
   279
1070
     1
1002
}
  0
DIMENSION
  5
1075
330
1E
100
AcDbEntity
  8
0
100
AcDbDimension
  2
*D53
 10
284.7461181306935
 20
37.20445242938153
 30
0.0
 11
284.7461181306935
 21
36.45445242938158
 31
0.0
 70
    32
  3
STANDARD
100
AcDbAlignedDimension
 13
285.1101307960169
 23
35.70445242938153
 33
0.0
 14
286.6593241344998
 24
37.20445242938153
 34
0.0
 50
90.0
100
AcDbRotatedDimension
1001
ACAD
1000
DSTYLE
1002
{
1070
   287
1070
     4
1070
   287
1070
     4
1070
   279
1070
     1
1002
}
  0
DIMENSION
  5
1083
330
1E
100
AcDbEntity
  8
0
100
AcDbDimension
  2
*D54
 10
286.6593241344999
 20
35.65445242938153
 30
0.0
 11
286.6593241344999
 21
35.6544524293815
 31
0.0
 70
   164
  3
STANDARD
100
AcDbRadialDimension
 15
286.7857980059529
 25
37.19928392823174
 35
0.0
 40
0.0
1001
ACAD
1000
DSTYLE
1002
{
1070
   287
1070
     4
1070
   287
1070
     4
1070
   279
1070
     1
1070
   288
1070
     1
1002
}
  0
LINE
  5
108E
330
1E
100
AcDbEntity
  8
0
100
AcDbLine
 10
285.1101307960169
 20
35.70445242938153
 30
0.0
 11
288.2085174729827
 21
35.70445242938153
 31
0.0
  0
LWPOLYLINE
  5
1099
330
1E
100
AcDbEntity
  8
0
100
AcDbPolyline
 90
        2
 70
     1
 43
0.0
 10
288.2188112296693
 20
35.69445242938153
 42
0.9746794344798715
 10
285.0998370393304
 20
35.69445242938153
  0
LWPOLYLINE
  5
109A
330
1E
100
AcDbEntity
  8
0
100
AcDbPolyline
 90
        2
 70
     1
 43
0.0
 10
288.2290374841277
 20
35.68445242938153
 42
0.9810708435158323
 10
285.0896107848718
 20
35.68445242938153
  0
VIEWPORT
  5
1D9
330
1A
100
AcDbEntity
 67
     1
  8
0
100
AcDbViewport
 10
99.82470776163149
 20
143.3229762546135
 30
0.0
 40
488.1619999471468
 41
307.1270234485288
 68
     1
 69
     1
1001
ACAD
1000
MVIEW
1002
{
1070
    16
1010
0.0
1020
0.0
1030
0.0
1010
0.0
1020
0.0
1030
1.0
1040
0.0
1040
307.1270234485288
1040
99.82470776163149
1040
143.3229762546135
1040
50.0
1040
0.0
1040
0.0
1070
     0
1070
   100
1070
     1
1070
     1
1070
     0
1070
     0
1070
     0
1070
     0
1040
0.0
1040
0.0
1040
0.0
1040
10.0
1040
10.0
1040
10.0
1040
10.0
1070
     0
1002
{
1002
}
1002
}
  0
VIEWPORT
  5
1DB
330
1A
100
AcDbEntity
 67
     1
  8
0
100
AcDbViewport
 10
99.980751991272
 20
143.3935842514036
 30
0.0
 40
199.2902839821538
 41
285.8513345476648
 68
     2
 69
     2
1001
ACAD
1000
MVIEW
1002
{
1070
    16
1010
0.0
1020
0.0
1030
0.0
1010
0.0
1020
0.0
1030
1.0
1040
0.0
1040
15.3945017187523
1040
286.6488322780006
1040
37.31916769001134
1040
50.0
1040
0.0
1040
0.0
1070
     0
1070
   100
1070
     1
1070
     1
1070
     0
1070
     0
1070
     0
1070
     0
1040
0.0
1040
0.0
1040
0.0
1040
1.0
1040
1.0
1040
0.0
1040
0.0
1070
     0
1002
{
1002
}
1002
}
  0
ENDSEC
  0
SECTION
  2
OBJECTS
  0
DICTIONARY
  5
C
330
0
100
AcDbDictionary
  3
ACAD_GROUP
350
D
  3
ACAD_LAYOUT
350
19
  3
ACAD_MLINESTYLE
350
16
  3
ACAD_PLOTSETTINGS
350
18
  3
ACAD_PLOTSTYLENAME
350
330
  3
ACDBHEADERROUNDTRIPXREC
350
1183
1001
ACAD
1000
TREAT_AS_HARD
1070
     0
  0
DICTIONARY
  5
1AC
330
1E
100
AcDbDictionary
280
     1
  3
ACAD_SORTENTS
360
27D
  3
ACAD_LAYOUTSELFREF
360
11A4
1001
ACAD
1000
TREAT_AS_HARD
1070
     1
  0
DICTIONARY
  5
1AA
330
1A
100
AcDbDictionary
280
     1
  3
ACAD_LAYOUTSELFREF
360
11A3
1001
ACAD
1000
TREAT_AS_HARD
1070
     1
  0
DICTIONARY
  5
D
102
{ACAD_REACTORS
330
C
102
}
330
C
100
AcDbDictionary
1001
ACAD
1000
TREAT_AS_HARD
1070
     0
  0
DICTIONARY
  5
19
102
{ACAD_REACTORS
330
C
102
}
330
C
100
AcDbDictionary
1001
ACAD
1000
TREAT_AS_HARD
1070
     0
  0
DICTIONARY
  5
16
102
{ACAD_REACTORS
330
C
102
}
330
C
100
AcDbDictionary
  3
STANDARD
350
17
1001
ACAD
1000
TREAT_AS_HARD
1070
     0
  0
DICTIONARY
  5
18
102
{ACAD_REACTORS
330
C
102
}
330
C
100
AcDbDictionary
  3
SECCIONS
350
20A
1001
ACAD
1000
TREAT_AS_HARD
1070
     0
  0
ACDBDICTIONARYWDFLT
  5
330
102
{ACAD_REACTORS
330
C
102
}
330
C
100
AcDbDictionary
281
     1
  3
Normal
350
331
100
AcDbDictionaryWithDefault
340
331
  0
DICTIONARY
  5
1183
102
{ACAD_REACTORS
330
C
102
}
330
C
100
AcDbDictionary
  3
TSTACKALIGN
350
1184
  3
TSTACKSIZE
350
1185
  3
HYPERLINKBASE
350
1186
  3
STYLESHEET
350
1187
  3
LAYOUTDICT
350
1188
  3
PLOTSETDICT
350
1189
  3
PLOTSTYLNAMDICT
350
118A
  3
LWETCUNION
350
118B
  3
INSUNITS
350
118C
  3
CEPSNTYPE
350
118D
  3
FINGERPRINTGUID
350
118E
  3
VERSIONGUID
350
118F
  3
PSVPSCALE
350
1190
  3
PUCSORTHOREF
350
1191
  3
PUCSORTHOVIEW
350
1192
  3
PUCSBASE
350
1193
  3
PUCSORGTOP
350
1194
  3
PUCSORGBOTTOM
350
1195
  3
PUCSORGLEFT
350
1196
  3
PUCSORGRIGHT
350
1197
  3
PUCSORGFRONT
350
1198
  3
PUCSORGBACK
350
1199
  3
UCSORTHOREF
350
119A
  3
UCSORTHOVIEW
350
119B
  3
UCSBASE
350
119C
  3
UCSORGTOP
350
119D
  3
UCSORGBOTTOM
350
119E
  3
UCSORGLEFT
350
119F
  3
UCSORGRIGHT
350
11A0
  3
UCSORGFRONT
350
11A1
  3
UCSORGBACK
350
11A2
  0
SORTENTSTABLE
  5
27D
102
{ACAD_REACTORS
330
1AC
102
}
330
1AC
100
AcDbSortentsTable
330
1E
331
2E
  5
3D
331
2C
  5
34
331
3C
  5
244
331
34
  5
23F
331
2D
  5
3C
331
3D
  5
249
  0
XRECORD
  5
11A4
102
{ACAD_REACTORS
330
1AC
102
}
330
1AC
100
AcDbXrecord
340
1E
  0
XRECORD
  5
11A3
102
{ACAD_REACTORS
330
1AA
102
}
330
1AA
100
AcDbXrecord
340
1A
  0
MLINESTYLE
  5
17
102
{ACAD_REACTORS
330
16
102
}
330
16
100
AcDbMlineStyle
  2
STANDARD
 70
     0
  3

 62
   256
 51
90.0
 52
90.0
 71
     2
 49
0.5
 62
   256
  6
BYLAYER
 49
-0.5
 62
   256
  6
BYLAYER
  0
PLOTSETTINGS
  5
20A
102
{ACAD_REACTORS
330
18
102
}
330
18
100
AcDbPlotSettings
  1
seccions
  2
\\SERVIDOR1\LS8100PS
  4
A4
  6

 40
5.365749835968013
 41
5.4080810546875
 42
5.154083251953125
 43
5.154083251953125
 44
209.9733276367186
 45
296.9683227539062
 46
0.0
 47
0.0
 48
281.3959999999998
 49
29.897
140
291.8959999999998
141
44.747
142
1.0
143
0.0526438507570551
 70
  1712
 72
     1
 73
     0
 74
     4
  7
T:\CFG ACAD2000\Plot Styles\xvr.ctb
 75
     0
147
18.99557090940928
148
-281.3959999999998
149
-29.897
  0
ACDBPLACEHOLDER
  5
331
102
{ACAD_REACTORS
330
330
102
}
330
330
100
AcDbPlaceHolder
280
     0
  0
XRECORD
  5
1184
102
{ACAD_REACTORS
330
1183
102
}
330
1183
100
AcDbXrecord
 90
        1
  0
XRECORD
  5
1185
102
{ACAD_REACTORS
330
1183
102
}
330
1183
100
AcDbXrecord
 90
       70
  0
XRECORD
  5
1186
102
{ACAD_REACTORS
330
1183
102
}
330
1183
100
AcDbXrecord
  1

  0
XRECORD
  5
1187
102
{ACAD_REACTORS
330
1183
102
}
330
1183
100
AcDbXrecord
  1
Blanc i negre.ctb
  0
XRECORD
  5
1188
102
{ACAD_REACTORS
330
1183
102
}
330
1183
100
AcDbXrecord
340
19
  0
XRECORD
  5
1189
102
{ACAD_REACTORS
330
1183
102
}
330
1183
100
AcDbXrecord
340
18
  0
XRECORD
  5
118A
102
{ACAD_REACTORS
330
1183
102
}
330
1183
100
AcDbXrecord
340
330
  0
XRECORD
  5
118B
102
{ACAD_REACTORS
330
1183
102
}
330
1183
100
AcDbXrecord
 90
    10781
  0
XRECORD
  5
118C
102
{ACAD_REACTORS
330
1183
102
}
330
1183
100
AcDbXrecord
 90
        0
  0
XRECORD
  5
118D
102
{ACAD_REACTORS
330
1183
102
}
330
1183
100
AcDbXrecord
 90
        0
  0
XRECORD
  5
118E
102
{ACAD_REACTORS
330
1183
102
}
330
1183
100
AcDbXrecord
  1
{061240B0-03E4-11D5-A6AC-0008C769B1B5}
  0
XRECORD
  5
118F
102
{ACAD_REACTORS
330
1183
102
}
330
1183
100
AcDbXrecord
  1
{205B03D8-8970-44FB-89AD-D5CFE7A23FFB}
  0
XRECORD
  5
1190
102
{ACAD_REACTORS
330
1183
102
}
330
1183
100
AcDbXrecord
 40
0.0
  0
XRECORD
  5
1191
102
{ACAD_REACTORS
330
1183
102
}
330
1183
100
AcDbXrecord
340
0
  0
XRECORD
  5
1192
102
{ACAD_REACTORS
330
1183
102
}
330
1183
100
AcDbXrecord
 70
     0
  0
XRECORD
  5
1193
102
{ACAD_REACTORS
330
1183
102
}
330
1183
100
AcDbXrecord
340
0
  0
XRECORD
  5
1194
102
{ACAD_REACTORS
330
1183
102
}
330
1183
100
AcDbXrecord
 10
0.0
 20
0.0
 30
0.0
  0
XRECORD
  5
1195
102
{ACAD_REACTORS
330
1183
102
}
330
1183
100
AcDbXrecord
 10
0.0
 20
0.0
 30
0.0
  0
XRECORD
  5
1196
102
{ACAD_REACTORS
330
1183
102
}
330
1183
100
AcDbXrecord
 10
0.0
 20
0.0
 30
0.0
  0
XRECORD
  5
1197
102
{ACAD_REACTORS
330
1183
102
}
330
1183
100
AcDbXrecord
 10
0.0
 20
0.0
 30
0.0
  0
XRECORD
  5
1198
102
{ACAD_REACTORS
330
1183
102
}
330
1183
100
AcDbXrecord
 10
0.0
 20
0.0
 30
0.0
  0
XRECORD
  5
1199
102
{ACAD_REACTORS
330
1183
102
}
330
1183
100
AcDbXrecord
 10
0.0
 20
0.0
 30
0.0
  0
XRECORD
  5
119A
102
{ACAD_REACTORS
330
1183
102
}
330
1183
100
AcDbXrecord
340
0
  0
XRECORD
  5
119B
102
{ACAD_REACTORS
330
1183
102
}
330
1183
100
AcDbXrecord
 70
     0
  0
XRECORD
  5
119C
102
{ACAD_REACTORS
330
1183
102
}
330
1183
100
AcDbXrecord
340
0
  0
XRECORD
  5
119D
102
{ACAD_REACTORS
330
1183
102
}
330
1183
100
AcDbXrecord
 10
0.0
 20
0.0
 30
0.0
  0
XRECORD
  5
119E
102
{ACAD_REACTORS
330
1183
102
}
330
1183
100
AcDbXrecord
 10
0.0
 20
0.0
 30
0.0
  0
XRECORD
  5
119F
102
{ACAD_REACTORS
330
1183
102
}
330
1183
100
AcDbXrecord
 10
0.0
 20
0.0
 30
0.0
  0
XRECORD
  5
11A0
102
{ACAD_REACTORS
330
1183
102
}
330
1183
100
AcDbXrecord
 10
0.0
 20
0.0
 30
0.0
  0
XRECORD
  5
11A1
102
{ACAD_REACTORS
330
1183
102
}
330
1183
100
AcDbXrecord
 10
0.0
 20
0.0
 30
0.0
  0
XRECORD
  5
11A2
102
{ACAD_REACTORS
330
1183
102
}
330
1183
100
AcDbXrecord
 10
0.0
 20
0.0
 30
0.0
  0
ENDSEC
  0
EOF
