  0
SECTION
  2
HEADER
  9
$ACADVER
  1
AC1009
  9
$INSBASE
 10
286.17465146174112
 20
42.376959963002058
 30
0.0
  9
$EXTMIN
 10
281.39506924413388
 20
29.89660406180441
 30
-0.0000000349181948
  9
$EXTMAX
 10
291.89693081407341
 20
44.747967495798719
 30
0.0000000814935747
  9
$LIMMIN
 10
280.3959999999999
 20
28.896999999999991
  9
$LIMMAX
 10
292.8959999999999
 20
43.746999999999993
  9
$ORTHOMODE
 70
     1
  9
$REGENMODE
 70
     1
  9
$FILLMODE
 70
     1
  9
$QTEXTMODE
 70
     0
  9
$MIRRTEXT
 70
     1
  9
$DRAGMODE
 70
     2
  9
$LTSCALE
 40
1.0
  9
$OSMODE
 70
    37
  9
$ATTMODE
 70
     1
  9
$TEXTSIZE
 40
0.3
  9
$TRACEWID
 40
0.05
  9
$TEXTSTYLE
  7
ROMANC
  9
$CLAYER
  8
0
  9
$CELTYPE
  6
BYLAYER
  9
$CECOLOR
 62
   256
  9
$DIMSCALE
 40
1.0
  9
$DIMASZ
 40
0.18
  9
$DIMEXO
 40
0.0625
  9
$DIMDLI
 40
0.38
  9
$DIMRND
 40
0.0
  9
$DIMDLE
 40
0.0
  9
$DIMEXE
 40
0.18
  9
$DIMTP
 40
0.0
  9
$DIMTM
 40
0.0
  9
$DIMTXT
 40
0.18
  9
$DIMCEN
 40
0.09
  9
$DIMTSZ
 40
0.0
  9
$DIMTOL
 70
     0
  9
$DIMLIM
 70
     0
  9
$DIMTIH
 70
     1
  9
$DIMTOH
 70
     1
  9
$DIMSE1
 70
     0
  9
$DIMSE2
 70
     0
  9
$DIMTAD
 70
     0
  9
$DIMZIN
 70
     0
  9
$DIMBLK
  1

  9
$DIMASO
 70
     1
  9
$DIMSHO
 70
     1
  9
$DIMPOST
  1

  9
$DIMAPOST
  1

  9
$DIMALT
 70
     0
  9
$DIMALTD
 70
     2
  9
$DIMALTF
 40
25.399999999999999
  9
$DIMLFAC
 40
1.0
  9
$DIMTOFL
 70
     0
  9
$DIMTVP
 40
0.0
  9
$DIMTIX
 70
     0
  9
$DIMSOXD
 70
     0
  9
$DIMSAH
 70
     0
  9
$DIMBLK1
  1

  9
$DIMBLK2
  1

  9
$DIMSTYLE
  2
STANDARD
  9
$DIMCLRD
 70
     0
  9
$DIMCLRE
 70
     0
  9
$DIMCLRT
 70
     0
  9
$DIMTFAC
 40
1.0
  9
$DIMGAP
 40
0.09
  9
$LUNITS
 70
     2
  9
$LUPREC
 70
     4
  9
$SKETCHINC
 40
0.1
  9
$FILLETRAD
 40
0.0
  9
$AUNITS
 70
     0
  9
$AUPREC
 70
     0
  9
$MENU
  1
acad
  9
$ELEVATION
 40
0.0
  9
$PELEVATION
 40
0.0
  9
$THICKNESS
 40
0.0
  9
$LIMCHECK
 70
     0
  9
$BLIPMODE
 70
     0
  9
$CHAMFERA
 40
0.0
  9
$CHAMFERB
 40
0.0
  9
$SKPOLY
 70
     0
  9
$TDCREATE
 40
2448315.331741435
  9
$TDUPDATE
 40
2452439.3681493751
  9
$TDINDWG
 40
0.0709651736
  9
$TDUSRTIMER
 40
0.0708805556
  9
$USRTIMER
 70
     1
  9
$ANGBASE
 50
0.0
  9
$ANGDIR
 70
     0
  9
$PDMODE
 70
     0
  9
$PDSIZE
 40
0.0
  9
$PLINEWID
 40
0.0
  9
$COORDS
 70
     1
  9
$SPLFRAME
 70
     0
  9
$SPLINETYPE
 70
     6
  9
$SPLINESEGS
 70
     8
  9
$ATTDIA
 70
     0
  9
$ATTREQ
 70
     1
  9
$HANDLING
 70
 10241
  9
$HANDSEED
  5
476
  9
$SURFTAB1
 70
     6
  9
$SURFTAB2
 70
     6
  9
$SURFTYPE
 70
     6
  9
$SURFU
 70
     6
  9
$SURFV
 70
     6
  9
$UCSNAME
  2

  9
$UCSORG
 10
0.0
 20
0.0
 30
0.0
  9
$UCSXDIR
 10
1.0
 20
0.0
 30
0.0
  9
$UCSYDIR
 10
0.0
 20
1.0
 30
0.0
  9
$PUCSNAME
  2

  9
$PUCSORG
 10
0.0
 20
0.0
 30
0.0
  9
$PUCSXDIR
 10
1.0
 20
0.0
 30
0.0
  9
$PUCSYDIR
 10
0.0
 20
1.0
 30
0.0
  9
$USERI1
 70
     0
  9
$USERI2
 70
     0
  9
$USERI3
 70
     0
  9
$USERI4
 70
     0
  9
$USERI5
 70
     0
  9
$USERR1
 40
0.0
  9
$USERR2
 40
0.0
  9
$USERR3
 40
0.0
  9
$USERR4
 40
0.0
  9
$USERR5
 40
0.0
  9
$WORLDVIEW
 70
     1
  9
$SHADEDGE
 70
     3
  9
$SHADEDIF
 70
    70
  9
$TILEMODE
 70
     1
  9
$MAXACTVP
 70
    16
  9
$PLIMCHECK
 70
     0
  9
$PEXTMIN
 10
0.3341875024984802
 20
0.4535837131396649
 30
-0.0015258207003583
  9
$PEXTMAX
 10
199.6273174580067
 20
286.33358617273132
 30
0.0000000349246037
  9
$PLIMMIN
 10
-2.801048903799753
 20
-1.8221198930844431
  9
$PLIMMAX
 10
202.4504644270626
 20
288.46807240231129
  9
$UNITMODE
 70
     0
  9
$VISRETAIN
 70
     0
  9
$PLINEGEN
 70
     0
  9
$PSLTSCALE
 70
     1
  0
ENDSEC
  0
SECTION
  2
TABLES
  0
TABLE
  2
VPORT
 70
     2
  0
VPORT
  2
*ACTIVE
 70
     0
 10
0.0
 20
0.0
 11
1.0
 21
1.0
 12
288.5952011669545
 22
37.12803043162058
 13
0.0
 23
0.0
 14
1.0
 24
1.0
 15
0.0
 25
0.0
 16
0.0
 26
0.0
 36
1.0
 17
0.0
 27
0.0
 37
0.0
 40
16.33797695729077
 41
1.4213135068153651
 42
50.0
 43
0.0
 44
0.0
 50
0.0
 51
0.0
 71
     0
 72
   100
 73
     1
 74
     1
 75
     0
 76
     0
 77
     0
 78
     0
  0
ENDTAB
  0
TABLE
  2
LTYPE
 70
     1
  0
LTYPE
  2
CONTINUOUS
 70
     0
  3
Solid line
 72
    65
 73
     0
 40
0.0
  0
ENDTAB
  0
TABLE
  2
LAYER
 70
     3
  0
LAYER
  2
0
 70
     0
 62
     7
  6
CONTINUOUS
  0
LAYER
  2
DEFPOINTS
 70
     0
 62
     7
  6
CONTINUOUS
  0
LAYER
  2
NO_PRINT
 70
     0
 62
     7
  6
CONTINUOUS
  0
ENDTAB
  0
TABLE
  2
STYLE
 70
     2
  0
STYLE
  2
STANDARD
 70
     0
 40
0.0
 41
1.0
 50
0.0
 71
     0
 42
0.2
  3
txt
  4

  0
STYLE
  2
ROMANC
 70
     0
 40
0.0
 41
1.0
 50
0.0
 71
     0
 42
0.3
  3
ROMANC
  4

  0
ENDTAB
  0
TABLE
  2
VIEW
 70
     0
  0
ENDTAB
  0
TABLE
  2
UCS
 70
     0
  0
ENDTAB
  0
TABLE
  2
APPID
 70
     3
  0
APPID
  2
ACAD
 70
     0
  0
APPID
  2
CONTENTBLOCKDESCRIPTION
 70
     0
  0
APPID
  2
CONTENTBLOCKICON
 70
     0
  0
ENDTAB
  0
TABLE
  2
DIMSTYLE
 70
     1
  0
DIMSTYLE
  2
STANDARD
 70
     0
  3

  4

  5

  6

  7

 40
1.0
 41
0.18
 42
0.0625
 43
0.38
 44
0.18
 45
0.0
 46
0.0
 47
0.0
 48
0.0
140
0.18
141
0.09
142
0.0
143
25.399999999999999
144
1.0
145
0.0
146
1.0
147
0.09
 71
     0
 72
     0
 73
     1
 74
     1
 75
     0
 76
     0
 77
     0
 78
     0
170
     0
171
     2
172
     0
173
     0
174
     0
175
     0
176
     0
177
     0
178
     0
  0
ENDTAB
  0
ENDSEC
  0
SECTION
  2
BLOCKS
  0
BLOCK
  8
0
  2
$MODEL_SPACE
 70
     0
 10
0.0
 20
0.0
 30
0.0
  3
$MODEL_SPACE
  1

  0
ENDBLK
  5
20
  8
0
  0
BLOCK
 67
     1
  8
0
  2
$PAPER_SPACE
 70
     0
 10
0.0
 20
0.0
 30
0.0
  3
$PAPER_SPACE
  1

  0
ENDBLK
  5
1C
 67
     1
  8
0
  0
BLOCK
  8
0
  2
TIPUS
 70
     0
 10
0.0
 20
0.0
 30
0.0
  3
TIPUS
  1

  0
TEXT
  5
293
  8
0
  6
CONTINUOUS
 10
286.11771802494133
 20
42.37875471737599
 30
0.0
 40
0.3
  1
NTXXXY
  7
ROMANC
  0
ENDBLK
  5
23D
  8
0
  0
BLOCK
  8
0
  2
SUPERFICIE
 70
     0
 10
0.0
 20
0.0
 30
0.0
  3
SUPERFICIE
  1

  0
TEXT
  5
291
  8
0
  6
CONTINUOUS
 10
285.15769743119989
 20
41.09913197584499
 30
0.0
 40
0.3
  1
XXX
  7
ROMANC
  0
ENDBLK
  5
242
  8
0
  0
BLOCK
  8
0
  2
PERIMETRE
 70
     0
 10
0.0
 20
0.0
 30
0.0
  3
PERIMETRE
  1

  0
TEXT
  5
248
  8
0
  6
CONTINUOUS
 10
-0.0273031851410224
 20
0.0018352306916185
 30
0.0
 40
0.3
  1
XXX
  7
ROMANC
  0
ENDBLK
  5
247
  8
0
  0
BLOCK
  8
0
  2
1
 70
     2
 10
0.0
 20
0.0
 30
0.0
  3
1
  1

  0
TEXT
  5
252
  8
0
  6
CONTINUOUS
 10
0.1822521001187169
 20
0.7599981843347125
 30
0.0
 40
0.3
  1
S =    dm
  7
ROMANC
  0
INSERT
  5
253
  8
0
  2
TIPUS
 10
2.3822733102012399
 20
2.0260693203854081
 30
0.0
  0
TEXT
  5
254
  8
0
  6
CONTINUOUS
 10
0.1592521001188629
 20
0.1899981843347476
 30
0.0
 40
0.3
  1
P =    dm
  7
ROMANC
  0
TEXT
  5
255
  8
0
  6
CONTINUOUS
 10
0.1632521001187115
 20
1.428998184334743
 30
0.0
 40
0.3
  1
ESCALA  1:50
  7
ROMANC
  0
INSERT
  5
256
  8
0
  2
PERIMETRE
 10
1.422252716459752
 20
0.2014221004675178
 30
0.0
  0
INSERT
  5
257
  8
0
  2
SUPERFICIE
 10
1.4341047939664651
 20
0.7582949294881374
 30
0.0
  0
TEXT
  5
258
  8
0
  6
CONTINUOUS
 10
0.1632521001187115
 20
2.041998184334743
 30
0.0
 40
0.3
  1
TIPUS   
  7
ROMANC
  0
ATTDEF
  5
259
  8
0
 10
3.579335975109017
 20
0.1777253642765615
 30
0.0
 40
0.2
  1
x
  3
tipus
  2
TIPUS
 70
     0
  0
ATTDEF
  5
25A
  8
0
 10
3.7334133879433571
 20
0.734598228220662
 30
0.0
 40
0.2
  1
x
  3
tipus
  2
TIPUS
 70
     0
  0
TEXT
  5
25B
  8
0
  6
CONTINUOUS
 10
3.1029771218841802
 20
1.0190943722210331
 30
0.0
 40
0.1
  1
2
  7
ROMANC
  0
ATTDEF
  5
25C
  8
0
 10
4.480096065531991
 20
2.049766056576372
 30
0.0
 40
0.2
  1
x
  3
tipus
  2
TIPUS
 70
     0
  0
ENDBLK
  5
251
  8
0
  0
BLOCK
  8
0
  2
CARACTERISTIQUES
 70
     2
 10
0.0
 20
0.0
 30
0.0
  3
CARACTERISTIQUES
  1

  0
ATTDEF
  5
309
  8
0
 10
286.27226134026512
 20
41.752735508001273
 30
0.0
 40
0.3
  1
1:50
  7
ROMANC
  3
Escala
  2
1:50
 70
     0
  0
ATTDEF
  5
30A
  8
0
 10
286.2281292928555
 20
42.385577414881823
 30
0.0
 40
0.3
  1
NTXXXY
  7
ROMANC
  3
Tipus de Seccio
  2
NTXXY
 70
     0
  0
ATTDEF
  5
30B
  8
0
 10
285.02615359100997
 20
41.100702622361482
 30
0.0
 40
0.3
  1
XXX
  7
ROMANC
  3
Superficie de la seccio
  2
XXX
 70
     0
  0
ATTDEF
  5
30C
  8
0
 10
285.049954865421
 20
40.529647098496852
 30
0.0
 40
0.3
  1
XX
  7
ROMANC
  3
Perimetre de la Seccio
  2
XX
 70
     0
  0
ATTDEF
  5
30D
  8
0
 10
287.76752842717627
 20
30.623351521911921
 30
0.0
 40
0.3
  1
Xxxxxxxxxxxx
  7
ROMANC
 72
     2
 11
291.16752842717631
 21
30.623351521911921
 31
0.0
  3
Ubicaciò
  2
Xxxxxxxxxxxx
 70
     0
  0
ENDBLK
  5
26F
  8
0
  0
BLOCK
  8
0
  2
PERIMETRO
 70
     0
 10
0.0
 20
0.0
 30
0.0
  3
PERIMETRO
  1

  0
TEXT
  5
28F
  8
0
  6
CONTINUOUS
 10
285.15769743119989
 20
40.542259146824371
 30
0.0
 40
0.3
  1
XXX
  7
ROMANC
  0
ENDBLK
  5
28E
  8
0
  0
BLOCK
  8
0
  2
PERSONA
 70
     2
 10
0.0
 20
0.0
 30
0.0
  3
PERSONA
  1

  0
ATTDEF
  5
2AE
  8
0
 10
0.3477492763984173
 20
1.891334330655126
 30
0.0
 40
0.2
  1
val:nombre
  7
ROMANC
  3
sol_nombre
  2
IDEN_NOMBRE
 70
     0
  0
ATTDEF
  5
2AF
  8
0
 10
0.2447312480355777
 20
1.2085991863971861
 30
0.0
 40
0.2
  1
val_apellido
  7
ROMANC
  3
sol_apellido
  2
IDEN_APELLIDO
 70
     0
  0
ATTDEF
  5
2B0
  8
0
 10
0.3651607346860146
 20
0.342229907808246
 30
0.0
 40
0.2
  1
val_2apellido
  7
ROMANC
  3
sol_2apellido
  2
IDEN_2APELLIDO
 70
     0
  0
ENDBLK
  5
2AD
  8
0
  0
BLOCK
  8
0
  2
PRUEVA
 70
     2
 10
0.0
 20
0.0
 30
0.0
  3
PRUEVA
  1

  0
ATTDEF
  5
2BB
  8
0
 10
-0.0238012744110847
 20
0.107073217119698
 30
0.0
 40
0.2
  1
val1
  7
ROMANC
  3
sol1
  2
IDEN1
 70
     0
  0
ATTDEF
  5
2BC
  8
0
 10
-0.0000000000000568
 20
-0.3093217193975377
 30
0.0
 40
0.2
  1
val2
  7
ROMANC
  3
sol2
  2
IDEN2
 70
     0
  0
ENDBLK
  5
2BA
  8
0
  0
BLOCK
  8
0
  2
*D8
 70
     1
 10
0.0
 20
0.0
 30
0.0
  3
*D8
  1

  0
LINE
  5
42F
  8
0
 62
     0
 10
284.81732306305059
 20
36.629182039462329
 30
0.0
 11
284.81732306305059
 21
37.097830197091
 31
0.0
  0
LINE
  5
430
  8
0
 62
     0
 10
287.81732306305059
 20
36.629182039462329
 30
0.0
 11
287.81732306305059
 21
37.097830197091
 31
0.0
  0
LINE
  5
431
  8
0
 62
     0
 10
284.9973230630506
 20
36.917830197091007
 30
0.0
 11
285.98732306305061
 21
36.917830197091007
 31
0.0
  0
LINE
  5
432
  8
0
 62
     0
 10
287.63732306305059
 20
36.917830197091007
 30
0.0
 11
286.64732306305058
 21
36.917830197091007
 31
0.0
  0
SOLID
  5
433
  8
0
 62
     0
 10
284.9973230630506
 20
36.947830197091008
 30
0.0
 11
284.9973230630506
 21
36.887830197090999
 31
0.0
 12
284.81732306305059
 22
36.917830197091007
 32
0.0
 13
284.81732306305059
 23
36.917830197091007
 33
0.0
  0
SOLID
  5
434
  8
0
 62
     0
 10
287.63732306305059
 20
36.947830197091008
 30
0.0
 11
287.63732306305059
 21
36.887830197090999
 31
0.0
 12
287.81732306305059
 22
36.917830197091007
 32
0.0
 13
287.81732306305059
 23
36.917830197091007
 33
0.0
  0
TEXT
  5
435
  8
0
 62
     0
 10
286.07732306305059
 20
36.827830197090996
 30
0.0
 40
0.18
  1
3.00
  0
POINT
  5
436
  8
DEFPOINTS
 62
     0
 10
284.81732306305059
 20
36.566682039462329
 30
0.0
  0
POINT
  5
437
  8
DEFPOINTS
 62
     0
 10
287.81732306305059
 20
36.566682039462329
 30
0.0
  0
POINT
  5
438
  8
DEFPOINTS
 62
     0
 10
287.81732306305059
 20
36.917830197091007
 30
0.0
  0
ENDBLK
  5
43A
  8
0
  0
BLOCK
  8
0
  2
*D9
 70
     1
 10
0.0
 20
0.0
 30
0.0
  3
*D9
  1

  0
LINE
  5
449
  8
0
 62
     0
 10
287.87982306305059
 20
36.566682039462329
 30
0.0
 11
288.4503744417384
 21
36.566682039462329
 31
0.0
  0
LINE
  5
44A
  8
0
 62
     0
 10
287.87982306305059
 20
35.366682039462319
 30
0.0
 11
288.4503744417384
 21
35.366682039462319
 31
0.0
  0
LINE
  5
44B
  8
0
 62
     0
 10
288.2703744417384
 20
36.386682039462329
 30
0.0
 11
288.2703744417384
 21
36.14668203946232
 31
0.0
  0
LINE
  5
44C
  8
0
 62
     0
 10
288.2703744417384
 20
35.546682039462318
 30
0.0
 11
288.2703744417384
 21
35.78668203946232
 31
0.0
  0
SOLID
  5
44D
  8
0
 62
     0
 10
288.24037444173842
 20
36.386682039462329
 30
0.0
 11
288.30037444173843
 21
36.386682039462329
 31
0.0
 12
288.2703744417384
 22
36.566682039462329
 32
0.0
 13
288.2703744417384
 23
36.566682039462329
 33
0.0
  0
SOLID
  5
44E
  8
0
 62
     0
 10
288.24037444173842
 20
35.546682039462318
 30
0.0
 11
288.30037444173843
 21
35.546682039462318
 31
0.0
 12
288.2703744417384
 22
35.366682039462319
 32
0.0
 13
288.2703744417384
 23
35.366682039462319
 33
0.0
  0
TEXT
  5
44F
  8
0
 62
     0
 10
288.04537444173837
 20
35.876682039462374
 30
0.0
 40
0.18
  1
1.20
  0
POINT
  5
450
  8
DEFPOINTS
 62
     0
 10
287.81732306305059
 20
36.566682039462329
 30
0.0
  0
POINT
  5
451
  8
DEFPOINTS
 62
     0
 10
287.81732306305059
 20
35.366682039462319
 30
0.0
  0
POINT
  5
452
  8
DEFPOINTS
 62
     0
 10
288.2703744417384
 20
35.366682039462319
 30
0.0
  0
ENDBLK
  5
448
  8
0
  0
ENDSEC
  0
SECTION
  2
ENTITIES
  0
TEXT
  5
2C
  8
0
  6
CONTINUOUS
 10
286.86572502176529
 20
41.358096187886289
 30
0.0
 40
0.1
  1
2
  7
ROMANC
  0
TEXT
  5
2D
  8
0
  6
CONTINUOUS
 10
283.92599999999987
 20
41.768000000000001
 30
0.0
 40
0.3
  1
ESCALA  
  7
ROMANC
  0
POLYLINE
  5
2E
  8
NO_PRINT
  6
CONTINUOUS
 66
     1
 10
0.0
 20
0.0
 30
0.0
 70
     1
  0
VERTEX
  5
456
  8
NO_PRINT
  6
CONTINUOUS
 10
281.39599999999979
 20
44.747
 30
0.0
  0
VERTEX
  5
457
  8
NO_PRINT
  6
CONTINUOUS
 10
291.89599999999979
 20
44.747
 30
0.0
  0
VERTEX
  5
458
  8
NO_PRINT
  6
CONTINUOUS
 10
291.89599999999979
 20
29.896999999999998
 30
0.0
  0
VERTEX
  5
459
  8
NO_PRINT
  6
CONTINUOUS
 10
281.39599999999979
 20
29.896999999999998
 30
0.0
  0
SEQEND
  5
45A
  8
NO_PRINT
  6
CONTINUOUS
  0
TEXT
  5
34
  8
0
  6
CONTINUOUS
 10
283.92599999999987
 20
42.381
 30
0.0
 40
0.3
  1
TIPUS   
  7
ROMANC
  0
TEXT
  5
3C
  8
0
  6
CONTINUOUS
 10
283.94499999999982
 20
41.098999999999968
 30
0.0
 40
0.3
  1
S =    dm
  7
ROMANC
  0
TEXT
  5
3D
  8
0
  6
CONTINUOUS
 10
283.92200000000003
 20
40.529000000000003
 30
0.0
 40
0.3
  1
P =    dm
  7
ROMANC
  0
INSERT
  5
30E
  8
0
 66
     1
  2
CARACTERISTIQUES
 10
0.0
 20
0.0
 30
0.0
  0
ATTRIB
  5
310
  8
0
 10
286.27226134026512
 20
41.752735508001273
 30
0.0
 40
0.3
  1
1:50
  7
ROMANC
  2
1:50
 70
     0
  0
ATTRIB
  5
311
  8
0
 10
286.2281292928555
 20
42.385577414881823
 30
0.0
 40
0.3
  1
NT360B
  7
ROMANC
  2
NTXXY
 70
     0
  0
ATTRIB
  5
312
  8
0
 10
285.02615359100997
 20
41.100702622361482
 30
0.0
 40
0.3
  1
360
  7
ROMANC
  2
XXX
 70
     0
  0
ATTRIB
  5
313
  8
0
 10
285.049954865421
 20
40.529647098496852
 30
0.0
 40
0.3
  1
84
  7
ROMANC
  2
XX
 70
     0
  0
ATTRIB
  5
314
  8
0
 10
288.52467128431908
 20
30.623351521911921
 30
0.0
 40
0.3
  1
Sant Adrià
  7
ROMANC
 72
     2
 11
291.16752842717631
 21
30.623351521911921
 31
0.0
  2
Xxxxxxxxxxxx
 70
     0
  0
SEQEND
  5
30F
  8
0
  0
POLYLINE
  5
42A
  8
0
 66
     1
 10
0.0
 20
0.0
 30
0.0
 70
     1
  0
VERTEX
  5
467
  8
0
 10
284.81732306305059
 20
35.366682039462319
 30
0.0
  0
VERTEX
  5
468
  8
0
 10
287.81732306305059
 20
35.366682039462319
 30
0.0
  0
VERTEX
  5
469
  8
0
 10
287.81732306305059
 20
36.566682039462329
 30
0.0
  0
VERTEX
  5
46A
  8
0
 10
284.81732306305059
 20
36.566682039462329
 30
0.0
  0
SEQEND
  5
46B
  8
0
  0
POLYLINE
  5
42B
  8
0
 66
     1
 10
0.0
 20
0.0
 30
0.0
 70
     1
  0
VERTEX
  5
46C
  8
0
 10
284.8073230630506
 20
35.356682039462328
 30
0.0
  0
VERTEX
  5
46D
  8
0
 10
287.82732306305059
 20
35.356682039462328
 30
0.0
  0
VERTEX
  5
46E
  8
0
 10
287.82732306305059
 20
36.57668203946232
 30
0.0
  0
VERTEX
  5
46F
  8
0
 10
284.8073230630506
 20
36.57668203946232
 30
0.0
  0
SEQEND
  5
470
  8
0
  0
POLYLINE
  5
42C
  8
0
 66
     1
 10
0.0
 20
0.0
 30
0.0
 70
     1
  0
VERTEX
  5
471
  8
0
 10
284.82732306305059
 20
35.376682039462317
 30
0.0
  0
VERTEX
  5
472
  8
0
 10
287.8073230630506
 20
35.376682039462317
 30
0.0
  0
VERTEX
  5
473
  8
0
 10
287.8073230630506
 20
36.556682039462331
 30
0.0
  0
VERTEX
  5
474
  8
0
 10
284.82732306305059
 20
36.556682039462331
 30
0.0
  0
SEQEND
  5
475
  8
0
  0
DIMENSION
  5
42D
  8
0
  2
*D8
 10
287.81732306305059
 20
36.917830197091007
 30
0.0
 11
286.31732306305059
 21
36.917830197091007
 31
0.0
 70
     0
 13
284.81732306305059
 23
36.566682039462329
 33
0.0
 14
287.81732306305059
 24
36.566682039462329
 34
0.0
  0
DIMENSION
  5
43B
  8
0
  2
*D9
 10
288.2703744417384
 20
35.366682039462319
 30
0.0
 11
288.2703744417384
 21
35.96668203946237
 31
0.0
 70
   128
 13
287.81732306305059
 23
36.566682039462329
 33
0.0
 14
287.81732306305059
 24
35.366682039462319
 34
0.0
 50
90.0
  0
VIEWPORT
  5
1D9
 67
     1
  8
0
 10
99.824707761631487
 20
143.32297625461351
 30
0.0
 40
488.1619999471468
 41
307.1270234485288
 68
     1
 69
     1
1001
ACAD
1000
MVIEW
1002
{
1070
    16
1010
0.0
1020
0.0
1030
0.0
1010
0.0
1020
0.0
1030
1.0
1040
0.0
1040
307.1270234485288
1040
99.824707761631487
1040
143.32297625461351
1040
50.0
1040
0.0
1040
0.0
1070
     0
1070
   100
1070
     1
1070
     1
1070
     0
1070
     0
1070
     0
1070
     0
1040
0.0
1040
0.0
1040
0.0
1040
10.0
1040
10.0
1040
10.0
1040
10.0
1070
     0
1002
{
1002
}
1002
}
  0
VIEWPORT
  5
1DB
 67
     1
  8
0
 10
99.980751991272001
 20
143.39358425140361
 30
0.0
 40
199.2902839821538
 41
285.85133454766481
 68
     2
 69
     2
1001
ACAD
1000
MVIEW
1002
{
1070
    16
1010
0.0
1020
0.0
1030
0.0
1010
0.0
1020
0.0
1030
1.0
1040
0.0
1040
15.3945017187523
1040
286.64883227800061
1040
37.319167690011341
1040
50.0
1040
0.0
1040
0.0
1070
     0
1070
   100
1070
     1
1070
     1
1070
     0
1070
     0
1070
     0
1070
     0
1040
0.0
1040
0.0
1040
0.0
1040
1.0
1040
1.0
1040
0.0
1040
0.0
1070
     0
1002
{
1002
}
1002
}
  0
ENDSEC
  0
EOF
