  0
SECTION
  2
HEADER
  9
$ACADVER
  1
AC1015
  9
$ACADMAINTVER
 70
     6
  9
$DWGCODEPAGE
  3
ANSI_1252
  9
$INSBASE
 10
0.0
 20
0.0
 30
0.0
  9
$EXTMIN
 10
281.3950692441339
 20
29.89660406180441
 30
-0.0000000349181948
  9
$EXTMAX
 10
291.8969308140734
 20
44.74796749579872
 30
0.0000000814935747
  9
$LIMMIN
 10
280.3959999999999
 20
28.89699999999999
  9
$LIMMAX
 10
292.8959999999999
 20
43.74699999999999
  9
$ORTHOMODE
 70
     0
  9
$REGENMODE
 70
     1
  9
$FILLMODE
 70
     1
  9
$QTEXTMODE
 70
     0
  9
$MIRRTEXT
 70
     1
  9
$LTSCALE
 40
1.0
  9
$ATTMODE
 70
     1
  9
$TEXTSIZE
 40
0.2
  9
$TRACEWID
 40
0.05
  9
$TEXTSTYLE
  7
STANDARD
  9
$CLAYER
  8
0
  9
$CELTYPE
  6
BYLAYER
  9
$CECOLOR
 62
   256
  9
$CELTSCALE
 40
1.0
  9
$DISPSILH
 70
     0
  9
$DIMSCALE
 40
1.0
  9
$DIMASZ
 40
0.18
  9
$DIMEXO
 40
0.0625
  9
$DIMDLI
 40
0.38
  9
$DIMRND
 40
0.0
  9
$DIMDLE
 40
0.0
  9
$DIMEXE
 40
0.18
  9
$DIMTP
 40
0.0
  9
$DIMTM
 40
0.0
  9
$DIMTXT
 40
0.18
  9
$DIMCEN
 40
0.09
  9
$DIMTSZ
 40
0.0
  9
$DIMTOL
 70
     0
  9
$DIMLIM
 70
     0
  9
$DIMTIH
 70
     1
  9
$DIMTOH
 70
     1
  9
$DIMSE1
 70
     0
  9
$DIMSE2
 70
     0
  9
$DIMTAD
 70
     0
  9
$DIMZIN
 70
     0
  9
$DIMBLK
  1

  9
$DIMASO
 70
     1
  9
$DIMSHO
 70
     1
  9
$DIMPOST
  1

  9
$DIMAPOST
  1

  9
$DIMALT
 70
     0
  9
$DIMALTD
 70
     2
  9
$DIMALTF
 40
25.4
  9
$DIMLFAC
 40
1.0
  9
$DIMTOFL
 70
     0
  9
$DIMTVP
 40
0.0
  9
$DIMTIX
 70
     0
  9
$DIMSOXD
 70
     0
  9
$DIMSAH
 70
     0
  9
$DIMBLK1
  1

  9
$DIMBLK2
  1

  9
$DIMSTYLE
  2
STANDARD
  9
$DIMCLRD
 70
     0
  9
$DIMCLRE
 70
     0
  9
$DIMCLRT
 70
     0
  9
$DIMTFAC
 40
1.0
  9
$DIMGAP
 40
0.09
  9
$DIMJUST
 70
     0
  9
$DIMSD1
 70
     0
  9
$DIMSD2
 70
     0
  9
$DIMTOLJ
 70
     1
  9
$DIMTZIN
 70
     0
  9
$DIMALTZ
 70
     0
  9
$DIMALTTZ
 70
     0
  9
$DIMUPT
 70
     0
  9
$DIMDEC
 70
     4
  9
$DIMTDEC
 70
     4
  9
$DIMALTU
 70
     2
  9
$DIMALTTD
 70
     2
  9
$DIMTXSTY
  7
STANDARD
  9
$DIMAUNIT
 70
     0
  9
$DIMADEC
 70
     0
  9
$DIMALTRND
 40
0.0
  9
$DIMAZIN
 70
     0
  9
$DIMDSEP
 70
    46
  9
$DIMATFIT
 70
     3
  9
$DIMFRAC
 70
     0
  9
$DIMLDRBLK
  1

  9
$DIMLUNIT
 70
     2
  9
$DIMLWD
 70
    -2
  9
$DIMLWE
 70
    -2
  9
$DIMTMOVE
 70
     0
  9
$LUNITS
 70
     2
  9
$LUPREC
 70
     4
  9
$SKETCHINC
 40
0.1
  9
$FILLETRAD
 40
0.0722182720211038
  9
$AUNITS
 70
     0
  9
$AUPREC
 70
     0
  9
$MENU
  1
acad
  9
$ELEVATION
 40
0.0
  9
$PELEVATION
 40
0.0
  9
$THICKNESS
 40
0.0
  9
$LIMCHECK
 70
     0
  9
$CHAMFERA
 40
0.0
  9
$CHAMFERB
 40
0.0
  9
$CHAMFERC
 40
0.0
  9
$CHAMFERD
 40
0.0
  9
$SKPOLY
 70
     0
  9
$TDCREATE
 40
2448315.373408102
  9
$TDUCREATE
 40
2448315.290074768
  9
$TDUPDATE
 40
2451842.393087801
  9
$TDUUPDATE
 40
2451842.309754467
  9
$TDINDWG
 40
0.0605914005
  9
$TDUSRTIMER
 40
0.0605230208
  9
$USRTIMER
 70
     1
  9
$ANGBASE
 50
0.0
  9
$ANGDIR
 70
     0
  9
$PDMODE
 70
     0
  9
$PDSIZE
 40
0.0
  9
$PLINEWID
 40
0.0
  9
$SPLFRAME
 70
     0
  9
$SPLINETYPE
 70
     6
  9
$SPLINESEGS
 70
     8
  9
$HANDSEED
  5
3F1
  9
$SURFTAB1
 70
     6
  9
$SURFTAB2
 70
     6
  9
$SURFTYPE
 70
     6
  9
$SURFU
 70
     6
  9
$SURFV
 70
     6
  9
$UCSBASE
  2

  9
$UCSNAME
  2

  9
$UCSORG
 10
0.0
 20
0.0
 30
0.0
  9
$UCSXDIR
 10
1.0
 20
0.0
 30
0.0
  9
$UCSYDIR
 10
0.0
 20
1.0
 30
0.0
  9
$UCSORTHOREF
  2

  9
$UCSORTHOVIEW
 70
     0
  9
$UCSORGTOP
 10
0.0
 20
0.0
 30
0.0
  9
$UCSORGBOTTOM
 10
0.0
 20
0.0
 30
0.0
  9
$UCSORGLEFT
 10
0.0
 20
0.0
 30
0.0
  9
$UCSORGRIGHT
 10
0.0
 20
0.0
 30
0.0
  9
$UCSORGFRONT
 10
0.0
 20
0.0
 30
0.0
  9
$UCSORGBACK
 10
0.0
 20
0.0
 30
0.0
  9
$PUCSBASE
  2

  9
$PUCSNAME
  2

  9
$PUCSORG
 10
0.0
 20
0.0
 30
0.0
  9
$PUCSXDIR
 10
1.0
 20
0.0
 30
0.0
  9
$PUCSYDIR
 10
0.0
 20
1.0
 30
0.0
  9
$PUCSORTHOREF
  2

  9
$PUCSORTHOVIEW
 70
     0
  9
$PUCSORGTOP
 10
0.0
 20
0.0
 30
0.0
  9
$PUCSORGBOTTOM
 10
0.0
 20
0.0
 30
0.0
  9
$PUCSORGLEFT
 10
0.0
 20
0.0
 30
0.0
  9
$PUCSORGRIGHT
 10
0.0
 20
0.0
 30
0.0
  9
$PUCSORGFRONT
 10
0.0
 20
0.0
 30
0.0
  9
$PUCSORGBACK
 10
0.0
 20
0.0
 30
0.0
  9
$USERI1
 70
     0
  9
$USERI2
 70
     0
  9
$USERI3
 70
     0
  9
$USERI4
 70
     0
  9
$USERI5
 70
     0
  9
$USERR1
 40
0.0
  9
$USERR2
 40
0.0
  9
$USERR3
 40
0.0
  9
$USERR4
 40
0.0
  9
$USERR5
 40
0.0
  9
$WORLDVIEW
 70
     1
  9
$SHADEDGE
 70
     3
  9
$SHADEDIF
 70
    70
  9
$TILEMODE
 70
     1
  9
$MAXACTVP
 70
    16
  9
$PINSBASE
 10
0.0
 20
0.0
 30
0.0
  9
$PLIMCHECK
 70
     0
  9
$PEXTMIN
 10
0.3356100001950608
 20
0.467916977571349
 30
0.0
  9
$PEXTMAX
 10
199.6258939823488
 20
286.3192515252361
 30
0.0
  9
$PLIMMIN
 10
-5.027083396911621
 20
-5.111741065979003
  9
$PLIMMAX
 10
204.9885873794554
 20
291.8989095687866
  9
$UNITMODE
 70
     0
  9
$VISRETAIN
 70
     0
  9
$PLINEGEN
 70
     0
  9
$PSLTSCALE
 70
     1
  9
$TREEDEPTH
 70
  3020
  9
$CMLSTYLE
  2
STANDARD
  9
$CMLJUST
 70
     0
  9
$CMLSCALE
 40
1.0
  9
$PROXYGRAPHICS
 70
     1
  9
$MEASUREMENT
 70
     0
  9
$CELWEIGHT
370
    -1
  9
$ENDCAPS
280
     0
  9
$JOINSTYLE
280
     0
  9
$LWDISPLAY
290
     0
  9
$INSUNITS
 70
     0
  9
$HYPERLINKBASE
  1

  9
$STYLESHEET
  1
T:\CFG ACAD2000\Plot Styles\xvr.ctb
  9
$XEDIT
290
     1
  9
$CEPSNTYPE
380
     0
  9
$PSTYLEMODE
290
     1
  9
$FINGERPRINTGUID
  2
{A09CBBB2-476A-11D4-A5CD-0008C769B1B5}
  9
$VERSIONGUID
  2
{0398C2A9-A977-11D4-A63B-0008C769B1B5}
  9
$EXTNAMES
290
     1
  9
$PSVPSCALE
 40
0.0
  9
$OLESTARTUP
290
     0
  0
ENDSEC
  0
SECTION
  2
CLASSES
  0
CLASS
  1
ACDBDICTIONARYWDFLT
  2
AcDbDictionaryWithDefault
  3
AutoCAD 2000
 90
        0
280
     0
281
     0
  0
CLASS
  1
ACDBPLACEHOLDER
  2
AcDbPlaceHolder
  3
AutoCAD 2000
 90
        0
280
     0
281
     0
  0
CLASS
  1
LAYOUT
  2
AcDbLayout
  3
AutoCAD 2000
 90
        0
280
     0
281
     0
  0
CLASS
  1
LONG_TRANSACTION
  2
AcDbLongTransaction
  3
AutoCAD 2000
 90
    32768
280
     0
281
     0
  0
CLASS
  1
LWPOLYLINE
  2
AcDbPolyline
  3
AutoCAD 2000
 90
    32768
280
     0
281
     1
  0
CLASS
  1
HATCH
  2
AcDbHatch
  3
AutoCAD 2000
 90
    32768
280
     0
281
     1
  0
CLASS
  1
XRECORD
  2
AcDbXrecord
  3
AutoCAD 2000
 90
    32768
280
     0
281
     0
  0
CLASS
  1
LONG_TRANSACTION
  2
AcDbLongTransaction
  3
AutoCAD 2000
 90
    32768
280
     0
281
     0
  0
CLASS
  1
LWPOLYLINE
  2
AcDbPolyline
  3
AutoCAD 2000
 90
    32768
280
     0
281
     1
  0
CLASS
  1
HATCH
  2
AcDbHatch
  3
AutoCAD 2000
 90
    32768
280
     0
281
     1
  0
CLASS
  1
XRECORD
  2
AcDbXrecord
  3
AutoCAD 2000
 90
    32768
280
     0
281
     0
  0
CLASS
  1
PLOTSETTINGS
  2
AcDbPlotSettings
  3
AutoCAD 2000
 90
        0
280
     0
281
     0
  0
CLASS
  1
LONG_TRANSACTION
  2
AcDbLongTransaction
  3
AutoCAD 2000
 90
    32768
280
     0
281
     0
  0
CLASS
  1
LWPOLYLINE
  2
AcDbPolyline
  3
AutoCAD 2000
 90
    32768
280
     0
281
     1
  0
CLASS
  1
HATCH
  2
AcDbHatch
  3
AutoCAD 2000
 90
    32768
280
     0
281
     1
  0
CLASS
  1
XRECORD
  2
AcDbXrecord
  3
AutoCAD 2000
 90
    32768
280
     0
281
     0
  0
ENDSEC
  0
SECTION
  2
TABLES
  0
TABLE
  2
VPORT
  5
8
330
0
100
AcDbSymbolTable
 70
     8
  0
VPORT
  5
3F0
330
8
100
AcDbSymbolTableRecord
100
AcDbViewportTableRecord
  2
*Active
 70
     0
 10
0.0
 20
0.0
 11
1.0
 21
1.0
 12
286.6460000291037
 22
37.32228577880157
 13
0.0
 23
0.0
 14
1.0
 24
1.0
 15
0.0
 25
0.0
 16
0.0
 26
0.0
 36
1.0
 17
0.0
 27
0.0
 37
0.0
 40
14.98699232380247
 41
1.262195121951219
 42
50.0
 43
0.0
 44
0.0
 50
0.0
 51
0.0
 71
     0
 72
   100
 73
     1
 74
     1
 75
     0
 76
     0
 77
     0
 78
     0
281
     0
 65
     1
110
0.0
120
0.0
130
0.0
111
1.0
121
0.0
131
0.0
112
0.0
122
1.0
132
0.0
 79
     0
146
0.0
  0
ENDTAB
  0
TABLE
  2
LTYPE
  5
5
330
0
100
AcDbSymbolTable
 70
     1
  0
LTYPE
  5
13
330
5
100
AcDbSymbolTableRecord
100
AcDbLinetypeTableRecord
  2
BYBLOCK
 70
     0
  3

 72
    65
 73
     0
 40
0.0
  0
LTYPE
  5
14
330
5
100
AcDbSymbolTableRecord
100
AcDbLinetypeTableRecord
  2
BYLAYER
 70
     0
  3

 72
    65
 73
     0
 40
0.0
  0
LTYPE
  5
15
330
5
100
AcDbSymbolTableRecord
100
AcDbLinetypeTableRecord
  2
CONTINUOUS
 70
     0
  3
Solid line
 72
    65
 73
     0
 40
0.0
  0
ENDTAB
  0
TABLE
  2
LAYER
  5
2
330
0
100
AcDbSymbolTable
 70
     8
  0
LAYER
  5
10
330
2
100
AcDbSymbolTableRecord
100
AcDbLayerTableRecord
  2
0
 70
     0
 62
     7
  6
CONTINUOUS
370
    -3
390
F
  0
LAYER
  5
22
330
2
100
AcDbSymbolTableRecord
100
AcDbLayerTableRecord
  2
1
 70
     0
 62
     7
  6
CONTINUOUS
370
    -3
390
F
  0
LAYER
  5
23
330
2
100
AcDbSymbolTableRecord
100
AcDbLayerTableRecord
  2
7
 70
     0
 62
     7
  6
CONTINUOUS
370
    -3
390
F
  0
LAYER
  5
24
330
2
100
AcDbSymbolTableRecord
100
AcDbLayerTableRecord
  2
8
 70
     0
 62
     7
  6
CONTINUOUS
370
    -3
390
F
  0
LAYER
  5
25
330
2
100
AcDbSymbolTableRecord
100
AcDbLayerTableRecord
  2
9
 70
     0
 62
     7
  6
CONTINUOUS
370
    -3
390
F
  0
LAYER
  5
26
330
2
100
AcDbSymbolTableRecord
100
AcDbLayerTableRecord
  2
22
 70
     0
 62
     7
  6
CONTINUOUS
370
    -3
390
F
  0
LAYER
  5
27
330
2
100
AcDbSymbolTableRecord
100
AcDbLayerTableRecord
  2
25
 70
     0
 62
     7
  6
CONTINUOUS
370
    -3
390
F
  0
LAYER
  5
7F
330
2
100
AcDbSymbolTableRecord
100
AcDbLayerTableRecord
  2
DEFPOINTS
 70
     0
 62
     7
  6
CONTINUOUS
290
     0
370
    -3
390
F
  0
ENDTAB
  0
TABLE
  2
STYLE
  5
3
330
0
100
AcDbSymbolTable
 70
     2
  0
STYLE
  5
11
330
3
100
AcDbSymbolTableRecord
100
AcDbTextStyleTableRecord
  2
STANDARD
 70
     0
 40
0.0
 41
1.0
 50
0.0
 71
     0
 42
0.2
  3
txt
  4

  0
STYLE
  5
28
330
3
100
AcDbSymbolTableRecord
100
AcDbTextStyleTableRecord
  2
ROMANC
 70
     0
 40
0.0
 41
1.0
 50
0.0
 71
     0
 42
0.2
  3
ROMANC
  4

  0
ENDTAB
  0
TABLE
  2
VIEW
  5
6
330
0
100
AcDbSymbolTable
 70
     0
  0
ENDTAB
  0
TABLE
  2
UCS
  5
7
330
0
100
AcDbSymbolTable
 70
     0
  0
ENDTAB
  0
TABLE
  2
APPID
  5
9
330
0
100
AcDbSymbolTable
 70
     1
  0
APPID
  5
12
330
9
100
AcDbSymbolTableRecord
100
AcDbRegAppTableRecord
  2
ACAD
 70
     0
  0
ENDTAB
  0
TABLE
  2
DIMSTYLE
  5
A
330
0
100
AcDbSymbolTable
 70
     1
100
AcDbDimStyleTable
 71
     1
340
7A
  0
DIMSTYLE
105
7A
102
{ACAD_REACTORS
330
253
330
245
330
275
330
2CF
330
2DE
330
2EC
330
2C0
330
2B2
330
32F
330
321
330
347
330
367
330
359
330
387
330
379
330
3A0
330
3AE
330
3BC
330
3CA
102
}
330
A
100
AcDbSymbolTableRecord
100
AcDbDimStyleTableRecord
  2
STANDARD
 70
     0
340
11
  0
ENDTAB
  0
TABLE
  2
BLOCK_RECORD
  5
1
330
0
100
AcDbSymbolTable
 70
    28
  0
BLOCK_RECORD
  5
1E
102
{ACAD_XDICTIONARY
360
1AC
102
}
330
1
100
AcDbSymbolTableRecord
100
AcDbBlockTableRecord
  2
*MODEL_SPACE
340
234
  0
BLOCK_RECORD
  5
1A
102
{ACAD_XDICTIONARY
360
1AA
102
}
330
1
100
AcDbSymbolTableRecord
100
AcDbBlockTableRecord
  2
*PAPER_SPACE
340
235
  0
BLOCK_RECORD
  5
C8
330
1
100
AcDbSymbolTableRecord
100
AcDbBlockTableRecord
  2
*D0
340
0
  0
BLOCK_RECORD
  5
D6
330
1
100
AcDbSymbolTableRecord
100
AcDbBlockTableRecord
  2
*D1
340
0
  0
BLOCK_RECORD
  5
E5
330
1
100
AcDbSymbolTableRecord
100
AcDbBlockTableRecord
  2
*D2
340
0
  0
BLOCK_RECORD
  5
F3
330
1
100
AcDbSymbolTableRecord
100
AcDbBlockTableRecord
  2
*D3
340
0
  0
BLOCK_RECORD
  5
102
330
1
100
AcDbSymbolTableRecord
100
AcDbBlockTableRecord
  2
*D4
340
0
  0
BLOCK_RECORD
  5
150
330
1
100
AcDbSymbolTableRecord
100
AcDbBlockTableRecord
  2
*D5
340
0
  0
BLOCK_RECORD
  5
15E
330
1
100
AcDbSymbolTableRecord
100
AcDbBlockTableRecord
  2
*D6
340
0
  0
BLOCK_RECORD
  5
1B8
330
1
100
AcDbSymbolTableRecord
100
AcDbBlockTableRecord
  2
*D7
340
0
  0
BLOCK_RECORD
  5
1C6
330
1
100
AcDbSymbolTableRecord
100
AcDbBlockTableRecord
  2
*D8
340
0
  0
BLOCK_RECORD
  5
246
330
1
100
AcDbSymbolTableRecord
100
AcDbBlockTableRecord
  2
*D9
340
0
  0
BLOCK_RECORD
  5
254
330
1
100
AcDbSymbolTableRecord
100
AcDbBlockTableRecord
  2
*D10
340
0
  0
BLOCK_RECORD
  5
276
330
1
100
AcDbSymbolTableRecord
100
AcDbBlockTableRecord
  2
*D11
340
0
  0
BLOCK_RECORD
  5
2B3
330
1
100
AcDbSymbolTableRecord
100
AcDbBlockTableRecord
  2
*D12
340
0
  0
BLOCK_RECORD
  5
2C1
330
1
100
AcDbSymbolTableRecord
100
AcDbBlockTableRecord
  2
*D13
340
0
  0
BLOCK_RECORD
  5
2D0
330
1
100
AcDbSymbolTableRecord
100
AcDbBlockTableRecord
  2
*D14
340
0
  0
BLOCK_RECORD
  5
2DF
330
1
100
AcDbSymbolTableRecord
100
AcDbBlockTableRecord
  2
*D15
340
0
  0
BLOCK_RECORD
  5
2ED
330
1
100
AcDbSymbolTableRecord
100
AcDbBlockTableRecord
  2
*D16
340
0
  0
BLOCK_RECORD
  5
322
330
1
100
AcDbSymbolTableRecord
100
AcDbBlockTableRecord
  2
*D17
340
0
  0
BLOCK_RECORD
  5
330
330
1
100
AcDbSymbolTableRecord
100
AcDbBlockTableRecord
  2
*D18
340
0
  0
BLOCK_RECORD
  5
348
330
1
100
AcDbSymbolTableRecord
100
AcDbBlockTableRecord
  2
*D19
340
0
  0
BLOCK_RECORD
  5
35A
330
1
100
AcDbSymbolTableRecord
100
AcDbBlockTableRecord
  2
*D20
340
0
  0
BLOCK_RECORD
  5
368
330
1
100
AcDbSymbolTableRecord
100
AcDbBlockTableRecord
  2
*D21
340
0
  0
BLOCK_RECORD
  5
37A
330
1
100
AcDbSymbolTableRecord
100
AcDbBlockTableRecord
  2
*D22
340
0
  0
BLOCK_RECORD
  5
388
330
1
100
AcDbSymbolTableRecord
100
AcDbBlockTableRecord
  2
*D23
340
0
  0
BLOCK_RECORD
  5
3A1
330
1
100
AcDbSymbolTableRecord
100
AcDbBlockTableRecord
  2
*D24
340
0
  0
BLOCK_RECORD
  5
3AF
330
1
100
AcDbSymbolTableRecord
100
AcDbBlockTableRecord
  2
*D25
340
0
  0
BLOCK_RECORD
  5
3BD
330
1
100
AcDbSymbolTableRecord
100
AcDbBlockTableRecord
  2
*D26
340
0
  0
BLOCK_RECORD
  5
3CB
330
1
100
AcDbSymbolTableRecord
100
AcDbBlockTableRecord
  2
*D27
340
0
  0
ENDTAB
  0
ENDSEC
  0
SECTION
  2
BLOCKS
  0
BLOCK
  5
1F
330
1E
100
AcDbEntity
  8
0
100
AcDbBlockBegin
  2
*MODEL_SPACE
 70
     0
 10
0.0
 20
0.0
 30
0.0
  3
*MODEL_SPACE
  1

  0
ENDBLK
  5
20
330
1E
100
AcDbEntity
  8
0
100
AcDbBlockEnd
  0
BLOCK
  5
1B
330
1A
100
AcDbEntity
 67
     1
  8
0
100
AcDbBlockBegin
  2
*PAPER_SPACE
 70
     0
 10
0.0
 20
0.0
 30
0.0
  3
*PAPER_SPACE
  1

  0
ENDBLK
  5
1C
330
1A
100
AcDbEntity
 67
     1
  8
0
100
AcDbBlockEnd
  0
BLOCK
  5
D3
330
C8
100
AcDbEntity
  8
0
100
AcDbBlockBegin
  2
*D0
 70
     1
 10
0.0
 20
0.0
 30
0.0
  3
*D0
  1

  0
LINE
  5
17F
330
C8
100
AcDbEntity
  8
0
 62
     0
100
AcDbLine
 10
286.1242114476576
 20
36.24736563458589
 30
0.0
 11
288.1582790844173
 21
36.24736563458589
 31
0.0
  0
LINE
  5
180
330
C8
100
AcDbEntity
  8
0
 62
     0
100
AcDbLine
 10
286.1242114476576
 20
34.62736563458587
 30
0.0
 11
288.1582790844173
 21
34.62736563458587
 31
0.0
  0
LINE
  5
181
330
C8
100
AcDbEntity
  8
0
 62
     0
100
AcDbLine
 10
287.9782790844175
 20
36.06736563458589
 30
0.0
 11
287.9782790844175
 21
35.612166902036
 31
0.0
  0
LINE
  5
182
330
C8
100
AcDbEntity
  8
0
 62
     0
100
AcDbLine
 10
287.9782790844175
 20
34.80736563458587
 30
0.0
 11
287.9782790844175
 21
35.25216690203601
 31
0.0
  0
SOLID
  5
183
330
C8
100
AcDbEntity
  8
0
 62
     0
100
AcDbTrace
 10
287.9482790844173
 20
36.06736563458589
 30
0.0
 11
288.0082790844173
 21
36.06736563458589
 31
0.0
 12
287.9782790844175
 22
36.24736563458589
 32
0.0
 13
287.9782790844175
 23
36.24736563458589
 33
0.0
  0
SOLID
  5
184
330
C8
100
AcDbEntity
  8
0
 62
     0
100
AcDbTrace
 10
287.9482790844173
 20
34.80736563458587
 30
0.0
 11
288.0082790844173
 21
34.80736563458587
 31
0.0
 12
287.9782790844175
 22
34.62736563458587
 32
0.0
 13
287.9782790844175
 23
34.62736563458587
 33
0.0
  0
MTEXT
  5
185
330
C8
100
AcDbEntity
  8
0
 62
     0
100
AcDbMText
 10
287.9782790844175
 20
35.43216690203603
 30
0.0
 40
0.18
 41
0.0
 71
     5
 72
     1
  1
\A1;1.6200
 73
     1
 44
1.0
1001
ACAD
1000
MTEXTBEGIN
1070
    73
1070
     1
1070
    44
1040
1.0
1070
    74
1070
     0
1000
MTEXTEND
1000
MTEXTBEGIN
1070
    73
1070
     1
1070
    44
1040
1.0
1070
    74
1070
     0
1000
MTEXTEND
1000
MTEXTBEGIN
1070
    73
1070
     1
1070
    44
1040
1.0
1070
    74
1070
     0
1000
MTEXTEND
  0
POINT
  5
186
330
C8
100
AcDbEntity
  8
DEFPOINTS
 62
     0
100
AcDbPoint
 10
286.0617114476576
 20
36.24736563458589
 30
0.0
  0
POINT
  5
187
330
C8
100
AcDbEntity
  8
DEFPOINTS
 62
     0
100
AcDbPoint
 10
286.0617114476576
 20
34.62736563458587
 30
0.0
  0
POINT
  5
188
330
C8
100
AcDbEntity
  8
DEFPOINTS
 62
     0
100
AcDbPoint
 10
287.9782790844175
 20
34.62736563458587
 30
0.0
  0
ENDBLK
  5
D4
330
C8
100
AcDbEntity
  8
0
100
AcDbBlockEnd
  0
BLOCK
  5
E2
330
D6
100
AcDbEntity
  8
0
100
AcDbBlockBegin
  2
*D1
 70
     1
 10
0.0
 20
0.0
 30
0.0
  3
*D1
  1

  0
LINE
  5
144
330
D6
100
AcDbEntity
  8
0
 62
     0
100
AcDbLine
 10
286.5742114476576
 20
34.77736563458589
 30
0.0
 11
287.8483853356226
 21
34.77736563458589
 31
0.0
  0
LINE
  5
145
330
D6
100
AcDbEntity
  8
0
 62
     0
100
AcDbLine
 10
286.1867114476576
 20
34.62736563458587
 30
0.0
 11
287.8483853356226
 21
34.62736563458587
 31
0.0
  0
LINE
  5
146
330
D6
100
AcDbEntity
  8
0
 62
     0
100
AcDbLine
 10
287.6683853356226
 20
34.95736563458589
 30
0.0
 11
287.6683853356226
 21
35.13736563458589
 31
0.0
  0
LINE
  5
147
330
D6
100
AcDbEntity
  8
0
 62
     0
100
AcDbLine
 10
287.6683853356226
 20
34.44736563458587
 30
0.0
 11
287.6683853356226
 21
34.26736563458582
 31
0.0
  0
LINE
  5
148
330
D6
100
AcDbEntity
  8
0
 62
     0
100
AcDbLine
 10
287.6683853356226
 20
34.26736563458582
 30
0.0
 11
287.4883853356226
 21
34.26736563458582
 31
0.0
  0
SOLID
  5
149
330
D6
100
AcDbEntity
  8
0
 62
     0
100
AcDbTrace
 10
287.6383853356226
 20
34.95736563458589
 30
0.0
 11
287.6983853356226
 21
34.95736563458589
 31
0.0
 12
287.6683853356226
 22
34.77736563458589
 32
0.0
 13
287.6683853356226
 23
34.77736563458589
 33
0.0
  0
SOLID
  5
14A
330
D6
100
AcDbEntity
  8
0
 62
     0
100
AcDbTrace
 10
287.6383853356226
 20
34.44736563458587
 30
0.0
 11
287.6983853356226
 21
34.44736563458587
 31
0.0
 12
287.6683853356226
 22
34.62736563458587
 32
0.0
 13
287.6683853356226
 23
34.62736563458587
 33
0.0
  0
MTEXT
  5
14B
330
D6
100
AcDbEntity
  8
0
 62
     0
100
AcDbMText
 10
287.0233853356226
 20
34.26736563458587
 30
0.0
 40
0.18
 41
0.0
 71
     5
 72
     1
  1
\A1;0.1500
 73
     1
 44
1.0
1001
ACAD
1000
MTEXTBEGIN
1070
    73
1070
     1
1070
    44
1040
1.0
1070
    74
1070
     0
1000
MTEXTEND
1000
MTEXTBEGIN
1070
    73
1070
     1
1070
    44
1040
1.0
1070
    74
1070
     0
1000
MTEXTEND
1000
MTEXTBEGIN
1070
    73
1070
     1
1070
    44
1040
1.0
1070
    74
1070
     0
1000
MTEXTEND
  0
POINT
  5
14C
330
D6
100
AcDbEntity
  8
DEFPOINTS
 62
     0
100
AcDbPoint
 10
286.5117114476575
 20
34.77736563458589
 30
0.0
  0
POINT
  5
14D
330
D6
100
AcDbEntity
  8
DEFPOINTS
 62
     0
100
AcDbPoint
 10
286.1242114476576
 20
34.62736563458587
 30
0.0
  0
POINT
  5
14E
330
D6
100
AcDbEntity
  8
DEFPOINTS
 62
     0
100
AcDbPoint
 10
287.6683853356226
 20
34.62736563458587
 30
0.0
  0
ENDBLK
  5
E3
330
D6
100
AcDbEntity
  8
0
100
AcDbBlockEnd
  0
BLOCK
  5
F0
330
E5
100
AcDbEntity
  8
0
100
AcDbBlockBegin
  2
*D2
 70
     1
 10
0.0
 20
0.0
 30
0.0
  3
*D2
  1

  0
LINE
  5
110
330
E5
100
AcDbEntity
  8
0
 62
     0
100
AcDbLine
 10
285.5617114476576
 20
35.73986563458588
 30
0.0
 11
285.5617114476576
 21
36.95556457024231
 31
0.0
  0
LINE
  5
111
330
E5
100
AcDbEntity
  8
0
 62
     0
100
AcDbLine
 10
286.5617114476576
 20
35.73986563458642
 30
0.0
 11
286.5617114476576
 21
36.95556457024231
 31
0.0
  0
LINE
  5
112
330
E5
100
AcDbEntity
  8
0
 62
     0
100
AcDbLine
 10
285.3817114476576
 20
36.77556457024229
 30
0.0
 11
285.2017114476576
 21
36.77556457024229
 31
0.0
  0
LINE
  5
113
330
E5
100
AcDbEntity
  8
0
 62
     0
100
AcDbLine
 10
286.7417114476576
 20
36.77556457024229
 30
0.0
 11
286.9217114476576
 21
36.77556457024229
 31
0.0
  0
SOLID
  5
114
330
E5
100
AcDbEntity
  8
0
 62
     0
100
AcDbTrace
 10
285.3817114476576
 20
36.80556457024231
 30
0.0
 11
285.3817114476576
 21
36.74556457024229
 31
0.0
 12
285.5617114476576
 22
36.77556457024229
 32
0.0
 13
285.5617114476576
 23
36.77556457024229
 33
0.0
  0
SOLID
  5
115
330
E5
100
AcDbEntity
  8
0
 62
     0
100
AcDbTrace
 10
286.7417114476576
 20
36.80556457024231
 30
0.0
 11
286.7417114476576
 21
36.74556457024229
 31
0.0
 12
286.5617114476576
 22
36.77556457024229
 32
0.0
 13
286.5617114476576
 23
36.77556457024229
 33
0.0
  0
MTEXT
  5
116
330
E5
100
AcDbEntity
  8
0
 62
     0
100
AcDbMText
 10
286.0617114476576
 20
36.77556457024229
 30
0.0
 40
0.18
 41
0.0
 71
     5
 72
     1
  1
\A1;1.0000
 73
     1
 44
1.0
1001
ACAD
1000
MTEXTBEGIN
1070
    73
1070
     1
1070
    44
1040
1.0
1070
    74
1070
     0
1000
MTEXTEND
1000
MTEXTBEGIN
1070
    73
1070
     1
1070
    44
1040
1.0
1070
    74
1070
     0
1000
MTEXTEND
1000
MTEXTBEGIN
1070
    73
1070
     1
1070
    44
1040
1.0
1070
    74
1070
     0
1000
MTEXTEND
  0
POINT
  5
117
330
E5
100
AcDbEntity
  8
DEFPOINTS
 62
     0
100
AcDbPoint
 10
285.5617114476576
 20
35.67736563458588
 30
0.0
  0
POINT
  5
118
330
E5
100
AcDbEntity
  8
DEFPOINTS
 62
     0
100
AcDbPoint
 10
286.5617114476576
 20
35.67736563458643
 30
0.0
  0
POINT
  5
119
330
E5
100
AcDbEntity
  8
DEFPOINTS
 62
     0
100
AcDbPoint
 10
286.5617114476576
 20
36.77556457024229
 30
0.0
  0
ENDBLK
  5
F1
330
E5
100
AcDbEntity
  8
0
100
AcDbBlockEnd
  0
BLOCK
  5
FF
330
F3
100
AcDbEntity
  8
0
100
AcDbBlockBegin
  2
*D3
 70
     1
 10
0.0
 20
0.0
 30
0.0
  3
*D3
  1

  0
LINE
  5
F4
330
F3
100
AcDbEntity
  8
0
 62
     0
100
AcDbLine
 10
285.8105925973381
 20
34.3259387771153
 30
0.0
 11
285.0996894655242
 21
34.3259387771153
 31
0.0
  0
LINE
  5
F5
330
F3
100
AcDbEntity
  8
0
 62
     0
100
AcDbLine
 10
285.7605925973383
 20
35.22593877711502
 30
0.0
 11
285.0996894655242
 21
35.22593877711502
 31
0.0
  0
LINE
  5
F6
330
F3
100
AcDbEntity
  8
0
 62
     0
100
AcDbLine
 10
285.2796894655241
 20
34.5059387771153
 30
0.0
 11
285.2796894655241
 21
35.04593877711501
 31
0.0
  0
LINE
  5
F7
330
F3
100
AcDbEntity
  8
0
 62
     0
100
AcDbLine
 10
285.2796894655241
 20
35.22593877711502
 30
0.0
 11
285.2796894655241
 21
35.40593877711502
 31
0.0
  0
LINE
  5
F8
330
F3
100
AcDbEntity
  8
0
 62
     0
100
AcDbLine
 10
285.2796894655241
 20
35.40593877711502
 30
0.0
 11
285.4596894655241
 21
35.40593877711502
 31
0.0
  0
SOLID
  5
F9
330
F3
100
AcDbEntity
  8
0
 62
     0
100
AcDbTrace
 10
285.2496894655241
 20
34.5059387771153
 30
0.0
 11
285.3096894655241
 21
34.5059387771153
 31
0.0
 12
285.2796894655241
 22
34.3259387771153
 32
0.0
 13
285.2796894655241
 23
34.3259387771153
 33
0.0
  0
SOLID
  5
FA
330
F3
100
AcDbEntity
  8
0
 62
     0
100
AcDbTrace
 10
285.2496894655241
 20
35.04593877711501
 30
0.0
 11
285.3096894655241
 21
35.04593877711501
 31
0.0
 12
285.2796894655241
 22
35.22593877711502
 32
0.0
 13
285.2796894655241
 23
35.22593877711502
 33
0.0
  0
MTEXT
  5
FB
330
F3
100
AcDbEntity
  8
0
 62
     0
100
AcDbMText
 10
285.9396894655241
 20
35.40593877711506
 30
0.0
 40
0.18
 41
0.0
 71
     5
 72
     1
  1
\A1;0.9000
 73
     1
 44
1.0
1001
ACAD
1000
MTEXTBEGIN
1070
    73
1070
     1
1070
    44
1040
1.0
1070
    74
1070
     0
1000
MTEXTEND
1000
MTEXTBEGIN
1070
    73
1070
     1
1070
    44
1040
1.0
1070
    74
1070
     0
1000
MTEXTEND
1000
MTEXTBEGIN
1070
    73
1070
     1
1070
    44
1040
1.0
1070
    74
1070
     0
1000
MTEXTEND
  0
POINT
  5
FC
330
F3
100
AcDbEntity
  8
DEFPOINTS
 62
     0
100
AcDbPoint
 10
285.8730925973381
 20
34.3259387771153
 30
0.0
  0
POINT
  5
FD
330
F3
100
AcDbEntity
  8
DEFPOINTS
 62
     0
100
AcDbPoint
 10
285.8230925973383
 20
35.22593877711502
 30
0.0
  0
POINT
  5
FE
330
F3
100
AcDbEntity
  8
DEFPOINTS
 62
     0
100
AcDbPoint
 10
285.2796894655241
 20
35.22593877711502
 30
0.0
  0
ENDBLK
  5
100
330
F3
100
AcDbEntity
  8
0
100
AcDbBlockEnd
  0
BLOCK
  5
10E
330
102
100
AcDbEntity
  8
0
100
AcDbBlockBegin
  2
*D4
 70
     1
 10
0.0
 20
0.0
 30
0.0
  3
*D4
  1

  0
LINE
  5
12F
330
102
100
AcDbEntity
  8
0
 62
     0
100
AcDbLine
 10
285.4992114476576
 20
35.67736563458588
 30
0.0
 11
284.8683083158433
 21
35.67736563458588
 31
0.0
  0
LINE
  5
130
330
102
100
AcDbEntity
  8
0
 62
     0
100
AcDbLine
 10
285.5492114476577
 20
34.77736563458589
 30
0.0
 11
284.8683083158433
 21
34.77736563458589
 31
0.0
  0
LINE
  5
131
330
102
100
AcDbEntity
  8
0
 62
     0
100
AcDbLine
 10
285.0483083158436
 20
35.49736563458588
 30
0.0
 11
285.0483083158436
 21
34.95736563458589
 31
0.0
  0
LINE
  5
132
330
102
100
AcDbEntity
  8
0
 62
     0
100
AcDbLine
 10
285.0483083158436
 20
34.77736563458589
 30
0.0
 11
285.0483083158436
 21
34.59736563458589
 31
0.0
  0
LINE
  5
133
330
102
100
AcDbEntity
  8
0
 62
     0
100
AcDbLine
 10
285.0483083158436
 20
34.59736563458589
 30
0.0
 11
284.8683083158433
 21
34.59736563458589
 31
0.0
  0
SOLID
  5
134
330
102
100
AcDbEntity
  8
0
 62
     0
100
AcDbTrace
 10
285.0183083158436
 20
35.49736563458588
 30
0.0
 11
285.0783083158436
 21
35.49736563458588
 31
0.0
 12
285.0483083158436
 22
35.67736563458588
 32
0.0
 13
285.0483083158436
 23
35.67736563458588
 33
0.0
  0
SOLID
  5
135
330
102
100
AcDbEntity
  8
0
 62
     0
100
AcDbTrace
 10
285.0183083158436
 20
34.95736563458589
 30
0.0
 11
285.0783083158436
 21
34.95736563458589
 31
0.0
 12
285.0483083158436
 22
34.77736563458589
 32
0.0
 13
285.0483083158436
 23
34.77736563458589
 33
0.0
  0
MTEXT
  5
136
330
102
100
AcDbEntity
  8
0
 62
     0
100
AcDbMText
 10
284.3883083158436
 20
34.59736563458594
 30
0.0
 40
0.18
 41
0.0
 71
     5
 72
     1
  1
\A1;0.9000
 73
     1
 44
1.0
1001
ACAD
1000
MTEXTBEGIN
1070
    73
1070
     1
1070
    44
1040
1.0
1070
    74
1070
     0
1000
MTEXTEND
1000
MTEXTBEGIN
1070
    73
1070
     1
1070
    44
1040
1.0
1070
    74
1070
     0
1000
MTEXTEND
1000
MTEXTBEGIN
1070
    73
1070
     1
1070
    44
1040
1.0
1070
    74
1070
     0
1000
MTEXTEND
  0
POINT
  5
137
330
102
100
AcDbEntity
  8
DEFPOINTS
 62
     0
100
AcDbPoint
 10
285.5617114476576
 20
35.67736563458588
 30
0.0
  0
POINT
  5
138
330
102
100
AcDbEntity
  8
DEFPOINTS
 62
     0
100
AcDbPoint
 10
285.6117114476576
 20
34.77736563458589
 30
0.0
  0
POINT
  5
139
330
102
100
AcDbEntity
  8
DEFPOINTS
 62
     0
100
AcDbPoint
 10
285.0483083158436
 20
34.77736563458589
 30
0.0
  0
ENDBLK
  5
10F
330
102
100
AcDbEntity
  8
0
100
AcDbBlockEnd
  0
BLOCK
  5
15B
330
150
100
AcDbEntity
  8
0
100
AcDbBlockBegin
  2
*D5
 70
     1
 10
0.0
 20
0.0
 30
0.0
  3
*D5
  1

  0
LINE
  5
151
330
150
100
AcDbEntity
  8
0
 62
     0
100
AcDbLine
 10
286.5117114476575
 20
34.71486563458589
 30
0.0
 11
286.5117114476575
 21
33.55990820404632
 31
0.0
  0
LINE
  5
152
330
150
100
AcDbEntity
  8
0
 62
     0
100
AcDbLine
 10
285.6117114476576
 20
34.71486563458589
 30
0.0
 11
285.6117114476576
 21
33.55990820404632
 31
0.0
  0
LINE
  5
153
330
150
100
AcDbEntity
  8
0
 62
     0
100
AcDbLine
 10
286.3317114476576
 20
33.73990820404632
 30
0.0
 11
285.7917114476576
 21
33.73990820404632
 31
0.0
  0
LINE
  5
154
330
150
100
AcDbEntity
  8
0
 62
     0
100
AcDbLine
 10
285.6117114476576
 20
33.73990820404632
 30
0.0
 11
285.4317114476576
 21
33.73990820404632
 31
0.0
  0
SOLID
  5
155
330
150
100
AcDbEntity
  8
0
 62
     0
100
AcDbTrace
 10
286.3317114476576
 20
33.76990820404632
 30
0.0
 11
286.3317114476576
 21
33.70990820404632
 31
0.0
 12
286.5117114476575
 22
33.73990820404632
 32
0.0
 13
286.5117114476575
 23
33.73990820404632
 33
0.0
  0
SOLID
  5
156
330
150
100
AcDbEntity
  8
0
 62
     0
100
AcDbTrace
 10
285.7917114476576
 20
33.76990820404632
 30
0.0
 11
285.7917114476576
 21
33.70990820404632
 31
0.0
 12
285.6117114476576
 22
33.73990820404632
 32
0.0
 13
285.6117114476576
 23
33.73990820404632
 33
0.0
  0
MTEXT
  5
157
330
150
100
AcDbEntity
  8
0
 62
     0
100
AcDbMText
 10
284.9517114476573
 20
33.73990820404632
 30
0.0
 40
0.18
 41
0.0
 71
     5
 72
     1
  1
\A1;0.9000
 73
     1
 44
1.0
1001
ACAD
1000
MTEXTBEGIN
1070
    73
1070
     1
1070
    44
1040
1.0
1070
    74
1070
     0
1000
MTEXTEND
1000
MTEXTBEGIN
1070
    73
1070
     1
1070
    44
1040
1.0
1070
    74
1070
     0
1000
MTEXTEND
1000
MTEXTBEGIN
1070
    73
1070
     1
1070
    44
1040
1.0
1070
    74
1070
     0
1000
MTEXTEND
  0
POINT
  5
158
330
150
100
AcDbEntity
  8
DEFPOINTS
 62
     0
100
AcDbPoint
 10
286.5117114476575
 20
34.77736563458589
 30
0.0
  0
POINT
  5
159
330
150
100
AcDbEntity
  8
DEFPOINTS
 62
     0
100
AcDbPoint
 10
285.6117114476576
 20
34.77736563458589
 30
0.0
  0
POINT
  5
15A
330
150
100
AcDbEntity
  8
DEFPOINTS
 62
     0
100
AcDbPoint
 10
285.6117114476576
 20
33.73990820404632
 30
0.0
  0
ENDBLK
  5
15C
330
150
100
AcDbEntity
  8
0
100
AcDbBlockEnd
  0
BLOCK
  5
169
330
15E
100
AcDbEntity
  8
0
100
AcDbBlockBegin
  2
*D6
 70
     1
 10
0.0
 20
0.0
 30
0.0
  3
*D6
  1

  0
LINE
  5
16B
330
15E
100
AcDbEntity
  8
0
 62
     0
100
AcDbLine
 10
286.2270677236876
 20
34.69872330784411
 30
0.0
 11
286.2270677236876
 21
33.84122994766753
 31
0.0
  0
LINE
  5
16C
330
15E
100
AcDbEntity
  8
0
 62
     0
100
AcDbLine
 10
285.8963551716275
 20
34.69872330784411
 30
0.0
 11
285.8963551716275
 21
33.84122994766753
 31
0.0
  0
LINE
  5
16D
330
15E
100
AcDbEntity
  8
0
 62
     0
100
AcDbLine
 10
286.4070677236876
 20
34.02122994766753
 30
0.0
 11
286.5870677236876
 21
34.02122994766753
 31
0.0
  0
LINE
  5
16E
330
15E
100
AcDbEntity
  8
0
 62
     0
100
AcDbLine
 10
285.7163551716275
 20
34.02122994766753
 30
0.0
 11
285.5363551716276
 21
34.02122994766753
 31
0.0
  0
SOLID
  5
16F
330
15E
100
AcDbEntity
  8
0
 62
     0
100
AcDbTrace
 10
286.4070677236876
 20
34.05122994766751
 30
0.0
 11
286.4070677236876
 21
33.99122994766753
 31
0.0
 12
286.2270677236876
 22
34.02122994766753
 32
0.0
 13
286.2270677236876
 23
34.02122994766753
 33
0.0
  0
SOLID
  5
170
330
15E
100
AcDbEntity
  8
0
 62
     0
100
AcDbTrace
 10
285.7163551716275
 20
34.05122994766751
 30
0.0
 11
285.7163551716275
 21
33.99122994766753
 31
0.0
 12
285.8963551716275
 22
34.02122994766753
 32
0.0
 13
285.8963551716275
 23
34.02122994766753
 33
0.0
  0
MTEXT
  5
171
330
15E
100
AcDbEntity
  8
0
 62
     0
100
AcDbMText
 10
285.0563551716276
 20
34.02122994766753
 30
0.0
 40
0.18
 41
0.0
 71
     5
 72
     1
  1
\A1;0.3000
 73
     1
 44
1.0
1001
ACAD
1000
MTEXTBEGIN
1070
    73
1070
     1
1070
    44
1040
1.0
1070
    74
1070
     0
1000
MTEXTEND
1000
MTEXTBEGIN
1070
    73
1070
     1
1070
    44
1040
1.0
1070
    74
1070
     0
1000
MTEXTEND
1000
MTEXTBEGIN
1070
    73
1070
     1
1070
    44
1040
1.0
1070
    74
1070
     0
1000
MTEXTEND
  0
POINT
  5
172
330
15E
100
AcDbEntity
  8
DEFPOINTS
 62
     0
100
AcDbPoint
 10
286.2270677236876
 20
34.76122330784411
 30
0.0
  0
POINT
  5
173
330
15E
100
AcDbEntity
  8
DEFPOINTS
 62
     0
100
AcDbPoint
 10
285.8963551716275
 20
34.76122330784411
 30
0.0
  0
POINT
  5
174
330
15E
100
AcDbEntity
  8
DEFPOINTS
 62
     0
100
AcDbPoint
 10
285.8963551716275
 20
34.02122994766753
 30
0.0
  0
ENDBLK
  5
16A
330
15E
100
AcDbEntity
  8
0
100
AcDbBlockEnd
  0
BLOCK
  5
1C3
330
1B8
100
AcDbEntity
  8
0
100
AcDbBlockBegin
  2
*D7
 70
     1
 10
0.0
 20
0.0
 30
0.0
  3
*D7
  1

  0
LINE
  5
1B9
330
1B8
100
AcDbEntity
  8
0
 62
     0
100
AcDbLine
 10
286.1367417659177
 20
35.23981668125815
 30
0.0
 11
286.1367417659177
 21
34.38562200535304
 31
0.0
  0
LINE
  5
1BA
330
1B8
100
AcDbEntity
  8
0
 62
     0
100
AcDbLine
 10
286.7367417659178
 20
35.23981668125815
 30
0.0
 11
286.7367417659178
 21
34.38562200535304
 31
0.0
  0
LINE
  5
1BB
330
1B8
100
AcDbEntity
  8
0
 62
     0
100
AcDbLine
 10
286.3167417659178
 20
34.56562200535306
 30
0.0
 11
286.5567417659178
 21
34.56562200535306
 31
0.0
  0
LINE
  5
1BC
330
1B8
100
AcDbEntity
  8
0
 62
     0
100
AcDbLine
 10
286.7367417659178
 20
34.56562200535306
 30
0.0
 11
286.9167417659178
 21
34.56562200535306
 31
0.0
  0
SOLID
  5
1BD
330
1B8
100
AcDbEntity
  8
0
 62
     0
100
AcDbTrace
 10
286.3167417659178
 20
34.59562200535305
 30
0.0
 11
286.3167417659178
 21
34.53562200535306
 31
0.0
 12
286.1367417659177
 22
34.56562200535306
 32
0.0
 13
286.1367417659177
 23
34.56562200535306
 33
0.0
  0
SOLID
  5
1BE
330
1B8
100
AcDbEntity
  8
0
 62
     0
100
AcDbTrace
 10
286.5567417659178
 20
34.59562200535305
 30
0.0
 11
286.5567417659178
 21
34.53562200535306
 31
0.0
 12
286.7367417659178
 22
34.56562200535306
 32
0.0
 13
286.7367417659178
 23
34.56562200535306
 33
0.0
  0
MTEXT
  5
1BF
330
1B8
100
AcDbEntity
  8
0
 62
     0
100
AcDbMText
 10
287.3967417659176
 20
34.56562200535306
 30
0.0
 40
0.18
 41
0.0
 71
     5
 72
     1
  1
\A1;0.6000
 73
     1
 44
1.0
1001
ACAD
1000
MTEXTBEGIN
1070
    73
1070
     1
1070
    44
1040
1.0
1070
    74
1070
     0
1000
MTEXTEND
1000
MTEXTBEGIN
1070
    73
1070
     1
1070
    44
1040
1.0
1070
    74
1070
     0
1000
MTEXTEND
  0
POINT
  5
1C0
330
1B8
100
AcDbEntity
  8
DEFPOINTS
 62
     0
100
AcDbPoint
 10
286.1367417659177
 20
35.30231668125817
 30
0.0
  0
POINT
  5
1C1
330
1B8
100
AcDbEntity
  8
DEFPOINTS
 62
     0
100
AcDbPoint
 10
286.7367417659178
 20
35.30231668125817
 30
0.0
  0
POINT
  5
1C2
330
1B8
100
AcDbEntity
  8
DEFPOINTS
 62
     0
100
AcDbPoint
 10
286.7367417659178
 20
34.56562200535306
 30
0.0
  0
ENDBLK
  5
1C4
330
1B8
100
AcDbEntity
  8
0
100
AcDbBlockEnd
  0
BLOCK
  5
1D2
330
1C6
100
AcDbEntity
  8
0
100
AcDbBlockBegin
  2
*D8
 70
     1
 10
0.0
 20
0.0
 30
0.0
  3
*D8
  1

  0
LINE
  5
1C7
330
1C6
100
AcDbEntity
  8
0
 62
     0
100
AcDbLine
 10
286.7992417659178
 20
35.30231668125817
 30
0.0
 11
287.5292753889695
 21
35.30231668125817
 31
0.0
  0
LINE
  5
1C8
330
1C6
100
AcDbEntity
  8
0
 62
     0
100
AcDbLine
 10
286.7992417659178
 20
36.05231668125817
 30
0.0
 11
287.5292753889695
 21
36.05231668125817
 31
0.0
  0
LINE
  5
1C9
330
1C6
100
AcDbEntity
  8
0
 62
     0
100
AcDbLine
 10
287.3492753889697
 20
35.48231668125817
 30
0.0
 11
287.3492753889697
 21
35.87231668125815
 31
0.0
  0
LINE
  5
1CA
330
1C6
100
AcDbEntity
  8
0
 62
     0
100
AcDbLine
 10
287.3492753889697
 20
36.05231668125817
 30
0.0
 11
287.3492753889697
 21
36.23231668125814
 31
0.0
  0
LINE
  5
1CB
330
1C6
100
AcDbEntity
  8
0
 62
     0
100
AcDbLine
 10
287.3492753889697
 20
36.23231668125814
 30
0.0
 11
287.5292753889695
 21
36.23231668125814
 31
0.0
  0
SOLID
  5
1CC
330
1C6
100
AcDbEntity
  8
0
 62
     0
100
AcDbTrace
 10
287.3192753889696
 20
35.48231668125817
 30
0.0
 11
287.3792753889696
 21
35.48231668125817
 31
0.0
 12
287.3492753889697
 22
35.30231668125817
 32
0.0
 13
287.3492753889697
 23
35.30231668125817
 33
0.0
  0
SOLID
  5
1CD
330
1C6
100
AcDbEntity
  8
0
 62
     0
100
AcDbTrace
 10
287.3192753889696
 20
35.87231668125815
 30
0.0
 11
287.3792753889696
 21
35.87231668125815
 31
0.0
 12
287.3492753889697
 22
36.05231668125817
 32
0.0
 13
287.3492753889697
 23
36.05231668125817
 33
0.0
  0
MTEXT
  5
1CE
330
1C6
100
AcDbEntity
  8
0
 62
     0
100
AcDbMText
 10
288.0242753889696
 20
36.23231668125821
 30
0.0
 40
0.18
 41
0.0
 71
     5
 72
     1
  1
\A1;0.7500
 73
     1
 44
1.0
1001
ACAD
1000
MTEXTBEGIN
1070
    73
1070
     1
1070
    44
1040
1.0
1070
    74
1070
     0
1000
MTEXTEND
1000
MTEXTBEGIN
1070
    73
1070
     1
1070
    44
1040
1.0
1070
    74
1070
     0
1000
MTEXTEND
  0
POINT
  5
1CF
330
1C6
100
AcDbEntity
  8
DEFPOINTS
 62
     0
100
AcDbPoint
 10
286.7367417659178
 20
35.30231668125817
 30
0.0
  0
POINT
  5
1D0
330
1C6
100
AcDbEntity
  8
DEFPOINTS
 62
     0
100
AcDbPoint
 10
286.7367417659178
 20
36.05231668125817
 30
0.0
  0
POINT
  5
1D1
330
1C6
100
AcDbEntity
  8
DEFPOINTS
 62
     0
100
AcDbPoint
 10
287.3492753889697
 20
36.05231668125817
 30
0.0
  0
ENDBLK
  5
1D3
330
1C6
100
AcDbEntity
  8
0
100
AcDbBlockEnd
  0
BLOCK
  5
251
330
246
100
AcDbEntity
  8
0
100
AcDbBlockBegin
  2
*D9
 70
     1
 10
0.0
 20
0.0
 30
0.0
  3
*D9
  1

  0
LINE
  5
28F
330
246
100
AcDbEntity
  8
0
 62
     0
370
    -2
100
AcDbLine
 10
286.1558635388961
 20
35.85275252094241
 30
0.0
 11
287.6459943762519
 21
35.85275252094241
 31
0.0
  0
LINE
  5
290
330
246
100
AcDbEntity
  8
0
 62
     0
370
    -2
100
AcDbLine
 10
286.405863538896
 20
34.3527525209424
 30
0.0
 11
287.6459943762519
 21
34.3527525209424
 31
0.0
  0
LINE
  5
291
330
246
100
AcDbEntity
  8
0
 62
     0
370
    -2
100
AcDbLine
 10
287.4659943762519
 20
35.67275252094241
 30
0.0
 11
287.4659943762519
 21
35.4122524740086
 31
0.0
  0
LINE
  5
292
330
246
100
AcDbEntity
  8
0
 62
     0
370
    -2
100
AcDbLine
 10
287.4659943762519
 20
34.5327525209424
 30
0.0
 11
287.4659943762519
 21
35.0522524740086
 31
0.0
  0
SOLID
  5
293
330
246
100
AcDbEntity
  8
0
 62
     0
100
AcDbTrace
 10
287.4359943762519
 20
35.67275252094241
 30
0.0
 11
287.4959943762519
 21
35.67275252094241
 31
0.0
 12
287.4659943762519
 22
35.85275252094241
 32
0.0
 13
287.4659943762519
 23
35.85275252094241
 33
0.0
  0
SOLID
  5
294
330
246
100
AcDbEntity
  8
0
 62
     0
100
AcDbTrace
 10
287.4359943762519
 20
34.5327525209424
 30
0.0
 11
287.4959943762519
 21
34.5327525209424
 31
0.0
 12
287.4659943762519
 22
34.3527525209424
 32
0.0
 13
287.4659943762519
 23
34.3527525209424
 33
0.0
  0
MTEXT
  5
295
330
246
100
AcDbEntity
  8
0
 62
     0
100
AcDbMText
 10
287.4659943762519
 20
35.23225247400865
 30
0.0
 40
0.18
 41
0.0
 71
     5
 72
     1
  1
\A1;1.5000
 73
     1
 44
1.0
  0
POINT
  5
296
330
246
100
AcDbEntity
  8
DEFPOINTS
 62
     0
100
AcDbPoint
 10
286.093363538896
 20
35.85275252094241
 30
0.0
  0
POINT
  5
297
330
246
100
AcDbEntity
  8
DEFPOINTS
 62
     0
100
AcDbPoint
 10
286.3433635388961
 20
34.3527525209424
 30
0.0
  0
POINT
  5
298
330
246
100
AcDbEntity
  8
DEFPOINTS
 62
     0
100
AcDbPoint
 10
287.4659943762519
 20
34.3527525209424
 30
0.0
  0
ENDBLK
  5
252
330
246
100
AcDbEntity
  8
0
100
AcDbBlockEnd
  0
BLOCK
  5
25F
330
254
100
AcDbEntity
  8
0
100
AcDbBlockBegin
  2
*D10
 70
     1
 10
0.0
 20
0.0
 30
0.0
  3
*D10
  1

  0
LINE
  5
299
330
254
100
AcDbEntity
  8
0
 62
     0
370
    -2
100
AcDbLine
 10
286.405863538896
 20
35.55275252094241
 30
0.0
 11
287.0803539338107
 21
35.55275252094241
 31
0.0
  0
LINE
  5
29A
330
254
100
AcDbEntity
  8
0
 62
     0
370
    -2
100
AcDbLine
 10
286.405863538896
 20
34.3527525209424
 30
0.0
 11
287.0803539338107
 21
34.3527525209424
 31
0.0
  0
LINE
  5
29B
330
254
100
AcDbEntity
  8
0
 62
     0
370
    -2
100
AcDbLine
 10
286.9003539338107
 20
35.37275252094241
 30
0.0
 11
286.9003539338107
 21
35.1327525209424
 31
0.0
  0
LINE
  5
29C
330
254
100
AcDbEntity
  8
0
 62
     0
370
    -2
100
AcDbLine
 10
286.9003539338107
 20
34.5327525209424
 30
0.0
 11
286.9003539338107
 21
34.7727525209424
 31
0.0
  0
SOLID
  5
29D
330
254
100
AcDbEntity
  8
0
 62
     0
100
AcDbTrace
 10
286.8703539338108
 20
35.37275252094241
 30
0.0
 11
286.9303539338107
 21
35.37275252094241
 31
0.0
 12
286.9003539338107
 22
35.55275252094241
 32
0.0
 13
286.9003539338107
 23
35.55275252094241
 33
0.0
  0
SOLID
  5
29E
330
254
100
AcDbEntity
  8
0
 62
     0
100
AcDbTrace
 10
286.8703539338108
 20
34.5327525209424
 30
0.0
 11
286.9303539338107
 21
34.5327525209424
 31
0.0
 12
286.9003539338107
 22
34.3527525209424
 32
0.0
 13
286.9003539338107
 23
34.3527525209424
 33
0.0
  0
MTEXT
  5
29F
330
254
100
AcDbEntity
  8
0
 62
     0
100
AcDbMText
 10
286.9003539338107
 20
34.95275252094245
 30
0.0
 40
0.18
 41
0.0
 71
     5
 72
     1
  1
\A1;1.2000
 73
     1
 44
1.0
  0
POINT
  5
2A0
330
254
100
AcDbEntity
  8
DEFPOINTS
 62
     0
100
AcDbPoint
 10
286.3433635388961
 20
35.55275252094241
 30
0.0
  0
POINT
  5
2A1
330
254
100
AcDbEntity
  8
DEFPOINTS
 62
     0
100
AcDbPoint
 10
286.3433635388961
 20
34.3527525209424
 30
0.0
  0
POINT
  5
2A2
330
254
100
AcDbEntity
  8
DEFPOINTS
 62
     0
100
AcDbPoint
 10
286.9003539338107
 20
34.3527525209424
 30
0.0
  0
ENDBLK
  5
260
330
254
100
AcDbEntity
  8
0
100
AcDbBlockEnd
  0
BLOCK
  5
281
330
276
100
AcDbEntity
  8
0
100
AcDbBlockBegin
  2
*D11
 70
     1
 10
0.0
 20
0.0
 30
0.0
  3
*D11
  1

  0
LINE
  5
285
330
276
100
AcDbEntity
  8
0
 62
     0
370
    -2
100
AcDbLine
 10
285.843363538896
 20
34.2902525209424
 30
0.0
 11
285.843363538896
 21
33.80592895991014
 31
0.0
  0
LINE
  5
286
330
276
100
AcDbEntity
  8
0
 62
     0
370
    -2
100
AcDbLine
 10
286.3433635388961
 20
34.2902525209424
 30
0.0
 11
286.3433635388961
 21
33.80592895991014
 31
0.0
  0
LINE
  5
287
330
276
100
AcDbEntity
  8
0
 62
     0
370
    -2
100
AcDbLine
 10
285.6633635388961
 20
33.98592895991014
 30
0.0
 11
285.483363538896
 21
33.98592895991014
 31
0.0
  0
LINE
  5
288
330
276
100
AcDbEntity
  8
0
 62
     0
370
    -2
100
AcDbLine
 10
286.523363538896
 20
33.98592895991014
 30
0.0
 11
286.703363538896
 21
33.98592895991014
 31
0.0
  0
SOLID
  5
289
330
276
100
AcDbEntity
  8
0
 62
     0
100
AcDbTrace
 10
285.6633635388961
 20
34.01592895991014
 30
0.0
 11
285.6633635388961
 21
33.95592895991013
 31
0.0
 12
285.843363538896
 22
33.98592895991014
 32
0.0
 13
285.843363538896
 23
33.98592895991014
 33
0.0
  0
SOLID
  5
28A
330
276
100
AcDbEntity
  8
0
 62
     0
100
AcDbTrace
 10
286.523363538896
 20
34.01592895991014
 30
0.0
 11
286.523363538896
 21
33.95592895991013
 31
0.0
 12
286.3433635388961
 22
33.98592895991014
 32
0.0
 13
286.3433635388961
 23
33.98592895991014
 33
0.0
  0
MTEXT
  5
28B
330
276
100
AcDbEntity
  8
0
 62
     0
100
AcDbMText
 10
287.183363538896
 20
33.98592895991014
 30
0.0
 40
0.18
 41
0.0
 71
     5
 72
     1
  1
\A1;0.5000
 73
     1
 44
1.0
  0
POINT
  5
28C
330
276
100
AcDbEntity
  8
DEFPOINTS
 62
     0
100
AcDbPoint
 10
285.843363538896
 20
34.3527525209424
 30
0.0
  0
POINT
  5
28D
330
276
100
AcDbEntity
  8
DEFPOINTS
 62
     0
100
AcDbPoint
 10
286.3433635388961
 20
34.3527525209424
 30
0.0
  0
POINT
  5
28E
330
276
100
AcDbEntity
  8
DEFPOINTS
 62
     0
100
AcDbPoint
 10
286.3433635388961
 20
33.98592895991014
 30
0.0
  0
ENDBLK
  5
282
330
276
100
AcDbEntity
  8
0
100
AcDbBlockEnd
  0
BLOCK
  5
2BE
330
2B3
100
AcDbEntity
  8
0
100
AcDbBlockBegin
  2
*D12
 70
     1
 10
0.0
 20
0.0
 30
0.0
  3
*D12
  1

  0
LINE
  5
2B4
330
2B3
100
AcDbEntity
  8
0
 62
     0
370
    -2
100
AcDbLine
 10
287.0647338095656
 20
34.06027679612261
 30
0.0
 11
288.2591560505482
 21
34.06027679612261
 31
0.0
  0
LINE
  5
2B5
330
2B3
100
AcDbEntity
  8
0
 62
     0
370
    -2
100
AcDbLine
 10
286.8225923197614
 20
35.51027679612257
 30
0.0
 11
288.2591560505482
 21
35.51027679612257
 31
0.0
  0
LINE
  5
2B6
330
2B3
100
AcDbEntity
  8
0
 62
     0
370
    -2
100
AcDbLine
 10
288.0791560505482
 20
34.2402767961226
 30
0.0
 11
288.0791560505482
 21
34.60527679612259
 31
0.0
  0
LINE
  5
2B7
330
2B3
100
AcDbEntity
  8
0
 62
     0
370
    -2
100
AcDbLine
 10
288.0791560505482
 20
35.33027679612257
 30
0.0
 11
288.0791560505482
 21
34.96527679612259
 31
0.0
  0
SOLID
  5
2B8
330
2B3
100
AcDbEntity
  8
0
 62
     0
100
AcDbTrace
 10
288.0491560505482
 20
34.2402767961226
 30
0.0
 11
288.1091560505482
 21
34.2402767961226
 31
0.0
 12
288.0791560505482
 22
34.06027679612261
 32
0.0
 13
288.0791560505482
 23
34.06027679612261
 33
0.0
  0
SOLID
  5
2B9
330
2B3
100
AcDbEntity
  8
0
 62
     0
100
AcDbTrace
 10
288.0491560505482
 20
35.33027679612257
 30
0.0
 11
288.1091560505482
 21
35.33027679612257
 31
0.0
 12
288.0791560505482
 22
35.51027679612257
 32
0.0
 13
288.0791560505482
 23
35.51027679612257
 33
0.0
  0
MTEXT
  5
2BA
330
2B3
100
AcDbEntity
  8
0
 62
     0
100
AcDbMText
 10
288.0791560505482
 20
34.78527679612264
 30
0.0
 40
0.18
 41
0.0
 71
     5
 72
     1
  1
\A1;1.4500
 73
     1
 44
1.0
  0
POINT
  5
2BB
330
2B3
100
AcDbEntity
  8
DEFPOINTS
 62
     0
100
AcDbPoint
 10
287.0022338095656
 20
34.06027679612261
 30
0.0
  0
POINT
  5
2BC
330
2B3
100
AcDbEntity
  8
DEFPOINTS
 62
     0
100
AcDbPoint
 10
286.7600923197614
 20
35.51027679612257
 30
0.0
  0
POINT
  5
2BD
330
2B3
100
AcDbEntity
  8
DEFPOINTS
 62
     0
100
AcDbPoint
 10
288.0791560505482
 20
35.51027679612257
 30
0.0
  0
ENDBLK
  5
2BF
330
2B3
100
AcDbEntity
  8
0
100
AcDbBlockEnd
  0
BLOCK
  5
2CD
330
2C1
100
AcDbEntity
  8
0
100
AcDbBlockBegin
  2
*D13
 70
     1
 10
0.0
 20
0.0
 30
0.0
  3
*D13
  1

  0
LINE
  5
2C2
330
2C1
100
AcDbEntity
  8
0
 62
     0
370
    -2
100
AcDbLine
 10
286.3640653775797
 20
34.2102767961226
 30
0.0
 11
285.8110266752808
 21
34.2102767961226
 31
0.0
  0
LINE
  5
2C3
330
2C1
100
AcDbEntity
  8
0
 62
     0
370
    -2
100
AcDbLine
 10
286.7698105917824
 20
34.06027679612261
 30
0.0
 11
285.8110266752808
 21
34.06027679612261
 31
0.0
  0
LINE
  5
2C4
330
2C1
100
AcDbEntity
  8
0
 62
     0
370
    -2
100
AcDbLine
 10
285.9910266752808
 20
34.3902767961226
 30
0.0
 11
285.9910266752808
 21
34.5702767961226
 31
0.0
  0
LINE
  5
2C5
330
2C1
100
AcDbEntity
  8
0
 62
     0
370
    -2
100
AcDbLine
 10
285.9910266752808
 20
33.8802767961226
 30
0.0
 11
285.9910266752808
 21
33.70027679612261
 31
0.0
  0
LINE
  5
2C6
330
2C1
100
AcDbEntity
  8
0
 62
     0
370
    -2
100
AcDbLine
 10
285.9910266752808
 20
33.70027679612261
 30
0.0
 11
285.8110266752808
 21
33.70027679612261
 31
0.0
  0
SOLID
  5
2C7
330
2C1
100
AcDbEntity
  8
0
 62
     0
100
AcDbTrace
 10
285.9610266752809
 20
34.3902767961226
 30
0.0
 11
286.0210266752808
 21
34.3902767961226
 31
0.0
 12
285.9910266752808
 22
34.2102767961226
 32
0.0
 13
285.9910266752808
 23
34.2102767961226
 33
0.0
  0
SOLID
  5
2C8
330
2C1
100
AcDbEntity
  8
0
 62
     0
100
AcDbTrace
 10
285.9610266752809
 20
33.8802767961226
 30
0.0
 11
286.0210266752808
 21
33.8802767961226
 31
0.0
 12
285.9910266752808
 22
34.06027679612261
 32
0.0
 13
285.9910266752808
 23
34.06027679612261
 33
0.0
  0
MTEXT
  5
2C9
330
2C1
100
AcDbEntity
  8
0
 62
     0
100
AcDbMText
 10
285.3460266752808
 20
33.70027679612265
 30
0.0
 40
0.18
 41
0.0
 71
     5
 72
     1
  1
\A1;0.1500
 73
     1
 44
1.0
  0
POINT
  5
2CA
330
2C1
100
AcDbEntity
  8
DEFPOINTS
 62
     0
100
AcDbPoint
 10
286.4265653775797
 20
34.2102767961226
 30
0.0
  0
POINT
  5
2CB
330
2C1
100
AcDbEntity
  8
DEFPOINTS
 62
     0
100
AcDbPoint
 10
286.8323105917825
 20
34.06027679612261
 30
0.0
  0
POINT
  5
2CC
330
2C1
100
AcDbEntity
  8
DEFPOINTS
 62
     0
100
AcDbPoint
 10
285.9910266752808
 20
34.06027679612261
 30
0.0
  0
ENDBLK
  5
2CE
330
2C1
100
AcDbEntity
  8
0
100
AcDbBlockEnd
  0
BLOCK
  5
2DB
330
2D0
100
AcDbEntity
  8
0
100
AcDbBlockBegin
  2
*D14
 70
     1
 10
0.0
 20
0.0
 30
0.0
  3
*D14
  1

  0
LINE
  5
30E
330
2D0
100
AcDbEntity
  8
0
 62
     0
370
    -2
100
AcDbLine
 10
286.7600923197613
 20
34.06999506814371
 30
0.0
 11
286.7600923197613
 21
33.51074837635136
 31
0.0
  0
LINE
  5
30F
330
2D0
100
AcDbEntity
  8
0
 62
     0
370
    -2
100
AcDbLine
 10
287.0727130348269
 20
34.05424204874142
 30
0.0
 11
287.0727130348269
 21
33.51074837635136
 31
0.0
  0
LINE
  5
310
330
2D0
100
AcDbEntity
  8
0
 62
     0
370
    -2
100
AcDbLine
 10
286.5800923197614
 20
33.69074837635136
 30
0.0
 11
286.4000923197613
 21
33.69074837635136
 31
0.0
  0
LINE
  5
311
330
2D0
100
AcDbEntity
  8
0
 62
     0
370
    -2
100
AcDbLine
 10
287.2527130348269
 20
33.69074837635136
 30
0.0
 11
287.4327130348268
 21
33.69074837635136
 31
0.0
  0
SOLID
  5
312
330
2D0
100
AcDbEntity
  8
0
 62
     0
100
AcDbTrace
 10
286.5800923197614
 20
33.72074837635136
 30
0.0
 11
286.5800923197614
 21
33.66074837635136
 31
0.0
 12
286.7600923197613
 22
33.69074837635136
 32
0.0
 13
286.7600923197613
 23
33.69074837635136
 33
0.0
  0
SOLID
  5
313
330
2D0
100
AcDbEntity
  8
0
 62
     0
100
AcDbTrace
 10
287.2527130348269
 20
33.72074837635136
 30
0.0
 11
287.2527130348269
 21
33.66074837635136
 31
0.0
 12
287.0727130348269
 22
33.69074837635136
 32
0.0
 13
287.0727130348269
 23
33.69074837635136
 33
0.0
  0
MTEXT
  5
314
330
2D0
100
AcDbEntity
  8
0
 62
     0
100
AcDbMText
 10
287.9127130348269
 20
33.69074837635136
 30
0.0
 40
0.18
 41
0.0
 71
     5
 72
     1
  1
\A1;0.3000
 73
     1
 44
1.0
  0
POINT
  5
315
330
2D0
100
AcDbEntity
  8
DEFPOINTS
 62
     0
100
AcDbPoint
 10
286.7600923197613
 20
34.13249506814371
 30
0.0
  0
POINT
  5
316
330
2D0
100
AcDbEntity
  8
DEFPOINTS
 62
     0
100
AcDbPoint
 10
287.0727130348269
 20
34.11674204874142
 30
0.0
  0
POINT
  5
317
330
2D0
100
AcDbEntity
  8
DEFPOINTS
 62
     0
100
AcDbPoint
 10
287.0727130348269
 20
33.69074837635136
 30
0.0
  0
ENDBLK
  5
2DC
330
2D0
100
AcDbEntity
  8
0
100
AcDbBlockEnd
  0
BLOCK
  5
2EA
330
2DF
100
AcDbEntity
  8
0
100
AcDbBlockBegin
  2
*D15
 70
     1
 10
0.0
 20
0.0
 30
0.0
  3
*D15
  1

  0
LINE
  5
304
330
2DF
100
AcDbEntity
  8
0
 62
     0
370
    -2
100
AcDbLine
 10
286.4265653775797
 20
34.1477767961226
 30
0.0
 11
286.4265653775797
 21
33.04403778468413
 31
0.0
  0
LINE
  5
305
330
2DF
100
AcDbEntity
  8
0
 62
     0
370
    -2
100
AcDbLine
 10
287.0936192619431
 20
34.1477767961226
 30
0.0
 11
287.0936192619431
 21
33.04403778468413
 31
0.0
  0
LINE
  5
306
330
2DF
100
AcDbEntity
  8
0
 62
     0
370
    -2
100
AcDbLine
 10
286.6065653775797
 20
33.22403778468412
 30
0.0
 11
286.9136192619431
 21
33.22403778468412
 31
0.0
  0
LINE
  5
307
330
2DF
100
AcDbEntity
  8
0
 62
     0
370
    -2
100
AcDbLine
 10
287.0936192619431
 20
33.22403778468412
 30
0.0
 11
287.2736192619431
 21
33.22403778468412
 31
0.0
  0
SOLID
  5
308
330
2DF
100
AcDbEntity
  8
0
 62
     0
100
AcDbTrace
 10
286.6065653775797
 20
33.25403778468412
 30
0.0
 11
286.6065653775797
 21
33.19403778468412
 31
0.0
 12
286.4265653775797
 22
33.22403778468412
 32
0.0
 13
286.4265653775797
 23
33.22403778468412
 33
0.0
  0
SOLID
  5
309
330
2DF
100
AcDbEntity
  8
0
 62
     0
100
AcDbTrace
 10
286.9136192619431
 20
33.25403778468412
 30
0.0
 11
286.9136192619431
 21
33.19403778468412
 31
0.0
 12
287.0936192619431
 22
33.22403778468412
 32
0.0
 13
287.0936192619431
 23
33.22403778468412
 33
0.0
  0
MTEXT
  5
30A
330
2DF
100
AcDbEntity
  8
0
 62
     0
100
AcDbMText
 10
287.7536192619431
 20
33.22403778468412
 30
0.0
 40
0.18
 41
0.0
 71
     5
 72
     1
  1
\A1;0.6000
 73
     1
 44
1.0
  0
POINT
  5
30B
330
2DF
100
AcDbEntity
  8
DEFPOINTS
 62
     0
100
AcDbPoint
 10
286.4265653775797
 20
34.2102767961226
 30
0.0
  0
POINT
  5
30C
330
2DF
100
AcDbEntity
  8
DEFPOINTS
 62
     0
100
AcDbPoint
 10
287.0936192619431
 20
34.2102767961226
 30
0.0
  0
POINT
  5
30D
330
2DF
100
AcDbEntity
  8
DEFPOINTS
 62
     0
100
AcDbPoint
 10
287.0936192619431
 20
33.22403778468412
 30
0.0
  0
ENDBLK
  5
2EB
330
2DF
100
AcDbEntity
  8
0
100
AcDbBlockEnd
  0
BLOCK
  5
2F8
330
2ED
100
AcDbEntity
  8
0
100
AcDbBlockBegin
  2
*D16
 70
     1
 10
0.0
 20
0.0
 30
0.0
  3
*D16
  1

  0
LINE
  5
2EE
330
2ED
100
AcDbEntity
  8
0
 62
     0
370
    -2
100
AcDbLine
 10
286.2600923197614
 20
35.0727767961226
 30
0.0
 11
286.2600923197614
 21
36.11944477775404
 31
0.0
  0
LINE
  5
2EF
330
2ED
100
AcDbEntity
  8
0
 62
     0
370
    -2
100
AcDbLine
 10
287.2600923197614
 20
35.0727767961226
 30
0.0
 11
287.2600923197614
 21
36.11944477775404
 31
0.0
  0
LINE
  5
2F0
330
2ED
100
AcDbEntity
  8
0
 62
     0
370
    -2
100
AcDbLine
 10
286.0800923197614
 20
35.93944477775405
 30
0.0
 11
285.9000923197614
 21
35.93944477775405
 31
0.0
  0
LINE
  5
2F1
330
2ED
100
AcDbEntity
  8
0
 62
     0
370
    -2
100
AcDbLine
 10
287.4400923197614
 20
35.93944477775405
 30
0.0
 11
287.6200923197614
 21
35.93944477775405
 31
0.0
  0
SOLID
  5
2F2
330
2ED
100
AcDbEntity
  8
0
 62
     0
100
AcDbTrace
 10
286.0800923197614
 20
35.96944477775405
 30
0.0
 11
286.0800923197614
 21
35.90944477775404
 31
0.0
 12
286.2600923197614
 22
35.93944477775405
 32
0.0
 13
286.2600923197614
 23
35.93944477775405
 33
0.0
  0
SOLID
  5
2F3
330
2ED
100
AcDbEntity
  8
0
 62
     0
100
AcDbTrace
 10
287.4400923197614
 20
35.96944477775405
 30
0.0
 11
287.4400923197614
 21
35.90944477775404
 31
0.0
 12
287.2600923197614
 22
35.93944477775405
 32
0.0
 13
287.2600923197614
 23
35.93944477775405
 33
0.0
  0
MTEXT
  5
2F4
330
2ED
100
AcDbEntity
  8
0
 62
     0
100
AcDbMText
 10
286.7600923197614
 20
35.93944477775405
 30
0.0
 40
0.18
 41
0.0
 71
     5
 72
     1
  1
\A1;1.0000
 73
     1
 44
1.0
  0
POINT
  5
2F5
330
2ED
100
AcDbEntity
  8
DEFPOINTS
 62
     0
100
AcDbPoint
 10
286.2600923197614
 20
35.01027679612259
 30
0.0
  0
POINT
  5
2F6
330
2ED
100
AcDbEntity
  8
DEFPOINTS
 62
     0
100
AcDbPoint
 10
287.2600923197614
 20
35.01027679612259
 30
0.0
  0
POINT
  5
2F7
330
2ED
100
AcDbEntity
  8
DEFPOINTS
 62
     0
100
AcDbPoint
 10
287.2600923197614
 20
35.93944477775405
 30
0.0
  0
ENDBLK
  5
2F9
330
2ED
100
AcDbEntity
  8
0
100
AcDbBlockEnd
  0
BLOCK
  5
32D
330
322
100
AcDbEntity
  8
0
100
AcDbBlockBegin
  2
*D17
 70
     1
 10
0.0
 20
0.0
 30
0.0
  3
*D17
  1

  0
LINE
  5
323
330
322
100
AcDbEntity
  8
0
 62
     0
370
    -2
100
AcDbLine
 10
285.8076949381117
 20
34.19487198172546
 30
0.0
 11
285.8076949381117
 21
33.29114755489388
 31
0.0
  0
LINE
  5
324
330
322
100
AcDbEntity
  8
0
 62
     0
370
    -2
100
AcDbLine
 10
287.0076949381117
 20
34.19487198172546
 30
0.0
 11
287.0076949381117
 21
33.29114755489388
 31
0.0
  0
LINE
  5
325
330
322
100
AcDbEntity
  8
0
 62
     0
370
    -2
100
AcDbLine
 10
285.6276949381117
 20
33.47114755489389
 30
0.0
 11
285.4476949381117
 21
33.47114755489389
 31
0.0
  0
LINE
  5
326
330
322
100
AcDbEntity
  8
0
 62
     0
370
    -2
100
AcDbLine
 10
287.1876949381117
 20
33.47114755489389
 30
0.0
 11
287.3676949381117
 21
33.47114755489389
 31
0.0
  0
SOLID
  5
327
330
322
100
AcDbEntity
  8
0
 62
     0
100
AcDbTrace
 10
285.6276949381117
 20
33.50114755489389
 30
0.0
 11
285.6276949381117
 21
33.44114755489389
 31
0.0
 12
285.8076949381117
 22
33.47114755489389
 32
0.0
 13
285.8076949381117
 23
33.47114755489389
 33
0.0
  0
SOLID
  5
328
330
322
100
AcDbEntity
  8
0
 62
     0
100
AcDbTrace
 10
287.1876949381117
 20
33.50114755489389
 30
0.0
 11
287.1876949381117
 21
33.44114755489389
 31
0.0
 12
287.0076949381117
 22
33.47114755489389
 32
0.0
 13
287.0076949381117
 23
33.47114755489389
 33
0.0
  0
MTEXT
  5
329
330
322
100
AcDbEntity
  8
0
 62
     0
100
AcDbMText
 10
286.4076949381117
 20
33.47114755489389
 30
0.0
 40
0.18
 41
0.0
 71
     5
 72
     1
  1
\A1;1.2000
 73
     1
 44
1.0
  0
POINT
  5
32A
330
322
100
AcDbEntity
  8
DEFPOINTS
 62
     0
100
AcDbPoint
 10
285.8076949381117
 20
34.25737198172547
 30
0.0
  0
POINT
  5
32B
330
322
100
AcDbEntity
  8
DEFPOINTS
 62
     0
100
AcDbPoint
 10
287.0076949381117
 20
34.25737198172547
 30
0.0
  0
POINT
  5
32C
330
322
100
AcDbEntity
  8
DEFPOINTS
 62
     0
100
AcDbPoint
 10
287.0076949381117
 20
33.47114755489389
 30
0.0
  0
ENDBLK
  5
32E
330
322
100
AcDbEntity
  8
0
100
AcDbBlockEnd
  0
BLOCK
  5
33B
330
330
100
AcDbEntity
  8
0
100
AcDbBlockBegin
  2
*D18
 70
     1
 10
0.0
 20
0.0
 30
0.0
  3
*D18
  1

  0
LINE
  5
331
330
330
100
AcDbEntity
  8
0
 62
     0
370
    -2
100
AcDbLine
 10
285.7451949381117
 20
35.97737198172547
 30
0.0
 11
284.8412218684269
 21
35.97737198172547
 31
0.0
  0
LINE
  5
332
330
330
100
AcDbEntity
  8
0
 62
     0
370
    -2
100
AcDbLine
 10
285.7451949381117
 20
34.25737198172547
 30
0.0
 11
284.8412218684269
 21
34.25737198172547
 31
0.0
  0
LINE
  5
333
330
330
100
AcDbEntity
  8
0
 62
     0
370
    -2
100
AcDbLine
 10
285.0212218684269
 20
35.79737198172546
 30
0.0
 11
285.0212218684269
 21
35.29737198172547
 31
0.0
  0
LINE
  5
334
330
330
100
AcDbEntity
  8
0
 62
     0
370
    -2
100
AcDbLine
 10
285.0212218684269
 20
34.43737198172547
 30
0.0
 11
285.0212218684269
 21
34.93737198172547
 31
0.0
  0
SOLID
  5
335
330
330
100
AcDbEntity
  8
0
 62
     0
100
AcDbTrace
 10
284.991221868427
 20
35.79737198172546
 30
0.0
 11
285.0512218684269
 21
35.79737198172546
 31
0.0
 12
285.0212218684269
 22
35.97737198172547
 32
0.0
 13
285.0212218684269
 23
35.97737198172547
 33
0.0
  0
SOLID
  5
336
330
330
100
AcDbEntity
  8
0
 62
     0
100
AcDbTrace
 10
284.991221868427
 20
34.43737198172547
 30
0.0
 11
285.0512218684269
 21
34.43737198172547
 31
0.0
 12
285.0212218684269
 22
34.25737198172547
 32
0.0
 13
285.0212218684269
 23
34.25737198172547
 33
0.0
  0
MTEXT
  5
337
330
330
100
AcDbEntity
  8
0
 62
     0
100
AcDbMText
 10
285.0212218684269
 20
35.11737198172552
 30
0.0
 40
0.18
 41
0.0
 71
     5
 72
     1
  1
\A1;1.7200
 73
     1
 44
1.0
  0
POINT
  5
338
330
330
100
AcDbEntity
  8
DEFPOINTS
 62
     0
100
AcDbPoint
 10
285.8076949381117
 20
35.97737198172547
 30
0.0
  0
POINT
  5
339
330
330
100
AcDbEntity
  8
DEFPOINTS
 62
     0
100
AcDbPoint
 10
285.8076949381117
 20
34.25737198172547
 30
0.0
  0
POINT
  5
33A
330
330
100
AcDbEntity
  8
DEFPOINTS
 62
     0
100
AcDbPoint
 10
285.0212218684269
 20
34.25737198172547
 30
0.0
  0
ENDBLK
  5
33C
330
330
100
AcDbEntity
  8
0
100
AcDbBlockEnd
  0
BLOCK
  5
353
330
348
100
AcDbEntity
  8
0
100
AcDbBlockBegin
  2
*D19
 70
     1
 10
0.0
 20
0.0
 30
0.0
  3
*D19
  1

  0
LINE
  5
349
330
348
100
AcDbEntity
  8
0
 62
     0
370
    -2
100
AcDbLine
 10
285.7451949381117
 20
36.35737198172546
 30
0.0
 11
284.9682197925019
 21
36.35737198172546
 31
0.0
  0
LINE
  5
34A
330
348
100
AcDbEntity
  8
0
 62
     0
370
    -2
100
AcDbLine
 10
285.7451949381117
 20
34.25737198172547
 30
0.0
 11
284.9682197925019
 21
34.25737198172547
 31
0.0
  0
LINE
  5
34B
330
348
100
AcDbEntity
  8
0
 62
     0
370
    -2
100
AcDbLine
 10
285.1482197925018
 20
36.17737198172546
 30
0.0
 11
285.1482197925018
 21
35.48737198172546
 31
0.0
  0
LINE
  5
34C
330
348
100
AcDbEntity
  8
0
 62
     0
370
    -2
100
AcDbLine
 10
285.1482197925018
 20
34.43737198172547
 30
0.0
 11
285.1482197925018
 21
35.12737198172546
 31
0.0
  0
SOLID
  5
34D
330
348
100
AcDbEntity
  8
0
 62
     0
100
AcDbTrace
 10
285.1182197925019
 20
36.17737198172546
 30
0.0
 11
285.1782197925018
 21
36.17737198172546
 31
0.0
 12
285.1482197925018
 22
36.35737198172546
 32
0.0
 13
285.1482197925018
 23
36.35737198172546
 33
0.0
  0
SOLID
  5
34E
330
348
100
AcDbEntity
  8
0
 62
     0
100
AcDbTrace
 10
285.1182197925019
 20
34.43737198172547
 30
0.0
 11
285.1782197925018
 21
34.43737198172547
 31
0.0
 12
285.1482197925018
 22
34.25737198172547
 32
0.0
 13
285.1482197925018
 23
34.25737198172547
 33
0.0
  0
MTEXT
  5
34F
330
348
100
AcDbEntity
  8
0
 62
     0
100
AcDbMText
 10
285.1482197925018
 20
35.30737198172551
 30
0.0
 40
0.18
 41
0.0
 71
     5
 72
     1
  1
\A1;2.1000
 73
     1
 44
1.0
  0
POINT
  5
350
330
348
100
AcDbEntity
  8
DEFPOINTS
 62
     0
100
AcDbPoint
 10
285.8076949381117
 20
36.35737198172546
 30
0.0
  0
POINT
  5
351
330
348
100
AcDbEntity
  8
DEFPOINTS
 62
     0
100
AcDbPoint
 10
285.8076949381117
 20
34.25737198172547
 30
0.0
  0
POINT
  5
352
330
348
100
AcDbEntity
  8
DEFPOINTS
 62
     0
100
AcDbPoint
 10
285.1482197925018
 20
34.25737198172547
 30
0.0
  0
ENDBLK
  5
354
330
348
100
AcDbEntity
  8
0
100
AcDbBlockEnd
  0
BLOCK
  5
365
330
35A
100
AcDbEntity
  8
0
100
AcDbBlockBegin
  2
*D20
 70
     1
 10
0.0
 20
0.0
 30
0.0
  3
*D20
  1

  0
LINE
  5
35B
330
35A
100
AcDbEntity
  8
0
 62
     0
370
    -2
100
AcDbLine
 10
287.1748648220168
 20
35.22349760444738
 30
0.0
 11
288.0611238563775
 21
35.22349760444738
 31
0.0
  0
LINE
  5
35C
330
35A
100
AcDbEntity
  8
0
 62
     0
370
    -2
100
AcDbLine
 10
287.1748648220168
 20
33.42349760444739
 30
0.0
 11
288.0611238563775
 21
33.42349760444739
 31
0.0
  0
LINE
  5
35D
330
35A
100
AcDbEntity
  8
0
 62
     0
370
    -2
100
AcDbLine
 10
287.8811238563775
 20
35.04349760444739
 30
0.0
 11
287.8811238563775
 21
34.50349760444739
 31
0.0
  0
LINE
  5
35E
330
35A
100
AcDbEntity
  8
0
 62
     0
370
    -2
100
AcDbLine
 10
287.8811238563775
 20
33.60349760444739
 30
0.0
 11
287.8811238563775
 21
34.14349760444739
 31
0.0
  0
SOLID
  5
35F
330
35A
100
AcDbEntity
  8
0
 62
     0
100
AcDbTrace
 10
287.8511238563775
 20
35.04349760444739
 30
0.0
 11
287.9111238563775
 21
35.04349760444739
 31
0.0
 12
287.8811238563775
 22
35.22349760444738
 32
0.0
 13
287.8811238563775
 23
35.22349760444738
 33
0.0
  0
SOLID
  5
360
330
35A
100
AcDbEntity
  8
0
 62
     0
100
AcDbTrace
 10
287.8511238563775
 20
33.60349760444739
 30
0.0
 11
287.9111238563775
 21
33.60349760444739
 31
0.0
 12
287.8811238563775
 22
33.42349760444739
 32
0.0
 13
287.8811238563775
 23
33.42349760444739
 33
0.0
  0
MTEXT
  5
361
330
35A
100
AcDbEntity
  8
0
 62
     0
100
AcDbMText
 10
287.8811238563775
 20
34.32349760444743
 30
0.0
 40
0.18
 41
0.0
 71
     5
 72
     1
  1
\A1;1.8000
 73
     1
 44
1.0
  0
POINT
  5
362
330
35A
100
AcDbEntity
  8
DEFPOINTS
 62
     0
100
AcDbPoint
 10
287.1123648220168
 20
35.22349760444738
 30
0.0
  0
POINT
  5
363
330
35A
100
AcDbEntity
  8
DEFPOINTS
 62
     0
100
AcDbPoint
 10
287.1123648220168
 20
33.42349760444739
 30
0.0
  0
POINT
  5
364
330
35A
100
AcDbEntity
  8
DEFPOINTS
 62
     0
100
AcDbPoint
 10
287.8811238563775
 20
33.42349760444739
 30
0.0
  0
ENDBLK
  5
366
330
35A
100
AcDbEntity
  8
0
100
AcDbBlockEnd
  0
BLOCK
  5
373
330
368
100
AcDbEntity
  8
0
100
AcDbBlockBegin
  2
*D21
 70
     1
 10
0.0
 20
0.0
 30
0.0
  3
*D21
  1

  0
LINE
  5
369
330
368
100
AcDbEntity
  8
0
 62
     0
370
    -2
100
AcDbLine
 10
287.1123648220168
 20
33.36099760444739
 30
0.0
 11
287.1123648220168
 21
32.67169805939549
 31
0.0
  0
LINE
  5
36A
330
368
100
AcDbEntity
  8
0
 62
     0
370
    -2
100
AcDbLine
 10
285.7123648220168
 20
33.36099760444739
 30
0.0
 11
285.7123648220168
 21
32.67169805939549
 31
0.0
  0
LINE
  5
36B
330
368
100
AcDbEntity
  8
0
 62
     0
370
    -2
100
AcDbLine
 10
287.2923648220168
 20
32.85169805939549
 30
0.0
 11
287.4723648220168
 21
32.85169805939549
 31
0.0
  0
LINE
  5
36C
330
368
100
AcDbEntity
  8
0
 62
     0
370
    -2
100
AcDbLine
 10
285.5323648220168
 20
32.85169805939549
 30
0.0
 11
285.3523648220168
 21
32.85169805939549
 31
0.0
  0
SOLID
  5
36D
330
368
100
AcDbEntity
  8
0
 62
     0
100
AcDbTrace
 10
287.2923648220168
 20
32.88169805939549
 30
0.0
 11
287.2923648220168
 21
32.82169805939549
 31
0.0
 12
287.1123648220168
 22
32.85169805939549
 32
0.0
 13
287.1123648220168
 23
32.85169805939549
 33
0.0
  0
SOLID
  5
36E
330
368
100
AcDbEntity
  8
0
 62
     0
100
AcDbTrace
 10
285.5323648220168
 20
32.88169805939549
 30
0.0
 11
285.5323648220168
 21
32.82169805939549
 31
0.0
 12
285.7123648220168
 22
32.85169805939549
 32
0.0
 13
285.7123648220168
 23
32.85169805939549
 33
0.0
  0
MTEXT
  5
36F
330
368
100
AcDbEntity
  8
0
 62
     0
100
AcDbMText
 10
286.4123648220168
 20
32.85169805939549
 30
0.0
 40
0.18
 41
0.0
 71
     5
 72
     1
  1
\A1;1.4000
 73
     1
 44
1.0
  0
POINT
  5
370
330
368
100
AcDbEntity
  8
DEFPOINTS
 62
     0
100
AcDbPoint
 10
287.1123648220168
 20
33.42349760444739
 30
0.0
  0
POINT
  5
371
330
368
100
AcDbEntity
  8
DEFPOINTS
 62
     0
100
AcDbPoint
 10
285.7123648220168
 20
33.42349760444739
 30
0.0
  0
POINT
  5
372
330
368
100
AcDbEntity
  8
DEFPOINTS
 62
     0
100
AcDbPoint
 10
285.7123648220168
 20
32.85169805939549
 30
0.0
  0
ENDBLK
  5
374
330
368
100
AcDbEntity
  8
0
100
AcDbBlockEnd
  0
BLOCK
  5
385
330
37A
100
AcDbEntity
  8
0
100
AcDbBlockBegin
  2
*D22
 70
     1
 10
0.0
 20
0.0
 30
0.0
  3
*D22
  1

  0
LINE
  5
37B
330
37A
100
AcDbEntity
  8
0
 62
     0
370
    -2
100
AcDbLine
 10
287.1447582083002
 20
35.43401181125215
 30
0.0
 11
288.1951080019082
 21
35.43401181125215
 31
0.0
  0
LINE
  5
37C
330
37A
100
AcDbEntity
  8
0
 62
     0
370
    -2
100
AcDbLine
 10
287.1447582083002
 20
34.33401181125214
 30
0.0
 11
288.1951080019082
 21
34.33401181125214
 31
0.0
  0
LINE
  5
37D
330
37A
100
AcDbEntity
  8
0
 62
     0
370
    -2
100
AcDbLine
 10
288.0151080019082
 20
35.25401181125214
 30
0.0
 11
288.0151080019082
 21
35.06401181125214
 31
0.0
  0
LINE
  5
37E
330
37A
100
AcDbEntity
  8
0
 62
     0
370
    -2
100
AcDbLine
 10
288.0151080019082
 20
34.51401181125214
 30
0.0
 11
288.0151080019082
 21
34.70401181125214
 31
0.0
  0
SOLID
  5
37F
330
37A
100
AcDbEntity
  8
0
 62
     0
100
AcDbTrace
 10
287.9851080019082
 20
35.25401181125214
 30
0.0
 11
288.0451080019081
 21
35.25401181125214
 31
0.0
 12
288.0151080019082
 22
35.43401181125215
 32
0.0
 13
288.0151080019082
 23
35.43401181125215
 33
0.0
  0
SOLID
  5
380
330
37A
100
AcDbEntity
  8
0
 62
     0
100
AcDbTrace
 10
287.9851080019082
 20
34.51401181125214
 30
0.0
 11
288.0451080019081
 21
34.51401181125214
 31
0.0
 12
288.0151080019082
 22
34.33401181125214
 32
0.0
 13
288.0151080019082
 23
34.33401181125214
 33
0.0
  0
MTEXT
  5
381
330
37A
100
AcDbEntity
  8
0
 62
     0
100
AcDbMText
 10
288.0151080019082
 20
34.88401181125219
 30
0.0
 40
0.18
 41
0.0
 71
     5
 72
     1
  1
\A1;1.1000
 73
     1
 44
1.0
  0
POINT
  5
382
330
37A
100
AcDbEntity
  8
DEFPOINTS
 62
     0
100
AcDbPoint
 10
287.0822582083002
 20
35.43401181125215
 30
0.0
  0
POINT
  5
383
330
37A
100
AcDbEntity
  8
DEFPOINTS
 62
     0
100
AcDbPoint
 10
287.0822582083002
 20
34.33401181125214
 30
0.0
  0
POINT
  5
384
330
37A
100
AcDbEntity
  8
DEFPOINTS
 62
     0
100
AcDbPoint
 10
288.0151080019082
 20
34.33401181125214
 30
0.0
  0
ENDBLK
  5
386
330
37A
100
AcDbEntity
  8
0
100
AcDbBlockEnd
  0
BLOCK
  5
393
330
388
100
AcDbEntity
  8
0
100
AcDbBlockBegin
  2
*D23
 70
     1
 10
0.0
 20
0.0
 30
0.0
  3
*D23
  1

  0
LINE
  5
389
330
388
100
AcDbEntity
  8
0
 62
     0
370
    -2
100
AcDbLine
 10
285.4822582083002
 20
34.27151181125214
 30
0.0
 11
285.4822582083002
 21
33.58373052973226
 31
0.0
  0
LINE
  5
38A
330
388
100
AcDbEntity
  8
0
 62
     0
370
    -2
100
AcDbLine
 10
287.0822582083002
 20
34.27151181125214
 30
0.0
 11
287.0822582083002
 21
33.58373052973226
 31
0.0
  0
LINE
  5
38B
330
388
100
AcDbEntity
  8
0
 62
     0
370
    -2
100
AcDbLine
 10
285.6622582083002
 20
33.76373052973226
 30
0.0
 11
285.8172582083002
 21
33.76373052973226
 31
0.0
  0
LINE
  5
38C
330
388
100
AcDbEntity
  8
0
 62
     0
370
    -2
100
AcDbLine
 10
286.9022582083002
 20
33.76373052973226
 30
0.0
 11
286.7472582083001
 21
33.76373052973226
 31
0.0
  0
SOLID
  5
38D
330
388
100
AcDbEntity
  8
0
 62
     0
100
AcDbTrace
 10
285.6622582083002
 20
33.79373052973226
 30
0.0
 11
285.6622582083002
 21
33.73373052973226
 31
0.0
 12
285.4822582083002
 22
33.76373052973226
 32
0.0
 13
285.4822582083002
 23
33.76373052973226
 33
0.0
  0
SOLID
  5
38E
330
388
100
AcDbEntity
  8
0
 62
     0
100
AcDbTrace
 10
286.9022582083002
 20
33.79373052973226
 30
0.0
 11
286.9022582083002
 21
33.73373052973226
 31
0.0
 12
287.0822582083002
 22
33.76373052973226
 32
0.0
 13
287.0822582083002
 23
33.76373052973226
 33
0.0
  0
MTEXT
  5
38F
330
388
100
AcDbEntity
  8
0
 62
     0
100
AcDbMText
 10
286.2822582083002
 20
33.76373052973226
 30
0.0
 40
0.18
 41
0.0
 71
     5
 72
     1
  1
\A1;1.6000
 73
     1
 44
1.0
  0
POINT
  5
390
330
388
100
AcDbEntity
  8
DEFPOINTS
 62
     0
100
AcDbPoint
 10
285.4822582083002
 20
34.33401181125214
 30
0.0
  0
POINT
  5
391
330
388
100
AcDbEntity
  8
DEFPOINTS
 62
     0
100
AcDbPoint
 10
287.0822582083002
 20
34.33401181125214
 30
0.0
  0
POINT
  5
392
330
388
100
AcDbEntity
  8
DEFPOINTS
 62
     0
100
AcDbPoint
 10
287.0822582083002
 20
33.76373052973226
 30
0.0
  0
ENDBLK
  5
394
330
388
100
AcDbEntity
  8
0
100
AcDbBlockEnd
  0
BLOCK
  5
3AC
330
3A1
100
AcDbEntity
  8
0
100
AcDbBlockBegin
  2
*D24
 70
     1
 10
0.0
 20
0.0
 30
0.0
  3
*D24
  1

  0
LINE
  5
3A2
330
3A1
100
AcDbEntity
  8
0
 62
     0
370
    -2
100
AcDbLine
 10
287.4816689566745
 20
35.64967427342828
 30
0.0
 11
288.5830219327086
 21
35.64967427342828
 31
0.0
  0
LINE
  5
3A3
330
3A1
100
AcDbEntity
  8
0
 62
     0
370
    -2
100
AcDbLine
 10
287.4816689566745
 20
33.64967427342828
 30
0.0
 11
288.5830219327086
 21
33.64967427342828
 31
0.0
  0
LINE
  5
3A4
330
3A1
100
AcDbEntity
  8
0
 62
     0
370
    -2
100
AcDbLine
 10
288.4030219327086
 20
35.46967427342828
 30
0.0
 11
288.4030219327086
 21
34.82967427342828
 31
0.0
  0
LINE
  5
3A5
330
3A1
100
AcDbEntity
  8
0
 62
     0
370
    -2
100
AcDbLine
 10
288.4030219327086
 20
33.82967427342828
 30
0.0
 11
288.4030219327086
 21
34.46967427342828
 31
0.0
  0
SOLID
  5
3A6
330
3A1
100
AcDbEntity
  8
0
 62
     0
100
AcDbTrace
 10
288.3730219327087
 20
35.46967427342828
 30
0.0
 11
288.4330219327086
 21
35.46967427342828
 31
0.0
 12
288.4030219327086
 22
35.64967427342828
 32
0.0
 13
288.4030219327086
 23
35.64967427342828
 33
0.0
  0
SOLID
  5
3A7
330
3A1
100
AcDbEntity
  8
0
 62
     0
100
AcDbTrace
 10
288.3730219327087
 20
33.82967427342828
 30
0.0
 11
288.4330219327086
 21
33.82967427342828
 31
0.0
 12
288.4030219327086
 22
33.64967427342828
 32
0.0
 13
288.4030219327086
 23
33.64967427342828
 33
0.0
  0
MTEXT
  5
3A8
330
3A1
100
AcDbEntity
  8
0
 62
     0
100
AcDbMText
 10
288.4030219327086
 20
34.64967427342833
 30
0.0
 40
0.18
 41
0.0
 71
     5
 72
     1
  1
\A1;2.0000
 73
     1
 44
1.0
  0
POINT
  5
3A9
330
3A1
100
AcDbEntity
  8
DEFPOINTS
 62
     0
100
AcDbPoint
 10
287.4191689566745
 20
35.64967427342828
 30
0.0
  0
POINT
  5
3AA
330
3A1
100
AcDbEntity
  8
DEFPOINTS
 62
     0
100
AcDbPoint
 10
287.4191689566745
 20
33.64967427342828
 30
0.0
  0
POINT
  5
3AB
330
3A1
100
AcDbEntity
  8
DEFPOINTS
 62
     0
100
AcDbPoint
 10
288.4030219327086
 20
33.64967427342828
 30
0.0
  0
ENDBLK
  5
3AD
330
3A1
100
AcDbEntity
  8
0
100
AcDbBlockEnd
  0
BLOCK
  5
3BA
330
3AF
100
AcDbEntity
  8
0
100
AcDbBlockBegin
  2
*D25
 70
     1
 10
0.0
 20
0.0
 30
0.0
  3
*D25
  1

  0
LINE
  5
3B0
330
3AF
100
AcDbEntity
  8
0
 62
     0
370
    -2
100
AcDbLine
 10
285.6191689566745
 20
33.88717427342827
 30
0.0
 11
285.6191689566745
 21
32.69409169563775
 31
0.0
  0
LINE
  5
3B1
330
3AF
100
AcDbEntity
  8
0
 62
     0
370
    -2
100
AcDbLine
 10
287.4191689566745
 20
33.58717427342828
 30
0.0
 11
287.4191689566745
 21
32.69409169563775
 31
0.0
  0
LINE
  5
3B2
330
3AF
100
AcDbEntity
  8
0
 62
     0
370
    -2
100
AcDbLine
 10
285.7991689566745
 20
32.87409169563776
 30
0.0
 11
286.0541689566746
 21
32.87409169563776
 31
0.0
  0
LINE
  5
3B3
330
3AF
100
AcDbEntity
  8
0
 62
     0
370
    -2
100
AcDbLine
 10
287.2391689566745
 20
32.87409169563776
 30
0.0
 11
286.9841689566745
 21
32.87409169563776
 31
0.0
  0
SOLID
  5
3B4
330
3AF
100
AcDbEntity
  8
0
 62
     0
100
AcDbTrace
 10
285.7991689566745
 20
32.90409169563776
 30
0.0
 11
285.7991689566745
 21
32.84409169563776
 31
0.0
 12
285.6191689566745
 22
32.87409169563776
 32
0.0
 13
285.6191689566745
 23
32.87409169563776
 33
0.0
  0
SOLID
  5
3B5
330
3AF
100
AcDbEntity
  8
0
 62
     0
100
AcDbTrace
 10
287.2391689566745
 20
32.90409169563776
 30
0.0
 11
287.2391689566745
 21
32.84409169563776
 31
0.0
 12
287.4191689566745
 22
32.87409169563776
 32
0.0
 13
287.4191689566745
 23
32.87409169563776
 33
0.0
  0
MTEXT
  5
3B6
330
3AF
100
AcDbEntity
  8
0
 62
     0
100
AcDbMText
 10
286.5191689566745
 20
32.87409169563776
 30
0.0
 40
0.18
 41
0.0
 71
     5
 72
     1
  1
\A1;1.8000
 73
     1
 44
1.0
  0
POINT
  5
3B7
330
3AF
100
AcDbEntity
  8
DEFPOINTS
 62
     0
100
AcDbPoint
 10
285.6191689566745
 20
33.94967427342828
 30
0.0
  0
POINT
  5
3B8
330
3AF
100
AcDbEntity
  8
DEFPOINTS
 62
     0
100
AcDbPoint
 10
287.4191689566745
 20
33.64967427342828
 30
0.0
  0
POINT
  5
3B9
330
3AF
100
AcDbEntity
  8
DEFPOINTS
 62
     0
100
AcDbPoint
 10
287.4191689566745
 20
32.87409169563776
 30
0.0
  0
ENDBLK
  5
3BB
330
3AF
100
AcDbEntity
  8
0
100
AcDbBlockEnd
  0
BLOCK
  5
3C8
330
3BD
100
AcDbEntity
  8
0
100
AcDbBlockBegin
  2
*D26
 70
     1
 10
0.0
 20
0.0
 30
0.0
  3
*D26
  1

  0
LINE
  5
3BE
330
3BD
100
AcDbEntity
  8
0
 62
     0
370
    -2
100
AcDbLine
 10
286.3191689566745
 20
33.58717427342828
 30
0.0
 11
286.3191689566745
 21
33.19593922337525
 31
0.0
  0
LINE
  5
3BF
330
3BD
100
AcDbEntity
  8
0
 62
     0
370
    -2
100
AcDbLine
 10
285.6191689566745
 20
33.88717427342827
 30
0.0
 11
285.6191689566745
 21
33.19593922337525
 31
0.0
  0
LINE
  5
3C0
330
3BD
100
AcDbEntity
  8
0
 62
     0
370
    -2
100
AcDbLine
 10
286.1391689566744
 20
33.37593922337525
 30
0.0
 11
285.7991689566745
 21
33.37593922337525
 31
0.0
  0
LINE
  5
3C1
330
3BD
100
AcDbEntity
  8
0
 62
     0
370
    -2
100
AcDbLine
 10
285.6191689566745
 20
33.37593922337525
 30
0.0
 11
285.4391689566745
 21
33.37593922337525
 31
0.0
  0
SOLID
  5
3C2
330
3BD
100
AcDbEntity
  8
0
 62
     0
100
AcDbTrace
 10
286.1391689566744
 20
33.40593922337525
 30
0.0
 11
286.1391689566744
 21
33.34593922337525
 31
0.0
 12
286.3191689566745
 22
33.37593922337525
 32
0.0
 13
286.3191689566745
 23
33.37593922337525
 33
0.0
  0
SOLID
  5
3C3
330
3BD
100
AcDbEntity
  8
0
 62
     0
100
AcDbTrace
 10
285.7991689566745
 20
33.40593922337525
 30
0.0
 11
285.7991689566745
 21
33.34593922337525
 31
0.0
 12
285.6191689566745
 22
33.37593922337525
 32
0.0
 13
285.6191689566745
 23
33.37593922337525
 33
0.0
  0
MTEXT
  5
3C4
330
3BD
100
AcDbEntity
  8
0
 62
     0
100
AcDbMText
 10
284.9591689566744
 20
33.37593922337525
 30
0.0
 40
0.18
 41
0.0
 71
     5
 72
     1
  1
\A1;0.7000
 73
     1
 44
1.0
  0
POINT
  5
3C5
330
3BD
100
AcDbEntity
  8
DEFPOINTS
 62
     0
100
AcDbPoint
 10
286.3191689566745
 20
33.64967427342828
 30
0.0
  0
POINT
  5
3C6
330
3BD
100
AcDbEntity
  8
DEFPOINTS
 62
     0
100
AcDbPoint
 10
285.6191689566745
 20
33.94967427342828
 30
0.0
  0
POINT
  5
3C7
330
3BD
100
AcDbEntity
  8
DEFPOINTS
 62
     0
100
AcDbPoint
 10
285.6191689566745
 20
33.37593922337525
 30
0.0
  0
ENDBLK
  5
3C9
330
3BD
100
AcDbEntity
  8
0
100
AcDbBlockEnd
  0
BLOCK
  5
3D6
330
3CB
100
AcDbEntity
  8
0
100
AcDbBlockBegin
  2
*D27
 70
     1
 10
0.0
 20
0.0
 30
0.0
  3
*D27
  1

  0
LINE
  5
3E3
330
3CB
100
AcDbEntity
  8
0
 62
     0
370
    -2
100
AcDbLine
 10
285.5566689566744
 20
33.94967427342828
 30
0.0
 11
284.2680366310908
 21
33.94967427342828
 31
0.0
  0
LINE
  5
3E4
330
3CB
100
AcDbEntity
  8
0
 62
     0
370
    -2
100
AcDbLine
 10
286.2566689566745
 20
33.64967427342828
 30
0.0
 11
284.2680366310908
 21
33.64967427342828
 31
0.0
  0
LINE
  5
3E5
330
3CB
100
AcDbEntity
  8
0
 62
     0
370
    -2
100
AcDbLine
 10
284.4480366310908
 20
34.12967427342827
 30
0.0
 11
284.4480366310908
 21
34.30967427342828
 31
0.0
  0
LINE
  5
3E6
330
3CB
100
AcDbEntity
  8
0
 62
     0
370
    -2
100
AcDbLine
 10
284.4480366310908
 20
33.46967427342828
 30
0.0
 11
284.4480366310908
 21
33.28967427342828
 31
0.0
  0
LINE
  5
3E7
330
3CB
100
AcDbEntity
  8
0
 62
     0
370
    -2
100
AcDbLine
 10
284.4480366310908
 20
33.28967427342828
 30
0.0
 11
284.2680366310908
 21
33.28967427342828
 31
0.0
  0
SOLID
  5
3E8
330
3CB
100
AcDbEntity
  8
0
 62
     0
100
AcDbTrace
 10
284.4180366310908
 20
34.12967427342827
 30
0.0
 11
284.4780366310908
 21
34.12967427342827
 31
0.0
 12
284.4480366310908
 22
33.94967427342828
 32
0.0
 13
284.4480366310908
 23
33.94967427342828
 33
0.0
  0
SOLID
  5
3E9
330
3CB
100
AcDbEntity
  8
0
 62
     0
100
AcDbTrace
 10
284.4180366310908
 20
33.46967427342828
 30
0.0
 11
284.4780366310908
 21
33.46967427342828
 31
0.0
 12
284.4480366310908
 22
33.64967427342828
 32
0.0
 13
284.4480366310908
 23
33.64967427342828
 33
0.0
  0
MTEXT
  5
3EA
330
3CB
100
AcDbEntity
  8
0
 62
     0
100
AcDbMText
 10
283.7880366310908
 20
33.28967427342833
 30
0.0
 40
0.18
 41
0.0
 71
     5
 72
     1
  1
\A1;0.3000
 73
     1
 44
1.0
  0
POINT
  5
3EB
330
3CB
100
AcDbEntity
  8
DEFPOINTS
 62
     0
100
AcDbPoint
 10
285.6191689566745
 20
33.94967427342828
 30
0.0
  0
POINT
  5
3EC
330
3CB
100
AcDbEntity
  8
DEFPOINTS
 62
     0
100
AcDbPoint
 10
286.3191689566745
 20
33.64967427342828
 30
0.0
  0
POINT
  5
3ED
330
3CB
100
AcDbEntity
  8
DEFPOINTS
 62
     0
100
AcDbPoint
 10
284.4480366310908
 20
33.64967427342828
 30
0.0
  0
ENDBLK
  5
3D7
330
3CB
100
AcDbEntity
  8
0
100
AcDbBlockEnd
  0
ENDSEC
  0
SECTION
  2
ENTITIES
  0
TEXT
  5
2C
330
1E
100
AcDbEntity
  8
0
  6
Continuous
100
AcDbText
 10
287.2805487186718
 20
41.39364127471099
 30
0.0
 40
0.1
  1
2
  7
ROMANC
100
AcDbText
  0
TEXT
  5
2D
330
1E
100
AcDbEntity
  8
0
  6
Continuous
100
AcDbText
 10
283.9259999999999
 20
41.768
 30
0.0
 40
0.3
  1
ESCALA  1:50
  7
ROMANC
100
AcDbText
  0
LWPOLYLINE
  5
2E
330
1E
100
AcDbEntity
  8
0
  6
Continuous
100
AcDbPolyline
 90
        4
 70
     1
 43
0.0
 10
281.3959999999998
 20
44.747
 10
291.8959999999998
 20
44.747
 10
291.8959999999998
 20
29.897
 10
281.3959999999998
 20
29.897
  0
TEXT
  5
34
330
1E
100
AcDbEntity
  8
0
  6
Continuous
100
AcDbText
 10
283.9259999999999
 20
42.381
 30
0.0
 40
0.3
  1
TIPUS   NT339B
  7
ROMANC
100
AcDbText
  0
TEXT
  5
3C
330
1E
100
AcDbEntity
  8
0
  6
Continuous
100
AcDbText
 10
283.9449999999999
 20
41.09899999999997
 30
0.0
 40
0.3
  1
S = 339 dm
  7
ROMANC
100
AcDbText
  0
TEXT
  5
3D
330
1E
100
AcDbEntity
  8
0
  6
Continuous
100
AcDbText
 10
283.922
 20
40.529
 30
0.0
 40
0.3
  1
P = 76 dm
  7
ROMANC
100
AcDbText
  0
LWPOLYLINE
  5
39F
330
1E
100
AcDbEntity
  8
0
100
AcDbPolyline
 90
        6
 70
     1
 43
0.0
 10
287.4191689566745
 20
33.64967427342828
 10
287.4191689566745
 20
35.64967427342828
 10
285.6191689566745
 20
35.64967427342828
 10
285.6191689566745
 20
33.94967427342828
 10
286.3191689566745
 20
33.94967427342828
 10
286.3191689566745
 20
33.64967427342828
  0
DIMENSION
  5
3A0
330
1E
100
AcDbEntity
  8
0
100
AcDbDimension
  2
*D24
 10
288.4030219327086
 20
33.64967427342828
 30
0.0
 11
288.4030219327086
 21
34.64967427342833
 31
0.0
 70
    32
 71
     5
 42
2.0
  3
STANDARD
100
AcDbAlignedDimension
 13
287.4191689566745
 23
35.64967427342828
 33
0.0
 14
287.4191689566745
 24
33.64967427342828
 34
0.0
 50
90.0
100
AcDbRotatedDimension
  0
DIMENSION
  5
3AE
330
1E
100
AcDbEntity
  8
0
100
AcDbDimension
  2
*D25
 10
287.4191689566745
 20
32.87409169563776
 30
0.0
 11
286.5191689566745
 21
32.87409169563776
 31
0.0
 70
    32
 71
     5
 42
1.800000000000011
  3
STANDARD
100
AcDbAlignedDimension
 13
285.6191689566745
 23
33.94967427342828
 33
0.0
 14
287.4191689566745
 24
33.64967427342828
 34
0.0
100
AcDbRotatedDimension
  0
DIMENSION
  5
3BC
330
1E
100
AcDbEntity
  8
0
100
AcDbDimension
  2
*D26
 10
285.6191689566745
 20
33.37593922337525
 30
0.0
 11
284.9591689566744
 21
33.37593922337525
 31
0.0
 70
    32
 71
     5
 42
0.6999999999999887
  3
STANDARD
100
AcDbAlignedDimension
 13
286.3191689566745
 23
33.64967427342828
 33
0.0
 14
285.6191689566745
 24
33.94967427342828
 34
0.0
100
AcDbRotatedDimension
  0
DIMENSION
  5
3CA
330
1E
100
AcDbEntity
  8
0
100
AcDbDimension
  2
*D27
 10
284.4480366310908
 20
33.64967427342828
 30
0.0
 11
283.7880366310908
 21
33.28967427342833
 31
0.0
 70
    32
 71
     5
 42
0.2999999999999971
  3
STANDARD
100
AcDbAlignedDimension
 13
285.6191689566745
 23
33.94967427342828
 33
0.0
 14
286.3191689566745
 24
33.64967427342828
 34
0.0
 50
90.0
100
AcDbRotatedDimension
  0
LWPOLYLINE
  5
3EE
330
1E
100
AcDbEntity
  8
0
100
AcDbPolyline
 90
        6
 70
     1
 43
0.0
 10
287.4091689566745
 20
33.65967427342828
 10
287.4091689566745
 20
35.63967427342828
 10
285.6291689566745
 20
35.63967427342828
 10
285.6291689566745
 20
33.95967427342827
 10
286.3291689566744
 20
33.95967427342827
 10
286.3291689566744
 20
33.65967427342828
  0
LWPOLYLINE
  5
3EF
330
1E
100
AcDbEntity
  8
0
100
AcDbPolyline
 90
        6
 70
     1
 43
0.0
 10
287.4291689566745
 20
33.63967427342828
 10
287.4291689566745
 20
35.65967427342828
 10
285.6091689566745
 20
35.65967427342828
 10
285.6091689566745
 20
33.93967427342828
 10
286.3091689566745
 20
33.93967427342828
 10
286.3091689566745
 20
33.63967427342828
  0
VIEWPORT
  5
1D9
330
1A
100
AcDbEntity
 67
     1
  8
0
100
AcDbViewport
 10
99.980751991272
 20
143.3935842514038
 30
0.0
 40
440.9297543499659
 41
314.2372683715819
 68
     1
 69
     1
 12
99.980751991272
 22
143.3935842514038
 13
0.0
 23
0.0
 14
10.0
 24
10.0
 15
10.0
 25
10.0
 16
0.0
 26
0.0
 36
1.0
 17
0.0
 27
0.0
 37
0.0
 42
50.0
 43
0.0
 44
0.0
 45
314.2372683715819
 50
0.0
 51
0.0
 72
   100
 90
    32800
  1

281
     0
 71
     1
 74
     0
110
0.0
120
0.0
130
0.0
111
1.0
121
0.0
131
0.0
112
0.0
122
1.0
132
0.0
 79
     0
146
0.0
  0
VIEWPORT
  5
1DB
330
1A
100
AcDbEntity
 67
     1
  8
0
100
AcDbViewport
 10
99.980751991272
 20
143.3935842514036
 30
0.0
 40
199.2902839821538
 41
285.8513345476648
 68
     2
 69
     2
 12
286.6488322780006
 22
37.31916769001135
 13
0.0
 23
0.0
 14
1.0
 24
1.0
 15
0.0
 25
0.0
 16
0.0
 26
0.0
 36
1.0
 17
0.0
 27
0.0
 37
0.0
 42
50.0
 43
0.0
 44
0.0
 45
15.39450171875231
 50
0.0
 51
0.0
 72
   100
 90
    32800
  1

281
     0
 71
     1
 74
     0
110
0.0
120
0.0
130
0.0
111
1.0
121
0.0
131
0.0
112
0.0
122
1.0
132
0.0
 79
     0
146
0.0
  0
ENDSEC
  0
SECTION
  2
OBJECTS
  0
DICTIONARY
  5
C
330
0
100
AcDbDictionary
281
     1
  3
ACAD_GROUP
350
D
  3
ACAD_LAYOUT
350
19
  3
ACAD_MLINESTYLE
350
16
  3
ACAD_PLOTSETTINGS
350
18
  3
ACAD_PLOTSTYLENAME
350
E
  0
DICTIONARY
  5
1AC
330
1E
100
AcDbDictionary
280
     1
281
     1
  3
ACAD_LAYOUTSELFREF
360
22D
  0
DICTIONARY
  5
1AA
330
1A
100
AcDbDictionary
280
     1
281
     1
  3
ACAD_LAYOUTSELFREF
360
22C
  0
DICTIONARY
  5
D
102
{ACAD_REACTORS
330
C
102
}
330
C
100
AcDbDictionary
281
     1
  0
DICTIONARY
  5
19
102
{ACAD_REACTORS
330
C
102
}
330
C
100
AcDbDictionary
281
     1
  3
Model
350
234
  3
Presentación1
350
235
  0
DICTIONARY
  5
16
102
{ACAD_REACTORS
330
C
102
}
330
C
100
AcDbDictionary
281
     1
  3
STANDARD
350
17
  0
DICTIONARY
  5
18
102
{ACAD_REACTORS
330
C
102
}
330
C
100
AcDbDictionary
281
     1
  3
SECCIONS
350
20A
  0
ACDBDICTIONARYWDFLT
  5
E
102
{ACAD_REACTORS
330
C
102
}
330
C
100
AcDbDictionary
281
     1
  3
Normal
350
F
100
AcDbDictionaryWithDefault
340
F
  0
XRECORD
  5
22D
102
{ACAD_REACTORS
330
1AC
102
}
330
1AC
100
AcDbXrecord
280
     1
340
1E
  0
XRECORD
  5
22C
102
{ACAD_REACTORS
330
1AA
102
}
330
1AA
100
AcDbXrecord
280
     1
340
1A
  0
LAYOUT
  5
234
102
{ACAD_REACTORS
330
19
102
}
330
19
100
AcDbPlotSettings
  1

  2
HP DesignJet 750C/PS FILE
  4

  6

 40
0.0
 41
0.0
 42
0.0
 43
0.0
 44
0.0
 45
0.0
 46
0.0
 47
0.0
 48
0.0
 49
0.0
140
0.0
141
0.0
142
1.0
143
1.0
 70
 11952
 72
     0
 73
     1
 74
     0
  7
T:\CFG ACAD2000\Plot Styles\xvr.ctb
 75
     0
147
1.0
148
-7090.473598226942
149
-757.6512562692685
100
AcDbLayout
  1
Model
 70
     1
 71
     0
 10
0.0
 20
0.0
 11
12.0
 21
9.0
 12
0.0
 22
0.0
 32
0.0
 14
0.0
 24
0.0
 34
0.0
 15
0.0
 25
0.0
 35
0.0
146
0.0
 13
0.0
 23
0.0
 33
0.0
 16
1.0
 26
0.0
 36
0.0
 17
0.0
 27
1.0
 37
0.0
 76
     0
330
1E
  0
LAYOUT
  5
235
102
{ACAD_REACTORS
330
19
102
}
330
19
100
AcDbPlotSettings
  1

  2
HP DesignJet 750C/PS FILE
  4

  6

 40
0.0
 41
0.0
 42
0.0
 43
0.0
 44
0.0
 45
0.0
 46
0.0
 47
0.0
 48
0.0
 49
0.0
140
0.0
141
0.0
142
1.0
143
1.0
 70
   688
 72
     0
 73
     0
 74
     5
  7
T:\CFG ACAD2000\Plot Styles\xvr.ctb
 75
    16
147
1.0
148
0.0
149
0.0
100
AcDbLayout
  1
Presentación1
 70
     1
 71
     1
 10
-5.027083396911621
 20
-5.111741065979003
 11
204.9885873794554
 21
291.8989095687866
 12
0.0
 22
0.0
 32
0.0
 14
0.3356100001950608
 24
0.467916977571349
 34
0.0
 15
199.6258939823488
 25
286.3192515252361
 35
0.0
146
0.0
 13
0.0
 23
0.0
 33
0.0
 16
1.0
 26
0.0
 36
0.0
 17
0.0
 27
1.0
 37
0.0
 76
     0
330
1A
331
1D9
  0
MLINESTYLE
  5
17
102
{ACAD_REACTORS
330
16
102
}
330
16
100
AcDbMlineStyle
  2
STANDARD
 70
     0
  3

 62
   256
 51
90.0
 52
90.0
 71
     2
 49
0.5
 62
   256
  6
BYLAYER
 49
-0.5
 62
   256
  6
BYLAYER
  0
PLOTSETTINGS
  5
20A
102
{ACAD_REACTORS
330
18
102
}
330
18
100
AcDbPlotSettings
  1
seccions
  2
\\SERVIDOR1\LS8100PS
  4
A4
  6

 40
5.365749835968016
 41
5.4080810546875
 42
5.154083251953125
 43
5.154083251953125
 44
209.9733276367186
 45
296.9683227539062
 46
0.0
 47
0.0
 48
281.3959999999998
 49
29.897
140
291.8959999999998
141
44.747
142
1.0
143
0.0526438507570551
 70
  1712
 72
     1
 73
     0
 74
     4
  7
T:\CFG ACAD2000\Plot Styles\xvr.ctb
 75
     0
147
18.99557090940928
148
-281.3959999999998
149
-29.897
  0
ACDBPLACEHOLDER
  5
F
102
{ACAD_REACTORS
330
E
102
}
330
E
  0
ENDSEC
  0
EOF
