  0
SECTION
  2
HEADER
  9
$ACADVER
  1
AC1015
  9
$ACADMAINTVER
 70
     6
  9
$DWGCODEPAGE
  3
ANSI_1252
  9
$INSBASE
 10
0.0
 20
0.0
 30
0.0
  9
$EXTMIN
 10
281.3950692441339
 20
29.89657355491301
 30
-0.0015258207003583
  9
$EXTMAX
 10
291.8969308140734
 20
44.7474837405175
 30
0.0000000349246037
  9
$LIMMIN
 10
280.3959999999999
 20
28.89699999999999
  9
$LIMMAX
 10
292.8959999999999
 20
43.74699999999999
  9
$ORTHOMODE
 70
     1
  9
$REGENMODE
 70
     1
  9
$FILLMODE
 70
     1
  9
$QTEXTMODE
 70
     0
  9
$MIRRTEXT
 70
     1
  9
$LTSCALE
 40
1.0
  9
$ATTMODE
 70
     1
  9
$TEXTSIZE
 40
0.2
  9
$TRACEWID
 40
0.05
  9
$TEXTSTYLE
  7
STANDARD
  9
$CLAYER
  8
0
  9
$CELTYPE
  6
BYLAYER
  9
$CECOLOR
 62
   256
  9
$CELTSCALE
 40
1.0
  9
$DISPSILH
 70
     0
  9
$DIMSCALE
 40
1.0
  9
$DIMASZ
 40
0.18
  9
$DIMEXO
 40
0.0625
  9
$DIMDLI
 40
0.38
  9
$DIMRND
 40
0.0
  9
$DIMDLE
 40
0.0
  9
$DIMEXE
 40
0.18
  9
$DIMTP
 40
0.0
  9
$DIMTM
 40
0.0
  9
$DIMTXT
 40
0.18
  9
$DIMCEN
 40
0.09
  9
$DIMTSZ
 40
0.0
  9
$DIMTOL
 70
     0
  9
$DIMLIM
 70
     0
  9
$DIMTIH
 70
     1
  9
$DIMTOH
 70
     1
  9
$DIMSE1
 70
     0
  9
$DIMSE2
 70
     0
  9
$DIMTAD
 70
     0
  9
$DIMZIN
 70
     0
  9
$DIMBLK
  1

  9
$DIMASO
 70
     1
  9
$DIMSHO
 70
     1
  9
$DIMPOST
  1

  9
$DIMAPOST
  1

  9
$DIMALT
 70
     0
  9
$DIMALTD
 70
     2
  9
$DIMALTF
 40
25.4
  9
$DIMLFAC
 40
1.0
  9
$DIMTOFL
 70
     0
  9
$DIMTVP
 40
0.0
  9
$DIMTIX
 70
     0
  9
$DIMSOXD
 70
     0
  9
$DIMSAH
 70
     0
  9
$DIMBLK1
  1

  9
$DIMBLK2
  1

  9
$DIMSTYLE
  2
STANDARD
  9
$DIMCLRD
 70
     0
  9
$DIMCLRE
 70
     0
  9
$DIMCLRT
 70
     0
  9
$DIMTFAC
 40
1.0
  9
$DIMGAP
 40
0.09
  9
$DIMJUST
 70
     0
  9
$DIMSD1
 70
     0
  9
$DIMSD2
 70
     0
  9
$DIMTOLJ
 70
     1
  9
$DIMTZIN
 70
     0
  9
$DIMALTZ
 70
     0
  9
$DIMALTTZ
 70
     0
  9
$DIMUPT
 70
     0
  9
$DIMDEC
 70
     4
  9
$DIMTDEC
 70
     4
  9
$DIMALTU
 70
     2
  9
$DIMALTTD
 70
     2
  9
$DIMTXSTY
  7
STANDARD
  9
$DIMAUNIT
 70
     0
  9
$DIMADEC
 70
     0
  9
$DIMALTRND
 40
0.0
  9
$DIMAZIN
 70
     0
  9
$DIMDSEP
 70
    46
  9
$DIMATFIT
 70
     3
  9
$DIMFRAC
 70
     0
  9
$DIMLDRBLK
  1

  9
$DIMLUNIT
 70
     2
  9
$DIMLWD
 70
    -2
  9
$DIMLWE
 70
    -2
  9
$DIMTMOVE
 70
     0
  9
$LUNITS
 70
     2
  9
$LUPREC
 70
     4
  9
$SKETCHINC
 40
0.1
  9
$FILLETRAD
 40
0.0
  9
$AUNITS
 70
     0
  9
$AUPREC
 70
     0
  9
$MENU
  1
acad
  9
$ELEVATION
 40
0.0
  9
$PELEVATION
 40
0.0
  9
$THICKNESS
 40
0.0
  9
$LIMCHECK
 70
     0
  9
$CHAMFERA
 40
0.0
  9
$CHAMFERB
 40
0.0
  9
$CHAMFERC
 40
0.0
  9
$CHAMFERD
 40
0.0
  9
$SKPOLY
 70
     0
  9
$TDCREATE
 40
2448315.373408102
  9
$TDUCREATE
 40
2448315.290074768
  9
$TDUPDATE
 40
2451801.373507894
  9
$TDUUPDATE
 40
2451801.290174560
  9
$TDINDWG
 40
0.0324971875
  9
$TDUSRTIMER
 40
0.0324671759
  9
$USRTIMER
 70
     1
  9
$ANGBASE
 50
0.0
  9
$ANGDIR
 70
     0
  9
$PDMODE
 70
     0
  9
$PDSIZE
 40
0.0
  9
$PLINEWID
 40
0.0
  9
$SPLFRAME
 70
     0
  9
$SPLINETYPE
 70
     6
  9
$SPLINESEGS
 70
     8
  9
$HANDSEED
  5
369
  9
$SURFTAB1
 70
     6
  9
$SURFTAB2
 70
     6
  9
$SURFTYPE
 70
     6
  9
$SURFU
 70
     6
  9
$SURFV
 70
     6
  9
$UCSBASE
  2

  9
$UCSNAME
  2

  9
$UCSORG
 10
0.0
 20
0.0
 30
0.0
  9
$UCSXDIR
 10
1.0
 20
0.0
 30
0.0
  9
$UCSYDIR
 10
0.0
 20
1.0
 30
0.0
  9
$UCSORTHOREF
  2

  9
$UCSORTHOVIEW
 70
     0
  9
$UCSORGTOP
 10
0.0
 20
0.0
 30
0.0
  9
$UCSORGBOTTOM
 10
0.0
 20
0.0
 30
0.0
  9
$UCSORGLEFT
 10
0.0
 20
0.0
 30
0.0
  9
$UCSORGRIGHT
 10
0.0
 20
0.0
 30
0.0
  9
$UCSORGFRONT
 10
0.0
 20
0.0
 30
0.0
  9
$UCSORGBACK
 10
0.0
 20
0.0
 30
0.0
  9
$PUCSBASE
  2

  9
$PUCSNAME
  2

  9
$PUCSORG
 10
0.0
 20
0.0
 30
0.0
  9
$PUCSXDIR
 10
1.0
 20
0.0
 30
0.0
  9
$PUCSYDIR
 10
0.0
 20
1.0
 30
0.0
  9
$PUCSORTHOREF
  2

  9
$PUCSORTHOVIEW
 70
     0
  9
$PUCSORGTOP
 10
0.0
 20
0.0
 30
0.0
  9
$PUCSORGBOTTOM
 10
0.0
 20
0.0
 30
0.0
  9
$PUCSORGLEFT
 10
0.0
 20
0.0
 30
0.0
  9
$PUCSORGRIGHT
 10
0.0
 20
0.0
 30
0.0
  9
$PUCSORGFRONT
 10
0.0
 20
0.0
 30
0.0
  9
$PUCSORGBACK
 10
0.0
 20
0.0
 30
0.0
  9
$USERI1
 70
     0
  9
$USERI2
 70
     0
  9
$USERI3
 70
     0
  9
$USERI4
 70
     0
  9
$USERI5
 70
     0
  9
$USERR1
 40
0.0
  9
$USERR2
 40
0.0
  9
$USERR3
 40
0.0
  9
$USERR4
 40
0.0
  9
$USERR5
 40
0.0
  9
$WORLDVIEW
 70
     1
  9
$SHADEDGE
 70
     3
  9
$SHADEDIF
 70
    70
  9
$TILEMODE
 70
     1
  9
$MAXACTVP
 70
    16
  9
$PINSBASE
 10
0.0
 20
0.0
 30
0.0
  9
$PLIMCHECK
 70
     0
  9
$PEXTMIN
 10
0.3281060228436559
 20
0.4666709267353327
 30
-0.0000000349181948
  9
$PEXTMAX
 10
199.6333998656927
 20
286.3205002903685
 30
0.0000000814935746
  9
$PLIMMIN
 10
0.3281060228436559
 20
0.4666709267353326
  9
$PLIMMAX
 10
0.3281060228436559
 20
0.4666709267353326
  9
$UNITMODE
 70
     0
  9
$VISRETAIN
 70
     0
  9
$PLINEGEN
 70
     0
  9
$PSLTSCALE
 70
     1
  9
$TREEDEPTH
 70
  3020
  9
$CMLSTYLE
  2
STANDARD
  9
$CMLJUST
 70
     0
  9
$CMLSCALE
 40
1.0
  9
$PROXYGRAPHICS
 70
     1
  9
$MEASUREMENT
 70
     0
  9
$CELWEIGHT
370
    -1
  9
$ENDCAPS
280
     0
  9
$JOINSTYLE
280
     0
  9
$LWDISPLAY
290
     0
  9
$INSUNITS
 70
     0
  9
$HYPERLINKBASE
  1

  9
$STYLESHEET
  1

  9
$XEDIT
290
     1
  9
$CEPSNTYPE
380
     0
  9
$PSTYLEMODE
290
     1
  9
$FINGERPRINTGUID
  2
{A09CBBB2-476A-11D4-A5CD-0008C769B1B5}
  9
$VERSIONGUID
  2
{DEEA0150-893D-11D4-A614-0008C769B1B5}
  9
$EXTNAMES
290
     1
  9
$PSVPSCALE
 40
0.0
  9
$OLESTARTUP
290
     0
  0
ENDSEC
  0
SECTION
  2
CLASSES
  0
CLASS
  1
ACDBDICTIONARYWDFLT
  2
AcDbDictionaryWithDefault
  3
AutoCAD 2000
 90
        0
280
     0
281
     0
  0
CLASS
  1
ACDBPLACEHOLDER
  2
AcDbPlaceHolder
  3
AutoCAD 2000
 90
        0
280
     0
281
     0
  0
CLASS
  1
LAYOUT
  2
AcDbLayout
  3
AutoCAD 2000
 90
        0
280
     0
281
     0
  0
CLASS
  1
LONG_TRANSACTION
  2
AcDbLongTransaction
  3
AutoCAD 2000
 90
    32768
280
     0
281
     0
  0
CLASS
  1
LWPOLYLINE
  2
AcDbPolyline
  3
AutoCAD 2000
 90
    32768
280
     0
281
     1
  0
CLASS
  1
HATCH
  2
AcDbHatch
  3
AutoCAD 2000
 90
    32768
280
     0
281
     1
  0
CLASS
  1
XRECORD
  2
AcDbXrecord
  3
AutoCAD 2000
 90
    32768
280
     0
281
     0
  0
CLASS
  1
LONG_TRANSACTION
  2
AcDbLongTransaction
  3
AutoCAD 2000
 90
    32768
280
     0
281
     0
  0
CLASS
  1
LWPOLYLINE
  2
AcDbPolyline
  3
AutoCAD 2000
 90
    32768
280
     0
281
     1
  0
CLASS
  1
HATCH
  2
AcDbHatch
  3
AutoCAD 2000
 90
    32768
280
     0
281
     1
  0
CLASS
  1
XRECORD
  2
AcDbXrecord
  3
AutoCAD 2000
 90
    32768
280
     0
281
     0
  0
ENDSEC
  0
SECTION
  2
TABLES
  0
TABLE
  2
VPORT
  5
8
330
0
100
AcDbSymbolTable
 70
    11
  0
VPORT
  5
368
330
8
100
AcDbSymbolTableRecord
100
AcDbViewportTableRecord
  2
*Active
 70
     0
 10
0.0
 20
0.0
 11
1.0
 21
1.0
 12
286.6460000291037
 22
37.32202864771525
 13
0.0
 23
0.0
 14
1.0
 24
1.0
 15
0.0
 25
0.0
 16
0.0
 26
0.0
 36
1.0
 17
0.0
 27
0.0
 37
0.0
 40
14.99212327770216
 41
1.403174603174603
 42
50.0
 43
0.0
 44
0.0
 50
0.0
 51
0.0
 71
     0
 72
   100
 73
     1
 74
     1
 75
     0
 76
     0
 77
     0
 78
     0
281
     0
 65
     1
110
0.0
120
0.0
130
0.0
111
1.0
121
0.0
131
0.0
112
0.0
122
1.0
132
0.0
 79
     0
146
0.0
  0
ENDTAB
  0
TABLE
  2
LTYPE
  5
5
330
0
100
AcDbSymbolTable
 70
     1
  0
LTYPE
  5
13
330
5
100
AcDbSymbolTableRecord
100
AcDbLinetypeTableRecord
  2
BYBLOCK
 70
     0
  3

 72
    65
 73
     0
 40
0.0
  0
LTYPE
  5
14
330
5
100
AcDbSymbolTableRecord
100
AcDbLinetypeTableRecord
  2
BYLAYER
 70
     0
  3

 72
    65
 73
     0
 40
0.0
  0
LTYPE
  5
15
330
5
100
AcDbSymbolTableRecord
100
AcDbLinetypeTableRecord
  2
CONTINUOUS
 70
     0
  3
Solid line
 72
    65
 73
     0
 40
0.0
  0
ENDTAB
  0
TABLE
  2
LAYER
  5
2
330
0
100
AcDbSymbolTable
 70
     8
  0
LAYER
  5
10
330
2
100
AcDbSymbolTableRecord
100
AcDbLayerTableRecord
  2
0
 70
     0
 62
     7
  6
CONTINUOUS
370
    -3
390
F
  0
LAYER
  5
22
330
2
100
AcDbSymbolTableRecord
100
AcDbLayerTableRecord
  2
1
 70
     0
 62
     7
  6
CONTINUOUS
370
    -3
390
F
  0
LAYER
  5
23
330
2
100
AcDbSymbolTableRecord
100
AcDbLayerTableRecord
  2
7
 70
     0
 62
     7
  6
CONTINUOUS
370
    -3
390
F
  0
LAYER
  5
24
330
2
100
AcDbSymbolTableRecord
100
AcDbLayerTableRecord
  2
8
 70
     0
 62
     7
  6
CONTINUOUS
370
    -3
390
F
  0
LAYER
  5
25
330
2
100
AcDbSymbolTableRecord
100
AcDbLayerTableRecord
  2
9
 70
     0
 62
     7
  6
CONTINUOUS
370
    -3
390
F
  0
LAYER
  5
26
330
2
100
AcDbSymbolTableRecord
100
AcDbLayerTableRecord
  2
22
 70
     0
 62
     7
  6
CONTINUOUS
370
    -3
390
F
  0
LAYER
  5
27
330
2
100
AcDbSymbolTableRecord
100
AcDbLayerTableRecord
  2
25
 70
     0
 62
     7
  6
CONTINUOUS
370
    -3
390
F
  0
LAYER
  5
7F
330
2
100
AcDbSymbolTableRecord
100
AcDbLayerTableRecord
  2
DEFPOINTS
 70
     0
 62
     7
  6
CONTINUOUS
290
     0
370
    -3
390
F
  0
ENDTAB
  0
TABLE
  2
STYLE
  5
3
330
0
100
AcDbSymbolTable
 70
     2
  0
STYLE
  5
11
330
3
100
AcDbSymbolTableRecord
100
AcDbTextStyleTableRecord
  2
STANDARD
 70
     0
 40
0.0
 41
1.0
 50
0.0
 71
     0
 42
0.2
  3
txt
  4

  0
STYLE
  5
28
330
3
100
AcDbSymbolTableRecord
100
AcDbTextStyleTableRecord
  2
ROMANC
 70
     0
 40
0.0
 41
1.0
 50
0.0
 71
     0
 42
0.2
  3
ROMANC
  4

  0
ENDTAB
  0
TABLE
  2
VIEW
  5
6
330
0
100
AcDbSymbolTable
 70
     0
  0
ENDTAB
  0
TABLE
  2
UCS
  5
7
330
0
100
AcDbSymbolTable
 70
     0
  0
ENDTAB
  0
TABLE
  2
APPID
  5
9
330
0
100
AcDbSymbolTable
 70
     1
  0
APPID
  5
12
330
9
100
AcDbSymbolTableRecord
100
AcDbRegAppTableRecord
  2
ACAD
 70
     0
  0
ENDTAB
  0
TABLE
  2
DIMSTYLE
  5
A
330
0
100
AcDbSymbolTable
 70
     1
100
AcDbDimStyleTable
 71
     1
340
7A
  0
DIMSTYLE
105
7A
102
{ACAD_REACTORS
330
22D
330
21F
330
23B
330
211
330
26A
330
2A3
330
2E8
330
2F6
330
312
330
295
330
25C
330
287
330
304
330
279
330
2B1
330
32B
330
339
330
348
330
356
102
}
330
A
100
AcDbSymbolTableRecord
100
AcDbDimStyleTableRecord
  2
STANDARD
 70
     0
340
11
  0
ENDTAB
  0
TABLE
  2
BLOCK_RECORD
  5
1
330
0
100
AcDbSymbolTable
 70
    28
  0
BLOCK_RECORD
  5
1E
102
{ACAD_XDICTIONARY
360
1AC
102
}
330
1
100
AcDbSymbolTableRecord
100
AcDbBlockTableRecord
  2
*MODEL_SPACE
340
205
  0
BLOCK_RECORD
  5
1A
102
{ACAD_XDICTIONARY
360
1AA
102
}
330
1
100
AcDbSymbolTableRecord
100
AcDbBlockTableRecord
  2
*PAPER_SPACE
340
206
  0
BLOCK_RECORD
  5
C8
330
1
100
AcDbSymbolTableRecord
100
AcDbBlockTableRecord
  2
*D0
340
0
  0
BLOCK_RECORD
  5
D6
330
1
100
AcDbSymbolTableRecord
100
AcDbBlockTableRecord
  2
*D1
340
0
  0
BLOCK_RECORD
  5
E5
330
1
100
AcDbSymbolTableRecord
100
AcDbBlockTableRecord
  2
*D2
340
0
  0
BLOCK_RECORD
  5
F3
330
1
100
AcDbSymbolTableRecord
100
AcDbBlockTableRecord
  2
*D3
340
0
  0
BLOCK_RECORD
  5
102
330
1
100
AcDbSymbolTableRecord
100
AcDbBlockTableRecord
  2
*D4
340
0
  0
BLOCK_RECORD
  5
150
330
1
100
AcDbSymbolTableRecord
100
AcDbBlockTableRecord
  2
*D5
340
0
  0
BLOCK_RECORD
  5
15E
330
1
100
AcDbSymbolTableRecord
100
AcDbBlockTableRecord
  2
*D6
340
0
  0
BLOCK_RECORD
  5
1B8
330
1
100
AcDbSymbolTableRecord
100
AcDbBlockTableRecord
  2
*D7
340
0
  0
BLOCK_RECORD
  5
1C6
330
1
100
AcDbSymbolTableRecord
100
AcDbBlockTableRecord
  2
*D8
340
0
  0
BLOCK_RECORD
  5
212
330
1
100
AcDbSymbolTableRecord
100
AcDbBlockTableRecord
  2
*D9
340
0
  0
BLOCK_RECORD
  5
220
330
1
100
AcDbSymbolTableRecord
100
AcDbBlockTableRecord
  2
*D10
340
0
  0
BLOCK_RECORD
  5
22E
330
1
100
AcDbSymbolTableRecord
100
AcDbBlockTableRecord
  2
*D11
340
0
  0
BLOCK_RECORD
  5
23C
330
1
100
AcDbSymbolTableRecord
100
AcDbBlockTableRecord
  2
*D12
340
0
  0
BLOCK_RECORD
  5
25D
330
1
100
AcDbSymbolTableRecord
100
AcDbBlockTableRecord
  2
*D13
340
0
  0
BLOCK_RECORD
  5
26B
330
1
100
AcDbSymbolTableRecord
100
AcDbBlockTableRecord
  2
*D14
340
0
  0
BLOCK_RECORD
  5
27A
330
1
100
AcDbSymbolTableRecord
100
AcDbBlockTableRecord
  2
*D15
340
0
  0
BLOCK_RECORD
  5
288
330
1
100
AcDbSymbolTableRecord
100
AcDbBlockTableRecord
  2
*D16
340
0
  0
BLOCK_RECORD
  5
296
330
1
100
AcDbSymbolTableRecord
100
AcDbBlockTableRecord
  2
*D17
340
0
  0
BLOCK_RECORD
  5
2A4
330
1
100
AcDbSymbolTableRecord
100
AcDbBlockTableRecord
  2
*D18
340
0
  0
BLOCK_RECORD
  5
2B2
330
1
100
AcDbSymbolTableRecord
100
AcDbBlockTableRecord
  2
*D19
340
0
  0
BLOCK_RECORD
  5
2E9
330
1
100
AcDbSymbolTableRecord
100
AcDbBlockTableRecord
  2
*D20
340
0
  0
BLOCK_RECORD
  5
2F7
330
1
100
AcDbSymbolTableRecord
100
AcDbBlockTableRecord
  2
*D21
340
0
  0
BLOCK_RECORD
  5
305
330
1
100
AcDbSymbolTableRecord
100
AcDbBlockTableRecord
  2
*D22
340
0
  0
BLOCK_RECORD
  5
313
330
1
100
AcDbSymbolTableRecord
100
AcDbBlockTableRecord
  2
*D23
340
0
  0
BLOCK_RECORD
  5
32C
330
1
100
AcDbSymbolTableRecord
100
AcDbBlockTableRecord
  2
*D24
340
0
  0
BLOCK_RECORD
  5
33A
330
1
100
AcDbSymbolTableRecord
100
AcDbBlockTableRecord
  2
*D25
340
0
  0
BLOCK_RECORD
  5
349
330
1
100
AcDbSymbolTableRecord
100
AcDbBlockTableRecord
  2
*D26
340
0
  0
BLOCK_RECORD
  5
357
330
1
100
AcDbSymbolTableRecord
100
AcDbBlockTableRecord
  2
*D27
340
0
  0
ENDTAB
  0
ENDSEC
  0
SECTION
  2
BLOCKS
  0
BLOCK
  5
1F
330
1E
100
AcDbEntity
  8
0
100
AcDbBlockBegin
  2
*MODEL_SPACE
 70
     0
 10
0.0
 20
0.0
 30
0.0
  3
*MODEL_SPACE
  1

  0
ENDBLK
  5
20
330
1E
100
AcDbEntity
  8
0
100
AcDbBlockEnd
  0
BLOCK
  5
1B
330
1A
100
AcDbEntity
 67
     1
  8
0
100
AcDbBlockBegin
  2
*PAPER_SPACE
 70
     0
 10
0.0
 20
0.0
 30
0.0
  3
*PAPER_SPACE
  1

  0
ENDBLK
  5
1C
330
1A
100
AcDbEntity
 67
     1
  8
0
100
AcDbBlockEnd
  0
BLOCK
  5
D3
330
C8
100
AcDbEntity
  8
0
100
AcDbBlockBegin
  2
*D0
 70
     1
 10
0.0
 20
0.0
 30
0.0
  3
*D0
  1

  0
LINE
  5
17F
330
C8
100
AcDbEntity
  8
0
 62
     0
100
AcDbLine
 10
286.1242114476576
 20
36.24736563458589
 30
0.0
 11
288.1582790844173
 21
36.24736563458589
 31
0.0
  0
LINE
  5
180
330
C8
100
AcDbEntity
  8
0
 62
     0
100
AcDbLine
 10
286.1242114476576
 20
34.62736563458587
 30
0.0
 11
288.1582790844173
 21
34.62736563458587
 31
0.0
  0
LINE
  5
181
330
C8
100
AcDbEntity
  8
0
 62
     0
100
AcDbLine
 10
287.9782790844175
 20
36.06736563458589
 30
0.0
 11
287.9782790844175
 21
35.612166902036
 31
0.0
  0
LINE
  5
182
330
C8
100
AcDbEntity
  8
0
 62
     0
100
AcDbLine
 10
287.9782790844175
 20
34.80736563458587
 30
0.0
 11
287.9782790844175
 21
35.25216690203601
 31
0.0
  0
SOLID
  5
183
330
C8
100
AcDbEntity
  8
0
 62
     0
100
AcDbTrace
 10
287.9482790844173
 20
36.06736563458589
 30
0.0
 11
288.0082790844173
 21
36.06736563458589
 31
0.0
 12
287.9782790844175
 22
36.24736563458589
 32
0.0
 13
287.9782790844175
 23
36.24736563458589
 33
0.0
  0
SOLID
  5
184
330
C8
100
AcDbEntity
  8
0
 62
     0
100
AcDbTrace
 10
287.9482790844173
 20
34.80736563458587
 30
0.0
 11
288.0082790844173
 21
34.80736563458587
 31
0.0
 12
287.9782790844175
 22
34.62736563458587
 32
0.0
 13
287.9782790844175
 23
34.62736563458587
 33
0.0
  0
MTEXT
  5
185
330
C8
100
AcDbEntity
  8
0
 62
     0
100
AcDbMText
 10
287.9782790844175
 20
35.43216690203603
 30
0.0
 40
0.18
 41
0.0
 71
     5
 72
     1
  1
\A1;1.6200
 73
     1
 44
1.0
1001
ACAD
1000
MTEXTBEGIN
1070
    73
1070
     1
1070
    44
1040
1.0
1070
    74
1070
     0
1000
MTEXTEND
1000
MTEXTBEGIN
1070
    73
1070
     1
1070
    44
1040
1.0
1070
    74
1070
     0
1000
MTEXTEND
  0
POINT
  5
186
330
C8
100
AcDbEntity
  8
DEFPOINTS
 62
     0
100
AcDbPoint
 10
286.0617114476576
 20
36.24736563458589
 30
0.0
  0
POINT
  5
187
330
C8
100
AcDbEntity
  8
DEFPOINTS
 62
     0
100
AcDbPoint
 10
286.0617114476576
 20
34.62736563458587
 30
0.0
  0
POINT
  5
188
330
C8
100
AcDbEntity
  8
DEFPOINTS
 62
     0
100
AcDbPoint
 10
287.9782790844175
 20
34.62736563458587
 30
0.0
  0
ENDBLK
  5
D4
330
C8
100
AcDbEntity
  8
0
100
AcDbBlockEnd
  0
BLOCK
  5
E2
330
D6
100
AcDbEntity
  8
0
100
AcDbBlockBegin
  2
*D1
 70
     1
 10
0.0
 20
0.0
 30
0.0
  3
*D1
  1

  0
LINE
  5
144
330
D6
100
AcDbEntity
  8
0
 62
     0
100
AcDbLine
 10
286.5742114476576
 20
34.77736563458589
 30
0.0
 11
287.8483853356226
 21
34.77736563458589
 31
0.0
  0
LINE
  5
145
330
D6
100
AcDbEntity
  8
0
 62
     0
100
AcDbLine
 10
286.1867114476576
 20
34.62736563458587
 30
0.0
 11
287.8483853356226
 21
34.62736563458587
 31
0.0
  0
LINE
  5
146
330
D6
100
AcDbEntity
  8
0
 62
     0
100
AcDbLine
 10
287.6683853356226
 20
34.95736563458589
 30
0.0
 11
287.6683853356226
 21
35.13736563458589
 31
0.0
  0
LINE
  5
147
330
D6
100
AcDbEntity
  8
0
 62
     0
100
AcDbLine
 10
287.6683853356226
 20
34.44736563458587
 30
0.0
 11
287.6683853356226
 21
34.26736563458582
 31
0.0
  0
LINE
  5
148
330
D6
100
AcDbEntity
  8
0
 62
     0
100
AcDbLine
 10
287.6683853356226
 20
34.26736563458582
 30
0.0
 11
287.4883853356226
 21
34.26736563458582
 31
0.0
  0
SOLID
  5
149
330
D6
100
AcDbEntity
  8
0
 62
     0
100
AcDbTrace
 10
287.6383853356226
 20
34.95736563458589
 30
0.0
 11
287.6983853356226
 21
34.95736563458589
 31
0.0
 12
287.6683853356226
 22
34.77736563458589
 32
0.0
 13
287.6683853356226
 23
34.77736563458589
 33
0.0
  0
SOLID
  5
14A
330
D6
100
AcDbEntity
  8
0
 62
     0
100
AcDbTrace
 10
287.6383853356226
 20
34.44736563458587
 30
0.0
 11
287.6983853356226
 21
34.44736563458587
 31
0.0
 12
287.6683853356226
 22
34.62736563458587
 32
0.0
 13
287.6683853356226
 23
34.62736563458587
 33
0.0
  0
MTEXT
  5
14B
330
D6
100
AcDbEntity
  8
0
 62
     0
100
AcDbMText
 10
287.0233853356226
 20
34.26736563458587
 30
0.0
 40
0.18
 41
0.0
 71
     5
 72
     1
  1
\A1;0.1500
 73
     1
 44
1.0
1001
ACAD
1000
MTEXTBEGIN
1070
    73
1070
     1
1070
    44
1040
1.0
1070
    74
1070
     0
1000
MTEXTEND
1000
MTEXTBEGIN
1070
    73
1070
     1
1070
    44
1040
1.0
1070
    74
1070
     0
1000
MTEXTEND
  0
POINT
  5
14C
330
D6
100
AcDbEntity
  8
DEFPOINTS
 62
     0
100
AcDbPoint
 10
286.5117114476575
 20
34.77736563458589
 30
0.0
  0
POINT
  5
14D
330
D6
100
AcDbEntity
  8
DEFPOINTS
 62
     0
100
AcDbPoint
 10
286.1242114476576
 20
34.62736563458587
 30
0.0
  0
POINT
  5
14E
330
D6
100
AcDbEntity
  8
DEFPOINTS
 62
     0
100
AcDbPoint
 10
287.6683853356226
 20
34.62736563458587
 30
0.0
  0
ENDBLK
  5
E3
330
D6
100
AcDbEntity
  8
0
100
AcDbBlockEnd
  0
BLOCK
  5
F0
330
E5
100
AcDbEntity
  8
0
100
AcDbBlockBegin
  2
*D2
 70
     1
 10
0.0
 20
0.0
 30
0.0
  3
*D2
  1

  0
LINE
  5
110
330
E5
100
AcDbEntity
  8
0
 62
     0
100
AcDbLine
 10
285.5617114476576
 20
35.73986563458588
 30
0.0
 11
285.5617114476576
 21
36.95556457024231
 31
0.0
  0
LINE
  5
111
330
E5
100
AcDbEntity
  8
0
 62
     0
100
AcDbLine
 10
286.5617114476576
 20
35.73986563458642
 30
0.0
 11
286.5617114476576
 21
36.95556457024231
 31
0.0
  0
LINE
  5
112
330
E5
100
AcDbEntity
  8
0
 62
     0
100
AcDbLine
 10
285.3817114476576
 20
36.77556457024229
 30
0.0
 11
285.2017114476576
 21
36.77556457024229
 31
0.0
  0
LINE
  5
113
330
E5
100
AcDbEntity
  8
0
 62
     0
100
AcDbLine
 10
286.7417114476576
 20
36.77556457024229
 30
0.0
 11
286.9217114476576
 21
36.77556457024229
 31
0.0
  0
SOLID
  5
114
330
E5
100
AcDbEntity
  8
0
 62
     0
100
AcDbTrace
 10
285.3817114476576
 20
36.80556457024231
 30
0.0
 11
285.3817114476576
 21
36.74556457024229
 31
0.0
 12
285.5617114476576
 22
36.77556457024229
 32
0.0
 13
285.5617114476576
 23
36.77556457024229
 33
0.0
  0
SOLID
  5
115
330
E5
100
AcDbEntity
  8
0
 62
     0
100
AcDbTrace
 10
286.7417114476576
 20
36.80556457024231
 30
0.0
 11
286.7417114476576
 21
36.74556457024229
 31
0.0
 12
286.5617114476576
 22
36.77556457024229
 32
0.0
 13
286.5617114476576
 23
36.77556457024229
 33
0.0
  0
MTEXT
  5
116
330
E5
100
AcDbEntity
  8
0
 62
     0
100
AcDbMText
 10
286.0617114476576
 20
36.77556457024229
 30
0.0
 40
0.18
 41
0.0
 71
     5
 72
     1
  1
\A1;1.0000
 73
     1
 44
1.0
1001
ACAD
1000
MTEXTBEGIN
1070
    73
1070
     1
1070
    44
1040
1.0
1070
    74
1070
     0
1000
MTEXTEND
1000
MTEXTBEGIN
1070
    73
1070
     1
1070
    44
1040
1.0
1070
    74
1070
     0
1000
MTEXTEND
  0
POINT
  5
117
330
E5
100
AcDbEntity
  8
DEFPOINTS
 62
     0
100
AcDbPoint
 10
285.5617114476576
 20
35.67736563458588
 30
0.0
  0
POINT
  5
118
330
E5
100
AcDbEntity
  8
DEFPOINTS
 62
     0
100
AcDbPoint
 10
286.5617114476576
 20
35.67736563458643
 30
0.0
  0
POINT
  5
119
330
E5
100
AcDbEntity
  8
DEFPOINTS
 62
     0
100
AcDbPoint
 10
286.5617114476576
 20
36.77556457024229
 30
0.0
  0
ENDBLK
  5
F1
330
E5
100
AcDbEntity
  8
0
100
AcDbBlockEnd
  0
BLOCK
  5
FF
330
F3
100
AcDbEntity
  8
0
100
AcDbBlockBegin
  2
*D3
 70
     1
 10
0.0
 20
0.0
 30
0.0
  3
*D3
  1

  0
LINE
  5
F4
330
F3
100
AcDbEntity
  8
0
 62
     0
100
AcDbLine
 10
285.8105925973381
 20
34.3259387771153
 30
0.0
 11
285.0996894655242
 21
34.3259387771153
 31
0.0
  0
LINE
  5
F5
330
F3
100
AcDbEntity
  8
0
 62
     0
100
AcDbLine
 10
285.7605925973383
 20
35.22593877711502
 30
0.0
 11
285.0996894655242
 21
35.22593877711502
 31
0.0
  0
LINE
  5
F6
330
F3
100
AcDbEntity
  8
0
 62
     0
100
AcDbLine
 10
285.2796894655241
 20
34.5059387771153
 30
0.0
 11
285.2796894655241
 21
35.04593877711501
 31
0.0
  0
LINE
  5
F7
330
F3
100
AcDbEntity
  8
0
 62
     0
100
AcDbLine
 10
285.2796894655241
 20
35.22593877711502
 30
0.0
 11
285.2796894655241
 21
35.40593877711502
 31
0.0
  0
LINE
  5
F8
330
F3
100
AcDbEntity
  8
0
 62
     0
100
AcDbLine
 10
285.2796894655241
 20
35.40593877711502
 30
0.0
 11
285.4596894655241
 21
35.40593877711502
 31
0.0
  0
SOLID
  5
F9
330
F3
100
AcDbEntity
  8
0
 62
     0
100
AcDbTrace
 10
285.2496894655241
 20
34.5059387771153
 30
0.0
 11
285.3096894655241
 21
34.5059387771153
 31
0.0
 12
285.2796894655241
 22
34.3259387771153
 32
0.0
 13
285.2796894655241
 23
34.3259387771153
 33
0.0
  0
SOLID
  5
FA
330
F3
100
AcDbEntity
  8
0
 62
     0
100
AcDbTrace
 10
285.2496894655241
 20
35.04593877711501
 30
0.0
 11
285.3096894655241
 21
35.04593877711501
 31
0.0
 12
285.2796894655241
 22
35.22593877711502
 32
0.0
 13
285.2796894655241
 23
35.22593877711502
 33
0.0
  0
MTEXT
  5
FB
330
F3
100
AcDbEntity
  8
0
 62
     0
100
AcDbMText
 10
285.9396894655241
 20
35.40593877711506
 30
0.0
 40
0.18
 41
0.0
 71
     5
 72
     1
  1
\A1;0.9000
 73
     1
 44
1.0
1001
ACAD
1000
MTEXTBEGIN
1070
    73
1070
     1
1070
    44
1040
1.0
1070
    74
1070
     0
1000
MTEXTEND
1000
MTEXTBEGIN
1070
    73
1070
     1
1070
    44
1040
1.0
1070
    74
1070
     0
1000
MTEXTEND
  0
POINT
  5
FC
330
F3
100
AcDbEntity
  8
DEFPOINTS
 62
     0
100
AcDbPoint
 10
285.8730925973381
 20
34.3259387771153
 30
0.0
  0
POINT
  5
FD
330
F3
100
AcDbEntity
  8
DEFPOINTS
 62
     0
100
AcDbPoint
 10
285.8230925973383
 20
35.22593877711502
 30
0.0
  0
POINT
  5
FE
330
F3
100
AcDbEntity
  8
DEFPOINTS
 62
     0
100
AcDbPoint
 10
285.2796894655241
 20
35.22593877711502
 30
0.0
  0
ENDBLK
  5
100
330
F3
100
AcDbEntity
  8
0
100
AcDbBlockEnd
  0
BLOCK
  5
10E
330
102
100
AcDbEntity
  8
0
100
AcDbBlockBegin
  2
*D4
 70
     1
 10
0.0
 20
0.0
 30
0.0
  3
*D4
  1

  0
LINE
  5
12F
330
102
100
AcDbEntity
  8
0
 62
     0
100
AcDbLine
 10
285.4992114476576
 20
35.67736563458588
 30
0.0
 11
284.8683083158433
 21
35.67736563458588
 31
0.0
  0
LINE
  5
130
330
102
100
AcDbEntity
  8
0
 62
     0
100
AcDbLine
 10
285.5492114476577
 20
34.77736563458589
 30
0.0
 11
284.8683083158433
 21
34.77736563458589
 31
0.0
  0
LINE
  5
131
330
102
100
AcDbEntity
  8
0
 62
     0
100
AcDbLine
 10
285.0483083158436
 20
35.49736563458588
 30
0.0
 11
285.0483083158436
 21
34.95736563458589
 31
0.0
  0
LINE
  5
132
330
102
100
AcDbEntity
  8
0
 62
     0
100
AcDbLine
 10
285.0483083158436
 20
34.77736563458589
 30
0.0
 11
285.0483083158436
 21
34.59736563458589
 31
0.0
  0
LINE
  5
133
330
102
100
AcDbEntity
  8
0
 62
     0
100
AcDbLine
 10
285.0483083158436
 20
34.59736563458589
 30
0.0
 11
284.8683083158433
 21
34.59736563458589
 31
0.0
  0
SOLID
  5
134
330
102
100
AcDbEntity
  8
0
 62
     0
100
AcDbTrace
 10
285.0183083158436
 20
35.49736563458588
 30
0.0
 11
285.0783083158436
 21
35.49736563458588
 31
0.0
 12
285.0483083158436
 22
35.67736563458588
 32
0.0
 13
285.0483083158436
 23
35.67736563458588
 33
0.0
  0
SOLID
  5
135
330
102
100
AcDbEntity
  8
0
 62
     0
100
AcDbTrace
 10
285.0183083158436
 20
34.95736563458589
 30
0.0
 11
285.0783083158436
 21
34.95736563458589
 31
0.0
 12
285.0483083158436
 22
34.77736563458589
 32
0.0
 13
285.0483083158436
 23
34.77736563458589
 33
0.0
  0
MTEXT
  5
136
330
102
100
AcDbEntity
  8
0
 62
     0
100
AcDbMText
 10
284.3883083158436
 20
34.59736563458594
 30
0.0
 40
0.18
 41
0.0
 71
     5
 72
     1
  1
\A1;0.9000
 73
     1
 44
1.0
1001
ACAD
1000
MTEXTBEGIN
1070
    73
1070
     1
1070
    44
1040
1.0
1070
    74
1070
     0
1000
MTEXTEND
1000
MTEXTBEGIN
1070
    73
1070
     1
1070
    44
1040
1.0
1070
    74
1070
     0
1000
MTEXTEND
  0
POINT
  5
137
330
102
100
AcDbEntity
  8
DEFPOINTS
 62
     0
100
AcDbPoint
 10
285.5617114476576
 20
35.67736563458588
 30
0.0
  0
POINT
  5
138
330
102
100
AcDbEntity
  8
DEFPOINTS
 62
     0
100
AcDbPoint
 10
285.6117114476576
 20
34.77736563458589
 30
0.0
  0
POINT
  5
139
330
102
100
AcDbEntity
  8
DEFPOINTS
 62
     0
100
AcDbPoint
 10
285.0483083158436
 20
34.77736563458589
 30
0.0
  0
ENDBLK
  5
10F
330
102
100
AcDbEntity
  8
0
100
AcDbBlockEnd
  0
BLOCK
  5
15B
330
150
100
AcDbEntity
  8
0
100
AcDbBlockBegin
  2
*D5
 70
     1
 10
0.0
 20
0.0
 30
0.0
  3
*D5
  1

  0
LINE
  5
151
330
150
100
AcDbEntity
  8
0
 62
     0
100
AcDbLine
 10
286.5117114476575
 20
34.71486563458589
 30
0.0
 11
286.5117114476575
 21
33.55990820404632
 31
0.0
  0
LINE
  5
152
330
150
100
AcDbEntity
  8
0
 62
     0
100
AcDbLine
 10
285.6117114476576
 20
34.71486563458589
 30
0.0
 11
285.6117114476576
 21
33.55990820404632
 31
0.0
  0
LINE
  5
153
330
150
100
AcDbEntity
  8
0
 62
     0
100
AcDbLine
 10
286.3317114476576
 20
33.73990820404632
 30
0.0
 11
285.7917114476576
 21
33.73990820404632
 31
0.0
  0
LINE
  5
154
330
150
100
AcDbEntity
  8
0
 62
     0
100
AcDbLine
 10
285.6117114476576
 20
33.73990820404632
 30
0.0
 11
285.4317114476576
 21
33.73990820404632
 31
0.0
  0
SOLID
  5
155
330
150
100
AcDbEntity
  8
0
 62
     0
100
AcDbTrace
 10
286.3317114476576
 20
33.76990820404632
 30
0.0
 11
286.3317114476576
 21
33.70990820404632
 31
0.0
 12
286.5117114476575
 22
33.73990820404632
 32
0.0
 13
286.5117114476575
 23
33.73990820404632
 33
0.0
  0
SOLID
  5
156
330
150
100
AcDbEntity
  8
0
 62
     0
100
AcDbTrace
 10
285.7917114476576
 20
33.76990820404632
 30
0.0
 11
285.7917114476576
 21
33.70990820404632
 31
0.0
 12
285.6117114476576
 22
33.73990820404632
 32
0.0
 13
285.6117114476576
 23
33.73990820404632
 33
0.0
  0
MTEXT
  5
157
330
150
100
AcDbEntity
  8
0
 62
     0
100
AcDbMText
 10
284.9517114476573
 20
33.73990820404632
 30
0.0
 40
0.18
 41
0.0
 71
     5
 72
     1
  1
\A1;0.9000
 73
     1
 44
1.0
1001
ACAD
1000
MTEXTBEGIN
1070
    73
1070
     1
1070
    44
1040
1.0
1070
    74
1070
     0
1000
MTEXTEND
1000
MTEXTBEGIN
1070
    73
1070
     1
1070
    44
1040
1.0
1070
    74
1070
     0
1000
MTEXTEND
  0
POINT
  5
158
330
150
100
AcDbEntity
  8
DEFPOINTS
 62
     0
100
AcDbPoint
 10
286.5117114476575
 20
34.77736563458589
 30
0.0
  0
POINT
  5
159
330
150
100
AcDbEntity
  8
DEFPOINTS
 62
     0
100
AcDbPoint
 10
285.6117114476576
 20
34.77736563458589
 30
0.0
  0
POINT
  5
15A
330
150
100
AcDbEntity
  8
DEFPOINTS
 62
     0
100
AcDbPoint
 10
285.6117114476576
 20
33.73990820404632
 30
0.0
  0
ENDBLK
  5
15C
330
150
100
AcDbEntity
  8
0
100
AcDbBlockEnd
  0
BLOCK
  5
169
330
15E
100
AcDbEntity
  8
0
100
AcDbBlockBegin
  2
*D6
 70
     1
 10
0.0
 20
0.0
 30
0.0
  3
*D6
  1

  0
LINE
  5
16B
330
15E
100
AcDbEntity
  8
0
 62
     0
100
AcDbLine
 10
286.2270677236876
 20
34.69872330784411
 30
0.0
 11
286.2270677236876
 21
33.84122994766753
 31
0.0
  0
LINE
  5
16C
330
15E
100
AcDbEntity
  8
0
 62
     0
100
AcDbLine
 10
285.8963551716275
 20
34.69872330784411
 30
0.0
 11
285.8963551716275
 21
33.84122994766753
 31
0.0
  0
LINE
  5
16D
330
15E
100
AcDbEntity
  8
0
 62
     0
100
AcDbLine
 10
286.4070677236876
 20
34.02122994766753
 30
0.0
 11
286.5870677236876
 21
34.02122994766753
 31
0.0
  0
LINE
  5
16E
330
15E
100
AcDbEntity
  8
0
 62
     0
100
AcDbLine
 10
285.7163551716275
 20
34.02122994766753
 30
0.0
 11
285.5363551716276
 21
34.02122994766753
 31
0.0
  0
SOLID
  5
16F
330
15E
100
AcDbEntity
  8
0
 62
     0
100
AcDbTrace
 10
286.4070677236876
 20
34.05122994766751
 30
0.0
 11
286.4070677236876
 21
33.99122994766753
 31
0.0
 12
286.2270677236876
 22
34.02122994766753
 32
0.0
 13
286.2270677236876
 23
34.02122994766753
 33
0.0
  0
SOLID
  5
170
330
15E
100
AcDbEntity
  8
0
 62
     0
100
AcDbTrace
 10
285.7163551716275
 20
34.05122994766751
 30
0.0
 11
285.7163551716275
 21
33.99122994766753
 31
0.0
 12
285.8963551716275
 22
34.02122994766753
 32
0.0
 13
285.8963551716275
 23
34.02122994766753
 33
0.0
  0
MTEXT
  5
171
330
15E
100
AcDbEntity
  8
0
 62
     0
100
AcDbMText
 10
285.0563551716276
 20
34.02122994766753
 30
0.0
 40
0.18
 41
0.0
 71
     5
 72
     1
  1
\A1;0.3000
 73
     1
 44
1.0
1001
ACAD
1000
MTEXTBEGIN
1070
    73
1070
     1
1070
    44
1040
1.0
1070
    74
1070
     0
1000
MTEXTEND
1000
MTEXTBEGIN
1070
    73
1070
     1
1070
    44
1040
1.0
1070
    74
1070
     0
1000
MTEXTEND
  0
POINT
  5
172
330
15E
100
AcDbEntity
  8
DEFPOINTS
 62
     0
100
AcDbPoint
 10
286.2270677236876
 20
34.76122330784411
 30
0.0
  0
POINT
  5
173
330
15E
100
AcDbEntity
  8
DEFPOINTS
 62
     0
100
AcDbPoint
 10
285.8963551716275
 20
34.76122330784411
 30
0.0
  0
POINT
  5
174
330
15E
100
AcDbEntity
  8
DEFPOINTS
 62
     0
100
AcDbPoint
 10
285.8963551716275
 20
34.02122994766753
 30
0.0
  0
ENDBLK
  5
16A
330
15E
100
AcDbEntity
  8
0
100
AcDbBlockEnd
  0
BLOCK
  5
1C3
330
1B8
100
AcDbEntity
  8
0
100
AcDbBlockBegin
  2
*D7
 70
     1
 10
0.0
 20
0.0
 30
0.0
  3
*D7
  1

  0
LINE
  5
1B9
330
1B8
100
AcDbEntity
  8
0
 62
     0
100
AcDbLine
 10
286.1367417659177
 20
35.23981668125815
 30
0.0
 11
286.1367417659177
 21
34.38562200535305
 31
0.0
  0
LINE
  5
1BA
330
1B8
100
AcDbEntity
  8
0
 62
     0
100
AcDbLine
 10
286.7367417659178
 20
35.23981668125815
 30
0.0
 11
286.7367417659178
 21
34.38562200535305
 31
0.0
  0
LINE
  5
1BB
330
1B8
100
AcDbEntity
  8
0
 62
     0
100
AcDbLine
 10
286.3167417659178
 20
34.56562200535306
 30
0.0
 11
286.5567417659178
 21
34.56562200535306
 31
0.0
  0
LINE
  5
1BC
330
1B8
100
AcDbEntity
  8
0
 62
     0
100
AcDbLine
 10
286.7367417659178
 20
34.56562200535306
 30
0.0
 11
286.9167417659178
 21
34.56562200535306
 31
0.0
  0
SOLID
  5
1BD
330
1B8
100
AcDbEntity
  8
0
 62
     0
100
AcDbTrace
 10
286.3167417659178
 20
34.59562200535305
 30
0.0
 11
286.3167417659178
 21
34.53562200535306
 31
0.0
 12
286.1367417659177
 22
34.56562200535306
 32
0.0
 13
286.1367417659177
 23
34.56562200535306
 33
0.0
  0
SOLID
  5
1BE
330
1B8
100
AcDbEntity
  8
0
 62
     0
100
AcDbTrace
 10
286.5567417659178
 20
34.59562200535305
 30
0.0
 11
286.5567417659178
 21
34.53562200535306
 31
0.0
 12
286.7367417659178
 22
34.56562200535306
 32
0.0
 13
286.7367417659178
 23
34.56562200535306
 33
0.0
  0
MTEXT
  5
1BF
330
1B8
100
AcDbEntity
  8
0
 62
     0
100
AcDbMText
 10
287.3967417659177
 20
34.56562200535306
 30
0.0
 40
0.18
 41
0.0
 71
     5
 72
     1
  1
\A1;0.6000
 73
     1
 44
1.0
1001
ACAD
1000
MTEXTBEGIN
1070
    73
1070
     1
1070
    44
1040
1.0
1070
    74
1070
     0
1000
MTEXTEND
  0
POINT
  5
1C0
330
1B8
100
AcDbEntity
  8
DEFPOINTS
 62
     0
100
AcDbPoint
 10
286.1367417659177
 20
35.30231668125817
 30
0.0
  0
POINT
  5
1C1
330
1B8
100
AcDbEntity
  8
DEFPOINTS
 62
     0
100
AcDbPoint
 10
286.7367417659178
 20
35.30231668125817
 30
0.0
  0
POINT
  5
1C2
330
1B8
100
AcDbEntity
  8
DEFPOINTS
 62
     0
100
AcDbPoint
 10
286.7367417659178
 20
34.56562200535306
 30
0.0
  0
ENDBLK
  5
1C4
330
1B8
100
AcDbEntity
  8
0
100
AcDbBlockEnd
  0
BLOCK
  5
1D2
330
1C6
100
AcDbEntity
  8
0
100
AcDbBlockBegin
  2
*D8
 70
     1
 10
0.0
 20
0.0
 30
0.0
  3
*D8
  1

  0
LINE
  5
1C7
330
1C6
100
AcDbEntity
  8
0
 62
     0
100
AcDbLine
 10
286.7992417659178
 20
35.30231668125817
 30
0.0
 11
287.5292753889696
 21
35.30231668125817
 31
0.0
  0
LINE
  5
1C8
330
1C6
100
AcDbEntity
  8
0
 62
     0
100
AcDbLine
 10
286.7992417659178
 20
36.05231668125817
 30
0.0
 11
287.5292753889696
 21
36.05231668125817
 31
0.0
  0
LINE
  5
1C9
330
1C6
100
AcDbEntity
  8
0
 62
     0
100
AcDbLine
 10
287.3492753889697
 20
35.48231668125817
 30
0.0
 11
287.3492753889697
 21
35.87231668125815
 31
0.0
  0
LINE
  5
1CA
330
1C6
100
AcDbEntity
  8
0
 62
     0
100
AcDbLine
 10
287.3492753889697
 20
36.05231668125817
 30
0.0
 11
287.3492753889697
 21
36.23231668125815
 31
0.0
  0
LINE
  5
1CB
330
1C6
100
AcDbEntity
  8
0
 62
     0
100
AcDbLine
 10
287.3492753889697
 20
36.23231668125815
 30
0.0
 11
287.5292753889696
 21
36.23231668125815
 31
0.0
  0
SOLID
  5
1CC
330
1C6
100
AcDbEntity
  8
0
 62
     0
100
AcDbTrace
 10
287.3192753889696
 20
35.48231668125817
 30
0.0
 11
287.3792753889696
 21
35.48231668125817
 31
0.0
 12
287.3492753889697
 22
35.30231668125817
 32
0.0
 13
287.3492753889697
 23
35.30231668125817
 33
0.0
  0
SOLID
  5
1CD
330
1C6
100
AcDbEntity
  8
0
 62
     0
100
AcDbTrace
 10
287.3192753889696
 20
35.87231668125815
 30
0.0
 11
287.3792753889696
 21
35.87231668125815
 31
0.0
 12
287.3492753889697
 22
36.05231668125817
 32
0.0
 13
287.3492753889697
 23
36.05231668125817
 33
0.0
  0
MTEXT
  5
1CE
330
1C6
100
AcDbEntity
  8
0
 62
     0
100
AcDbMText
 10
288.0242753889696
 20
36.23231668125821
 30
0.0
 40
0.18
 41
0.0
 71
     5
 72
     1
  1
\A1;0.7500
 73
     1
 44
1.0
1001
ACAD
1000
MTEXTBEGIN
1070
    73
1070
     1
1070
    44
1040
1.0
1070
    74
1070
     0
1000
MTEXTEND
  0
POINT
  5
1CF
330
1C6
100
AcDbEntity
  8
DEFPOINTS
 62
     0
100
AcDbPoint
 10
286.7367417659178
 20
35.30231668125817
 30
0.0
  0
POINT
  5
1D0
330
1C6
100
AcDbEntity
  8
DEFPOINTS
 62
     0
100
AcDbPoint
 10
286.7367417659178
 20
36.05231668125817
 30
0.0
  0
POINT
  5
1D1
330
1C6
100
AcDbEntity
  8
DEFPOINTS
 62
     0
100
AcDbPoint
 10
287.3492753889697
 20
36.05231668125817
 30
0.0
  0
ENDBLK
  5
1D3
330
1C6
100
AcDbEntity
  8
0
100
AcDbBlockEnd
  0
BLOCK
  5
21D
330
212
100
AcDbEntity
  8
0
100
AcDbBlockBegin
  2
*D9
 70
     1
 10
0.0
 20
0.0
 30
0.0
  3
*D9
  1

  0
LINE
  5
213
330
212
100
AcDbEntity
  8
0
 62
     0
370
    -2
100
AcDbLine
 10
287.3565213199347
 20
35.49553263847993
 30
0.0
 11
288.3414803199158
 21
35.49553263847993
 31
0.0
  0
LINE
  5
214
330
212
100
AcDbEntity
  8
0
 62
     0
370
    -2
100
AcDbLine
 10
287.3565213199347
 20
33.49553263847993
 30
0.0
 11
288.3414803199158
 21
33.49553263847993
 31
0.0
  0
LINE
  5
215
330
212
100
AcDbEntity
  8
0
 62
     0
370
    -2
100
AcDbLine
 10
288.1614803199158
 20
35.31553263847992
 30
0.0
 11
288.1614803199158
 21
34.67553263847992
 31
0.0
  0
LINE
  5
216
330
212
100
AcDbEntity
  8
0
 62
     0
370
    -2
100
AcDbLine
 10
288.1614803199158
 20
33.67553263847993
 30
0.0
 11
288.1614803199158
 21
34.31553263847993
 31
0.0
  0
SOLID
  5
217
330
212
100
AcDbEntity
  8
0
 62
     0
100
AcDbTrace
 10
288.1314803199158
 20
35.31553263847992
 30
0.0
 11
288.1914803199157
 21
35.31553263847992
 31
0.0
 12
288.1614803199158
 22
35.49553263847993
 32
0.0
 13
288.1614803199158
 23
35.49553263847993
 33
0.0
  0
SOLID
  5
218
330
212
100
AcDbEntity
  8
0
 62
     0
100
AcDbTrace
 10
288.1314803199158
 20
33.67553263847993
 30
0.0
 11
288.1914803199157
 21
33.67553263847993
 31
0.0
 12
288.1614803199158
 22
33.49553263847993
 32
0.0
 13
288.1614803199158
 23
33.49553263847993
 33
0.0
  0
MTEXT
  5
219
330
212
100
AcDbEntity
  8
0
 62
     0
100
AcDbMText
 10
288.1614803199158
 20
34.49553263847997
 30
0.0
 40
0.18
 41
0.0
 71
     5
 72
     1
  1
\A1;2.0000
 73
     1
 44
1.0
  0
POINT
  5
21A
330
212
100
AcDbEntity
  8
DEFPOINTS
 62
     0
100
AcDbPoint
 10
287.2940213199347
 20
35.49553263847993
 30
0.0
  0
POINT
  5
21B
330
212
100
AcDbEntity
  8
DEFPOINTS
 62
     0
100
AcDbPoint
 10
287.2940213199347
 20
33.49553263847993
 30
0.0
  0
POINT
  5
21C
330
212
100
AcDbEntity
  8
DEFPOINTS
 62
     0
100
AcDbPoint
 10
288.1614803199158
 20
33.49553263847993
 30
0.0
  0
ENDBLK
  5
21E
330
212
100
AcDbEntity
  8
0
100
AcDbBlockEnd
  0
BLOCK
  5
22B
330
220
100
AcDbEntity
  8
0
100
AcDbBlockBegin
  2
*D10
 70
     1
 10
0.0
 20
0.0
 30
0.0
  3
*D10
  1

  0
LINE
  5
221
330
220
100
AcDbEntity
  8
0
 62
     0
370
    -2
100
AcDbLine
 10
287.2940213199347
 20
33.43303263847992
 30
0.0
 11
287.2940213199347
 21
32.47190385584904
 31
0.0
  0
LINE
  5
222
330
220
100
AcDbEntity
  8
0
 62
     0
370
    -2
100
AcDbLine
 10
285.2940213199347
 20
33.73303263847992
 30
0.0
 11
285.2940213199347
 21
32.47190385584904
 31
0.0
  0
LINE
  5
223
330
220
100
AcDbEntity
  8
0
 62
     0
370
    -2
100
AcDbLine
 10
287.1140213199347
 20
32.65190385584904
 30
0.0
 11
286.7740213199347
 21
32.65190385584904
 31
0.0
  0
LINE
  5
224
330
220
100
AcDbEntity
  8
0
 62
     0
370
    -2
100
AcDbLine
 10
285.4740213199347
 20
32.65190385584904
 30
0.0
 11
285.8140213199347
 21
32.65190385584904
 31
0.0
  0
SOLID
  5
225
330
220
100
AcDbEntity
  8
0
 62
     0
100
AcDbTrace
 10
287.1140213199347
 20
32.68190385584904
 30
0.0
 11
287.1140213199347
 21
32.62190385584904
 31
0.0
 12
287.2940213199347
 22
32.65190385584904
 32
0.0
 13
287.2940213199347
 23
32.65190385584904
 33
0.0
  0
SOLID
  5
226
330
220
100
AcDbEntity
  8
0
 62
     0
100
AcDbTrace
 10
285.4740213199347
 20
32.68190385584904
 30
0.0
 11
285.4740213199347
 21
32.62190385584904
 31
0.0
 12
285.2940213199347
 22
32.65190385584904
 32
0.0
 13
285.2940213199347
 23
32.65190385584904
 33
0.0
  0
MTEXT
  5
227
330
220
100
AcDbEntity
  8
0
 62
     0
100
AcDbMText
 10
286.2940213199347
 20
32.65190385584904
 30
0.0
 40
0.18
 41
0.0
 71
     5
 72
     1
  1
\A1;2.0000
 73
     1
 44
1.0
  0
POINT
  5
228
330
220
100
AcDbEntity
  8
DEFPOINTS
 62
     0
100
AcDbPoint
 10
287.2940213199347
 20
33.49553263847993
 30
0.0
  0
POINT
  5
229
330
220
100
AcDbEntity
  8
DEFPOINTS
 62
     0
100
AcDbPoint
 10
285.2940213199347
 20
33.79553263847992
 30
0.0
  0
POINT
  5
22A
330
220
100
AcDbEntity
  8
DEFPOINTS
 62
     0
100
AcDbPoint
 10
285.2940213199347
 20
32.65190385584904
 30
0.0
  0
ENDBLK
  5
22C
330
220
100
AcDbEntity
  8
0
100
AcDbBlockEnd
  0
BLOCK
  5
239
330
22E
100
AcDbEntity
  8
0
100
AcDbBlockBegin
  2
*D11
 70
     1
 10
0.0
 20
0.0
 30
0.0
  3
*D11
  1

  0
LINE
  5
22F
330
22E
100
AcDbEntity
  8
0
 62
     0
370
    -2
100
AcDbLine
 10
286.2940213199347
 20
33.43303263847992
 30
0.0
 11
286.2940213199347
 21
32.90021499736653
 31
0.0
  0
LINE
  5
230
330
22E
100
AcDbEntity
  8
0
 62
     0
370
    -2
100
AcDbLine
 10
285.2940213199347
 20
33.73303263847992
 30
0.0
 11
285.2940213199347
 21
32.90021499736653
 31
0.0
  0
LINE
  5
231
330
22E
100
AcDbEntity
  8
0
 62
     0
370
    -2
100
AcDbLine
 10
286.4740213199347
 20
33.08021499736653
 30
0.0
 11
286.6540213199347
 21
33.08021499736653
 31
0.0
  0
LINE
  5
232
330
22E
100
AcDbEntity
  8
0
 62
     0
370
    -2
100
AcDbLine
 10
285.1140213199347
 20
33.08021499736653
 30
0.0
 11
284.9340213199347
 21
33.08021499736653
 31
0.0
  0
SOLID
  5
233
330
22E
100
AcDbEntity
  8
0
 62
     0
100
AcDbTrace
 10
286.4740213199347
 20
33.11021499736653
 30
0.0
 11
286.4740213199347
 21
33.05021499736653
 31
0.0
 12
286.2940213199347
 22
33.08021499736653
 32
0.0
 13
286.2940213199347
 23
33.08021499736653
 33
0.0
  0
SOLID
  5
234
330
22E
100
AcDbEntity
  8
0
 62
     0
100
AcDbTrace
 10
285.1140213199347
 20
33.11021499736653
 30
0.0
 11
285.1140213199347
 21
33.05021499736653
 31
0.0
 12
285.2940213199347
 22
33.08021499736653
 32
0.0
 13
285.2940213199347
 23
33.08021499736653
 33
0.0
  0
MTEXT
  5
235
330
22E
100
AcDbEntity
  8
0
 62
     0
100
AcDbMText
 10
285.7940213199347
 20
33.08021499736653
 30
0.0
 40
0.18
 41
0.0
 71
     5
 72
     1
  1
\A1;1.0000
 73
     1
 44
1.0
  0
POINT
  5
236
330
22E
100
AcDbEntity
  8
DEFPOINTS
 62
     0
100
AcDbPoint
 10
286.2940213199347
 20
33.49553263847993
 30
0.0
  0
POINT
  5
237
330
22E
100
AcDbEntity
  8
DEFPOINTS
 62
     0
100
AcDbPoint
 10
285.2940213199347
 20
33.79553263847992
 30
0.0
  0
POINT
  5
238
330
22E
100
AcDbEntity
  8
DEFPOINTS
 62
     0
100
AcDbPoint
 10
285.2940213199347
 20
33.08021499736653
 30
0.0
  0
ENDBLK
  5
23A
330
22E
100
AcDbEntity
  8
0
100
AcDbBlockEnd
  0
BLOCK
  5
248
330
23C
100
AcDbEntity
  8
0
100
AcDbBlockBegin
  2
*D12
 70
     1
 10
0.0
 20
0.0
 30
0.0
  3
*D12
  1

  0
LINE
  5
23D
330
23C
100
AcDbEntity
  8
0
 62
     0
370
    -2
100
AcDbLine
 10
285.2315213199347
 20
33.79553263847992
 30
0.0
 11
284.5786365018761
 21
33.79553263847992
 31
0.0
  0
LINE
  5
23E
330
23C
100
AcDbEntity
  8
0
 62
     0
370
    -2
100
AcDbLine
 10
286.2315213199347
 20
33.49553263847993
 30
0.0
 11
284.5786365018761
 21
33.49553263847993
 31
0.0
  0
LINE
  5
23F
330
23C
100
AcDbEntity
  8
0
 62
     0
370
    -2
100
AcDbLine
 10
284.7586365018761
 20
33.97553263847992
 30
0.0
 11
284.7586365018761
 21
34.15553263847992
 31
0.0
  0
LINE
  5
240
330
23C
100
AcDbEntity
  8
0
 62
     0
370
    -2
100
AcDbLine
 10
284.7586365018761
 20
33.31553263847993
 30
0.0
 11
284.7586365018761
 21
33.13553263847992
 31
0.0
  0
LINE
  5
241
330
23C
100
AcDbEntity
  8
0
 62
     0
370
    -2
100
AcDbLine
 10
284.7586365018761
 20
33.13553263847992
 30
0.0
 11
284.5786365018761
 21
33.13553263847992
 31
0.0
  0
SOLID
  5
242
330
23C
100
AcDbEntity
  8
0
 62
     0
100
AcDbTrace
 10
284.7286365018761
 20
33.97553263847992
 30
0.0
 11
284.7886365018761
 21
33.97553263847992
 31
0.0
 12
284.7586365018761
 22
33.79553263847992
 32
0.0
 13
284.7586365018761
 23
33.79553263847992
 33
0.0
  0
SOLID
  5
243
330
23C
100
AcDbEntity
  8
0
 62
     0
100
AcDbTrace
 10
284.7286365018761
 20
33.31553263847993
 30
0.0
 11
284.7886365018761
 21
33.31553263847993
 31
0.0
 12
284.7586365018761
 22
33.49553263847993
 32
0.0
 13
284.7586365018761
 23
33.49553263847993
 33
0.0
  0
MTEXT
  5
244
330
23C
100
AcDbEntity
  8
0
 62
     0
100
AcDbMText
 10
284.0986365018761
 20
33.13553263847998
 30
0.0
 40
0.18
 41
0.0
 71
     5
 72
     1
  1
\A1;0.3000
 73
     1
 44
1.0
  0
POINT
  5
245
330
23C
100
AcDbEntity
  8
DEFPOINTS
 62
     0
100
AcDbPoint
 10
285.2940213199347
 20
33.79553263847992
 30
0.0
  0
POINT
  5
246
330
23C
100
AcDbEntity
  8
DEFPOINTS
 62
     0
100
AcDbPoint
 10
286.2940213199347
 20
33.49553263847993
 30
0.0
  0
POINT
  5
247
330
23C
100
AcDbEntity
  8
DEFPOINTS
 62
     0
100
AcDbPoint
 10
284.7586365018761
 20
33.49553263847993
 30
0.0
  0
ENDBLK
  5
249
330
23C
100
AcDbEntity
  8
0
100
AcDbBlockEnd
  0
BLOCK
  5
268
330
25D
100
AcDbEntity
  8
0
100
AcDbBlockBegin
  2
*D13
 70
     1
 10
0.0
 20
0.0
 30
0.0
  3
*D13
  1

  0
LINE
  5
25E
330
25D
100
AcDbEntity
  8
0
 62
     0
370
    -2
100
AcDbLine
 10
288.0506722687109
 20
34.20840568248869
 30
0.0
 11
288.0506722687109
 21
32.55493572878807
 31
0.0
  0
LINE
  5
25F
330
25D
100
AcDbEntity
  8
0
 62
     0
370
    -2
100
AcDbLine
 10
285.2006722687109
 20
34.20840568248869
 30
0.0
 11
285.2006722687109
 21
32.55493572878807
 31
0.0
  0
LINE
  5
260
330
25D
100
AcDbEntity
  8
0
 62
     0
370
    -2
100
AcDbLine
 10
287.8706722687109
 20
32.73493572878806
 30
0.0
 11
287.1356722687108
 21
32.73493572878806
 31
0.0
  0
LINE
  5
261
330
25D
100
AcDbEntity
  8
0
 62
     0
370
    -2
100
AcDbLine
 10
285.3806722687108
 20
32.73493572878806
 30
0.0
 11
286.1156722687109
 21
32.73493572878806
 31
0.0
  0
SOLID
  5
262
330
25D
100
AcDbEntity
  8
0
 62
     0
100
AcDbTrace
 10
287.8706722687109
 20
32.76493572878806
 30
0.0
 11
287.8706722687109
 21
32.70493572878806
 31
0.0
 12
288.0506722687109
 22
32.73493572878806
 32
0.0
 13
288.0506722687109
 23
32.73493572878806
 33
0.0
  0
SOLID
  5
263
330
25D
100
AcDbEntity
  8
0
 62
     0
100
AcDbTrace
 10
285.3806722687108
 20
32.76493572878806
 30
0.0
 11
285.3806722687108
 21
32.70493572878806
 31
0.0
 12
285.2006722687109
 22
32.73493572878806
 32
0.0
 13
285.2006722687109
 23
32.73493572878806
 33
0.0
  0
MTEXT
  5
264
330
25D
100
AcDbEntity
  8
0
 62
     0
100
AcDbMText
 10
286.6256722687109
 20
32.73493572878806
 30
0.0
 40
0.18
 41
0.0
 71
     5
 72
     1
  1
\A1;2.8500
 73
     1
 44
1.0
  0
POINT
  5
265
330
25D
100
AcDbEntity
  8
DEFPOINTS
 62
     0
100
AcDbPoint
 10
288.0506722687109
 20
34.27090568248869
 30
0.0
  0
POINT
  5
266
330
25D
100
AcDbEntity
  8
DEFPOINTS
 62
     0
100
AcDbPoint
 10
285.2006722687109
 20
34.27090568248869
 30
0.0
  0
POINT
  5
267
330
25D
100
AcDbEntity
  8
DEFPOINTS
 62
     0
100
AcDbPoint
 10
285.2006722687109
 20
32.73493572878806
 30
0.0
  0
ENDBLK
  5
269
330
25D
100
AcDbEntity
  8
0
100
AcDbBlockEnd
  0
BLOCK
  5
277
330
26B
100
AcDbEntity
  8
0
100
AcDbBlockBegin
  2
*D14
 70
     1
 10
0.0
 20
0.0
 30
0.0
  3
*D14
  1

  0
LINE
  5
26C
330
26B
100
AcDbEntity
  8
0
 62
     0
370
    -2
100
AcDbLine
 10
287.5131722687108
 20
33.9709056824887
 30
0.0
 11
288.2306722687109
 21
33.9709056824887
 31
0.0
  0
LINE
  5
26D
330
26B
100
AcDbEntity
  8
0
 62
     0
370
    -2
100
AcDbLine
 10
287.9881722687109
 20
34.27090568248869
 30
0.0
 11
287.8706722687109
 21
34.27090568248869
 31
0.0
  0
LINE
  5
26E
330
26B
100
AcDbEntity
  8
0
 62
     0
370
    -2
100
AcDbLine
 10
288.0506722687109
 20
33.7909056824887
 30
0.0
 11
288.0506722687109
 21
33.6109056824887
 31
0.0
  0
LINE
  5
26F
330
26B
100
AcDbEntity
  8
0
 62
     0
370
    -2
100
AcDbLine
 10
288.0506722687109
 20
34.45090568248869
 30
0.0
 11
288.0506722687109
 21
34.63090568248869
 31
0.0
  0
LINE
  5
270
330
26B
100
AcDbEntity
  8
0
 62
     0
370
    -2
100
AcDbLine
 10
288.0506722687109
 20
34.63090568248869
 30
0.0
 11
288.2306722687109
 21
34.63090568248869
 31
0.0
  0
SOLID
  5
271
330
26B
100
AcDbEntity
  8
0
 62
     0
100
AcDbTrace
 10
288.0206722687109
 20
33.7909056824887
 30
0.0
 11
288.0806722687109
 21
33.7909056824887
 31
0.0
 12
288.0506722687109
 22
33.9709056824887
 32
0.0
 13
288.0506722687109
 23
33.9709056824887
 33
0.0
  0
SOLID
  5
272
330
26B
100
AcDbEntity
  8
0
 62
     0
100
AcDbTrace
 10
288.0206722687109
 20
34.45090568248869
 30
0.0
 11
288.0806722687109
 21
34.45090568248869
 31
0.0
 12
288.0506722687109
 22
34.27090568248869
 32
0.0
 13
288.0506722687109
 23
34.27090568248869
 33
0.0
  0
MTEXT
  5
273
330
26B
100
AcDbEntity
  8
0
 62
     0
100
AcDbMText
 10
288.7106722687109
 20
34.63090568248874
 30
0.0
 40
0.18
 41
0.0
 71
     5
 72
     1
  1
\A1;0.3000
 73
     1
 44
1.0
  0
POINT
  5
274
330
26B
100
AcDbEntity
  8
DEFPOINTS
 62
     0
100
AcDbPoint
 10
287.4506722687108
 20
33.9709056824887
 30
0.0
  0
POINT
  5
275
330
26B
100
AcDbEntity
  8
DEFPOINTS
 62
     0
100
AcDbPoint
 10
288.0506722687109
 20
34.27090568248869
 30
0.0
  0
POINT
  5
276
330
26B
100
AcDbEntity
  8
DEFPOINTS
 62
     0
100
AcDbPoint
 10
288.0506722687109
 20
34.27090568248869
 30
0.0
  0
ENDBLK
  5
278
330
26B
100
AcDbEntity
  8
0
100
AcDbBlockEnd
  0
BLOCK
  5
285
330
27A
100
AcDbEntity
  8
0
100
AcDbBlockBegin
  2
*D15
 70
     1
 10
0.0
 20
0.0
 30
0.0
  3
*D15
  1

  0
LINE
  5
2CA
330
27A
100
AcDbEntity
  8
0
 62
     0
370
    -2
100
AcDbLine
 10
287.4506722687108
 20
33.9084056824887
 30
0.0
 11
287.4506722687108
 21
33.15871503636056
 31
0.0
  0
LINE
  5
2CB
330
27A
100
AcDbEntity
  8
0
 62
     0
370
    -2
100
AcDbLine
 10
288.0506722687109
 20
34.20840568248869
 30
0.0
 11
288.0506722687109
 21
33.15871503636056
 31
0.0
  0
LINE
  5
2CC
330
27A
100
AcDbEntity
  8
0
 62
     0
370
    -2
100
AcDbLine
 10
287.6306722687108
 20
33.33871503636056
 30
0.0
 11
287.8706722687109
 21
33.33871503636056
 31
0.0
  0
LINE
  5
2CD
330
27A
100
AcDbEntity
  8
0
 62
     0
370
    -2
100
AcDbLine
 10
288.0506722687109
 20
33.33871503636056
 30
0.0
 11
288.2306722687109
 21
33.33871503636056
 31
0.0
  0
SOLID
  5
2CE
330
27A
100
AcDbEntity
  8
0
 62
     0
100
AcDbTrace
 10
287.6306722687108
 20
33.36871503636056
 30
0.0
 11
287.6306722687108
 21
33.30871503636056
 31
0.0
 12
287.4506722687108
 22
33.33871503636056
 32
0.0
 13
287.4506722687108
 23
33.33871503636056
 33
0.0
  0
SOLID
  5
2CF
330
27A
100
AcDbEntity
  8
0
 62
     0
100
AcDbTrace
 10
287.8706722687109
 20
33.36871503636056
 30
0.0
 11
287.8706722687109
 21
33.30871503636056
 31
0.0
 12
288.0506722687109
 22
33.33871503636056
 32
0.0
 13
288.0506722687109
 23
33.33871503636056
 33
0.0
  0
MTEXT
  5
2D0
330
27A
100
AcDbEntity
  8
0
 62
     0
100
AcDbMText
 10
288.7106722687109
 20
33.33871503636056
 30
0.0
 40
0.18
 41
0.0
 71
     5
 72
     1
  1
\A1;0.6000
 73
     1
 44
1.0
  0
POINT
  5
2D1
330
27A
100
AcDbEntity
  8
DEFPOINTS
 62
     0
100
AcDbPoint
 10
287.4506722687108
 20
33.9709056824887
 30
0.0
  0
POINT
  5
2D2
330
27A
100
AcDbEntity
  8
DEFPOINTS
 62
     0
100
AcDbPoint
 10
288.0506722687109
 20
34.27090568248869
 30
0.0
  0
POINT
  5
2D3
330
27A
100
AcDbEntity
  8
DEFPOINTS
 62
     0
100
AcDbPoint
 10
288.0506722687109
 20
33.33871503636056
 30
0.0
  0
ENDBLK
  5
286
330
27A
100
AcDbEntity
  8
0
100
AcDbBlockEnd
  0
BLOCK
  5
293
330
288
100
AcDbEntity
  8
0
100
AcDbBlockBegin
  2
*D16
 70
     1
 10
0.0
 20
0.0
 30
0.0
  3
*D16
  1

  0
LINE
  5
2DE
330
288
100
AcDbEntity
  8
0
 62
     0
370
    -2
100
AcDbLine
 10
285.8006722687109
 20
33.9084056824887
 30
0.0
 11
285.8006722687109
 21
33.15871503636056
 31
0.0
  0
LINE
  5
2DF
330
288
100
AcDbEntity
  8
0
 62
     0
370
    -2
100
AcDbLine
 10
285.2006722687109
 20
34.20840568248869
 30
0.0
 11
285.2006722687109
 21
33.15871503636056
 31
0.0
  0
LINE
  5
2E0
330
288
100
AcDbEntity
  8
0
 62
     0
370
    -2
100
AcDbLine
 10
285.6206722687108
 20
33.33871503636056
 30
0.0
 11
285.3806722687108
 21
33.33871503636056
 31
0.0
  0
LINE
  5
2E1
330
288
100
AcDbEntity
  8
0
 62
     0
370
    -2
100
AcDbLine
 10
285.2006722687109
 20
33.33871503636056
 30
0.0
 11
285.0206722687108
 21
33.33871503636056
 31
0.0
  0
SOLID
  5
2E2
330
288
100
AcDbEntity
  8
0
 62
     0
100
AcDbTrace
 10
285.6206722687108
 20
33.36871503636056
 30
0.0
 11
285.6206722687108
 21
33.30871503636056
 31
0.0
 12
285.8006722687109
 22
33.33871503636056
 32
0.0
 13
285.8006722687109
 23
33.33871503636056
 33
0.0
  0
SOLID
  5
2E3
330
288
100
AcDbEntity
  8
0
 62
     0
100
AcDbTrace
 10
285.3806722687108
 20
33.36871503636056
 30
0.0
 11
285.3806722687108
 21
33.30871503636056
 31
0.0
 12
285.2006722687109
 22
33.33871503636056
 32
0.0
 13
285.2006722687109
 23
33.33871503636056
 33
0.0
  0
MTEXT
  5
2E4
330
288
100
AcDbEntity
  8
0
 62
     0
100
AcDbMText
 10
284.5406722687108
 20
33.33871503636056
 30
0.0
 40
0.18
 41
0.0
 71
     5
 72
     1
  1
\A1;0.6000
 73
     1
 44
1.0
  0
POINT
  5
2E5
330
288
100
AcDbEntity
  8
DEFPOINTS
 62
     0
100
AcDbPoint
 10
285.8006722687109
 20
33.9709056824887
 30
0.0
  0
POINT
  5
2E6
330
288
100
AcDbEntity
  8
DEFPOINTS
 62
     0
100
AcDbPoint
 10
285.2006722687109
 20
34.27090568248869
 30
0.0
  0
POINT
  5
2E7
330
288
100
AcDbEntity
  8
DEFPOINTS
 62
     0
100
AcDbPoint
 10
285.2006722687109
 20
33.33871503636056
 30
0.0
  0
ENDBLK
  5
294
330
288
100
AcDbEntity
  8
0
100
AcDbBlockEnd
  0
BLOCK
  5
2A1
330
296
100
AcDbEntity
  8
0
100
AcDbBlockBegin
  2
*D17
 70
     1
 10
0.0
 20
0.0
 30
0.0
  3
*D17
  1

  0
LINE
  5
297
330
296
100
AcDbEntity
  8
0
 62
     0
370
    -2
100
AcDbLine
 10
287.4506722687108
 20
33.9084056824887
 30
0.0
 11
287.4506722687108
 21
33.057655905451
 31
0.0
  0
LINE
  5
298
330
296
100
AcDbEntity
  8
0
 62
     0
370
    -2
100
AcDbLine
 10
285.8006722687109
 20
33.9084056824887
 30
0.0
 11
285.8006722687109
 21
33.057655905451
 31
0.0
  0
LINE
  5
299
330
296
100
AcDbEntity
  8
0
 62
     0
370
    -2
100
AcDbLine
 10
287.2706722687108
 20
33.237655905451
 30
0.0
 11
287.1056722687109
 21
33.237655905451
 31
0.0
  0
LINE
  5
29A
330
296
100
AcDbEntity
  8
0
 62
     0
370
    -2
100
AcDbLine
 10
285.9806722687109
 20
33.237655905451
 30
0.0
 11
286.1456722687108
 21
33.237655905451
 31
0.0
  0
SOLID
  5
29B
330
296
100
AcDbEntity
  8
0
 62
     0
100
AcDbTrace
 10
287.2706722687108
 20
33.267655905451
 30
0.0
 11
287.2706722687108
 21
33.207655905451
 31
0.0
 12
287.4506722687108
 22
33.237655905451
 32
0.0
 13
287.4506722687108
 23
33.237655905451
 33
0.0
  0
SOLID
  5
29C
330
296
100
AcDbEntity
  8
0
 62
     0
100
AcDbTrace
 10
285.9806722687109
 20
33.267655905451
 30
0.0
 11
285.9806722687109
 21
33.207655905451
 31
0.0
 12
285.8006722687109
 22
33.237655905451
 32
0.0
 13
285.8006722687109
 23
33.237655905451
 33
0.0
  0
MTEXT
  5
29D
330
296
100
AcDbEntity
  8
0
 62
     0
100
AcDbMText
 10
286.6256722687109
 20
33.237655905451
 30
0.0
 40
0.18
 41
0.0
 71
     5
 72
     1
  1
\A1;1.6500
 73
     1
 44
1.0
  0
POINT
  5
29E
330
296
100
AcDbEntity
  8
DEFPOINTS
 62
     0
100
AcDbPoint
 10
287.4506722687108
 20
33.9709056824887
 30
0.0
  0
POINT
  5
29F
330
296
100
AcDbEntity
  8
DEFPOINTS
 62
     0
100
AcDbPoint
 10
285.8006722687109
 20
33.9709056824887
 30
0.0
  0
POINT
  5
2A0
330
296
100
AcDbEntity
  8
DEFPOINTS
 62
     0
100
AcDbPoint
 10
285.8006722687109
 20
33.237655905451
 30
0.0
  0
ENDBLK
  5
2A2
330
296
100
AcDbEntity
  8
0
100
AcDbBlockEnd
  0
BLOCK
  5
2AF
330
2A4
100
AcDbEntity
  8
0
100
AcDbBlockBegin
  2
*D18
 70
     1
 10
0.0
 20
0.0
 30
0.0
  3
*D18
  1

  0
LINE
  5
2A5
330
2A4
100
AcDbEntity
  8
0
 62
     0
370
    -2
100
AcDbLine
 10
288.1131722687109
 20
34.27090568248869
 30
0.0
 11
289.1148634156184
 21
34.27090568248869
 31
0.0
  0
LINE
  5
2A6
330
2A4
100
AcDbEntity
  8
0
 62
     0
370
    -2
100
AcDbLine
 10
288.1131722687109
 20
35.2709056824887
 30
0.0
 11
289.1148634156184
 21
35.2709056824887
 31
0.0
  0
LINE
  5
2A7
330
2A4
100
AcDbEntity
  8
0
 62
     0
370
    -2
100
AcDbLine
 10
288.9348634156183
 20
34.45090568248869
 30
0.0
 11
288.9348634156183
 21
34.59090568248869
 31
0.0
  0
LINE
  5
2A8
330
2A4
100
AcDbEntity
  8
0
 62
     0
370
    -2
100
AcDbLine
 10
288.9348634156183
 20
35.0909056824887
 30
0.0
 11
288.9348634156183
 21
34.95090568248869
 31
0.0
  0
SOLID
  5
2A9
330
2A4
100
AcDbEntity
  8
0
 62
     0
100
AcDbTrace
 10
288.9048634156184
 20
34.45090568248869
 30
0.0
 11
288.9648634156183
 21
34.45090568248869
 31
0.0
 12
288.9348634156183
 22
34.27090568248869
 32
0.0
 13
288.9348634156183
 23
34.27090568248869
 33
0.0
  0
SOLID
  5
2AA
330
2A4
100
AcDbEntity
  8
0
 62
     0
100
AcDbTrace
 10
288.9048634156184
 20
35.0909056824887
 30
0.0
 11
288.9648634156183
 21
35.0909056824887
 31
0.0
 12
288.9348634156183
 22
35.2709056824887
 32
0.0
 13
288.9348634156183
 23
35.2709056824887
 33
0.0
  0
MTEXT
  5
2AB
330
2A4
100
AcDbEntity
  8
0
 62
     0
100
AcDbMText
 10
288.9348634156183
 20
34.77090568248874
 30
0.0
 40
0.18
 41
0.0
 71
     5
 72
     1
  1
\A1;1.0000
 73
     1
 44
1.0
  0
POINT
  5
2AC
330
2A4
100
AcDbEntity
  8
DEFPOINTS
 62
     0
100
AcDbPoint
 10
288.0506722687109
 20
34.27090568248869
 30
0.0
  0
POINT
  5
2AD
330
2A4
100
AcDbEntity
  8
DEFPOINTS
 62
     0
100
AcDbPoint
 10
288.0506722687109
 20
35.2709056824887
 30
0.0
  0
POINT
  5
2AE
330
2A4
100
AcDbEntity
  8
DEFPOINTS
 62
     0
100
AcDbPoint
 10
288.9348634156183
 20
35.2709056824887
 30
0.0
  0
ENDBLK
  5
2B0
330
2A4
100
AcDbEntity
  8
0
100
AcDbBlockEnd
  0
BLOCK
  5
2BE
330
2B2
100
AcDbEntity
  8
0
100
AcDbBlockBegin
  2
*D19
 70
     1
 10
0.0
 20
0.0
 30
0.0
  3
*D19
  1

  0
LINE
  5
2B3
330
2B2
100
AcDbEntity
  8
0
 62
     0
370
    -2
100
AcDbLine
 10
287.5131722687108
 20
33.9709056824887
 30
0.0
 11
289.1148634156184
 21
33.9709056824887
 31
0.0
  0
LINE
  5
2B4
330
2B2
100
AcDbEntity
  8
0
 62
     0
370
    -2
100
AcDbLine
 10
288.1131722687109
 20
34.27090568248869
 30
0.0
 11
289.1148634156184
 21
34.27090568248869
 31
0.0
  0
LINE
  5
2B5
330
2B2
100
AcDbEntity
  8
0
 62
     0
370
    -2
100
AcDbLine
 10
288.9348634156183
 20
33.7909056824887
 30
0.0
 11
288.9348634156183
 21
33.6109056824887
 31
0.0
  0
LINE
  5
2B6
330
2B2
100
AcDbEntity
  8
0
 62
     0
370
    -2
100
AcDbLine
 10
288.9348634156183
 20
34.45090568248869
 30
0.0
 11
288.9348634156183
 21
34.63090568248869
 31
0.0
  0
LINE
  5
2B7
330
2B2
100
AcDbEntity
  8
0
 62
     0
370
    -2
100
AcDbLine
 10
288.9348634156183
 20
34.63090568248869
 30
0.0
 11
289.1148634156184
 21
34.63090568248869
 31
0.0
  0
SOLID
  5
2B8
330
2B2
100
AcDbEntity
  8
0
 62
     0
100
AcDbTrace
 10
288.9048634156184
 20
33.7909056824887
 30
0.0
 11
288.9648634156183
 21
33.7909056824887
 31
0.0
 12
288.9348634156183
 22
33.9709056824887
 32
0.0
 13
288.9348634156183
 23
33.9709056824887
 33
0.0
  0
SOLID
  5
2B9
330
2B2
100
AcDbEntity
  8
0
 62
     0
100
AcDbTrace
 10
288.9048634156184
 20
34.45090568248869
 30
0.0
 11
288.9648634156183
 21
34.45090568248869
 31
0.0
 12
288.9348634156183
 22
34.27090568248869
 32
0.0
 13
288.9348634156183
 23
34.27090568248869
 33
0.0
  0
MTEXT
  5
2BA
330
2B2
100
AcDbEntity
  8
0
 62
     0
100
AcDbMText
 10
289.5948634156184
 20
34.63090568248874
 30
0.0
 40
0.18
 41
0.0
 71
     5
 72
     1
  1
\A1;0.3000
 73
     1
 44
1.0
  0
POINT
  5
2BB
330
2B2
100
AcDbEntity
  8
DEFPOINTS
 62
     0
100
AcDbPoint
 10
287.4506722687108
 20
33.9709056824887
 30
0.0
  0
POINT
  5
2BC
330
2B2
100
AcDbEntity
  8
DEFPOINTS
 62
     0
100
AcDbPoint
 10
288.0506722687109
 20
34.27090568248869
 30
0.0
  0
POINT
  5
2BD
330
2B2
100
AcDbEntity
  8
DEFPOINTS
 62
     0
100
AcDbPoint
 10
288.9348634156183
 20
34.27090568248869
 30
0.0
  0
ENDBLK
  5
2BF
330
2B2
100
AcDbEntity
  8
0
100
AcDbBlockEnd
  0
BLOCK
  5
2F4
330
2E9
100
AcDbEntity
  8
0
100
AcDbBlockBegin
  2
*D20
 70
     1
 10
0.0
 20
0.0
 30
0.0
  3
*D20
  1

  0
LINE
  5
2EA
330
2E9
100
AcDbEntity
  8
0
 62
     0
370
    -2
100
AcDbLine
 10
285.7381722687108
 20
33.9709056824887
 30
0.0
 11
284.3164288663979
 21
33.9709056824887
 31
0.0
  0
LINE
  5
2EB
330
2E9
100
AcDbEntity
  8
0
 62
     0
370
    -2
100
AcDbLine
 10
285.1381722687108
 20
35.2709056824887
 30
0.0
 11
284.3164288663979
 21
35.2709056824887
 31
0.0
  0
LINE
  5
2EC
330
2E9
100
AcDbEntity
  8
0
 62
     0
370
    -2
100
AcDbLine
 10
284.4964288663979
 20
34.1509056824887
 30
0.0
 11
284.4964288663979
 21
34.4409056824887
 31
0.0
  0
LINE
  5
2ED
330
2E9
100
AcDbEntity
  8
0
 62
     0
370
    -2
100
AcDbLine
 10
284.4964288663979
 20
35.0909056824887
 30
0.0
 11
284.4964288663979
 21
34.8009056824887
 31
0.0
  0
SOLID
  5
2EE
330
2E9
100
AcDbEntity
  8
0
 62
     0
100
AcDbTrace
 10
284.466428866398
 20
34.1509056824887
 30
0.0
 11
284.5264288663979
 21
34.1509056824887
 31
0.0
 12
284.4964288663979
 22
33.9709056824887
 32
0.0
 13
284.4964288663979
 23
33.9709056824887
 33
0.0
  0
SOLID
  5
2EF
330
2E9
100
AcDbEntity
  8
0
 62
     0
100
AcDbTrace
 10
284.466428866398
 20
35.0909056824887
 30
0.0
 11
284.5264288663979
 21
35.0909056824887
 31
0.0
 12
284.4964288663979
 22
35.2709056824887
 32
0.0
 13
284.4964288663979
 23
35.2709056824887
 33
0.0
  0
MTEXT
  5
2F0
330
2E9
100
AcDbEntity
  8
0
 62
     0
100
AcDbMText
 10
284.4964288663979
 20
34.62090568248875
 30
0.0
 40
0.18
 41
0.0
 71
     5
 72
     1
  1
\A1;1.3000
 73
     1
 44
1.0
  0
POINT
  5
2F1
330
2E9
100
AcDbEntity
  8
DEFPOINTS
 62
     0
100
AcDbPoint
 10
285.8006722687109
 20
33.9709056824887
 30
0.0
  0
POINT
  5
2F2
330
2E9
100
AcDbEntity
  8
DEFPOINTS
 62
     0
100
AcDbPoint
 10
285.2006722687109
 20
35.2709056824887
 30
0.0
  0
POINT
  5
2F3
330
2E9
100
AcDbEntity
  8
DEFPOINTS
 62
     0
100
AcDbPoint
 10
284.4964288663979
 20
35.2709056824887
 30
0.0
  0
ENDBLK
  5
2F5
330
2E9
100
AcDbEntity
  8
0
100
AcDbBlockEnd
  0
BLOCK
  5
302
330
2F7
100
AcDbEntity
  8
0
100
AcDbBlockBegin
  2
*D21
 70
     1
 10
0.0
 20
0.0
 30
0.0
  3
*D21
  1

  0
LINE
  5
2F8
330
2F7
100
AcDbEntity
  8
0
 62
     0
370
    -2
100
AcDbLine
 10
285.7381722687108
 20
33.9709056824887
 30
0.0
 11
283.5886485783948
 21
33.9709056824887
 31
0.0
  0
LINE
  5
2F9
330
2F7
100
AcDbEntity
  8
0
 62
     0
370
    -2
100
AcDbLine
 10
286.5631722687108
 20
36.67090568248871
 30
0.0
 11
283.5886485783948
 21
36.67090568248871
 31
0.0
  0
LINE
  5
2FA
330
2F7
100
AcDbEntity
  8
0
 62
     0
370
    -2
100
AcDbLine
 10
283.7686485783948
 20
34.1509056824887
 30
0.0
 11
283.7686485783948
 21
35.14090568248871
 31
0.0
  0
LINE
  5
2FB
330
2F7
100
AcDbEntity
  8
0
 62
     0
370
    -2
100
AcDbLine
 10
283.7686485783948
 20
36.49090568248871
 30
0.0
 11
283.7686485783948
 21
35.50090568248871
 31
0.0
  0
SOLID
  5
2FC
330
2F7
100
AcDbEntity
  8
0
 62
     0
100
AcDbTrace
 10
283.7386485783948
 20
34.1509056824887
 30
0.0
 11
283.7986485783948
 21
34.1509056824887
 31
0.0
 12
283.7686485783948
 22
33.9709056824887
 32
0.0
 13
283.7686485783948
 23
33.9709056824887
 33
0.0
  0
SOLID
  5
2FD
330
2F7
100
AcDbEntity
  8
0
 62
     0
100
AcDbTrace
 10
283.7386485783948
 20
36.49090568248871
 30
0.0
 11
283.7986485783948
 21
36.49090568248871
 31
0.0
 12
283.7686485783948
 22
36.67090568248871
 32
0.0
 13
283.7686485783948
 23
36.67090568248871
 33
0.0
  0
MTEXT
  5
2FE
330
2F7
100
AcDbEntity
  8
0
 62
     0
100
AcDbMText
 10
283.7686485783948
 20
35.32090568248875
 30
0.0
 40
0.18
 41
0.0
 71
     5
 72
     1
  1
\A1;2.7000
 73
     1
 44
1.0
  0
POINT
  5
2FF
330
2F7
100
AcDbEntity
  8
DEFPOINTS
 62
     0
100
AcDbPoint
 10
285.8006722687109
 20
33.9709056824887
 30
0.0
  0
POINT
  5
300
330
2F7
100
AcDbEntity
  8
DEFPOINTS
 62
     0
100
AcDbPoint
 10
286.6256722687109
 20
36.67090568248871
 30
0.0
  0
POINT
  5
301
330
2F7
100
AcDbEntity
  8
DEFPOINTS
 62
     0
100
AcDbPoint
 10
283.7686485783948
 20
36.67090568248871
 30
0.0
  0
ENDBLK
  5
303
330
2F7
100
AcDbEntity
  8
0
100
AcDbBlockEnd
  0
BLOCK
  5
310
330
305
100
AcDbEntity
  8
0
100
AcDbBlockBegin
  2
*D22
 70
     1
 10
0.0
 20
0.0
 30
0.0
  3
*D22
  1

  0
LINE
  5
306
330
305
100
AcDbEntity
  8
0
 62
     0
370
    -2
100
AcDbLine
 10
288.1131722687109
 20
34.27090568248869
 30
0.0
 11
288.6945959184618
 21
34.27090568248869
 31
0.0
  0
LINE
  5
307
330
305
100
AcDbEntity
  8
0
 62
     0
370
    -2
100
AcDbLine
 10
288.1131722687109
 20
35.2709056824887
 30
0.0
 11
288.6945959184618
 21
35.2709056824887
 31
0.0
  0
LINE
  5
308
330
305
100
AcDbEntity
  8
0
 62
     0
370
    -2
100
AcDbLine
 10
288.5145959184617
 20
34.45090568248869
 30
0.0
 11
288.5145959184617
 21
34.59090568248869
 31
0.0
  0
LINE
  5
309
330
305
100
AcDbEntity
  8
0
 62
     0
370
    -2
100
AcDbLine
 10
288.5145959184617
 20
35.0909056824887
 30
0.0
 11
288.5145959184617
 21
34.95090568248869
 31
0.0
  0
SOLID
  5
30A
330
305
100
AcDbEntity
  8
0
 62
     0
100
AcDbTrace
 10
288.4845959184618
 20
34.45090568248869
 30
0.0
 11
288.5445959184617
 21
34.45090568248869
 31
0.0
 12
288.5145959184617
 22
34.27090568248869
 32
0.0
 13
288.5145959184617
 23
34.27090568248869
 33
0.0
  0
SOLID
  5
30B
330
305
100
AcDbEntity
  8
0
 62
     0
100
AcDbTrace
 10
288.4845959184618
 20
35.0909056824887
 30
0.0
 11
288.5445959184617
 21
35.0909056824887
 31
0.0
 12
288.5145959184617
 22
35.2709056824887
 32
0.0
 13
288.5145959184617
 23
35.2709056824887
 33
0.0
  0
MTEXT
  5
30C
330
305
100
AcDbEntity
  8
0
 62
     0
100
AcDbMText
 10
288.5145959184617
 20
34.77090568248874
 30
0.0
 40
0.18
 41
0.0
 71
     5
 72
     1
  1
\A1;1.0000
 73
     1
 44
1.0
  0
POINT
  5
30D
330
305
100
AcDbEntity
  8
DEFPOINTS
 62
     0
100
AcDbPoint
 10
288.0506722687109
 20
34.27090568248869
 30
0.0
  0
POINT
  5
30E
330
305
100
AcDbEntity
  8
DEFPOINTS
 62
     0
100
AcDbPoint
 10
288.0506722687109
 20
35.2709056824887
 30
0.0
  0
POINT
  5
30F
330
305
100
AcDbEntity
  8
DEFPOINTS
 62
     0
100
AcDbPoint
 10
288.5145959184617
 20
35.2709056824887
 30
0.0
  0
ENDBLK
  5
311
330
305
100
AcDbEntity
  8
0
100
AcDbBlockEnd
  0
BLOCK
  5
31E
330
313
100
AcDbEntity
  8
0
100
AcDbBlockBegin
  2
*D23
 70
     1
 10
0.0
 20
0.0
 30
0.0
  3
*D23
  1

  0
LINE
  5
314
330
313
100
AcDbEntity
  8
0
 62
     0
370
    -2
100
AcDbLine
 10
287.5131722687108
 20
33.9709056824887
 30
0.0
 11
290.3039128408925
 21
33.9709056824887
 31
0.0
  0
LINE
  5
315
330
313
100
AcDbEntity
  8
0
 62
     0
370
    -2
100
AcDbLine
 10
286.6881722687109
 20
36.67090568248871
 30
0.0
 11
290.3039128408925
 21
36.67090568248871
 31
0.0
  0
LINE
  5
316
330
313
100
AcDbEntity
  8
0
 62
     0
370
    -2
100
AcDbLine
 10
290.1239128408925
 20
34.1509056824887
 30
0.0
 11
290.1239128408925
 21
35.14090568248871
 31
0.0
  0
LINE
  5
317
330
313
100
AcDbEntity
  8
0
 62
     0
370
    -2
100
AcDbLine
 10
290.1239128408925
 20
36.49090568248871
 30
0.0
 11
290.1239128408925
 21
35.50090568248871
 31
0.0
  0
SOLID
  5
318
330
313
100
AcDbEntity
  8
0
 62
     0
100
AcDbTrace
 10
290.0939128408925
 20
34.1509056824887
 30
0.0
 11
290.1539128408925
 21
34.1509056824887
 31
0.0
 12
290.1239128408925
 22
33.9709056824887
 32
0.0
 13
290.1239128408925
 23
33.9709056824887
 33
0.0
  0
SOLID
  5
319
330
313
100
AcDbEntity
  8
0
 62
     0
100
AcDbTrace
 10
290.0939128408925
 20
36.49090568248871
 30
0.0
 11
290.1539128408925
 21
36.49090568248871
 31
0.0
 12
290.1239128408925
 22
36.67090568248871
 32
0.0
 13
290.1239128408925
 23
36.67090568248871
 33
0.0
  0
MTEXT
  5
31A
330
313
100
AcDbEntity
  8
0
 62
     0
100
AcDbMText
 10
290.1239128408925
 20
35.32090568248875
 30
0.0
 40
0.18
 41
0.0
 71
     5
 72
     1
  1
\A1;2.7000
 73
     1
 44
1.0
  0
POINT
  5
31B
330
313
100
AcDbEntity
  8
DEFPOINTS
 62
     0
100
AcDbPoint
 10
287.4506722687108
 20
33.9709056824887
 30
0.0
  0
POINT
  5
31C
330
313
100
AcDbEntity
  8
DEFPOINTS
 62
     0
100
AcDbPoint
 10
286.6256722687109
 20
36.67090568248871
 30
0.0
  0
POINT
  5
31D
330
313
100
AcDbEntity
  8
DEFPOINTS
 62
     0
100
AcDbPoint
 10
290.1239128408925
 20
36.67090568248871
 30
0.0
  0
ENDBLK
  5
31F
330
313
100
AcDbEntity
  8
0
100
AcDbBlockEnd
  0
BLOCK
  5
337
330
32C
100
AcDbEntity
  8
0
100
AcDbBlockBegin
  2
*D24
 70
     1
 10
0.0
 20
0.0
 30
0.0
  3
*D24
  1

  0
LINE
  5
32D
330
32C
100
AcDbEntity
  8
0
 62
     0
370
    -2
100
AcDbLine
 10
287.410154471232
 20
36.49467101772689
 30
0.0
 11
288.7582179213927
 21
36.49467101772689
 31
0.0
  0
LINE
  5
32E
330
32C
100
AcDbEntity
  8
0
 62
     0
370
    -2
100
AcDbLine
 10
287.410154471232
 20
34.49467101772689
 30
0.0
 11
288.7582179213927
 21
34.49467101772689
 31
0.0
  0
LINE
  5
32F
330
32C
100
AcDbEntity
  8
0
 62
     0
370
    -2
100
AcDbLine
 10
288.5782179213927
 20
36.31467101772689
 30
0.0
 11
288.5782179213927
 21
35.67467101772689
 31
0.0
  0
LINE
  5
330
330
32C
100
AcDbEntity
  8
0
 62
     0
370
    -2
100
AcDbLine
 10
288.5782179213927
 20
34.67467101772689
 30
0.0
 11
288.5782179213927
 21
35.31467101772689
 31
0.0
  0
SOLID
  5
331
330
32C
100
AcDbEntity
  8
0
 62
     0
100
AcDbTrace
 10
288.5482179213927
 20
36.31467101772689
 30
0.0
 11
288.6082179213926
 21
36.31467101772689
 31
0.0
 12
288.5782179213927
 22
36.49467101772689
 32
0.0
 13
288.5782179213927
 23
36.49467101772689
 33
0.0
  0
SOLID
  5
332
330
32C
100
AcDbEntity
  8
0
 62
     0
100
AcDbTrace
 10
288.5482179213927
 20
34.67467101772689
 30
0.0
 11
288.6082179213926
 21
34.67467101772689
 31
0.0
 12
288.5782179213927
 22
34.49467101772689
 32
0.0
 13
288.5782179213927
 23
34.49467101772689
 33
0.0
  0
MTEXT
  5
333
330
32C
100
AcDbEntity
  8
0
 62
     0
100
AcDbMText
 10
288.5782179213927
 20
35.49467101772694
 30
0.0
 40
0.18
 41
0.0
 71
     5
 72
     1
  1
\A1;2.0000
 73
     1
 44
1.0
  0
POINT
  5
334
330
32C
100
AcDbEntity
  8
DEFPOINTS
 62
     0
100
AcDbPoint
 10
287.347654471232
 20
36.49467101772689
 30
0.0
  0
POINT
  5
335
330
32C
100
AcDbEntity
  8
DEFPOINTS
 62
     0
100
AcDbPoint
 10
287.347654471232
 20
34.49467101772689
 30
0.0
  0
POINT
  5
336
330
32C
100
AcDbEntity
  8
DEFPOINTS
 62
     0
100
AcDbPoint
 10
288.5782179213927
 20
34.49467101772689
 30
0.0
  0
ENDBLK
  5
338
330
32C
100
AcDbEntity
  8
0
100
AcDbBlockEnd
  0
BLOCK
  5
346
330
33A
100
AcDbEntity
  8
0
100
AcDbBlockBegin
  2
*D25
 70
     1
 10
0.0
 20
0.0
 30
0.0
  3
*D25
  1

  0
LINE
  5
33B
330
33A
100
AcDbEntity
  8
0
 62
     0
370
    -2
100
AcDbLine
 10
285.585154471232
 20
34.79467101772689
 30
0.0
 11
285.1525213320149
 21
34.79467101772689
 31
0.0
  0
LINE
  5
33C
330
33A
100
AcDbEntity
  8
0
 62
     0
370
    -2
100
AcDbLine
 10
286.285154471232
 20
34.49467101772689
 30
0.0
 11
285.1525213320149
 21
34.49467101772689
 31
0.0
  0
LINE
  5
33D
330
33A
100
AcDbEntity
  8
0
 62
     0
370
    -2
100
AcDbLine
 10
285.332521332015
 20
34.97467101772689
 30
0.0
 11
285.332521332015
 21
35.15467101772689
 31
0.0
  0
LINE
  5
33E
330
33A
100
AcDbEntity
  8
0
 62
     0
370
    -2
100
AcDbLine
 10
285.332521332015
 20
34.31467101772689
 30
0.0
 11
285.332521332015
 21
34.13467101772689
 31
0.0
  0
LINE
  5
33F
330
33A
100
AcDbEntity
  8
0
 62
     0
370
    -2
100
AcDbLine
 10
285.332521332015
 20
34.13467101772689
 30
0.0
 11
285.1525213320149
 21
34.13467101772689
 31
0.0
  0
SOLID
  5
340
330
33A
100
AcDbEntity
  8
0
 62
     0
100
AcDbTrace
 10
285.302521332015
 20
34.97467101772689
 30
0.0
 11
285.3625213320149
 21
34.97467101772689
 31
0.0
 12
285.332521332015
 22
34.79467101772689
 32
0.0
 13
285.332521332015
 23
34.79467101772689
 33
0.0
  0
SOLID
  5
341
330
33A
100
AcDbEntity
  8
0
 62
     0
100
AcDbTrace
 10
285.302521332015
 20
34.31467101772689
 30
0.0
 11
285.3625213320149
 21
34.31467101772689
 31
0.0
 12
285.332521332015
 22
34.49467101772689
 32
0.0
 13
285.332521332015
 23
34.49467101772689
 33
0.0
  0
MTEXT
  5
342
330
33A
100
AcDbEntity
  8
0
 62
     0
100
AcDbMText
 10
284.6725213320149
 20
34.13467101772694
 30
0.0
 40
0.18
 41
0.0
 71
     5
 72
     1
  1
\A1;0.3000
 73
     1
 44
1.0
  0
POINT
  5
343
330
33A
100
AcDbEntity
  8
DEFPOINTS
 62
     0
100
AcDbPoint
 10
285.647654471232
 20
34.79467101772689
 30
0.0
  0
POINT
  5
344
330
33A
100
AcDbEntity
  8
DEFPOINTS
 62
     0
100
AcDbPoint
 10
286.347654471232
 20
34.49467101772689
 30
0.0
  0
POINT
  5
345
330
33A
100
AcDbEntity
  8
DEFPOINTS
 62
     0
100
AcDbPoint
 10
285.332521332015
 20
34.49467101772689
 30
0.0
  0
ENDBLK
  5
347
330
33A
100
AcDbEntity
  8
0
100
AcDbBlockEnd
  0
BLOCK
  5
354
330
349
100
AcDbEntity
  8
0
100
AcDbBlockBegin
  2
*D26
 70
     1
 10
0.0
 20
0.0
 30
0.0
  3
*D26
  1

  0
LINE
  5
34A
330
349
100
AcDbEntity
  8
0
 62
     0
370
    -2
100
AcDbLine
 10
285.647654471232
 20
34.73217101772689
 30
0.0
 11
285.647654471232
 21
33.41422713772431
 31
0.0
  0
LINE
  5
34B
330
349
100
AcDbEntity
  8
0
 62
     0
370
    -2
100
AcDbLine
 10
286.347654471232
 20
34.43217101772689
 30
0.0
 11
286.347654471232
 21
33.41422713772431
 31
0.0
  0
LINE
  5
34C
330
349
100
AcDbEntity
  8
0
 62
     0
370
    -2
100
AcDbLine
 10
285.827654471232
 20
33.59422713772431
 30
0.0
 11
286.167654471232
 21
33.59422713772431
 31
0.0
  0
LINE
  5
34D
330
349
100
AcDbEntity
  8
0
 62
     0
370
    -2
100
AcDbLine
 10
286.347654471232
 20
33.59422713772431
 30
0.0
 11
286.527654471232
 21
33.59422713772431
 31
0.0
  0
SOLID
  5
34E
330
349
100
AcDbEntity
  8
0
 62
     0
100
AcDbTrace
 10
285.827654471232
 20
33.62422713772431
 30
0.0
 11
285.827654471232
 21
33.56422713772431
 31
0.0
 12
285.647654471232
 22
33.59422713772431
 32
0.0
 13
285.647654471232
 23
33.59422713772431
 33
0.0
  0
SOLID
  5
34F
330
349
100
AcDbEntity
  8
0
 62
     0
100
AcDbTrace
 10
286.167654471232
 20
33.62422713772431
 30
0.0
 11
286.167654471232
 21
33.56422713772431
 31
0.0
 12
286.347654471232
 22
33.59422713772431
 32
0.0
 13
286.347654471232
 23
33.59422713772431
 33
0.0
  0
MTEXT
  5
350
330
349
100
AcDbEntity
  8
0
 62
     0
100
AcDbMText
 10
287.007654471232
 20
33.59422713772431
 30
0.0
 40
0.18
 41
0.0
 71
     5
 72
     1
  1
\A1;0.7000
 73
     1
 44
1.0
  0
POINT
  5
351
330
349
100
AcDbEntity
  8
DEFPOINTS
 62
     0
100
AcDbPoint
 10
285.647654471232
 20
34.79467101772689
 30
0.0
  0
POINT
  5
352
330
349
100
AcDbEntity
  8
DEFPOINTS
 62
     0
100
AcDbPoint
 10
286.347654471232
 20
34.49467101772689
 30
0.0
  0
POINT
  5
353
330
349
100
AcDbEntity
  8
DEFPOINTS
 62
     0
100
AcDbPoint
 10
286.347654471232
 20
33.59422713772431
 30
0.0
  0
ENDBLK
  5
355
330
349
100
AcDbEntity
  8
0
100
AcDbBlockEnd
  0
BLOCK
  5
362
330
357
100
AcDbEntity
  8
0
100
AcDbBlockBegin
  2
*D27
 70
     1
 10
0.0
 20
0.0
 30
0.0
  3
*D27
  1

  0
LINE
  5
358
330
357
100
AcDbEntity
  8
0
 62
     0
370
    -2
100
AcDbLine
 10
286.347654471232
 20
34.43217101772689
 30
0.0
 11
286.347654471232
 21
33.79377359116059
 31
0.0
  0
LINE
  5
359
330
357
100
AcDbEntity
  8
0
 62
     0
370
    -2
100
AcDbLine
 10
287.347654471232
 20
34.43217101772689
 30
0.0
 11
287.347654471232
 21
33.79377359116059
 31
0.0
  0
LINE
  5
35A
330
357
100
AcDbEntity
  8
0
 62
     0
370
    -2
100
AcDbLine
 10
286.167654471232
 20
33.97377359116059
 30
0.0
 11
285.987654471232
 21
33.97377359116059
 31
0.0
  0
LINE
  5
35B
330
357
100
AcDbEntity
  8
0
 62
     0
370
    -2
100
AcDbLine
 10
287.527654471232
 20
33.97377359116059
 30
0.0
 11
287.707654471232
 21
33.97377359116059
 31
0.0
  0
SOLID
  5
35C
330
357
100
AcDbEntity
  8
0
 62
     0
100
AcDbTrace
 10
286.167654471232
 20
34.00377359116059
 30
0.0
 11
286.167654471232
 21
33.94377359116059
 31
0.0
 12
286.347654471232
 22
33.97377359116059
 32
0.0
 13
286.347654471232
 23
33.97377359116059
 33
0.0
  0
SOLID
  5
35D
330
357
100
AcDbEntity
  8
0
 62
     0
100
AcDbTrace
 10
287.527654471232
 20
34.00377359116059
 30
0.0
 11
287.527654471232
 21
33.94377359116059
 31
0.0
 12
287.347654471232
 22
33.97377359116059
 32
0.0
 13
287.347654471232
 23
33.97377359116059
 33
0.0
  0
MTEXT
  5
35E
330
357
100
AcDbEntity
  8
0
 62
     0
100
AcDbMText
 10
286.847654471232
 20
33.97377359116059
 30
0.0
 40
0.18
 41
0.0
 71
     5
 72
     1
  1
\A1;1.0000
 73
     1
 44
1.0
  0
POINT
  5
35F
330
357
100
AcDbEntity
  8
DEFPOINTS
 62
     0
100
AcDbPoint
 10
286.347654471232
 20
34.49467101772689
 30
0.0
  0
POINT
  5
360
330
357
100
AcDbEntity
  8
DEFPOINTS
 62
     0
100
AcDbPoint
 10
287.347654471232
 20
34.49467101772689
 30
0.0
  0
POINT
  5
361
330
357
100
AcDbEntity
  8
DEFPOINTS
 62
     0
100
AcDbPoint
 10
287.347654471232
 20
33.97377359116059
 30
0.0
  0
ENDBLK
  5
363
330
357
100
AcDbEntity
  8
0
100
AcDbBlockEnd
  0
ENDSEC
  0
SECTION
  2
ENTITIES
  0
TEXT
  5
2C
330
1E
100
AcDbEntity
  8
0
  6
Continuous
100
AcDbText
 10
287.2805487186718
 20
41.39364127471099
 30
0.0
 40
0.1
  1
2
  7
ROMANC
100
AcDbText
  0
TEXT
  5
2D
330
1E
100
AcDbEntity
  8
0
  6
Continuous
100
AcDbText
 10
283.9259999999999
 20
41.768
 30
0.0
 40
0.3
  1
ESCALA  1:10
  7
ROMANC
100
AcDbText
  0
LWPOLYLINE
  5
2E
330
1E
100
AcDbEntity
  8
0
  6
Continuous
100
AcDbPolyline
 90
        4
 70
     1
 43
0.0
 10
281.3959999999998
 20
44.747
 10
291.8959999999998
 20
44.747
 10
291.8959999999998
 20
29.897
 10
281.3959999999998
 20
29.897
  0
TEXT
  5
34
330
1E
100
AcDbEntity
  8
0
  6
Continuous
100
AcDbText
 10
283.9259999999999
 20
42.381
 30
0.0
 40
0.3
  1
TIPUS   NT339A
  7
ROMANC
100
AcDbText
  0
TEXT
  5
3C
330
1E
100
AcDbEntity
  8
0
  6
Continuous
100
AcDbText
 10
283.9449999999999
 20
41.09899999999997
 30
0.0
 40
0.3
  1
S = 339 dm
  7
ROMANC
100
AcDbText
  0
TEXT
  5
3D
330
1E
100
AcDbEntity
  8
0
  6
Continuous
100
AcDbText
 10
283.922
 20
40.529
 30
0.0
 40
0.3
  1
P = 76 dm
  7
ROMANC
100
AcDbText
  0
LWPOLYLINE
  5
32A
330
1E
100
AcDbEntity
  8
0
100
AcDbPolyline
 90
        6
 70
     1
 43
0.0
 10
286.347654471232
 20
34.49467101772689
 10
287.347654471232
 20
34.49467101772689
 10
287.347654471232
 20
36.49467101772689
 10
285.647654471232
 20
36.49467101772689
 10
285.647654471232
 20
34.79467101772689
 10
286.347654471232
 20
34.79467101772689
  0
DIMENSION
  5
32B
330
1E
100
AcDbEntity
  8
0
100
AcDbDimension
  2
*D24
 10
288.5782179213927
 20
34.49467101772689
 30
0.0
 11
288.5782179213927
 21
35.49467101772694
 31
0.0
 70
    32
 71
     5
 42
2.0
  3
STANDARD
100
AcDbAlignedDimension
 13
287.347654471232
 23
36.49467101772689
 33
0.0
 14
287.347654471232
 24
34.49467101772689
 34
0.0
 50
90.0
100
AcDbRotatedDimension
  0
DIMENSION
  5
339
330
1E
100
AcDbEntity
  8
0
100
AcDbDimension
  2
*D25
 10
285.332521332015
 20
34.49467101772689
 30
0.0
 11
284.6725213320149
 21
34.13467101772694
 31
0.0
 70
    32
 71
     5
 42
0.2999999999999971
  3
STANDARD
100
AcDbAlignedDimension
 13
285.647654471232
 23
34.79467101772689
 33
0.0
 14
286.347654471232
 24
34.49467101772689
 34
0.0
 50
90.0
100
AcDbRotatedDimension
  0
DIMENSION
  5
348
330
1E
100
AcDbEntity
  8
0
100
AcDbDimension
  2
*D26
 10
286.347654471232
 20
33.59422713772431
 30
0.0
 11
287.007654471232
 21
33.59422713772431
 31
0.0
 70
    32
 71
     5
 42
0.6999999999999887
  3
STANDARD
100
AcDbAlignedDimension
 13
285.647654471232
 23
34.79467101772689
 33
0.0
 14
286.347654471232
 24
34.49467101772689
 34
0.0
100
AcDbRotatedDimension
  0
DIMENSION
  5
356
330
1E
100
AcDbEntity
  8
0
100
AcDbDimension
  2
*D27
 10
287.347654471232
 20
33.97377359116059
 30
0.0
 11
286.847654471232
 21
33.97377359116059
 31
0.0
 70
    32
 71
     5
  3
STANDARD
100
AcDbAlignedDimension
 13
286.347654471232
 23
34.49467101772689
 33
0.0
 14
287.347654471232
 24
34.49467101772689
 34
0.0
100
AcDbRotatedDimension
  0
LWPOLYLINE
  5
365
330
1E
100
AcDbEntity
  8
0
100
AcDbPolyline
 90
        6
 70
     1
 43
0.0
 10
286.357654471232
 20
34.50467101772689
 10
287.337654471232
 20
34.50467101772689
 10
287.337654471232
 20
36.48467101772689
 10
285.657654471232
 20
36.48467101772689
 10
285.657654471232
 20
34.80467101772688
 10
286.357654471232
 20
34.80467101772688
  0
LWPOLYLINE
  5
366
330
1E
100
AcDbEntity
  8
0
100
AcDbPolyline
 90
        6
 70
     1
 43
0.0
 10
286.337654471232
 20
34.48467101772689
 10
287.357654471232
 20
34.48467101772689
 10
287.357654471232
 20
36.50467101772689
 10
285.637654471232
 20
36.50467101772689
 10
285.637654471232
 20
34.78467101772689
 10
286.337654471232
 20
34.78467101772689
  0
VIEWPORT
  5
1D9
330
1A
100
AcDbEntity
 67
     1
  8
0
100
AcDbViewport
 10
99.980751991272
 20
143.3935842514038
 30
0.0
 40
440.9297543499659
 41
314.237268371582
 68
     1
 69
     1
 12
99.980751991272
 22
143.3935842514038
 13
0.0
 23
0.0
 14
10.0
 24
10.0
 15
10.0
 25
10.0
 16
0.0
 26
0.0
 36
1.0
 17
0.0
 27
0.0
 37
0.0
 42
50.0
 43
0.0
 44
0.0
 45
314.237268371582
 50
0.0
 51
0.0
 72
   100
 90
    32800
  1

281
     0
 71
     1
 74
     0
110
0.0
120
0.0
130
0.0
111
1.0
121
0.0
131
0.0
112
0.0
122
1.0
132
0.0
 79
     0
146
0.0
  0
VIEWPORT
  5
1DB
330
1A
100
AcDbEntity
 67
     1
  8
0
100
AcDbViewport
 10
99.980751991272
 20
143.3935842514036
 30
0.0
 40
199.2902839821538
 41
285.8513345476648
 68
     2
 69
     2
 12
286.6488322780007
 22
37.31916769001135
 13
0.0
 23
0.0
 14
1.0
 24
1.0
 15
0.0
 25
0.0
 16
0.0
 26
0.0
 36
1.0
 17
0.0
 27
0.0
 37
0.0
 42
50.0
 43
0.0
 44
0.0
 45
15.39450171875231
 50
0.0
 51
0.0
 72
   100
 90
    32800
  1

281
     0
 71
     1
 74
     0
110
0.0
120
0.0
130
0.0
111
1.0
121
0.0
131
0.0
112
0.0
122
1.0
132
0.0
 79
     0
146
0.0
  0
ENDSEC
  0
SECTION
  2
OBJECTS
  0
DICTIONARY
  5
C
330
0
100
AcDbDictionary
281
     1
  3
ACAD_GROUP
350
D
  3
ACAD_LAYOUT
350
19
  3
ACAD_MLINESTYLE
350
16
  3
ACAD_PLOTSETTINGS
350
18
  3
ACAD_PLOTSTYLENAME
350
E
  0
DICTIONARY
  5
1AC
330
1E
100
AcDbDictionary
280
     1
281
     1
  3
ACAD_LAYOUTSELFREF
360
1FE
  0
DICTIONARY
  5
1AA
330
1A
100
AcDbDictionary
280
     1
281
     1
  3
ACAD_LAYOUTSELFREF
360
1FD
  0
DICTIONARY
  5
D
102
{ACAD_REACTORS
330
C
102
}
330
C
100
AcDbDictionary
281
     1
  0
DICTIONARY
  5
19
102
{ACAD_REACTORS
330
C
102
}
330
C
100
AcDbDictionary
281
     1
  3
Model
350
205
  3
Presentación1
350
206
  0
DICTIONARY
  5
16
102
{ACAD_REACTORS
330
C
102
}
330
C
100
AcDbDictionary
281
     1
  3
STANDARD
350
17
  0
DICTIONARY
  5
18
102
{ACAD_REACTORS
330
C
102
}
330
C
100
AcDbDictionary
281
     1
  0
ACDBDICTIONARYWDFLT
  5
E
102
{ACAD_REACTORS
330
C
102
}
330
C
100
AcDbDictionary
281
     1
  3
Normal
350
F
100
AcDbDictionaryWithDefault
340
F
  0
XRECORD
  5
1FE
102
{ACAD_REACTORS
330
1AC
102
}
330
1AC
100
AcDbXrecord
280
     1
340
1E
  0
XRECORD
  5
1FD
102
{ACAD_REACTORS
330
1AA
102
}
330
1AA
100
AcDbXrecord
280
     1
340
1A
  0
LAYOUT
  5
205
102
{ACAD_REACTORS
330
19
102
}
330
19
100
AcDbPlotSettings
  1

  2
HP DesignJet 750C/PS FILE
  4

  6

 40
0.0
 41
0.0
 42
0.0
 43
0.0
 44
0.0
 45
0.0
 46
0.0
 47
0.0
 48
0.0
 49
0.0
140
0.0
141
0.0
142
1.0
143
1.0
 70
 11952
 72
     0
 73
     1
 74
     0
  7

 75
     0
147
1.0
148
-7090.408435112419
149
-757.57956202515
100
AcDbLayout
  1
Model
 70
     1
 71
     0
 10
0.0
 20
0.0
 11
12.0
 21
9.0
 12
0.0
 22
0.0
 32
0.0
 14
0.0
 24
0.0
 34
0.0
 15
0.0
 25
0.0
 35
0.0
146
0.0
 13
0.0
 23
0.0
 33
0.0
 16
1.0
 26
0.0
 36
0.0
 17
0.0
 27
1.0
 37
0.0
 76
     0
330
1E
  0
LAYOUT
  5
206
102
{ACAD_REACTORS
330
19
102
}
330
19
100
AcDbPlotSettings
  1

  2
HP DesignJet 750C/PS FILE
  4

  6

 40
0.0
 41
0.0
 42
0.0
 43
0.0
 44
0.0
 45
0.0
 46
0.0
 47
0.0
 48
0.0
 49
0.0
140
0.0
141
0.0
142
1.0
143
0.000000000000000E+99
 70
   688
 72
     0
 73
     1
 74
     1
  7

 75
     0
147
0.0
148
-8.333892980228858
149
-11.85344153907744
100
AcDbLayout
  1
Presentación1
 70
     1
 71
     1
 10
0.3281060228436559
 20
0.4666709267353326
 11
0.3281060228436559
 21
0.4666709267353326
 12
0.0
 22
0.0
 32
0.0
 14
0.3281060228436559
 24
0.4666709267353327
 34
-0.0000000349181948
 15
199.6333998656927
 25
286.3205002903685
 35
0.0000000814935746
146
0.0
 13
0.0
 23
0.0
 33
0.0
 16
1.0
 26
0.0
 36
0.0
 17
0.0
 27
1.0
 37
0.0
 76
     0
330
1A
331
1D9
  0
MLINESTYLE
  5
17
102
{ACAD_REACTORS
330
16
102
}
330
16
100
AcDbMlineStyle
  2
STANDARD
 70
     0
  3

 62
   256
 51
90.0
 52
90.0
 71
     2
 49
0.5
 62
   256
  6
BYLAYER
 49
-0.5
 62
   256
  6
BYLAYER
  0
ACDBPLACEHOLDER
  5
F
102
{ACAD_REACTORS
330
E
102
}
330
E
  0
ENDSEC
  0
EOF
