  0
SECTION
  2
HEADER
  9
$ACADVER
  1
AC1014
  9
$ACADMAINTVER
 70
     9
  9
$DWGCODEPAGE
  3
ANSI_1252
  9
$INSBASE
 10
0.0
 20
0.0
 30
0.0
  9
$EXTMIN
 10
281.3959999999998
 20
29.897
 30
0.0
  9
$EXTMAX
 10
291.8959999999998
 20
44.747
 30
0.0
  9
$LIMMIN
 10
280.3959999999999
 20
28.89699999999999
  9
$LIMMAX
 10
292.8959999999999
 20
43.74699999999999
  9
$ORTHOMODE
 70
     1
  9
$REGENMODE
 70
     1
  9
$FILLMODE
 70
     1
  9
$QTEXTMODE
 70
     0
  9
$MIRRTEXT
 70
     1
  9
$DRAGMODE
 70
     2
  9
$LTSCALE
 40
1.0
  9
$OSMODE
 70
     5
  9
$ATTMODE
 70
     1
  9
$TEXTSIZE
 40
0.2
  9
$TRACEWID
 40
0.05
  9
$TEXTSTYLE
  7
STANDARD
  9
$CLAYER
  8
0
  9
$CELTYPE
  6
BYLAYER
  9
$CECOLOR
 62
   256
  9
$CELTSCALE
 40
1.0
  9
$DELOBJ
 70
     1
  9
$DISPSILH
 70
     0
  9
$DIMSCALE
 40
1.0
  9
$DIMASZ
 40
0.18
  9
$DIMEXO
 40
0.0625
  9
$DIMDLI
 40
0.38
  9
$DIMRND
 40
0.0
  9
$DIMDLE
 40
0.0
  9
$DIMEXE
 40
0.18
  9
$DIMTP
 40
0.0
  9
$DIMTM
 40
0.0
  9
$DIMTXT
 40
0.18
  9
$DIMCEN
 40
0.09
  9
$DIMTSZ
 40
0.0
  9
$DIMTOL
 70
     0
  9
$DIMLIM
 70
     0
  9
$DIMTIH
 70
     1
  9
$DIMTOH
 70
     1
  9
$DIMSE1
 70
     0
  9
$DIMSE2
 70
     0
  9
$DIMTAD
 70
     0
  9
$DIMZIN
 70
     0
  9
$DIMBLK
  1

  9
$DIMASO
 70
     1
  9
$DIMSHO
 70
     1
  9
$DIMPOST
  1

  9
$DIMAPOST
  1

  9
$DIMALT
 70
     0
  9
$DIMALTD
 70
     2
  9
$DIMALTF
 40
25.4
  9
$DIMLFAC
 40
1.0
  9
$DIMTOFL
 70
     0
  9
$DIMTVP
 40
0.0
  9
$DIMTIX
 70
     0
  9
$DIMSOXD
 70
     0
  9
$DIMSAH
 70
     0
  9
$DIMBLK1
  1

  9
$DIMBLK2
  1

  9
$DIMSTYLE
  2
STANDARD
  9
$DIMCLRD
 70
     0
  9
$DIMCLRE
 70
     0
  9
$DIMCLRT
 70
     0
  9
$DIMTFAC
 40
1.0
  9
$DIMGAP
 40
0.09
  9
$DIMJUST
 70
     0
  9
$DIMSD1
 70
     0
  9
$DIMSD2
 70
     0
  9
$DIMTOLJ
 70
     1
  9
$DIMTZIN
 70
     0
  9
$DIMALTZ
 70
     0
  9
$DIMALTTZ
 70
     0
  9
$DIMFIT
 70
     3
  9
$DIMUPT
 70
     0
  9
$DIMUNIT
 70
     2
  9
$DIMDEC
 70
     4
  9
$DIMTDEC
 70
     4
  9
$DIMALTU
 70
     2
  9
$DIMALTTD
 70
     2
  9
$DIMTXSTY
  7
STANDARD
  9
$DIMAUNIT
 70
     0
  9
$LUNITS
 70
     2
  9
$LUPREC
 70
     4
  9
$SKETCHINC
 40
0.1
  9
$FILLETRAD
 40
0.0
  9
$AUNITS
 70
     0
  9
$AUPREC
 70
     0
  9
$MENU
  1
acad
  9
$ELEVATION
 40
0.0
  9
$PELEVATION
 40
0.0
  9
$THICKNESS
 40
0.0
  9
$LIMCHECK
 70
     0
  9
$BLIPMODE
 70
     0
  9
$CHAMFERA
 40
0.0
  9
$CHAMFERB
 40
0.0
  9
$CHAMFERC
 40
0.0
  9
$CHAMFERD
 40
0.0
  9
$SKPOLY
 70
     0
  9
$TDCREATE
 40
2448315.373408102
  9
$TDUPDATE
 40
2451717.731928749
  9
$TDINDWG
 40
0.0139580208
  9
$TDUSRTIMER
 40
0.0139540856
  9
$USRTIMER
 70
     1
  9
$ANGBASE
 50
0.0
  9
$ANGDIR
 70
     0
  9
$PDMODE
 70
     0
  9
$PDSIZE
 40
0.0
  9
$PLINEWID
 40
0.0
  9
$COORDS
 70
     0
  9
$SPLFRAME
 70
     0
  9
$SPLINETYPE
 70
     6
  9
$SPLINESEGS
 70
     8
  9
$ATTDIA
 70
     0
  9
$ATTREQ
 70
     1
  9
$HANDLING
 70
  4097
  9
$HANDSEED
  5
1EC
  9
$SURFTAB1
 70
     6
  9
$SURFTAB2
 70
     6
  9
$SURFTYPE
 70
     6
  9
$SURFU
 70
     6
  9
$SURFV
 70
     6
  9
$UCSNAME
  2

  9
$UCSORG
 10
0.0
 20
0.0
 30
0.0
  9
$UCSXDIR
 10
1.0
 20
0.0
 30
0.0
  9
$UCSYDIR
 10
0.0
 20
1.0
 30
0.0
  9
$PUCSNAME
  2

  9
$PUCSORG
 10
0.0
 20
0.0
 30
0.0
  9
$PUCSXDIR
 10
1.0
 20
0.0
 30
0.0
  9
$PUCSYDIR
 10
0.0
 20
1.0
 30
0.0
  9
$USERI1
 70
     0
  9
$USERI2
 70
     0
  9
$USERI3
 70
     0
  9
$USERI4
 70
     0
  9
$USERI5
 70
     0
  9
$USERR1
 40
0.0
  9
$USERR2
 40
0.0
  9
$USERR3
 40
0.0
  9
$USERR4
 40
0.0
  9
$USERR5
 40
0.0
  9
$WORLDVIEW
 70
     1
  9
$SHADEDGE
 70
     3
  9
$SHADEDIF
 70
    70
  9
$TILEMODE
 70
     1
  9
$MAXACTVP
 70
    16
  9
$PINSBASE
 10
0.0
 20
0.0
 30
0.0
  9
$PLIMCHECK
 70
     0
  9
$PEXTMIN
 10
1.000000000000000E+20
 20
1.000000000000000E+20
 30
1.000000000000000E+20
  9
$PEXTMAX
 10
-1.000000000000000E+20
 20
-1.000000000000000E+20
 30
-1.000000000000000E+20
  9
$PLIMMIN
 10
0.0
 20
0.0
  9
$PLIMMAX
 10
12.0
 20
9.0
  9
$UNITMODE
 70
     0
  9
$VISRETAIN
 70
     0
  9
$PLINEGEN
 70
     0
  9
$PSLTSCALE
 70
     1
  9
$TREEDEPTH
 70
  3020
  9
$PICKSTYLE
 70
     1
  9
$CMLSTYLE
  2
STANDARD
  9
$CMLJUST
 70
     0
  9
$CMLSCALE
 40
1.0
  9
$PROXYGRAPHICS
 70
     1
  9
$MEASUREMENT
 70
     0
  0
ENDSEC
  0
SECTION
  2
CLASSES
  0
CLASS
  1
ACDBDICTIONARYWDFLT
  2
AcDbDictionaryWithDefault
  3
AutoCAD 2000
 90
        0
280
     0
281
     0
  0
CLASS
  1
ACDBPLACEHOLDER
  2
AcDbPlaceHolder
  3
AutoCAD 2000
 90
        0
280
     0
281
     0
  0
CLASS
  1
LAYOUT
  2
AcDbLayout
  3
AutoCAD 2000
 90
        0
280
     0
281
     0
  0
CLASS
  1
LONG_TRANSACTION
  2
AcDbLongTransaction
  3
AutoCAD 2000
 90
        0
280
     0
281
     0
  0
CLASS
  1
LWPOLYLINE
  2
AcDbPolyline
  3
AutoCAD 2000
 90
        0
280
     0
281
     1
  0
CLASS
  1
HATCH
  2
AcDbHatch
  3
AutoCAD 2000
 90
        0
280
     0
281
     1
  0
CLASS
  1
XRECORD
  2
AcDbXrecord
  3
AutoCAD 2000
 90
        0
280
     0
281
     0
  0
CLASS
  1
LONG_TRANSACTION
  2
AcDbLongTransaction
  3
AutoCAD 2000
 90
        0
280
     0
281
     0
  0
CLASS
  1
LWPOLYLINE
  2
AcDbPolyline
  3
AutoCAD 2000
 90
        0
280
     0
281
     1
  0
CLASS
  1
HATCH
  2
AcDbHatch
  3
AutoCAD 2000
 90
        0
280
     0
281
     1
  0
CLASS
  1
XRECORD
  2
AcDbXrecord
  3
AutoCAD 2000
 90
        0
280
     0
281
     0
  0
ENDSEC
  0
SECTION
  2
TABLES
  0
TABLE
  2
VPORT
  5
8
330
0
100
AcDbSymbolTable
 70
     2
  0
VPORT
  5
1C9
330
8
100
AcDbSymbolTableRecord
100
AcDbViewportTableRecord
  2
*ACTIVE
 70
     0
 10
0.0
 20
0.0
 11
1.0
 21
1.0
 12
290.8460567019033
 22
37.32202864771525
 13
0.0
 23
0.0
 14
1.0
 24
1.0
 15
0.0
 25
0.0
 16
0.0
 26
0.0
 36
1.0
 17
0.0
 27
0.0
 37
0.0
 40
15.00255951820888
 41
1.281582952815829
 42
50.0
 43
0.0
 44
0.0
 50
0.0
 51
0.0
 71
     0
 72
   100
 73
     1
 74
     1
 75
     0
 76
     0
 77
     0
 78
     0
  0
ENDTAB
  0
TABLE
  2
LTYPE
  5
5
330
0
100
AcDbSymbolTable
 70
     1
  0
LTYPE
  5
13
330
5
100
AcDbSymbolTableRecord
100
AcDbLinetypeTableRecord
  2
BYBLOCK
 70
     0
  3

 72
    65
 73
     0
 40
0.0
  0
LTYPE
  5
14
330
5
100
AcDbSymbolTableRecord
100
AcDbLinetypeTableRecord
  2
BYLAYER
 70
     0
  3

 72
    65
 73
     0
 40
0.0
  0
LTYPE
  5
15
330
5
100
AcDbSymbolTableRecord
100
AcDbLinetypeTableRecord
  2
CONTINUOUS
 70
     0
  3
Solid line
 72
    65
 73
     0
 40
0.0
  0
ENDTAB
  0
TABLE
  2
LAYER
  5
2
330
0
100
AcDbSymbolTable
 70
     8
  0
LAYER
  5
10
330
2
100
AcDbSymbolTableRecord
100
AcDbLayerTableRecord
  2
0
 70
     0
 62
     7
  6
CONTINUOUS
  0
LAYER
  5
22
330
2
100
AcDbSymbolTableRecord
100
AcDbLayerTableRecord
  2
1
 70
     0
 62
     7
  6
CONTINUOUS
  0
LAYER
  5
23
330
2
100
AcDbSymbolTableRecord
100
AcDbLayerTableRecord
  2
7
 70
     0
 62
     7
  6
CONTINUOUS
  0
LAYER
  5
24
330
2
100
AcDbSymbolTableRecord
100
AcDbLayerTableRecord
  2
8
 70
     0
 62
     7
  6
CONTINUOUS
  0
LAYER
  5
25
330
2
100
AcDbSymbolTableRecord
100
AcDbLayerTableRecord
  2
9
 70
     0
 62
     7
  6
CONTINUOUS
  0
LAYER
  5
26
330
2
100
AcDbSymbolTableRecord
100
AcDbLayerTableRecord
  2
22
 70
     0
 62
     7
  6
CONTINUOUS
  0
LAYER
  5
27
330
2
100
AcDbSymbolTableRecord
100
AcDbLayerTableRecord
  2
25
 70
     0
 62
     7
  6
CONTINUOUS
  0
LAYER
  5
7F
330
2
100
AcDbSymbolTableRecord
100
AcDbLayerTableRecord
  2
DEFPOINTS
 70
     0
 62
     7
  6
CONTINUOUS
  0
ENDTAB
  0
TABLE
  2
STYLE
  5
3
330
0
100
AcDbSymbolTable
 70
     2
  0
STYLE
  5
11
330
3
100
AcDbSymbolTableRecord
100
AcDbTextStyleTableRecord
  2
STANDARD
 70
     0
 40
0.0
 41
1.0
 50
0.0
 71
     0
 42
0.2
  3
txt
  4

  0
STYLE
  5
28
330
3
100
AcDbSymbolTableRecord
100
AcDbTextStyleTableRecord
  2
ROMANC
 70
     0
 40
0.0
 41
1.0
 50
0.0
 71
     0
 42
0.2
  3
ROMANC
  4

  0
ENDTAB
  0
TABLE
  2
VIEW
  5
6
330
0
100
AcDbSymbolTable
 70
     0
  0
ENDTAB
  0
TABLE
  2
UCS
  5
7
330
0
100
AcDbSymbolTable
 70
     0
  0
ENDTAB
  0
TABLE
  2
APPID
  5
9
330
0
100
AcDbSymbolTable
 70
     1
  0
APPID
  5
12
330
9
100
AcDbSymbolTableRecord
100
AcDbRegAppTableRecord
  2
ACAD
 70
     0
  0
ENDTAB
  0
TABLE
  2
DIMSTYLE
  5
A
330
0
100
AcDbSymbolTable
 70
     1
  0
DIMSTYLE
105
7A
102
{ACAD_REACTORS
330
B2
330
C0
330
D8
330
E6
330
129
102
}
330
A
100
AcDbSymbolTableRecord
100
AcDbDimStyleTableRecord
  2
STANDARD
 70
     0
  3

  4

  5

  6

  7

 40
1.0
 41
0.18
 42
0.0625
 43
0.38
 44
0.18
 45
0.0
 46
0.0
 47
0.0
 48
0.0
140
0.18
141
0.09
142
0.0
143
25.4
144
1.0
145
0.0
146
1.0
147
0.09
 71
     0
 72
     0
 73
     1
 74
     1
 75
     0
 76
     0
 77
     0
 78
     0
170
     0
171
     2
172
     0
173
     0
174
     0
175
     0
176
     0
177
     0
178
     0
270
     2
271
     4
272
     4
273
     2
274
     2
340
11
275
     0
280
     0
281
     0
282
     0
283
     1
284
     0
285
     0
286
     0
287
     3
288
     0
  0
ENDTAB
  0
TABLE
  2
BLOCK_RECORD
  5
1
330
0
100
AcDbSymbolTable
 70
     7
  0
BLOCK_RECORD
  5
1E
102
{ACAD_XDICTIONARY
360
1C0
102
}
330
1
100
AcDbSymbolTableRecord
100
AcDbBlockTableRecord
  2
*MODEL_SPACE
  0
BLOCK_RECORD
  5
1A
102
{ACAD_XDICTIONARY
360
1BE
102
}
330
1
100
AcDbSymbolTableRecord
100
AcDbBlockTableRecord
  2
*PAPER_SPACE
  0
BLOCK_RECORD
  5
80
330
1
100
AcDbSymbolTableRecord
100
AcDbBlockTableRecord
  2
*D0
  0
BLOCK_RECORD
  5
8E
330
1
100
AcDbSymbolTableRecord
100
AcDbBlockTableRecord
  2
*D1
  0
BLOCK_RECORD
  5
B3
330
1
100
AcDbSymbolTableRecord
100
AcDbBlockTableRecord
  2
*D2
  0
BLOCK_RECORD
  5
C1
330
1
100
AcDbSymbolTableRecord
100
AcDbBlockTableRecord
  2
*D3
  0
BLOCK_RECORD
  5
D9
330
1
100
AcDbSymbolTableRecord
100
AcDbBlockTableRecord
  2
*D4
  0
BLOCK_RECORD
  5
E7
330
1
100
AcDbSymbolTableRecord
100
AcDbBlockTableRecord
  2
*D5
  0
BLOCK_RECORD
  5
12A
330
1
100
AcDbSymbolTableRecord
100
AcDbBlockTableRecord
  2
*D6
  0
ENDTAB
  0
ENDSEC
  0
SECTION
  2
BLOCKS
  0
BLOCK
  5
1F
330
1E
100
AcDbEntity
  8
0
100
AcDbBlockBegin
  2
*MODEL_SPACE
 70
     0
 10
0.0
 20
0.0
 30
0.0
  3
*MODEL_SPACE
  1

  0
ENDBLK
  5
20
330
1E
100
AcDbEntity
  8
0
100
AcDbBlockEnd
  0
BLOCK
  5
1B
330
1A
100
AcDbEntity
 67
     1
  8
0
100
AcDbBlockBegin
  2
*PAPER_SPACE
 70
     0
 10
0.0
 20
0.0
 30
0.0
  3
*PAPER_SPACE
  1

  0
ENDBLK
  5
1C
330
1A
100
AcDbEntity
 67
     1
  8
0
100
AcDbBlockEnd
  0
BLOCK
  5
8B
330
80
100
AcDbEntity
  8
0
100
AcDbBlockBegin
  2
*D0
 70
     1
 10
0.0
 20
0.0
 30
0.0
  3
*D0
  1

  0
LINE
  5
81
330
80
100
AcDbEntity
  8
0
 62
     0
100
AcDbLine
 10
288.468330118302
 20
37.02479861674854
 30
0.0
 11
289.3571735716713
 21
37.02479861674854
 31
0.0
  0
LINE
  5
82
330
80
100
AcDbEntity
  8
0
 62
     0
100
AcDbLine
 10
288.468330118302
 20
33.22479861674855
 30
0.0
 11
289.3571735716713
 21
33.22479861674855
 31
0.0
  0
LINE
  5
83
330
80
100
AcDbEntity
  8
0
 62
     0
100
AcDbLine
 10
289.1771735716713
 20
36.84479861674855
 30
0.0
 11
289.1771735716713
 21
35.30479861674855
 31
0.0
  0
LINE
  5
84
330
80
100
AcDbEntity
  8
0
 62
     0
100
AcDbLine
 10
289.1771735716713
 20
33.40479861674856
 30
0.0
 11
289.1771735716713
 21
34.94479861674856
 31
0.0
  0
SOLID
  5
85
330
80
100
AcDbEntity
  8
0
 62
     0
100
AcDbTrace
 10
289.1471735716716
 20
36.84479861674855
 30
0.0
 11
289.2071735716715
 21
36.84479861674855
 31
0.0
 12
289.1771735716713
 22
37.02479861674854
 32
0.0
 13
289.1771735716713
 23
37.02479861674854
 33
0.0
  0
SOLID
  5
86
330
80
100
AcDbEntity
  8
0
 62
     0
100
AcDbTrace
 10
289.1471735716716
 20
33.40479861674856
 30
0.0
 11
289.2071735716715
 21
33.40479861674856
 31
0.0
 12
289.1771735716713
 22
33.22479861674855
 32
0.0
 13
289.1771735716713
 23
33.22479861674855
 33
0.0
  0
MTEXT
  5
87
330
80
100
AcDbEntity
  8
0
 62
     0
100
AcDbMText
 10
289.1771735716713
 20
35.1247986167486
 30
0.0
 40
0.18
 41
0.0
 71
     5
 72
     1
  1
\A1;3.8000
1001
ACAD
1000
MTEXTBEGIN
1070
    73
1070
     1
1070
    44
1040
1.0
1070
    74
1070
     0
1000
MTEXTEND
1000
MTEXTBEGIN
1070
    73
1070
     1
1070
    44
1040
1.0
1070
    74
1070
     0
1000
MTEXTEND
  0
POINT
  5
88
330
80
100
AcDbEntity
  8
DEFPOINTS
 62
     0
100
AcDbPoint
 10
288.4058301183021
 20
37.02479861674854
 30
0.0
  0
POINT
  5
89
330
80
100
AcDbEntity
  8
DEFPOINTS
 62
     0
100
AcDbPoint
 10
288.4058301183021
 20
33.22479861674855
 30
0.0
  0
POINT
  5
8A
330
80
100
AcDbEntity
  8
DEFPOINTS
 62
     0
100
AcDbPoint
 10
289.1771735716713
 20
33.22479861674855
 30
0.0
  0
ENDBLK
  5
8C
330
80
100
AcDbEntity
  8
0
100
AcDbBlockEnd
  0
BLOCK
  5
99
330
8E
100
AcDbEntity
  8
0
100
AcDbBlockBegin
  2
*D1
 70
     1
 10
0.0
 20
0.0
 30
0.0
  3
*D1
  1

  0
LINE
  5
8F
330
8E
100
AcDbEntity
  8
0
 62
     0
100
AcDbLine
 10
283.9058301183021
 20
33.16229861674855
 30
0.0
 11
283.9058301183021
 21
32.34838586963878
 31
0.0
  0
LINE
  5
90
330
8E
100
AcDbEntity
  8
0
 62
     0
100
AcDbLine
 10
288.4058301183021
 20
33.16229861674855
 30
0.0
 11
288.4058301183021
 21
32.34838586963878
 31
0.0
  0
LINE
  5
91
330
8E
100
AcDbEntity
  8
0
 62
     0
100
AcDbLine
 10
284.085830118302
 20
32.52838586963878
 30
0.0
 11
285.6608301183021
 21
32.52838586963878
 31
0.0
  0
LINE
  5
92
330
8E
100
AcDbEntity
  8
0
 62
     0
100
AcDbLine
 10
288.225830118302
 20
32.52838586963878
 30
0.0
 11
286.6508301183021
 21
32.52838586963878
 31
0.0
  0
SOLID
  5
93
330
8E
100
AcDbEntity
  8
0
 62
     0
100
AcDbTrace
 10
284.085830118302
 20
32.55838586963878
 30
0.0
 11
284.085830118302
 21
32.49838586963878
 31
0.0
 12
283.9058301183021
 22
32.52838586963878
 32
0.0
 13
283.9058301183021
 23
32.52838586963878
 33
0.0
  0
SOLID
  5
94
330
8E
100
AcDbEntity
  8
0
 62
     0
100
AcDbTrace
 10
288.225830118302
 20
32.55838586963878
 30
0.0
 11
288.225830118302
 21
32.49838586963878
 31
0.0
 12
288.4058301183021
 22
32.52838586963878
 32
0.0
 13
288.4058301183021
 23
32.52838586963878
 33
0.0
  0
MTEXT
  5
95
330
8E
100
AcDbEntity
  8
0
 62
     0
100
AcDbMText
 10
286.1558301183021
 20
32.52838586963878
 30
0.0
 40
0.18
 41
0.0
 71
     5
 72
     1
  1
\A1;4.5000
1001
ACAD
1000
MTEXTBEGIN
1070
    73
1070
     1
1070
    44
1040
1.0
1070
    74
1070
     0
1000
MTEXTEND
1000
MTEXTBEGIN
1070
    73
1070
     1
1070
    44
1040
1.0
1070
    74
1070
     0
1000
MTEXTEND
  0
POINT
  5
96
330
8E
100
AcDbEntity
  8
DEFPOINTS
 62
     0
100
AcDbPoint
 10
283.9058301183021
 20
33.22479861674855
 30
0.0
  0
POINT
  5
97
330
8E
100
AcDbEntity
  8
DEFPOINTS
 62
     0
100
AcDbPoint
 10
288.4058301183021
 20
33.22479861674855
 30
0.0
  0
POINT
  5
98
330
8E
100
AcDbEntity
  8
DEFPOINTS
 62
     0
100
AcDbPoint
 10
288.4058301183021
 20
32.52838586963878
 30
0.0
  0
ENDBLK
  5
9A
330
8E
100
AcDbEntity
  8
0
100
AcDbBlockEnd
  0
BLOCK
  5
BE
330
B3
100
AcDbEntity
  8
0
100
AcDbBlockBegin
  2
*D2
 70
     1
 10
0.0
 20
0.0
 30
0.0
  3
*D2
  1

  0
LINE
  5
189
330
B3
100
AcDbEntity
  8
0
 62
     0
100
AcDbLine
 10
285.2842881323288
 20
34.94384726354057
 30
0.0
 11
285.2842881323288
 21
33.57793738281081
 31
0.0
  0
LINE
  5
18A
330
B3
100
AcDbEntity
  8
0
 62
     0
100
AcDbLine
 10
286.8842881323288
 20
34.94384726354059
 30
0.0
 11
286.8842881323288
 21
33.57793738281081
 31
0.0
  0
LINE
  5
18B
330
B3
100
AcDbEntity
  8
0
 62
     0
100
AcDbLine
 10
285.4642881323288
 20
33.7579373828108
 30
0.0
 11
285.6192881323287
 21
33.7579373828108
 31
0.0
  0
LINE
  5
18C
330
B3
100
AcDbEntity
  8
0
 62
     0
100
AcDbLine
 10
286.7042881323287
 20
33.7579373828108
 30
0.0
 11
286.5492881323286
 21
33.7579373828108
 31
0.0
  0
SOLID
  5
18D
330
B3
100
AcDbEntity
  8
0
 62
     0
100
AcDbTrace
 10
285.4642881323288
 20
33.78793738281081
 30
0.0
 11
285.4642881323288
 21
33.7279373828108
 31
0.0
 12
285.2842881323288
 22
33.7579373828108
 32
0.0
 13
285.2842881323288
 23
33.7579373828108
 33
0.0
  0
SOLID
  5
18E
330
B3
100
AcDbEntity
  8
0
 62
     0
100
AcDbTrace
 10
286.7042881323287
 20
33.78793738281081
 30
0.0
 11
286.7042881323287
 21
33.7279373828108
 31
0.0
 12
286.8842881323288
 22
33.7579373828108
 32
0.0
 13
286.8842881323288
 23
33.7579373828108
 33
0.0
  0
MTEXT
  5
18F
330
B3
100
AcDbEntity
  8
0
 62
     0
100
AcDbMText
 10
286.0842881323288
 20
33.7579373828108
 30
0.0
 40
0.18
 41
0.0
 71
     5
 72
     1
  1
\A1;1.6000
1001
ACAD
1000
MTEXTBEGIN
1070
    73
1070
     1
1070
    44
1040
1.0
1070
    74
1070
     0
1000
MTEXTEND
1000
MTEXTBEGIN
1070
    73
1070
     1
1070
    44
1040
1.0
1070
    74
1070
     0
1000
MTEXTEND
  0
POINT
  5
190
330
B3
100
AcDbEntity
  8
DEFPOINTS
 62
     0
100
AcDbPoint
 10
285.2842881323288
 20
35.00634726354057
 30
0.0
  0
POINT
  5
191
330
B3
100
AcDbEntity
  8
DEFPOINTS
 62
     0
100
AcDbPoint
 10
286.8842881323288
 20
35.00634726354059
 30
0.0
  0
POINT
  5
192
330
B3
100
AcDbEntity
  8
DEFPOINTS
 62
     0
100
AcDbPoint
 10
286.8842881323288
 20
33.7579373828108
 30
0.0
  0
ENDBLK
  5
BF
330
B3
100
AcDbEntity
  8
0
100
AcDbBlockEnd
  0
BLOCK
  5
CC
330
C1
100
AcDbEntity
  8
0
100
AcDbBlockBegin
  2
*D3
 70
     1
 10
0.0
 20
0.0
 30
0.0
  3
*D3
  1

  0
LINE
  5
17F
330
C1
100
AcDbEntity
  8
0
 62
     0
100
AcDbLine
 10
285.8092881323288
 20
34.69384726354057
 30
0.0
 11
285.8092881323288
 21
34.04231407801825
 31
0.0
  0
LINE
  5
180
330
C1
100
AcDbEntity
  8
0
 62
     0
100
AcDbLine
 10
286.3592881323288
 20
34.69384726354057
 30
0.0
 11
286.3592881323288
 21
34.04231407801825
 31
0.0
  0
LINE
  5
181
330
C1
100
AcDbEntity
  8
0
 62
     0
100
AcDbLine
 10
285.9892881323288
 20
34.22231407801825
 30
0.0
 11
286.1792881323286
 21
34.22231407801825
 31
0.0
  0
LINE
  5
182
330
C1
100
AcDbEntity
  8
0
 62
     0
100
AcDbLine
 10
286.3592881323288
 20
34.22231407801825
 30
0.0
 11
287.0821813793011
 21
34.22231407801825
 31
0.0
  0
SOLID
  5
183
330
C1
100
AcDbEntity
  8
0
 62
     0
100
AcDbTrace
 10
285.9892881323288
 20
34.25231407801825
 30
0.0
 11
285.9892881323288
 21
34.19231407801825
 31
0.0
 12
285.8092881323288
 22
34.22231407801825
 32
0.0
 13
285.8092881323288
 23
34.22231407801825
 33
0.0
  0
SOLID
  5
184
330
C1
100
AcDbEntity
  8
0
 62
     0
100
AcDbTrace
 10
286.1792881323286
 20
34.25231407801825
 30
0.0
 11
286.1792881323286
 21
34.19231407801825
 31
0.0
 12
286.3592881323288
 22
34.22231407801825
 32
0.0
 13
286.3592881323288
 23
34.22231407801825
 33
0.0
  0
MTEXT
  5
185
330
C1
100
AcDbEntity
  8
0
 62
     0
100
AcDbMText
 10
287.5771813793011
 20
34.22231407801825
 30
0.0
 40
0.18
 41
0.0
 71
     5
 72
     1
  1
\A1;0.5500
1001
ACAD
1000
MTEXTBEGIN
1070
    73
1070
     1
1070
    44
1040
1.0
1070
    74
1070
     0
1000
MTEXTEND
1000
MTEXTBEGIN
1070
    73
1070
     1
1070
    44
1040
1.0
1070
    74
1070
     0
1000
MTEXTEND
  0
POINT
  5
186
330
C1
100
AcDbEntity
  8
DEFPOINTS
 62
     0
100
AcDbPoint
 10
285.8092881323288
 20
34.75634726354057
 30
0.0
  0
POINT
  5
187
330
C1
100
AcDbEntity
  8
DEFPOINTS
 62
     0
100
AcDbPoint
 10
286.3592881323288
 20
34.75634726354057
 30
0.0
  0
POINT
  5
188
330
C1
100
AcDbEntity
  8
DEFPOINTS
 62
     0
100
AcDbPoint
 10
286.3592881323288
 20
34.22231407801825
 30
0.0
  0
ENDBLK
  5
CD
330
C1
100
AcDbEntity
  8
0
100
AcDbBlockEnd
  0
BLOCK
  5
E4
330
D9
100
AcDbEntity
  8
0
100
AcDbBlockBegin
  2
*D4
 70
     1
 10
0.0
 20
0.0
 30
0.0
  3
*D4
  1

  0
LINE
  5
175
330
D9
100
AcDbEntity
  8
0
 62
     0
100
AcDbLine
 10
285.8717881323288
 20
34.75634726354057
 30
0.0
 11
288.4772137188113
 21
34.75634726354057
 31
0.0
  0
LINE
  5
176
330
D9
100
AcDbEntity
  8
0
 62
     0
100
AcDbLine
 10
286.1467881323287
 20
37.20634726354054
 30
0.0
 11
288.4772137188113
 21
37.20634726354054
 31
0.0
  0
LINE
  5
177
330
D9
100
AcDbEntity
  8
0
 62
     0
100
AcDbLine
 10
288.2972137188114
 20
34.93634726354057
 30
0.0
 11
288.2972137188114
 21
35.80134726354056
 31
0.0
  0
LINE
  5
178
330
D9
100
AcDbEntity
  8
0
 62
     0
100
AcDbLine
 10
288.2972137188114
 20
37.02634726354053
 30
0.0
 11
288.2972137188114
 21
36.16134726354056
 31
0.0
  0
SOLID
  5
179
330
D9
100
AcDbEntity
  8
0
 62
     0
100
AcDbTrace
 10
288.2672137188113
 20
34.93634726354057
 30
0.0
 11
288.3272137188114
 21
34.93634726354057
 31
0.0
 12
288.2972137188114
 22
34.75634726354057
 32
0.0
 13
288.2972137188114
 23
34.75634726354057
 33
0.0
  0
SOLID
  5
17A
330
D9
100
AcDbEntity
  8
0
 62
     0
100
AcDbTrace
 10
288.2672137188113
 20
37.02634726354053
 30
0.0
 11
288.3272137188114
 21
37.02634726354053
 31
0.0
 12
288.2972137188114
 22
37.20634726354054
 32
0.0
 13
288.2972137188114
 23
37.20634726354054
 33
0.0
  0
MTEXT
  5
17B
330
D9
100
AcDbEntity
  8
0
 62
     0
100
AcDbMText
 10
288.2972137188114
 20
35.98134726354061
 30
0.0
 40
0.18
 41
0.0
 71
     5
 72
     1
  1
\A1;2.4500
1001
ACAD
1000
MTEXTBEGIN
1070
    73
1070
     1
1070
    44
1040
1.0
1070
    74
1070
     0
1000
MTEXTEND
1000
MTEXTBEGIN
1070
    73
1070
     1
1070
    44
1040
1.0
1070
    74
1070
     0
1000
MTEXTEND
  0
POINT
  5
17C
330
D9
100
AcDbEntity
  8
DEFPOINTS
 62
     0
100
AcDbPoint
 10
285.8092881323288
 20
34.75634726354057
 30
0.0
  0
POINT
  5
17D
330
D9
100
AcDbEntity
  8
DEFPOINTS
 62
     0
100
AcDbPoint
 10
286.0842881323287
 20
37.20634726354054
 30
0.0
  0
POINT
  5
17E
330
D9
100
AcDbEntity
  8
DEFPOINTS
 62
     0
100
AcDbPoint
 10
288.2972137188114
 20
37.20634726354054
 30
0.0
  0
ENDBLK
  5
E5
330
D9
100
AcDbEntity
  8
0
100
AcDbBlockEnd
  0
BLOCK
  5
F3
330
E7
100
AcDbEntity
  8
0
100
AcDbBlockBegin
  2
*D5
 70
     1
 10
0.0
 20
0.0
 30
0.0
  3
*D5
  1

  0
LINE
  5
16A
330
E7
100
AcDbEntity
  8
0
 62
     0
100
AcDbLine
 10
285.8717881323288
 20
34.75634726354057
 30
0.0
 11
287.2912230067784
 21
34.75634726354057
 31
0.0
  0
LINE
  5
16B
330
E7
100
AcDbEntity
  8
0
 62
     0
100
AcDbLine
 10
286.4217881323288
 20
35.00634726354059
 30
0.0
 11
287.2912230067784
 21
35.00634726354059
 31
0.0
  0
LINE
  5
16C
330
E7
100
AcDbEntity
  8
0
 62
     0
100
AcDbLine
 10
287.1112230067785
 20
34.57634726354057
 30
0.0
 11
287.1112230067785
 21
34.39634726354057
 31
0.0
  0
LINE
  5
16D
330
E7
100
AcDbEntity
  8
0
 62
     0
100
AcDbLine
 10
287.1112230067785
 20
35.18634726354059
 30
0.0
 11
287.1112230067785
 21
35.36634726354057
 31
0.0
  0
LINE
  5
16E
330
E7
100
AcDbEntity
  8
0
 62
     0
100
AcDbLine
 10
287.1112230067785
 20
35.36634726354057
 30
0.0
 11
287.2912230067784
 21
35.36634726354057
 31
0.0
  0
SOLID
  5
16F
330
E7
100
AcDbEntity
  8
0
 62
     0
100
AcDbTrace
 10
287.0812230067784
 20
34.57634726354057
 30
0.0
 11
287.1412230067785
 21
34.57634726354057
 31
0.0
 12
287.1112230067785
 22
34.75634726354057
 32
0.0
 13
287.1112230067785
 23
34.75634726354057
 33
0.0
  0
SOLID
  5
170
330
E7
100
AcDbEntity
  8
0
 62
     0
100
AcDbTrace
 10
287.0812230067784
 20
35.18634726354059
 30
0.0
 11
287.1412230067785
 21
35.18634726354059
 31
0.0
 12
287.1112230067785
 22
35.00634726354059
 32
0.0
 13
287.1112230067785
 23
35.00634726354059
 33
0.0
  0
MTEXT
  5
171
330
E7
100
AcDbEntity
  8
0
 62
     0
100
AcDbMText
 10
287.7862230067784
 20
35.36634726354064
 30
0.0
 40
0.18
 41
0.0
 71
     5
 72
     1
  1
\A1;0.2500
1001
ACAD
1000
MTEXTBEGIN
1070
    73
1070
     1
1070
    44
1040
1.0
1070
    74
1070
     0
1000
MTEXTEND
1000
MTEXTBEGIN
1070
    73
1070
     1
1070
    44
1040
1.0
1070
    74
1070
     0
1000
MTEXTEND
  0
POINT
  5
172
330
E7
100
AcDbEntity
  8
DEFPOINTS
 62
     0
100
AcDbPoint
 10
285.8092881323288
 20
34.75634726354057
 30
0.0
  0
POINT
  5
173
330
E7
100
AcDbEntity
  8
DEFPOINTS
 62
     0
100
AcDbPoint
 10
286.3592881323288
 20
35.00634726354059
 30
0.0
  0
POINT
  5
174
330
E7
100
AcDbEntity
  8
DEFPOINTS
 62
     0
100
AcDbPoint
 10
287.1112230067785
 20
35.00634726354059
 30
0.0
  0
ENDBLK
  5
F4
330
E7
100
AcDbEntity
  8
0
100
AcDbBlockEnd
  0
BLOCK
  5
135
330
12A
100
AcDbEntity
  8
0
100
AcDbBlockBegin
  2
*D6
 70
     1
 10
0.0
 20
0.0
 30
0.0
  3
*D6
  1

  0
LINE
  5
193
330
12A
100
AcDbEntity
  8
0
 62
     0
100
AcDbLine
 10
285.2217881323288
 20
36.40634726354059
 30
0.0
 11
284.4705982652756
 21
36.40634726354059
 31
0.0
  0
LINE
  5
194
330
12A
100
AcDbEntity
  8
0
 62
     0
100
AcDbLine
 10
285.2217881323288
 20
35.00634726354057
 30
0.0
 11
284.4705982652756
 21
35.00634726354057
 31
0.0
  0
LINE
  5
195
330
12A
100
AcDbEntity
  8
0
 62
     0
100
AcDbLine
 10
284.6505982652757
 20
36.22634726354059
 30
0.0
 11
284.6505982652757
 21
35.88634726354058
 31
0.0
  0
LINE
  5
196
330
12A
100
AcDbEntity
  8
0
 62
     0
100
AcDbLine
 10
284.6505982652757
 20
35.18634726354057
 30
0.0
 11
284.6505982652757
 21
35.52634726354058
 31
0.0
  0
SOLID
  5
197
330
12A
100
AcDbEntity
  8
0
 62
     0
100
AcDbTrace
 10
284.6205982652757
 20
36.22634726354059
 30
0.0
 11
284.6805982652757
 21
36.22634726354059
 31
0.0
 12
284.6505982652757
 22
36.40634726354059
 32
0.0
 13
284.6505982652757
 23
36.40634726354059
 33
0.0
  0
SOLID
  5
198
330
12A
100
AcDbEntity
  8
0
 62
     0
100
AcDbTrace
 10
284.6205982652757
 20
35.18634726354057
 30
0.0
 11
284.6805982652757
 21
35.18634726354057
 31
0.0
 12
284.6505982652757
 22
35.00634726354057
 32
0.0
 13
284.6505982652757
 23
35.00634726354057
 33
0.0
  0
MTEXT
  5
199
330
12A
100
AcDbEntity
  8
0
 62
     0
100
AcDbMText
 10
284.6505982652757
 20
35.70634726354063
 30
0.0
 40
0.18
 41
0.0
 71
     5
 72
     1
  1
\A1;1.4000
1001
ACAD
1000
MTEXTBEGIN
1070
    73
1070
     1
1070
    44
1040
1.0
1070
    74
1070
     0
1000
MTEXTEND
1000
MTEXTBEGIN
1070
    73
1070
     1
1070
    44
1040
1.0
1070
    74
1070
     0
1000
MTEXTEND
  0
POINT
  5
19A
330
12A
100
AcDbEntity
  8
DEFPOINTS
 62
     0
100
AcDbPoint
 10
285.2842881323288
 20
36.40634726354059
 30
0.0
  0
POINT
  5
19B
330
12A
100
AcDbEntity
  8
DEFPOINTS
 62
     0
100
AcDbPoint
 10
285.2842881323288
 20
35.00634726354057
 30
0.0
  0
POINT
  5
19C
330
12A
100
AcDbEntity
  8
DEFPOINTS
 62
     0
100
AcDbPoint
 10
284.6505982652757
 20
35.00634726354057
 30
0.0
  0
ENDBLK
  5
136
330
12A
100
AcDbEntity
  8
0
100
AcDbBlockEnd
  0
ENDSEC
  0
SECTION
  2
ENTITIES
  0
TEXT
  5
2C
330
1E
100
AcDbEntity
  8
0
  6
CONTINUOUS
100
AcDbText
 10
287.2805487186718
 20
41.39364127471099
 30
0.0
 40
0.1
  1
2
  7
ROMANC
100
AcDbText
  0
TEXT
  5
2D
330
1E
100
AcDbEntity
  8
0
  6
CONTINUOUS
100
AcDbText
 10
283.9259999999999
 20
41.768
 30
0.0
 40
0.3
  1
ESCALA  1:50
  7
ROMANC
100
AcDbText
  0
LWPOLYLINE
  5
2E
330
1E
100
AcDbEntity
  8
0
  6
CONTINUOUS
100
AcDbPolyline
 90
        4
 70
     1
 43
0.0
 10
281.3959999999998
 20
44.747
 10
291.8959999999998
 20
44.747
 10
291.8959999999998
 20
29.897
 10
281.3959999999998
 20
29.897
  0
TEXT
  5
34
330
1E
100
AcDbEntity
  8
0
  6
CONTINUOUS
100
AcDbText
 10
283.9259999999999
 20
42.381
 30
0.0
 40
0.3
  1
TIPUS   NT338
  7
ROMANC
100
AcDbText
  0
TEXT
  5
3C
330
1E
100
AcDbEntity
  8
0
  6
CONTINUOUS
100
AcDbText
 10
283.9449999999999
 20
41.09899999999997
 30
0.0
 40
0.3
  1
S = 338 dm
  7
ROMANC
100
AcDbText
  0
TEXT
  5
3D
330
1E
100
AcDbEntity
  8
0
  6
CONTINUOUS
100
AcDbText
 10
283.922
 20
40.529
 30
0.0
 40
0.3
  1
P = 741 dm
  7
ROMANC
100
AcDbText
  0
LWPOLYLINE
  5
B1
330
1E
100
AcDbEntity
  8
0
100
AcDbPolyline
 90
        8
 70
     1
 43
0.0
 10
286.3592881323288
 20
35.00634726354059
 10
286.8842881323288
 20
35.00634726354059
 10
286.8842881323286
 20
36.40634726354059
 42
0.9999999999999998
 10
285.2842881323288
 20
36.40634726354059
 10
285.2842881323288
 20
35.00634726354057
 10
285.8092881323288
 20
35.00634726354059
 10
285.8092881323288
 20
34.75634726354057
 10
286.3592881323288
 20
34.75634726354057
  0
DIMENSION
  5
B2
330
1E
100
AcDbEntity
  8
0
100
AcDbDimension
  2
*D2
 10
286.8842881323288
 20
33.7579373828108
 30
0.0
 11
286.0842881323288
 21
33.7579373828108
 31
0.0
 70
   160
  3
STANDARD
100
AcDbAlignedDimension
 13
285.2842881323288
 23
35.00634726354057
 33
0.0
 14
286.8842881323288
 24
35.00634726354059
 34
0.0
100
AcDbRotatedDimension
  0
DIMENSION
  5
C0
330
1E
100
AcDbEntity
  8
0
100
AcDbDimension
  2
*D3
 10
286.3592881323288
 20
34.22231407801825
 30
0.0
 11
287.5771813793011
 21
34.22231407801825
 31
0.0
 70
   160
  3
STANDARD
100
AcDbAlignedDimension
 13
285.8092881323288
 23
34.75634726354057
 33
0.0
 14
286.3592881323288
 24
34.75634726354057
 34
0.0
100
AcDbRotatedDimension
  0
DIMENSION
  5
D8
330
1E
100
AcDbEntity
  8
0
100
AcDbDimension
  2
*D4
 10
288.2972137188114
 20
37.20634726354054
 30
0.0
 11
288.2972137188114
 21
35.98134726354061
 31
0.0
 70
   160
  3
STANDARD
100
AcDbAlignedDimension
 13
285.8092881323288
 23
34.75634726354057
 33
0.0
 14
286.0842881323287
 24
37.20634726354054
 34
0.0
 50
90.0
100
AcDbRotatedDimension
  0
DIMENSION
  5
E6
330
1E
100
AcDbEntity
  8
0
100
AcDbDimension
  2
*D5
 10
287.1112230067785
 20
35.00634726354059
 30
0.0
 11
287.7862230067784
 21
35.36634726354064
 31
0.0
 70
   160
  3
STANDARD
100
AcDbAlignedDimension
 13
285.8092881323288
 23
34.75634726354057
 33
0.0
 14
286.3592881323288
 24
35.00634726354059
 34
0.0
 50
90.0
100
AcDbRotatedDimension
  0
DIMENSION
  5
129
330
1E
100
AcDbEntity
  8
0
100
AcDbDimension
  2
*D6
 10
284.6505982652757
 20
35.00634726354057
 30
0.0
 11
284.6505982652757
 21
35.70634726354063
 31
0.0
 70
    32
  3
STANDARD
100
AcDbAlignedDimension
 13
285.2842881323288
 23
36.40634726354059
 33
0.0
 14
285.2842881323288
 24
35.00634726354057
 34
0.0
 50
90.0
100
AcDbRotatedDimension
  0
ENDSEC
  0
SECTION
  2
OBJECTS
  0
DICTIONARY
  5
C
330
0
100
AcDbDictionary
  3
ACAD_GROUP
350
D
  3
ACAD_PLOTSTYLENAME
350
E
  3
ACAD_MLINESTYLE
350
16
  3
ACAD_PLOTSETTINGS
350
18
  3
ACAD_LAYOUT
350
19
  3
ACDBHEADERROUNDTRIPXREC
350
1CA
  0
DICTIONARY
  5
1C0
330
1E
100
AcDbDictionary
280
     1
  3
ACAD_LAYOUTSELFREF
360
1EB
  0
DICTIONARY
  5
1BE
330
1A
100
AcDbDictionary
280
     1
  3
ACAD_LAYOUTSELFREF
360
1EA
  0
DICTIONARY
  5
D
102
{ACAD_REACTORS
330
C
102
}
330
C
100
AcDbDictionary
  0
ACDBDICTIONARYWDFLT
  5
E
102
{ACAD_REACTORS
330
C
102
}
330
C
100
AcDbDictionary
281
     1
  3
Normal
350
F
100
AcDbDictionaryWithDefault
340
F
  0
DICTIONARY
  5
16
102
{ACAD_REACTORS
330
C
102
}
330
C
100
AcDbDictionary
  3
STANDARD
350
17
  0
DICTIONARY
  5
18
102
{ACAD_REACTORS
330
C
102
}
330
C
100
AcDbDictionary
  0
DICTIONARY
  5
19
102
{ACAD_REACTORS
330
C
102
}
330
C
100
AcDbDictionary
  0
DICTIONARY
  5
1CA
102
{ACAD_REACTORS
330
C
102
}
330
C
100
AcDbDictionary
  3
TSTACKALIGN
350
1CB
  3
TSTACKSIZE
350
1CC
  3
HYPERLINKBASE
350
1CD
  3
STYLESHEET
350
1CE
  3
LAYOUTDICT
350
1CF
  3
PLOTSETDICT
350
1D0
  3
PLOTSTYLNAMDICT
350
1D1
  3
LWETCUNION
350
1D2
  3
INSUNITS
350
1D3
  3
CEPSNTYPE
350
1D4
  3
FINGERPRINTGUID
350
1D5
  3
VERSIONGUID
350
1D6
  3
PSVPSCALE
350
1D7
  3
PUCSORTHOREF
350
1D8
  3
PUCSORTHOVIEW
350
1D9
  3
PUCSBASE
350
1DA
  3
PUCSORGTOP
350
1DB
  3
PUCSORGBOTTOM
350
1DC
  3
PUCSORGLEFT
350
1DD
  3
PUCSORGRIGHT
350
1DE
  3
PUCSORGFRONT
350
1DF
  3
PUCSORGBACK
350
1E0
  3
UCSORTHOREF
350
1E1
  3
UCSORTHOVIEW
350
1E2
  3
UCSBASE
350
1E3
  3
UCSORGTOP
350
1E4
  3
UCSORGBOTTOM
350
1E5
  3
UCSORGLEFT
350
1E6
  3
UCSORGRIGHT
350
1E7
  3
UCSORGFRONT
350
1E8
  3
UCSORGBACK
350
1E9
  0
XRECORD
  5
1EB
102
{ACAD_REACTORS
330
1C0
102
}
330
1C0
100
AcDbXrecord
340
1E
  0
XRECORD
  5
1EA
102
{ACAD_REACTORS
330
1BE
102
}
330
1BE
100
AcDbXrecord
340
1A
  0
ACDBPLACEHOLDER
  5
F
102
{ACAD_REACTORS
330
E
102
}
330
E
100
AcDbPlaceHolder
280
     0
  0
MLINESTYLE
  5
17
102
{ACAD_REACTORS
330
16
102
}
330
16
100
AcDbMlineStyle
  2
STANDARD
 70
     0
  3

 62
   256
 51
90.0
 52
90.0
 71
     2
 49
0.5
 62
   256
  6
BYLAYER
 49
-0.5
 62
   256
  6
BYLAYER
  0
XRECORD
  5
1CB
102
{ACAD_REACTORS
330
1CA
102
}
330
1CA
100
AcDbXrecord
 90
        1
  0
XRECORD
  5
1CC
102
{ACAD_REACTORS
330
1CA
102
}
330
1CA
100
AcDbXrecord
 90
       70
  0
XRECORD
  5
1CD
102
{ACAD_REACTORS
330
1CA
102
}
330
1CA
100
AcDbXrecord
  1

  0
XRECORD
  5
1CE
102
{ACAD_REACTORS
330
1CA
102
}
330
1CA
100
AcDbXrecord
  1

  0
XRECORD
  5
1CF
102
{ACAD_REACTORS
330
1CA
102
}
330
1CA
100
AcDbXrecord
340
19
  0
XRECORD
  5
1D0
102
{ACAD_REACTORS
330
1CA
102
}
330
1CA
100
AcDbXrecord
340
18
  0
XRECORD
  5
1D1
102
{ACAD_REACTORS
330
1CA
102
}
330
1CA
100
AcDbXrecord
340
E
  0
XRECORD
  5
1D2
102
{ACAD_REACTORS
330
1CA
102
}
330
1CA
100
AcDbXrecord
 90
    10781
  0
XRECORD
  5
1D3
102
{ACAD_REACTORS
330
1CA
102
}
330
1CA
100
AcDbXrecord
 90
        0
  0
XRECORD
  5
1D4
102
{ACAD_REACTORS
330
1CA
102
}
330
1CA
100
AcDbXrecord
 90
        0
  0
XRECORD
  5
1D5
102
{ACAD_REACTORS
330
1CA
102
}
330
1CA
100
AcDbXrecord
  1
{A09CBBB2-476A-11D4-A5CD-0008C769B1B5}
  0
XRECORD
  5
1D6
102
{ACAD_REACTORS
330
1CA
102
}
330
1CA
100
AcDbXrecord
  1
{329E6C3A-4785-11D4-A5CE-0008C769B1B5}
  0
XRECORD
  5
1D7
102
{ACAD_REACTORS
330
1CA
102
}
330
1CA
100
AcDbXrecord
 40
0.0
  0
XRECORD
  5
1D8
102
{ACAD_REACTORS
330
1CA
102
}
330
1CA
100
AcDbXrecord
340
0
  0
XRECORD
  5
1D9
102
{ACAD_REACTORS
330
1CA
102
}
330
1CA
100
AcDbXrecord
 70
     0
  0
XRECORD
  5
1DA
102
{ACAD_REACTORS
330
1CA
102
}
330
1CA
100
AcDbXrecord
340
0
  0
XRECORD
  5
1DB
102
{ACAD_REACTORS
330
1CA
102
}
330
1CA
100
AcDbXrecord
 10
0.0
 20
0.0
 30
0.0
  0
XRECORD
  5
1DC
102
{ACAD_REACTORS
330
1CA
102
}
330
1CA
100
AcDbXrecord
 10
0.0
 20
0.0
 30
0.0
  0
XRECORD
  5
1DD
102
{ACAD_REACTORS
330
1CA
102
}
330
1CA
100
AcDbXrecord
 10
0.0
 20
0.0
 30
0.0
  0
XRECORD
  5
1DE
102
{ACAD_REACTORS
330
1CA
102
}
330
1CA
100
AcDbXrecord
 10
0.0
 20
0.0
 30
0.0
  0
XRECORD
  5
1DF
102
{ACAD_REACTORS
330
1CA
102
}
330
1CA
100
AcDbXrecord
 10
0.0
 20
0.0
 30
0.0
  0
XRECORD
  5
1E0
102
{ACAD_REACTORS
330
1CA
102
}
330
1CA
100
AcDbXrecord
 10
0.0
 20
0.0
 30
0.0
  0
XRECORD
  5
1E1
102
{ACAD_REACTORS
330
1CA
102
}
330
1CA
100
AcDbXrecord
340
0
  0
XRECORD
  5
1E2
102
{ACAD_REACTORS
330
1CA
102
}
330
1CA
100
AcDbXrecord
 70
     0
  0
XRECORD
  5
1E3
102
{ACAD_REACTORS
330
1CA
102
}
330
1CA
100
AcDbXrecord
340
0
  0
XRECORD
  5
1E4
102
{ACAD_REACTORS
330
1CA
102
}
330
1CA
100
AcDbXrecord
 10
0.0
 20
0.0
 30
0.0
  0
XRECORD
  5
1E5
102
{ACAD_REACTORS
330
1CA
102
}
330
1CA
100
AcDbXrecord
 10
0.0
 20
0.0
 30
0.0
  0
XRECORD
  5
1E6
102
{ACAD_REACTORS
330
1CA
102
}
330
1CA
100
AcDbXrecord
 10
0.0
 20
0.0
 30
0.0
  0
XRECORD
  5
1E7
102
{ACAD_REACTORS
330
1CA
102
}
330
1CA
100
AcDbXrecord
 10
0.0
 20
0.0
 30
0.0
  0
XRECORD
  5
1E8
102
{ACAD_REACTORS
330
1CA
102
}
330
1CA
100
AcDbXrecord
 10
0.0
 20
0.0
 30
0.0
  0
XRECORD
  5
1E9
102
{ACAD_REACTORS
330
1CA
102
}
330
1CA
100
AcDbXrecord
 10
0.0
 20
0.0
 30
0.0
  0
ENDSEC
  0
EOF
