  0
SECTION
  2
HEADER
  9
$ACADVER
  1
AC1009
  9
$INSBASE
 10
0.0
 20
0.0
 30
0.0
  9
$EXTMIN
 10
318.829805
 20
29.85788
 30
0.0
  9
$EXTMAX
 10
329.371339
 20
44.72551
 30
0.0
  9
$LIMMIN
 10
0.0
 20
0.0
  9
$LIMMAX
 10
410.0
 20
287.0
  9
$ORTHOMODE
 70
     1
  9
$REGENMODE
 70
     1
  9
$FILLMODE
 70
     1
  9
$QTEXTMODE
 70
     0
  9
$MIRRTEXT
 70
     1
  9
$DRAGMODE
 70
     2
  9
$LTSCALE
 40
25.0
  9
$OSMODE
 70
    33
  9
$ATTMODE
 70
     1
  9
$TEXTSIZE
 40
0.1
  9
$TRACEWID
 40
1.0
  9
$TEXTSTYLE
  7
ROMANC
  9
$CLAYER
  8
0
  9
$CELTYPE
  6
BYLAYER
  9
$CECOLOR
 62
   256
  9
$DIMSCALE
 40
1.5
  9
$DIMASZ
 40
0.1
  9
$DIMEXO
 40
0.01
  9
$DIMDLI
 40
7.0
  9
$DIMRND
 40
0.0
  9
$DIMDLE
 40
0.0
  9
$DIMEXE
 40
0.01
  9
$DIMTP
 40
0.0
  9
$DIMTM
 40
0.0
  9
$DIMTXT
 40
0.05
  9
$DIMCEN
 40
0.0
  9
$DIMTSZ
 40
0.0
  9
$DIMTOL
 70
     0
  9
$DIMLIM
 70
     0
  9
$DIMTIH
 70
     0
  9
$DIMTOH
 70
     0
  9
$DIMSE1
 70
     0
  9
$DIMSE2
 70
     0
  9
$DIMTAD
 70
     1
  9
$DIMZIN
 70
     0
  9
$DIMBLK
  1

  9
$DIMASO
 70
     1
  9
$DIMSHO
 70
     0
  9
$DIMPOST
  1

  9
$DIMAPOST
  1

  9
$DIMALT
 70
     0
  9
$DIMALTD
 70
     2
  9
$DIMALTF
 40
25.4
  9
$DIMLFAC
 40
1.0
  9
$DIMTOFL
 70
     1
  9
$DIMTVP
 40
0.0
  9
$DIMTIX
 70
     1
  9
$DIMSOXD
 70
     0
  9
$DIMSAH
 70
     0
  9
$DIMBLK1
  1

  9
$DIMBLK2
  1

  9
$DIMSTYLE
  2
MERITXELL
  9
$DIMCLRD
 70
     0
  9
$DIMCLRE
 70
     0
  9
$DIMCLRT
 70
     0
  9
$DIMTFAC
 40
70.0
  9
$DIMGAP
 40
0.025
  9
$LUNITS
 70
     2
  9
$LUPREC
 70
     2
  9
$SKETCHINC
 40
1.0
  9
$FILLETRAD
 40
0.0
  9
$AUNITS
 70
     0
  9
$AUPREC
 70
     0
  9
$MENU
  1
acad
  9
$ELEVATION
 40
0.0
  9
$PELEVATION
 40
0.0
  9
$THICKNESS
 40
0.0
  9
$LIMCHECK
 70
     0
  9
$BLIPMODE
 70
     0
  9
$CHAMFERA
 40
0.0
  9
$CHAMFERB
 40
0.0
  9
$SKPOLY
 70
     0
  9
$TDCREATE
 40
2450927.46195
  9
$TDUPDATE
 40
2451197.787634
  9
$TDINDWG
 40
0.14616
  9
$TDUSRTIMER
 40
0.14616
  9
$USRTIMER
 70
     1
  9
$ANGBASE
 50
0.0
  9
$ANGDIR
 70
     0
  9
$PDMODE
 70
     0
  9
$PDSIZE
 40
0.0
  9
$PLINEWID
 40
0.0
  9
$COORDS
 70
     2
  9
$SPLFRAME
 70
     0
  9
$SPLINETYPE
 70
     6
  9
$SPLINESEGS
 70
     8
  9
$ATTDIA
 70
     0
  9
$ATTREQ
 70
     1
  9
$HANDLING
 70
     1
  9
$HANDSEED
  5
D30
  9
$SURFTAB1
 70
     6
  9
$SURFTAB2
 70
     6
  9
$SURFTYPE
 70
     6
  9
$SURFU
 70
     6
  9
$SURFV
 70
     6
  9
$UCSNAME
  2

  9
$UCSORG
 10
0.0
 20
0.0
 30
0.0
  9
$UCSXDIR
 10
1.0
 20
0.0
 30
0.0
  9
$UCSYDIR
 10
0.0
 20
1.0
 30
0.0
  9
$PUCSNAME
  2

  9
$PUCSORG
 10
0.0
 20
0.0
 30
0.0
  9
$PUCSXDIR
 10
1.0
 20
0.0
 30
0.0
  9
$PUCSYDIR
 10
0.0
 20
1.0
 30
0.0
  9
$USERI1
 70
     0
  9
$USERI2
 70
     0
  9
$USERI3
 70
     0
  9
$USERI4
 70
     0
  9
$USERI5
 70
     0
  9
$USERR1
 40
0.0
  9
$USERR2
 40
0.0
  9
$USERR3
 40
0.0
  9
$USERR4
 40
0.0
  9
$USERR5
 40
0.0
  9
$WORLDVIEW
 70
     1
  9
$SHADEDGE
 70
     3
  9
$SHADEDIF
 70
    70
  9
$TILEMODE
 70
     1
  9
$MAXACTVP
 70
    16
  9
$PLIMCHECK
 70
     0
  9
$PEXTMIN
 10
1.000000E+020
 20
1.000000E+020
 30
1.000000E+020
  9
$PEXTMAX
 10
-1.000000E+020
 20
-1.000000E+020
 30
-1.000000E+020
  9
$PLIMMIN
 10
0.0
 20
0.0
  9
$PLIMMAX
 10
12.0
 20
9.0
  9
$UNITMODE
 70
     0
  9
$VISRETAIN
 70
     0
  9
$PLINEGEN
 70
     0
  9
$PSLTSCALE
 70
     0
  0
ENDSEC
  0
SECTION
  2
TABLES
  0
TABLE
  2
VPORT
 70
     2
  0
VPORT
  2
*ACTIVE
 70
     0
 10
0.0
 20
0.0
 11
1.0
 21
1.0
 12
324.100572
 22
37.291695
 13
0.0
 23
0.0
 14
1.0
 24
1.0
 15
10.0
 25
10.0
 16
0.0
 26
0.0
 36
1.0
 17
0.0
 27
0.0
 37
0.0
 40
15.034682
 41
1.73546
 42
50.0
 43
0.0
 44
0.0
 50
0.0
 51
0.0
 71
     0
 72
   100
 73
     1
 74
     0
 75
     0
 76
     0
 77
     0
 78
     1
  0
ENDTAB
  0
TABLE
  2
LTYPE
 70
     1
  0
LTYPE
  2
CONTINUOUS
 70
     0
  3
Solid line
 72
    65
 73
     0
 40
0.0
  0
ENDTAB
  0
TABLE
  2
LAYER
 70
     4
  0
LAYER
  2
0
 70
     0
 62
     7
  6
CONTINUOUS
  0
LAYER
  2
DEFPOINTS
 70
     0
 62
     7
  6
CONTINUOUS
  0
LAYER
  2
COTES
 70
     0
 62
     4
  6
CONTINUOUS
  0
LAYER
  2
SECCIO
 70
     0
 62
    30
  6
CONTINUOUS
  0
ENDTAB
  0
TABLE
  2
STYLE
 70
     2
  0
STYLE
  2
STANDARD
 70
     0
 40
0.0
 41
1.0
 50
0.0
 71
     0
 42
0.1
  3
txt
  4

  0
STYLE
  2
ROMANC
 70
     0
 40
0.0
 41
1.0
 50
0.0
 71
     0
 42
0.1
  3
romanc
  4

  0
ENDTAB
  0
TABLE
  2
VIEW
 70
     0
  0
ENDTAB
  0
TABLE
  2
UCS
 70
     0
  0
ENDTAB
  0
TABLE
  2
APPID
 70
     1
  0
APPID
  2
ACAD
 70
     0
  0
ENDTAB
  0
TABLE
  2
DIMSTYLE
 70
     2
  0
DIMSTYLE
  2
MERITXELL
 70
     0
  3

  4

  5

  6

  7

 40
1.5
 41
0.1
 42
0.01
 43
7.0
 44
0.01
 45
0.0
 46
0.0
 47
0.0
 48
0.0
140
0.05
141
0.1
142
0.0
143
25.4
144
1.0
145
0.0
146
70.0
147
0.09
 71
     0
 72
     0
 73
     0
 74
     0
 75
     0
 76
     0
 77
     1
 78
     0
170
     0
171
     2
172
     1
173
     0
174
     1
175
     0
176
     0
177
     0
178
     0
  0
DIMSTYLE
  2
STANDARD
 70
     0
  3

  4

  5
TICK
  6

  7

 40
1.0
 41
0.05
 42
0.08
 43
0.08
 44
0.08
 45
0.0
 46
1.25
 47
0.0
 48
0.0
140
0.08
141
-0.08
142
0.0
143
0.039
144
1.0
145
1.0
146
1.0
147
0.08
 71
     0
 72
     0
 73
     0
 74
     0
 75
     0
 76
     0
 77
     0
 78
     0
170
     0
171
     2
172
     0
173
     0
174
     0
175
     0
176
    71
177
    71
178
     7
  0
ENDTAB
  0
ENDSEC
  0
SECTION
  2
BLOCKS
  0
BLOCK
  8
0
  2
$MODEL_SPACE
 70
     0
 10
0.0
 20
0.0
 30
0.0
  3
$MODEL_SPACE
  1

  0
ENDBLK
  5
C49
  8
0
  0
BLOCK
 67
     1
  8
0
  2
$PAPER_SPACE
 70
     0
 10
0.0
 20
0.0
 30
0.0
  3
$PAPER_SPACE
  1

  0
ENDBLK
  5
C46
 67
     1
  8
0
  0
BLOCK
  8
0
  2
TICK
 70
     0
 10
0.0
 20
0.0
 30
0.0
  3
TICK
  1

  0
LINE
  5
387
  8
0
  6
BYBLOCK
 62
     6
 10
-1.0
 20
-1.0
 30
0.0
 11
1.0
 21
1.0
 31
0.0
  0
LINE
  5
388
  8
0
  6
BYBLOCK
 62
    71
 10
0.0
 20
0.0
 30
0.0
 11
-1.0
 21
0.0
 31
0.0
  0
ENDBLK
  5
38A
  8
0
  0
BLOCK
  8
0
  2
*D3
 70
     1
 10
0.0
 20
0.0
 30
0.0
  3
*D3
  1

  0
LINE
  5
706
  8
0
  6
BYBLOCK
 62
     0
 10
323.776534
 20
34.647499
 30
0.0
 11
323.776534
 21
33.912746
 31
0.0
  0
LINE
  5
707
  8
0
  6
BYBLOCK
 62
     0
 10
324.776534
 20
35.947499
 30
0.0
 11
324.776534
 21
33.912746
 31
0.0
  0
LINE
  5
708
  8
0
  6
BYBLOCK
 62
     0
 10
323.926534
 20
33.927746
 30
0.0
 11
324.626534
 21
33.927746
 31
0.0
  0
SOLID
  5
709
  8
0
  6
BYBLOCK
 62
     0
 10
323.926534
 20
33.952746
 30
0.0
 11
323.926534
 21
33.902746
 31
0.0
 12
323.776534
 22
33.927746
 32
0.0
 13
323.776534
 23
33.927746
 33
0.0
  0
SOLID
  5
70A
  8
0
  6
BYBLOCK
 62
     0
 10
324.626534
 20
33.952746
 30
0.0
 11
324.626534
 21
33.902746
 31
0.0
 12
324.776534
 22
33.927746
 32
0.0
 13
324.776534
 23
33.927746
 33
0.0
  0
TEXT
  5
C05
  8
0
 62
     0
 10
324.127
 20
33.87
 30
0.0
 40
0.075
  1
1.00
  7
ROMANC
  0
POINT
  5
70D
  8
DEFPOINTS
  6
BYBLOCK
 62
     0
 10
323.776534
 20
34.662499
 30
0.0
  0
POINT
  5
70E
  8
DEFPOINTS
  6
BYBLOCK
 62
     0
 10
324.776534
 20
35.962499
 30
0.0
  0
POINT
  5
70F
  8
DEFPOINTS
  6
BYBLOCK
 62
     0
 10
324.776534
 20
33.927746
 30
0.0
  0
ENDBLK
  5
710
  8
0
  0
BLOCK
  8
0
  2
*D4
 70
     1
 10
0.0
 20
0.0
 30
0.0
  3
*D4
  1

  0
LINE
  5
714
  8
0
  6
BYBLOCK
 62
     0
 10
323.776534
 20
34.647499
 30
0.0
 11
323.776534
 21
33.912746
 31
0.0
  0
LINE
  5
715
  8
0
  6
BYBLOCK
 62
     0
 10
322.776534
 20
34.647499
 30
0.0
 11
322.776534
 21
33.912746
 31
0.0
  0
LINE
  5
716
  8
0
  6
BYBLOCK
 62
     0
 10
323.626534
 20
33.927746
 30
0.0
 11
322.926534
 21
33.927746
 31
0.0
  0
SOLID
  5
717
  8
0
  6
BYBLOCK
 62
     0
 10
323.626534
 20
33.952746
 30
0.0
 11
323.626534
 21
33.902746
 31
0.0
 12
323.776534
 22
33.927746
 32
0.0
 13
323.776534
 23
33.927746
 33
0.0
  0
SOLID
  5
718
  8
0
  6
BYBLOCK
 62
     0
 10
322.926534
 20
33.952746
 30
0.0
 11
322.926534
 21
33.902746
 31
0.0
 12
322.776534
 22
33.927746
 32
0.0
 13
322.776534
 23
33.927746
 33
0.0
  0
TEXT
  5
C06
  8
0
 62
     0
 10
323.127
 20
33.87
 30
0.0
 40
0.075
  1
1.00
  7
ROMANC
  0
POINT
  5
71A
  8
DEFPOINTS
  6
BYBLOCK
 62
     0
 10
323.776534
 20
34.662499
 30
0.0
  0
POINT
  5
71B
  8
DEFPOINTS
  6
BYBLOCK
 62
     0
 10
322.776534
 20
34.662499
 30
0.0
  0
POINT
  5
71C
  8
DEFPOINTS
  6
BYBLOCK
 62
     0
 10
322.776534
 20
33.927746
 30
0.0
  0
ENDBLK
  5
71D
  8
0
  0
BLOCK
  8
0
  2
*D5
 70
     1
 10
0.0
 20
0.0
 30
0.0
  3
*D5
  1

  0
LINE
  5
721
  8
0
  6
BYBLOCK
 62
     0
 10
322.776534
 20
34.647499
 30
0.0
 11
322.776534
 21
33.449615
 31
0.0
  0
LINE
  5
722
  8
0
  6
BYBLOCK
 62
     0
 10
324.776534
 20
34.347499
 30
0.0
 11
324.776534
 21
33.449615
 31
0.0
  0
LINE
  5
723
  8
0
  6
BYBLOCK
 62
     0
 10
322.926534
 20
33.464615
 30
0.0
 11
324.626534
 21
33.464615
 31
0.0
  0
SOLID
  5
724
  8
0
  6
BYBLOCK
 62
     0
 10
322.926534
 20
33.489615
 30
0.0
 11
322.926534
 21
33.439615
 31
0.0
 12
322.776534
 22
33.464615
 32
0.0
 13
322.776534
 23
33.464615
 33
0.0
  0
SOLID
  5
725
  8
0
  6
BYBLOCK
 62
     0
 10
324.626534
 20
33.489615
 30
0.0
 11
324.626534
 21
33.439615
 31
0.0
 12
324.776534
 22
33.464615
 32
0.0
 13
324.776534
 23
33.464615
 33
0.0
  0
TEXT
  5
C07
  8
0
 62
     0
 10
323.627
 20
33.4069
 30
0.0
 40
0.075
  1
2.00
  7
ROMANC
  0
POINT
  5
727
  8
DEFPOINTS
  6
BYBLOCK
 62
     0
 10
322.776534
 20
34.662499
 30
0.0
  0
POINT
  5
728
  8
DEFPOINTS
  6
BYBLOCK
 62
     0
 10
324.776534
 20
34.362499
 30
0.0
  0
POINT
  5
729
  8
DEFPOINTS
  6
BYBLOCK
 62
     0
 10
324.776534
 20
33.464615
 30
0.0
  0
ENDBLK
  5
72A
  8
0
  0
BLOCK
  8
0
  2
*D6
 70
     1
 10
0.0
 20
0.0
 30
0.0
  3
*D6
  1

  0
LINE
  5
72E
  8
0
  6
BYBLOCK
 62
     0
 10
324.791534
 20
35.962499
 30
0.0
 11
325.505515
 21
35.962499
 31
0.0
  0
LINE
  5
72F
  8
0
  6
BYBLOCK
 62
     0
 10
324.791534
 20
34.362499
 30
0.0
 11
325.505515
 21
34.362499
 31
0.0
  0
LINE
  5
730
  8
0
  6
BYBLOCK
 62
     0
 10
325.490515
 20
35.812499
 30
0.0
 11
325.490515
 21
34.512499
 31
0.0
  0
SOLID
  5
731
  8
0
  6
BYBLOCK
 62
     0
 10
325.465515
 20
35.812499
 30
0.0
 11
325.515515
 21
35.812499
 31
0.0
 12
325.490515
 22
35.962499
 32
0.0
 13
325.490515
 23
35.962499
 33
0.0
  0
SOLID
  5
732
  8
0
  6
BYBLOCK
 62
     0
 10
325.465515
 20
34.512499
 30
0.0
 11
325.515515
 21
34.512499
 31
0.0
 12
325.490515
 22
34.362499
 32
0.0
 13
325.490515
 23
34.362499
 33
0.0
  0
TEXT
  5
C08
  8
0
 62
     0
 10
325.266
 20
35.0297
 30
0.0
 40
0.075
  1
1.60
  7
ROMANC
  0
POINT
  5
734
  8
DEFPOINTS
  6
BYBLOCK
 62
     0
 10
324.776534
 20
35.962499
 30
0.0
  0
POINT
  5
735
  8
DEFPOINTS
  6
BYBLOCK
 62
     0
 10
324.776534
 20
34.362499
 30
0.0
  0
POINT
  5
736
  8
DEFPOINTS
  6
BYBLOCK
 62
     0
 10
325.490515
 20
34.362499
 30
0.0
  0
ENDBLK
  5
737
  8
0
  0
BLOCK
  8
0
  2
*D7
 70
     1
 10
0.0
 20
0.0
 30
0.0
  3
*D7
  1

  0
LINE
  5
73C
  8
0
  6
BYBLOCK
 62
     0
 10
323.791534
 20
36.962499
 30
0.0
 11
325.505515
 21
36.962499
 31
0.0
  0
LINE
  5
73D
  8
0
  6
BYBLOCK
 62
     0
 10
325.490515
 20
36.112499
 30
0.0
 11
325.490515
 21
36.812499
 31
0.0
  0
SOLID
  5
73E
  8
0
  6
BYBLOCK
 62
     0
 10
325.465515
 20
36.112499
 30
0.0
 11
325.515515
 21
36.112499
 31
0.0
 12
325.490515
 22
35.962499
 32
0.0
 13
325.490515
 23
35.962499
 33
0.0
  0
SOLID
  5
73F
  8
0
  6
BYBLOCK
 62
     0
 10
325.465515
 20
36.812499
 30
0.0
 11
325.515515
 21
36.812499
 31
0.0
 12
325.490515
 22
36.962499
 32
0.0
 13
325.490515
 23
36.962499
 33
0.0
  0
TEXT
  5
C09
  8
0
 62
     0
 10
325.266
 20
36.3297
 30
0.0
 40
0.075
  1
1.00
  7
ROMANC
  0
POINT
  5
741
  8
DEFPOINTS
  6
BYBLOCK
 62
     0
 10
324.776534
 20
35.962499
 30
0.0
  0
POINT
  5
742
  8
DEFPOINTS
  6
BYBLOCK
 62
     0
 10
323.776534
 20
36.962499
 30
0.0
  0
POINT
  5
743
  8
DEFPOINTS
  6
BYBLOCK
 62
     0
 10
325.490515
 20
36.962499
 30
0.0
  0
ENDBLK
  5
744
  8
0
  0
BLOCK
  8
0
  2
*D8
 70
     1
 10
0.0
 20
0.0
 30
0.0
  3
*D8
  1

  0
LINE
  5
748
  8
0
  6
BYBLOCK
 62
     0
 10
323.791534
 20
36.962499
 30
0.0
 11
326.355263
 21
36.962499
 31
0.0
  0
LINE
  5
749
  8
0
  6
BYBLOCK
 62
     0
 10
323.791534
 20
34.362499
 30
0.0
 11
326.355263
 21
34.362499
 31
0.0
  0
LINE
  5
74A
  8
0
  6
BYBLOCK
 62
     0
 10
326.340263
 20
36.812499
 30
0.0
 11
326.340263
 21
34.512499
 31
0.0
  0
SOLID
  5
74B
  8
0
  6
BYBLOCK
 62
     0
 10
326.315263
 20
36.812499
 30
0.0
 11
326.365263
 21
36.812499
 31
0.0
 12
326.340263
 22
36.962499
 32
0.0
 13
326.340263
 23
36.962499
 33
0.0
  0
SOLID
  5
74C
  8
0
  6
BYBLOCK
 62
     0
 10
326.315263
 20
34.512499
 30
0.0
 11
326.365263
 21
34.512499
 31
0.0
 12
326.340263
 22
34.362499
 32
0.0
 13
326.340263
 23
34.362499
 33
0.0
  0
TEXT
  5
C0A
  8
0
 62
     0
 10
326.115
 20
35.5297
 30
0.0
 40
0.075
  1
2.60
  7
ROMANC
  0
POINT
  5
74E
  8
DEFPOINTS
  6
BYBLOCK
 62
     0
 10
323.776534
 20
36.962499
 30
0.0
  0
POINT
  5
74F
  8
DEFPOINTS
  6
BYBLOCK
 62
     0
 10
323.776534
 20
34.362499
 30
0.0
  0
POINT
  5
750
  8
DEFPOINTS
  6
BYBLOCK
 62
     0
 10
326.340263
 20
34.362499
 30
0.0
  0
ENDBLK
  5
751
  8
0
  0
BLOCK
  8
0
  2
*D9
 70
     1
 10
0.0
 20
0.0
 30
0.0
  3
*D9
  1

  0
LINE
  5
755
  8
0
  6
BYBLOCK
 62
     0
 10
323.791534
 20
34.662499
 30
0.0
 11
325.331703
 21
34.662499
 31
0.0
  0
LINE
  5
756
  8
0
  6
BYBLOCK
 62
     0
 10
324.791534
 20
34.362499
 30
0.0
 11
325.331703
 21
34.362499
 31
0.0
  0
LINE
  5
757
  8
0
  6
BYBLOCK
 62
     0
 10
325.316703
 20
34.812499
 30
0.0
 11
325.316703
 21
34.962499
 31
0.0
  0
LINE
  5
758
  8
0
  6
BYBLOCK
 62
     0
 10
325.316703
 20
34.212499
 30
0.0
 11
325.316703
 21
34.062499
 31
0.0
  0
LINE
  5
759
  8
0
  6
BYBLOCK
 62
     0
 10
325.316703
 20
34.662499
 30
0.0
 11
325.316703
 21
34.362499
 31
0.0
  0
SOLID
  5
75A
  8
0
  6
BYBLOCK
 62
     0
 10
325.291703
 20
34.812499
 30
0.0
 11
325.341703
 21
34.812499
 31
0.0
 12
325.316703
 22
34.662499
 32
0.0
 13
325.316703
 23
34.662499
 33
0.0
  0
SOLID
  5
75B
  8
0
  6
BYBLOCK
 62
     0
 10
325.291703
 20
34.212499
 30
0.0
 11
325.341703
 21
34.212499
 31
0.0
 12
325.316703
 22
34.362499
 32
0.0
 13
325.316703
 23
34.362499
 33
0.0
  0
TEXT
  5
C0B
  8
0
 62
     0
 10
325.092
 20
34.3797
 30
0.0
 40
0.075
  1
0.30
  7
ROMANC
  0
POINT
  5
75D
  8
DEFPOINTS
  6
BYBLOCK
 62
     0
 10
323.776534
 20
34.662499
 30
0.0
  0
POINT
  5
75E
  8
DEFPOINTS
  6
BYBLOCK
 62
     0
 10
324.776534
 20
34.362499
 30
0.0
  0
POINT
  5
75F
  8
DEFPOINTS
  6
BYBLOCK
 62
     0
 10
325.316703
 20
34.362499
 30
0.0
  0
ENDBLK
  5
760
  8
0
  0
BLOCK
  8
0
  2
*D10
 70
     1
 10
0.0
 20
0.0
 30
0.0
  3
*D10
  1

  0
LINE
  5
764
  8
0
  6
BYBLOCK
 62
     0
 10
324.791534
 20
35.947499
 30
0.0
 11
325.331703
 21
35.947499
 31
0.0
  0
LINE
  5
765
  8
0
  6
BYBLOCK
 62
     0
 10
325.316703
 20
34.512499
 30
0.0
 11
325.316703
 21
35.797499
 31
0.0
  0
SOLID
  5
766
  8
0
  6
BYBLOCK
 62
     0
 10
325.291703
 20
34.512499
 30
0.0
 11
325.341703
 21
34.512499
 31
0.0
 12
325.316703
 22
34.362499
 32
0.0
 13
325.316703
 23
34.362499
 33
0.0
  0
SOLID
  5
767
  8
0
  6
BYBLOCK
 62
     0
 10
325.291703
 20
35.797499
 30
0.0
 11
325.341703
 21
35.797499
 31
0.0
 12
325.316703
 22
35.947499
 32
0.0
 13
325.316703
 23
35.947499
 33
0.0
  0
TEXT
  5
C0C
  8
0
 62
     0
 10
325.092
 20
35.0222
 30
0.0
 40
0.075
  1
1.59
  7
ROMANC
  0
POINT
  5
769
  8
DEFPOINTS
  6
BYBLOCK
 62
     0
 10
324.776534
 20
34.362499
 30
0.0
  0
POINT
  5
76A
  8
DEFPOINTS
  6
BYBLOCK
 62
     0
 10
324.776534
 20
35.947499
 30
0.0
  0
POINT
  5
76B
  8
DEFPOINTS
  6
BYBLOCK
 62
     0
 10
325.316703
 20
35.947499
 30
0.0
  0
ENDBLK
  5
76C
  8
0
  0
BLOCK
  8
0
  2
*D11
 70
     1
 10
0.0
 20
0.0
 30
0.0
  3
*D11
  1

  0
LINE
  5
77C
  8
0
  6
BYBLOCK
 62
     0
 10
324.791534
 20
35.962499
 30
0.0
 11
325.331703
 21
35.962499
 31
0.0
  0
LINE
  5
77D
  8
0
  6
BYBLOCK
 62
     0
 10
325.316703
 20
34.512499
 30
0.0
 11
325.316703
 21
35.812499
 31
0.0
  0
SOLID
  5
77E
  8
0
  6
BYBLOCK
 62
     0
 10
325.291703
 20
34.512499
 30
0.0
 11
325.341703
 21
34.512499
 31
0.0
 12
325.316703
 22
34.362499
 32
0.0
 13
325.316703
 23
34.362499
 33
0.0
  0
SOLID
  5
77F
  8
0
  6
BYBLOCK
 62
     0
 10
325.291703
 20
35.812499
 30
0.0
 11
325.341703
 21
35.812499
 31
0.0
 12
325.316703
 22
35.962499
 32
0.0
 13
325.316703
 23
35.962499
 33
0.0
  0
TEXT
  5
C0D
  8
0
 62
     0
 10
325.092
 20
35.0297
 30
0.0
 40
0.075
  1
1.60
  7
ROMANC
  0
POINT
  5
781
  8
DEFPOINTS
  6
BYBLOCK
 62
     0
 10
324.776534
 20
34.362499
 30
0.0
  0
POINT
  5
782
  8
DEFPOINTS
  6
BYBLOCK
 62
     0
 10
324.776534
 20
35.962499
 30
0.0
  0
POINT
  5
783
  8
DEFPOINTS
  6
BYBLOCK
 62
     0
 10
325.316703
 20
35.962499
 30
0.0
  0
ENDBLK
  5
784
  8
0
  0
BLOCK
  8
0
  2
*D12
 70
     1
 10
0.0
 20
0.0
 30
0.0
  3
*D12
  1

  0
LINE
  5
788
  8
0
  6
BYBLOCK
 62
     0
 10
323.806534
 20
36.962499
 30
0.0
 11
325.331703
 21
36.962499
 31
0.0
  0
LINE
  5
789
  8
0
  6
BYBLOCK
 62
     0
 10
325.316703
 20
36.112499
 30
0.0
 11
325.316703
 21
36.812499
 31
0.0
  0
SOLID
  5
78A
  8
0
  6
BYBLOCK
 62
     0
 10
325.291703
 20
36.112499
 30
0.0
 11
325.341703
 21
36.112499
 31
0.0
 12
325.316703
 22
35.962499
 32
0.0
 13
325.316703
 23
35.962499
 33
0.0
  0
SOLID
  5
78B
  8
0
  6
BYBLOCK
 62
     0
 10
325.291703
 20
36.812499
 30
0.0
 11
325.341703
 21
36.812499
 31
0.0
 12
325.316703
 22
36.962499
 32
0.0
 13
325.316703
 23
36.962499
 33
0.0
  0
TEXT
  5
C0E
  8
0
 62
     0
 10
325.092
 20
36.3297
 30
0.0
 40
0.075
  1
1.00
  7
ROMANC
  0
POINT
  5
78D
  8
DEFPOINTS
  6
BYBLOCK
 62
     0
 10
324.776534
 20
35.962499
 30
0.0
  0
POINT
  5
78E
  8
DEFPOINTS
  6
BYBLOCK
 62
     0
 10
323.791534
 20
36.962499
 30
0.0
  0
POINT
  5
78F
  8
DEFPOINTS
  6
BYBLOCK
 62
     0
 10
325.316703
 20
36.962499
 30
0.0
  0
ENDBLK
  5
790
  8
0
  0
BLOCK
  8
0
  2
*D13
 70
     1
 10
0.0
 20
0.0
 30
0.0
  3
*D13
  1

  0
LINE
  5
794
  8
0
  6
BYBLOCK
 62
     0
 10
324.791534
 20
35.962499
 30
0.0
 11
325.331703
 21
35.962499
 31
0.0
  0
LINE
  5
795
  8
0
  6
BYBLOCK
 62
     0
 10
324.791534
 20
34.662499
 30
0.0
 11
325.331703
 21
34.662499
 31
0.0
  0
LINE
  5
796
  8
0
  6
BYBLOCK
 62
     0
 10
325.316703
 20
35.812499
 30
0.0
 11
325.316703
 21
34.812499
 31
0.0
  0
SOLID
  5
797
  8
0
  6
BYBLOCK
 62
     0
 10
325.291703
 20
35.812499
 30
0.0
 11
325.341703
 21
35.812499
 31
0.0
 12
325.316703
 22
35.962499
 32
0.0
 13
325.316703
 23
35.962499
 33
0.0
  0
SOLID
  5
798
  8
0
  6
BYBLOCK
 62
     0
 10
325.291703
 20
34.812499
 30
0.0
 11
325.341703
 21
34.812499
 31
0.0
 12
325.316703
 22
34.662499
 32
0.0
 13
325.316703
 23
34.662499
 33
0.0
  0
TEXT
  5
C0F
  8
0
 62
     0
 10
325.092
 20
35.1797
 30
0.0
 40
0.075
  1
1.30
  7
ROMANC
  0
POINT
  5
79A
  8
DEFPOINTS
  6
BYBLOCK
 62
     0
 10
324.776534
 20
35.962499
 30
0.0
  0
POINT
  5
79B
  8
DEFPOINTS
  6
BYBLOCK
 62
     0
 10
324.776534
 20
34.662499
 30
0.0
  0
POINT
  5
79C
  8
DEFPOINTS
  6
BYBLOCK
 62
     0
 10
325.316703
 20
34.662499
 30
0.0
  0
ENDBLK
  5
79D
  8
0
  0
BLOCK
  8
0
  2
*D14
 70
     1
 10
0.0
 20
0.0
 30
0.0
  3
*D14
  1

  0
LINE
  5
7A1
  8
0
  6
BYBLOCK
 62
     0
 10
325.316703
 20
34.812499
 30
0.0
 11
325.316703
 21
34.962499
 31
0.0
  0
LINE
  5
7A2
  8
0
  6
BYBLOCK
 62
     0
 10
325.316703
 20
34.212499
 30
0.0
 11
325.316703
 21
34.062499
 31
0.0
  0
LINE
  5
7A3
  8
0
  6
BYBLOCK
 62
     0
 10
325.316703
 20
34.662499
 30
0.0
 11
325.316703
 21
34.362499
 31
0.0
  0
SOLID
  5
7A4
  8
0
  6
BYBLOCK
 62
     0
 10
325.291703
 20
34.812499
 30
0.0
 11
325.341703
 21
34.812499
 31
0.0
 12
325.316703
 22
34.662499
 32
0.0
 13
325.316703
 23
34.662499
 33
0.0
  0
SOLID
  5
7A5
  8
0
  6
BYBLOCK
 62
     0
 10
325.291703
 20
34.212499
 30
0.0
 11
325.341703
 21
34.212499
 31
0.0
 12
325.316703
 22
34.362499
 32
0.0
 13
325.316703
 23
34.362499
 33
0.0
  0
TEXT
  5
C10
  8
0
 62
     0
 10
325.092
 20
34.3797
 30
0.0
 40
0.075
  1
0.30
  7
ROMANC
  0
POINT
  5
7A7
  8
DEFPOINTS
  6
BYBLOCK
 62
     0
 10
325.316703
 20
34.662499
 30
0.0
  0
POINT
  5
7A8
  8
DEFPOINTS
  6
BYBLOCK
 62
     0
 10
325.316703
 20
34.362499
 30
0.0
  0
POINT
  5
7A9
  8
DEFPOINTS
  6
BYBLOCK
 62
     0
 10
325.316703
 20
34.362499
 30
0.0
  0
ENDBLK
  5
7AA
  8
0
  0
BLOCK
  8
0
  2
*D15
 70
     1
 10
0.0
 20
0.0
 30
0.0
  3
*D15
  1

  0
LINE
  5
800
  8
0
  6
BYBLOCK
 62
    71
 10
142.056455
 20
122.778217
 30
0.0
 11
142.056455
 21
123.002231
 31
0.0
  0
LINE
  5
801
  8
0
  6
BYBLOCK
 62
    71
 10
143.056455
 20
122.778217
 30
0.0
 11
143.056455
 21
123.002231
 31
0.0
  0
LINE
  5
802
  8
0
  6
BYBLOCK
 62
    71
 10
142.106455
 20
122.922231
 30
0.0
 11
143.006455
 21
122.922231
 31
0.0
  0
INSERT
  5
803
  8
0
  6
BYBLOCK
 62
    71
  2
TICK
 10
142.056455
 20
122.922231
 30
0.0
 41
0.05
 42
0.05
 43
0.05
 50
180.0
  0
INSERT
  5
804
  8
0
  6
BYBLOCK
 62
    71
  2
TICK
 10
143.056455
 20
122.922231
 30
0.0
 41
0.05
 42
0.05
 43
0.05
  0
TEXT
  5
805
  8
0
  6
BYBLOCK
 62
     7
 10
142.463122
 20
122.962231
 30
0.0
 40
0.08
  1
1.00
 72
     1
 11
142.556455
 21
123.002231
 31
0.0
 73
     2
  0
POINT
  5
806
  8
DEFPOINTS
  6
BYBLOCK
 62
     0
 10
142.056455
 20
122.698217
 30
0.0
  0
POINT
  5
807
  8
DEFPOINTS
  6
BYBLOCK
 62
     0
 10
143.056455
 20
122.698217
 30
0.0
  0
POINT
  5
808
  8
DEFPOINTS
  6
BYBLOCK
 62
     0
 10
143.056455
 20
122.922231
 30
0.0
  0
ENDBLK
  5
80A
  8
0
  0
BLOCK
  8
0
  2
*D16
 70
     1
 10
0.0
 20
0.0
 30
0.0
  3
*D16
  1

  0
LINE
  5
80C
  8
0
  6
BYBLOCK
 62
    71
 10
143.056455
 20
122.778217
 30
0.0
 11
143.056455
 21
123.002231
 31
0.0
  0
LINE
  5
80D
  8
0
  6
BYBLOCK
 62
    71
 10
144.056455
 20
122.478217
 30
0.0
 11
144.056455
 21
123.002231
 31
0.0
  0
LINE
  5
80E
  8
0
  6
BYBLOCK
 62
    71
 10
143.106455
 20
122.922231
 30
0.0
 11
144.006455
 21
122.922231
 31
0.0
  0
INSERT
  5
80F
  8
0
  6
BYBLOCK
 62
    71
  2
TICK
 10
143.056455
 20
122.922231
 30
0.0
 41
0.05
 42
0.05
 43
0.05
 50
180.0
  0
INSERT
  5
810
  8
0
  6
BYBLOCK
 62
    71
  2
TICK
 10
144.056455
 20
122.922231
 30
0.0
 41
0.05
 42
0.05
 43
0.05
  0
TEXT
  5
811
  8
0
  6
BYBLOCK
 62
     7
 10
143.463122
 20
122.962231
 30
0.0
 40
0.08
  1
1.00
 72
     1
 11
143.556455
 21
123.002231
 31
0.0
 73
     2
  0
POINT
  5
812
  8
DEFPOINTS
  6
BYBLOCK
 62
     0
 10
143.056455
 20
122.698217
 30
0.0
  0
POINT
  5
813
  8
DEFPOINTS
  6
BYBLOCK
 62
     0
 10
144.056455
 20
122.398217
 30
0.0
  0
POINT
  5
814
  8
DEFPOINTS
  6
BYBLOCK
 62
     0
 10
144.056455
 20
122.922231
 30
0.0
  0
ENDBLK
  5
816
  8
0
  0
BLOCK
  8
0
  2
*D17
 70
     1
 10
0.0
 20
0.0
 30
0.0
  3
*D17
  1

  0
LINE
  5
818
  8
0
  6
BYBLOCK
 62
    71
 10
143.056455
 20
124.948217
 30
0.0
 11
143.056455
 21
124.513095
 31
0.0
  0
LINE
  5
819
  8
0
  6
BYBLOCK
 62
    71
 10
143.056455
 20
124.513095
 30
0.0
 11
143.056455
 21
124.113095
 31
0.0
  0
INSERT
  5
81A
  8
0
  6
BYBLOCK
 62
    71
  2
TICK
 10
143.056455
 20
124.998217
 30
0.0
 41
0.05
 42
0.05
 43
0.05
 50
90.0
  0
TEXT
  5
81B
  8
0
  6
BYBLOCK
 62
     7
 10
143.016455
 20
124.139762
 30
0.0
 40
0.08
  1
R1.00
 50
90.0
 72
     1
 11
142.976455
 21
124.273095
 31
0.0
 73
     2
  0
POINT
  5
81C
  8
DEFPOINTS
  6
BYBLOCK
 62
     0
 10
143.056455
 20
124.998217
 30
0.0
  0
POINT
  5
81D
  8
DEFPOINTS
  6
BYBLOCK
 62
     0
 10
143.056455
 20
123.998217
 30
0.0
  0
ENDBLK
  5
81F
  8
0
  0
BLOCK
  8
0
  2
*D18
 70
     1
 10
0.0
 20
0.0
 30
0.0
  3
*D18
  1

  0
LINE
  5
821
  8
0
  6
BYBLOCK
 62
    71
 10
141.806455
 20
122.018217
 30
0.0
 11
141.806455
 21
121.65475
 31
0.0
  0
LINE
  5
822
  8
0
  6
BYBLOCK
 62
    71
 10
142.056455
 20
122.016422
 30
0.0
 11
142.056455
 21
121.65475
 31
0.0
  0
LINE
  5
823
  8
0
  6
BYBLOCK
 62
    71
 10
141.756455
 20
121.73475
 30
0.0
 11
141.706455
 21
121.73475
 31
0.0
  0
LINE
  5
824
  8
0
  6
BYBLOCK
 62
    71
 10
142.106455
 20
121.73475
 30
0.0
 11
142.156455
 21
121.73475
 31
0.0
  0
INSERT
  5
825
  8
0
  6
BYBLOCK
 62
    71
  2
TICK
 10
141.806455
 20
121.73475
 30
0.0
 41
0.05
 42
0.05
 43
0.05
  0
INSERT
  5
826
  8
0
  6
BYBLOCK
 62
    71
  2
TICK
 10
142.056455
 20
121.73475
 30
0.0
 41
0.05
 42
0.05
 43
0.05
 50
180.0
  0
TEXT
  5
827
  8
0
  6
BYBLOCK
 62
     7
 10
141.812908
 20
121.515081
 30
0.0
 40
0.08
  1
0.25
 72
     1
 11
141.926241
 21
121.555081
 31
0.0
 73
     2
  0
POINT
  5
828
  8
DEFPOINTS
  6
BYBLOCK
 62
     0
 10
141.806455
 20
122.098217
 30
0.0
  0
POINT
  5
829
  8
DEFPOINTS
  6
BYBLOCK
 62
     0
 10
142.056455
 20
122.096422
 30
0.0
  0
POINT
  5
82A
  8
DEFPOINTS
  6
BYBLOCK
 62
     0
 10
142.056455
 20
121.73475
 30
0.0
  0
ENDBLK
  5
82C
  8
0
  0
BLOCK
  8
0
  2
*D19
 70
     1
 10
0.0
 20
0.0
 30
0.0
  3
*D19
  1

  0
LINE
  5
82E
  8
0
  6
BYBLOCK
 62
    71
 10
144.056455
 20
122.01894
 30
0.0
 11
144.056455
 21
121.655685
 31
0.0
  0
LINE
  5
82F
  8
0
  6
BYBLOCK
 62
    71
 10
144.306455
 20
122.018217
 30
0.0
 11
144.306455
 21
121.655685
 31
0.0
  0
LINE
  5
830
  8
0
  6
BYBLOCK
 62
    71
 10
144.006455
 20
121.735685
 30
0.0
 11
143.956455
 21
121.735685
 31
0.0
  0
LINE
  5
831
  8
0
  6
BYBLOCK
 62
    71
 10
144.356455
 20
121.735685
 30
0.0
 11
144.406455
 21
121.735685
 31
0.0
  0
INSERT
  5
832
  8
0
  6
BYBLOCK
 62
    71
  2
TICK
 10
144.056455
 20
121.735685
 30
0.0
 41
0.05
 42
0.05
 43
0.05
  0
INSERT
  5
833
  8
0
  6
BYBLOCK
 62
    71
  2
TICK
 10
144.306455
 20
121.735685
 30
0.0
 41
0.05
 42
0.05
 43
0.05
 50
180.0
  0
TEXT
  5
834
  8
0
  6
BYBLOCK
 62
     7
 10
144.084034
 20
121.515081
 30
0.0
 40
0.08
  1
0.25
 72
     1
 11
144.197367
 21
121.555081
 31
0.0
 73
     2
  0
POINT
  5
835
  8
DEFPOINTS
  6
BYBLOCK
 62
     0
 10
144.056455
 20
122.09894
 30
0.0
  0
POINT
  5
836
  8
DEFPOINTS
  6
BYBLOCK
 62
     0
 10
144.306455
 20
122.098217
 30
0.0
  0
POINT
  5
837
  8
DEFPOINTS
  6
BYBLOCK
 62
     0
 10
144.306455
 20
121.735685
 30
0.0
  0
ENDBLK
  5
839
  8
0
  0
BLOCK
  8
0
  2
*D20
 70
     1
 10
0.0
 20
0.0
 30
0.0
  3
*D20
  1

  0
LINE
  5
83B
  8
0
  6
BYBLOCK
 62
    71
 10
144.386455
 20
122.098217
 30
0.0
 11
144.973154
 21
122.098217
 31
0.0
  0
LINE
  5
83C
  8
0
  6
BYBLOCK
 62
    71
 10
144.385022
 20
122.398217
 30
0.0
 11
144.973154
 21
122.398217
 31
0.0
  0
LINE
  5
83D
  8
0
  6
BYBLOCK
 62
    71
 10
144.893154
 20
122.148217
 30
0.0
 11
144.893154
 21
122.348217
 31
0.0
  0
INSERT
  5
83E
  8
0
  6
BYBLOCK
 62
    71
  2
TICK
 10
144.893154
 20
122.098217
 30
0.0
 41
0.05
 42
0.05
 43
0.05
 50
270.0
  0
INSERT
  5
83F
  8
0
  6
BYBLOCK
 62
    71
  2
TICK
 10
144.893154
 20
122.398217
 30
0.0
 41
0.05
 42
0.05
 43
0.05
 50
90.0
  0
TEXT
  5
840
  8
0
  6
BYBLOCK
 62
     7
 10
145.08328
 20
122.150449
 30
0.0
 40
0.08
  1
0.30
 50
90.0
 72
     1
 11
145.04328
 21
122.257116
 31
0.0
 73
     2
  0
POINT
  5
841
  8
DEFPOINTS
  6
BYBLOCK
 62
     0
 10
144.306455
 20
122.098217
 30
0.0
  0
POINT
  5
842
  8
DEFPOINTS
  6
BYBLOCK
 62
     0
 10
144.305022
 20
122.398217
 30
0.0
  0
POINT
  5
843
  8
DEFPOINTS
  6
BYBLOCK
 62
     0
 10
144.893154
 20
122.398217
 30
0.0
  0
ENDBLK
  5
845
  8
0
  0
BLOCK
  8
0
  2
*D21
 70
     1
 10
0.0
 20
0.0
 30
0.0
  3
*D21
  1

  0
LINE
  5
847
  8
0
  6
BYBLOCK
 62
    71
 10
144.385022
 20
122.398217
 30
0.0
 11
144.973154
 21
122.398217
 31
0.0
  0
LINE
  5
848
  8
0
  6
BYBLOCK
 62
    71
 10
144.387149
 20
124.00198
 30
0.0
 11
144.973154
 21
124.00198
 31
0.0
  0
LINE
  5
849
  8
0
  6
BYBLOCK
 62
    71
 10
144.893154
 20
122.448217
 30
0.0
 11
144.893154
 21
123.95198
 31
0.0
  0
INSERT
  5
84A
  8
0
  6
BYBLOCK
 62
    71
  2
TICK
 10
144.893154
 20
122.398217
 30
0.0
 41
0.05
 42
0.05
 43
0.05
 50
270.0
  0
INSERT
  5
84B
  8
0
  6
BYBLOCK
 62
    71
  2
TICK
 10
144.893154
 20
124.00198
 30
0.0
 41
0.05
 42
0.05
 43
0.05
 50
90.0
  0
TEXT
  5
84C
  8
0
  6
BYBLOCK
 62
     7
 10
144.853154
 20
123.100098
 30
0.0
 40
0.08
  1
1.60
 50
90.0
 72
     1
 11
144.813154
 21
123.200098
 31
0.0
 73
     2
  0
POINT
  5
84D
  8
DEFPOINTS
  6
BYBLOCK
 62
     0
 10
144.305022
 20
122.398217
 30
0.0
  0
POINT
  5
84E
  8
DEFPOINTS
  6
BYBLOCK
 62
     0
 10
144.307149
 20
124.00198
 30
0.0
  0
POINT
  5
84F
  8
DEFPOINTS
  6
BYBLOCK
 62
     0
 10
144.893154
 20
124.00198
 30
0.0
  0
ENDBLK
  5
851
  8
0
  0
BLOCK
  8
0
  2
*D22
 70
     1
 10
0.0
 20
0.0
 30
0.0
  3
*D22
  1

  0
LINE
  5
853
  8
0
  6
BYBLOCK
 62
    71
 10
144.385022
 20
124.00198
 30
0.0
 11
144.973154
 21
124.00198
 31
0.0
  0
LINE
  5
854
  8
0
  6
BYBLOCK
 62
    71
 10
143.971522
 20
124.998217
 30
0.0
 11
144.973154
 21
124.998217
 31
0.0
  0
LINE
  5
855
  8
0
  6
BYBLOCK
 62
    71
 10
144.893154
 20
124.05198
 30
0.0
 11
144.893154
 21
124.948217
 31
0.0
  0
INSERT
  5
856
  8
0
  6
BYBLOCK
 62
    71
  2
TICK
 10
144.893154
 20
124.00198
 30
0.0
 41
0.05
 42
0.05
 43
0.05
 50
270.0
  0
INSERT
  5
857
  8
0
  6
BYBLOCK
 62
    71
  2
TICK
 10
144.893154
 20
124.998217
 30
0.0
 41
0.05
 42
0.05
 43
0.05
 50
90.0
  0
TEXT
  5
858
  8
0
  6
BYBLOCK
 62
     7
 10
144.853154
 20
124.406765
 30
0.0
 40
0.08
  1
1.00
 50
90.0
 72
     1
 11
144.813154
 21
124.500098
 31
0.0
 73
     2
  0
POINT
  5
859
  8
DEFPOINTS
  6
BYBLOCK
 62
     0
 10
144.305022
 20
124.00198
 30
0.0
  0
POINT
  5
85A
  8
DEFPOINTS
  6
BYBLOCK
 62
     0
 10
143.891522
 20
124.998217
 30
0.0
  0
POINT
  5
85B
  8
DEFPOINTS
  6
BYBLOCK
 62
     0
 10
144.893154
 20
124.998217
 30
0.0
  0
ENDBLK
  5
85D
  8
0
  0
BLOCK
  8
0
  2
*D23
 70
     1
 10
0.0
 20
0.0
 30
0.0
  3
*D23
  1

  0
LINE
  5
85F
  8
0
  6
BYBLOCK
 62
    71
 10
143.884655
 20
124.998217
 30
0.0
 11
144.973154
 21
124.998217
 31
0.0
  0
LINE
  5
860
  8
0
  6
BYBLOCK
 62
    71
 10
143.392253
 20
125.248217
 30
0.0
 11
144.973154
 21
125.248217
 31
0.0
  0
LINE
  5
861
  8
0
  6
BYBLOCK
 62
    71
 10
144.893154
 20
124.948217
 30
0.0
 11
144.893154
 21
124.898217
 31
0.0
  0
LINE
  5
862
  8
0
  6
BYBLOCK
 62
    71
 10
144.893154
 20
125.298217
 30
0.0
 11
144.893154
 21
125.348217
 31
0.0
  0
INSERT
  5
863
  8
0
  6
BYBLOCK
 62
    71
  2
TICK
 10
144.893154
 20
124.998217
 30
0.0
 41
0.05
 42
0.05
 43
0.05
 50
90.0
  0
INSERT
  5
864
  8
0
  6
BYBLOCK
 62
    71
  2
TICK
 10
144.893154
 20
125.248217
 30
0.0
 41
0.05
 42
0.05
 43
0.05
 50
270.0
  0
TEXT
  5
865
  8
0
  6
BYBLOCK
 62
     7
 10
145.076459
 20
125.026898
 30
0.0
 40
0.08
  1
0.25
 50
90.0
 72
     1
 11
145.036459
 21
125.140231
 31
0.0
 73
     2
  0
POINT
  5
866
  8
DEFPOINTS
  6
BYBLOCK
 62
     0
 10
143.804655
 20
124.998217
 30
0.0
  0
POINT
  5
867
  8
DEFPOINTS
  6
BYBLOCK
 62
     0
 10
143.312253
 20
125.248217
 30
0.0
  0
POINT
  5
868
  8
DEFPOINTS
  6
BYBLOCK
 62
     0
 10
144.893154
 20
125.248217
 30
0.0
  0
ENDBLK
  5
86A
  8
0
  0
BLOCK
  8
0
  2
*D24
 70
     1
 10
0.0
 20
0.0
 30
0.0
  3
*D24
  1

  0
LINE
  5
86C
  8
0
  6
BYBLOCK
 62
    71
 10
143.136455
 20
122.398217
 30
0.0
 11
143.356559
 21
122.398217
 31
0.0
  0
LINE
  5
86D
  8
0
  6
BYBLOCK
 62
    71
 10
143.136455
 20
122.698217
 30
0.0
 11
143.356559
 21
122.698217
 31
0.0
  0
LINE
  5
86E
  8
0
  6
BYBLOCK
 62
    71
 10
143.276559
 20
122.448217
 30
0.0
 11
143.276559
 21
122.648217
 31
0.0
  0
INSERT
  5
86F
  8
0
  6
BYBLOCK
 62
    71
  2
TICK
 10
143.276559
 20
122.398217
 30
0.0
 41
0.05
 42
0.05
 43
0.05
 50
270.0
  0
INSERT
  5
870
  8
0
  6
BYBLOCK
 62
    71
  2
TICK
 10
143.276559
 20
122.698217
 30
0.0
 41
0.05
 42
0.05
 43
0.05
 50
90.0
  0
TEXT
  5
871
  8
0
  6
BYBLOCK
 62
     7
 10
143.218673
 20
122.446849
 30
0.0
 40
0.08
  1
0.30
 50
90.0
 72
     1
 11
143.178673
 21
122.553516
 31
0.0
 73
     2
  0
POINT
  5
872
  8
DEFPOINTS
  6
BYBLOCK
 62
     0
 10
143.056455
 20
122.398217
 30
0.0
  0
POINT
  5
873
  8
DEFPOINTS
  6
BYBLOCK
 62
     0
 10
143.056455
 20
122.698217
 30
0.0
  0
POINT
  5
874
  8
DEFPOINTS
  6
BYBLOCK
 62
     0
 10
143.276559
 20
122.698217
 30
0.0
  0
ENDBLK
  5
876
  8
0
  0
BLOCK
  8
0
  2
*D25
 70
     1
 10
0.0
 20
0.0
 30
0.0
  3
*D25
  1

  0
LINE
  5
878
  8
0
  6
BYBLOCK
 62
    71
 10
142.056455
 20
122.016422
 30
0.0
 11
142.056455
 21
121.655685
 31
0.0
  0
LINE
  5
879
  8
0
  6
BYBLOCK
 62
    71
 10
144.056455
 20
122.01894
 30
0.0
 11
144.056455
 21
121.655685
 31
0.0
  0
LINE
  5
87A
  8
0
  6
BYBLOCK
 62
    71
 10
142.106455
 20
121.735685
 30
0.0
 11
142.88377
 21
121.735685
 31
0.0
  0
LINE
  5
87B
  8
0
  6
BYBLOCK
 62
    71
 10
144.006455
 20
121.735685
 30
0.0
 11
143.28758
 21
121.735685
 31
0.0
  0
INSERT
  5
87C
  8
0
  6
BYBLOCK
 62
    71
  2
TICK
 10
142.056455
 20
121.735685
 30
0.0
 41
0.05
 42
0.05
 43
0.05
 50
180.0
  0
INSERT
  5
87D
  8
0
  6
BYBLOCK
 62
    71
  2
TICK
 10
144.056455
 20
121.735685
 30
0.0
 41
0.05
 42
0.05
 43
0.05
  0
TEXT
  5
87E
  8
0
  6
BYBLOCK
 62
     7
 10
142.979008
 20
121.692294
 30
0.0
 40
0.08
  1
2.00
 72
     1
 11
143.085675
 21
121.732294
 31
0.0
 73
     2
  0
POINT
  5
87F
  8
DEFPOINTS
  6
BYBLOCK
 62
     0
 10
142.056455
 20
122.096422
 30
0.0
  0
POINT
  5
880
  8
DEFPOINTS
  6
BYBLOCK
 62
     0
 10
144.056455
 20
122.09894
 30
0.0
  0
POINT
  5
881
  8
DEFPOINTS
  6
BYBLOCK
 62
     0
 10
144.056455
 20
121.735685
 30
0.0
  0
ENDBLK
  5
883
  8
0
  0
BLOCK
  8
0
  2
*D26
 70
     1
 10
0.0
 20
0.0
 30
0.0
  3
*D26
  1

  0
LINE
  5
885
  8
0
  6
BYBLOCK
 62
    71
 10
153.702968
 20
123.059563
 30
0.0
 11
153.702968
 21
123.328779
 31
0.0
  0
LINE
  5
886
  8
0
  6
BYBLOCK
 62
    71
 10
154.702968
 20
123.059563
 30
0.0
 11
154.702968
 21
123.328779
 31
0.0
  0
LINE
  5
887
  8
0
  6
BYBLOCK
 62
    71
 10
153.752968
 20
123.248779
 30
0.0
 11
154.652968
 21
123.248779
 31
0.0
  0
INSERT
  5
888
  8
0
  6
BYBLOCK
 62
    71
  2
TICK
 10
153.702968
 20
123.248779
 30
0.0
 41
0.05
 42
0.05
 43
0.05
 50
180.0
  0
INSERT
  5
889
  8
0
  6
BYBLOCK
 62
    71
  2
TICK
 10
154.702968
 20
123.248779
 30
0.0
 41
0.05
 42
0.05
 43
0.05
  0
TEXT
  5
88A
  8
0
  6
BYBLOCK
 62
     7
 10
154.109635
 20
123.288779
 30
0.0
 40
0.08
  1
1.00
 72
     1
 11
154.202968
 21
123.328779
 31
0.0
 73
     2
  0
POINT
  5
88B
  8
DEFPOINTS
  6
BYBLOCK
 62
     0
 10
153.702968
 20
122.979563
 30
0.0
  0
POINT
  5
88C
  8
DEFPOINTS
  6
BYBLOCK
 62
     0
 10
154.702968
 20
122.979563
 30
0.0
  0
POINT
  5
88D
  8
DEFPOINTS
  6
BYBLOCK
 62
     0
 10
154.702968
 20
123.248779
 30
0.0
  0
ENDBLK
  5
88F
  8
0
  0
BLOCK
  8
0
  2
*D27
 70
     1
 10
0.0
 20
0.0
 30
0.0
  3
*D27
  1

  0
LINE
  5
891
  8
0
  6
BYBLOCK
 62
    71
 10
154.702968
 20
123.059563
 30
0.0
 11
154.702968
 21
123.328779
 31
0.0
  0
LINE
  5
892
  8
0
  6
BYBLOCK
 62
    71
 10
155.502968
 20
122.759563
 30
0.0
 11
155.502968
 21
123.328779
 31
0.0
  0
LINE
  5
893
  8
0
  6
BYBLOCK
 62
    71
 10
154.752968
 20
123.248779
 30
0.0
 11
155.452968
 21
123.248779
 31
0.0
  0
INSERT
  5
894
  8
0
  6
BYBLOCK
 62
    71
  2
TICK
 10
154.702968
 20
123.248779
 30
0.0
 41
0.05
 42
0.05
 43
0.05
 50
180.0
  0
INSERT
  5
895
  8
0
  6
BYBLOCK
 62
    71
  2
TICK
 10
155.502968
 20
123.248779
 30
0.0
 41
0.05
 42
0.05
 43
0.05
  0
TEXT
  5
896
  8
0
  6
BYBLOCK
 62
     7
 10
154.996301
 20
123.288779
 30
0.0
 40
0.08
  1
0.80
 72
     1
 11
155.102968
 21
123.328779
 31
0.0
 73
     2
  0
POINT
  5
897
  8
DEFPOINTS
  6
BYBLOCK
 62
     0
 10
154.702968
 20
122.979563
 30
0.0
  0
POINT
  5
898
  8
DEFPOINTS
  6
BYBLOCK
 62
     0
 10
155.502968
 20
122.679563
 30
0.0
  0
POINT
  5
899
  8
DEFPOINTS
  6
BYBLOCK
 62
     0
 10
155.502968
 20
123.248779
 30
0.0
  0
ENDBLK
  5
89B
  8
0
  0
BLOCK
  8
0
  2
*D28
 70
     1
 10
0.0
 20
0.0
 30
0.0
  3
*D28
  1

  0
LINE
  5
89D
  8
0
  6
BYBLOCK
 62
    71
 10
154.782968
 20
122.679563
 30
0.0
 11
155.079849
 21
122.679563
 31
0.0
  0
LINE
  5
89E
  8
0
  6
BYBLOCK
 62
    71
 10
154.782968
 20
122.979563
 30
0.0
 11
155.079849
 21
122.979563
 31
0.0
  0
LINE
  5
89F
  8
0
  6
BYBLOCK
 62
    71
 10
154.999849
 20
122.729563
 30
0.0
 11
154.999849
 21
122.929563
 31
0.0
  0
INSERT
  5
8A0
  8
0
  6
BYBLOCK
 62
    71
  2
TICK
 10
154.999849
 20
122.679563
 30
0.0
 41
0.05
 42
0.05
 43
0.05
 50
270.0
  0
INSERT
  5
8A1
  8
0
  6
BYBLOCK
 62
    71
  2
TICK
 10
154.999849
 20
122.979563
 30
0.0
 41
0.05
 42
0.05
 43
0.05
 50
90.0
  0
TEXT
  5
8A2
  8
0
  6
BYBLOCK
 62
     7
 10
154.959849
 20
122.731909
 30
0.0
 40
0.08
  1
0.30
 50
90.0
 72
     1
 11
154.919849
 21
122.838576
 31
0.0
 73
     2
  0
POINT
  5
8A3
  8
DEFPOINTS
  6
BYBLOCK
 62
     0
 10
154.702968
 20
122.679563
 30
0.0
  0
POINT
  5
8A4
  8
DEFPOINTS
  6
BYBLOCK
 62
     0
 10
154.702968
 20
122.979563
 30
0.0
  0
POINT
  5
8A5
  8
DEFPOINTS
  6
BYBLOCK
 62
     0
 10
154.999849
 20
122.979563
 30
0.0
  0
ENDBLK
  5
8A7
  8
0
  0
BLOCK
  8
0
  2
*D29
 70
     1
 10
0.0
 20
0.0
 30
0.0
  3
*D29
  1

  0
LINE
  5
8A9
  8
0
  6
BYBLOCK
 62
    71
 10
153.452968
 20
122.299563
 30
0.0
 11
153.452968
 21
121.963135
 31
0.0
  0
LINE
  5
8AA
  8
0
  6
BYBLOCK
 62
    71
 10
153.702968
 20
122.296741
 30
0.0
 11
153.702968
 21
121.963135
 31
0.0
  0
LINE
  5
8AB
  8
0
  6
BYBLOCK
 62
    71
 10
153.402968
 20
122.043135
 30
0.0
 11
153.352968
 21
122.043135
 31
0.0
  0
LINE
  5
8AC
  8
0
  6
BYBLOCK
 62
    71
 10
153.752968
 20
122.043135
 30
0.0
 11
153.802968
 21
122.043135
 31
0.0
  0
INSERT
  5
8AD
  8
0
  6
BYBLOCK
 62
    71
  2
TICK
 10
153.452968
 20
122.043135
 30
0.0
 41
0.05
 42
0.05
 43
0.05
  0
INSERT
  5
8AE
  8
0
  6
BYBLOCK
 62
    71
  2
TICK
 10
153.702968
 20
122.043135
 30
0.0
 41
0.05
 42
0.05
 43
0.05
 50
180.0
  0
TEXT
  5
8AF
  8
0
  6
BYBLOCK
 62
     7
 10
153.147767
 20
122.083135
 30
0.0
 40
0.08
  1
0.25
 72
     1
 11
153.2611
 21
122.123135
 31
0.0
 73
     2
  0
POINT
  5
8B0
  8
DEFPOINTS
  6
BYBLOCK
 62
     0
 10
153.452968
 20
122.379563
 30
0.0
  0
POINT
  5
8B1
  8
DEFPOINTS
  6
BYBLOCK
 62
     0
 10
153.702968
 20
122.376741
 30
0.0
  0
POINT
  5
8B2
  8
DEFPOINTS
  6
BYBLOCK
 62
     0
 10
153.702968
 20
122.043135
 30
0.0
  0
ENDBLK
  5
8B4
  8
0
  0
BLOCK
  8
0
  2
*D30
 70
     1
 10
0.0
 20
0.0
 30
0.0
  3
*D30
  1

  0
LINE
  5
8B6
  8
0
  6
BYBLOCK
 62
    71
 10
153.702968
 20
122.296741
 30
0.0
 11
153.702968
 21
121.963135
 31
0.0
  0
LINE
  5
8B7
  8
0
  6
BYBLOCK
 62
    71
 10
155.502968
 20
122.300209
 30
0.0
 11
155.502968
 21
121.963135
 31
0.0
  0
LINE
  5
8B8
  8
0
  6
BYBLOCK
 62
    71
 10
153.752968
 20
122.043135
 30
0.0
 11
155.452968
 21
122.043135
 31
0.0
  0
INSERT
  5
8B9
  8
0
  6
BYBLOCK
 62
    71
  2
TICK
 10
153.702968
 20
122.043135
 30
0.0
 41
0.05
 42
0.05
 43
0.05
 50
180.0
  0
INSERT
  5
8BA
  8
0
  6
BYBLOCK
 62
    71
  2
TICK
 10
155.502968
 20
122.043135
 30
0.0
 41
0.05
 42
0.05
 43
0.05
  0
TEXT
  5
8BB
  8
0
  6
BYBLOCK
 62
     7
 10
154.502968
 20
122.083135
 30
0.0
 40
0.08
  1
1.80
 72
     1
 11
154.602968
 21
122.123135
 31
0.0
 73
     2
  0
POINT
  5
8BC
  8
DEFPOINTS
  6
BYBLOCK
 62
     0
 10
153.702968
 20
122.376741
 30
0.0
  0
POINT
  5
8BD
  8
DEFPOINTS
  6
BYBLOCK
 62
     0
 10
155.502968
 20
122.380209
 30
0.0
  0
POINT
  5
8BE
  8
DEFPOINTS
  6
BYBLOCK
 62
     0
 10
155.502968
 20
122.043135
 30
0.0
  0
ENDBLK
  5
8C0
  8
0
  0
BLOCK
  8
0
  2
*D31
 70
     1
 10
0.0
 20
0.0
 30
0.0
  3
*D31
  1

  0
LINE
  5
8C2
  8
0
  6
BYBLOCK
 62
    71
 10
155.502968
 20
122.300209
 30
0.0
 11
155.502968
 21
121.963135
 31
0.0
  0
LINE
  5
8C3
  8
0
  6
BYBLOCK
 62
    71
 10
155.752968
 20
122.299563
 30
0.0
 11
155.752968
 21
121.963135
 31
0.0
  0
LINE
  5
8C4
  8
0
  6
BYBLOCK
 62
    71
 10
155.452968
 20
122.043135
 30
0.0
 11
155.402968
 21
122.043135
 31
0.0
  0
LINE
  5
8C5
  8
0
  6
BYBLOCK
 62
    71
 10
155.802968
 20
122.043135
 30
0.0
 11
155.852968
 21
122.043135
 31
0.0
  0
INSERT
  5
8C6
  8
0
  6
BYBLOCK
 62
    71
  2
TICK
 10
155.502968
 20
122.043135
 30
0.0
 41
0.05
 42
0.05
 43
0.05
  0
INSERT
  5
8C7
  8
0
  6
BYBLOCK
 62
    71
  2
TICK
 10
155.752968
 20
122.043135
 30
0.0
 41
0.05
 42
0.05
 43
0.05
 50
180.0
  0
TEXT
  5
8C8
  8
0
  6
BYBLOCK
 62
     7
 10
155.846549
 20
122.083135
 30
0.0
 40
0.08
  1
0.25
 72
     1
 11
155.959882
 21
122.123135
 31
0.0
 73
     2
  0
POINT
  5
8C9
  8
DEFPOINTS
  6
BYBLOCK
 62
     0
 10
155.502968
 20
122.380209
 30
0.0
  0
POINT
  5
8CA
  8
DEFPOINTS
  6
BYBLOCK
 62
     0
 10
155.752968
 20
122.379563
 30
0.0
  0
POINT
  5
8CB
  8
DEFPOINTS
  6
BYBLOCK
 62
     0
 10
155.752968
 20
122.043135
 30
0.0
  0
ENDBLK
  5
8CD
  8
0
  0
BLOCK
  8
0
  2
*D32
 70
     1
 10
0.0
 20
0.0
 30
0.0
  3
*D32
  1

  0
LINE
  5
8CF
  8
0
  6
BYBLOCK
 62
    71
 10
155.832968
 20
122.379563
 30
0.0
 11
156.231073
 21
122.379563
 31
0.0
  0
LINE
  5
8D0
  8
0
  6
BYBLOCK
 62
    71
 10
155.833831
 20
122.679563
 30
0.0
 11
156.231073
 21
122.679563
 31
0.0
  0
LINE
  5
8D1
  8
0
  6
BYBLOCK
 62
    71
 10
156.151073
 20
122.429563
 30
0.0
 11
156.151073
 21
122.629563
 31
0.0
  0
INSERT
  5
8D2
  8
0
  6
BYBLOCK
 62
    71
  2
TICK
 10
156.151073
 20
122.379563
 30
0.0
 41
0.05
 42
0.05
 43
0.05
 50
270.0
  0
INSERT
  5
8D3
  8
0
  6
BYBLOCK
 62
    71
  2
TICK
 10
156.151073
 20
122.679563
 30
0.0
 41
0.05
 42
0.05
 43
0.05
 50
90.0
  0
TEXT
  5
8D4
  8
0
  6
BYBLOCK
 62
     7
 10
156.111073
 20
122.426863
 30
0.0
 40
0.08
  1
0.30
 50
90.0
 72
     1
 11
156.071073
 21
122.53353
 31
0.0
 73
     2
  0
POINT
  5
8D5
  8
DEFPOINTS
  6
BYBLOCK
 62
     0
 10
155.752968
 20
122.379563
 30
0.0
  0
POINT
  5
8D6
  8
DEFPOINTS
  6
BYBLOCK
 62
     0
 10
155.753831
 20
122.679563
 30
0.0
  0
POINT
  5
8D7
  8
DEFPOINTS
  6
BYBLOCK
 62
     0
 10
156.151073
 20
122.679563
 30
0.0
  0
ENDBLK
  5
8D9
  8
0
  0
BLOCK
  8
0
  2
*D33
 70
     1
 10
0.0
 20
0.0
 30
0.0
  3
*D33
  1

  0
LINE
  5
8DB
  8
0
  6
BYBLOCK
 62
    71
 10
155.833831
 20
122.679563
 30
0.0
 11
156.231073
 21
122.679563
 31
0.0
  0
LINE
  5
8DC
  8
0
  6
BYBLOCK
 62
    71
 10
155.833831
 20
123.579563
 30
0.0
 11
156.231073
 21
123.579563
 31
0.0
  0
LINE
  5
8DD
  8
0
  6
BYBLOCK
 62
    71
 10
156.151073
 20
122.729563
 30
0.0
 11
156.151073
 21
123.529563
 31
0.0
  0
INSERT
  5
8DE
  8
0
  6
BYBLOCK
 62
    71
  2
TICK
 10
156.151073
 20
122.679563
 30
0.0
 41
0.05
 42
0.05
 43
0.05
 50
270.0
  0
INSERT
  5
8DF
  8
0
  6
BYBLOCK
 62
    71
  2
TICK
 10
156.151073
 20
123.579563
 30
0.0
 41
0.05
 42
0.05
 43
0.05
 50
90.0
  0
TEXT
  5
8E0
  8
0
  6
BYBLOCK
 62
     7
 10
156.111073
 20
123.022896
 30
0.0
 40
0.08
  1
0.90
 50
90.0
 72
     1
 11
156.071073
 21
123.129563
 31
0.0
 73
     2
  0
POINT
  5
8E1
  8
DEFPOINTS
  6
BYBLOCK
 62
     0
 10
155.753831
 20
122.679563
 30
0.0
  0
POINT
  5
8E2
  8
DEFPOINTS
  6
BYBLOCK
 62
     0
 10
155.753831
 20
123.579563
 30
0.0
  0
POINT
  5
8E3
  8
DEFPOINTS
  6
BYBLOCK
 62
     0
 10
156.151073
 20
123.579563
 30
0.0
  0
ENDBLK
  5
8E5
  8
0
  0
BLOCK
  8
0
  2
*D34
 70
     1
 10
0.0
 20
0.0
 30
0.0
  3
*D34
  1

  0
LINE
  5
8E7
  8
0
  6
BYBLOCK
 62
    71
 10
155.833831
 20
123.579563
 30
0.0
 11
156.231073
 21
123.579563
 31
0.0
  0
LINE
  5
8E8
  8
0
  6
BYBLOCK
 62
    71
 10
155.398257
 20
124.479563
 30
0.0
 11
156.231073
 21
124.479563
 31
0.0
  0
LINE
  5
8E9
  8
0
  6
BYBLOCK
 62
    71
 10
156.151073
 20
123.629563
 30
0.0
 11
156.151073
 21
124.429563
 31
0.0
  0
INSERT
  5
8EA
  8
0
  6
BYBLOCK
 62
    71
  2
TICK
 10
156.151073
 20
123.579563
 30
0.0
 41
0.05
 42
0.05
 43
0.05
 50
270.0
  0
INSERT
  5
8EB
  8
0
  6
BYBLOCK
 62
    71
  2
TICK
 10
156.151073
 20
124.479563
 30
0.0
 41
0.05
 42
0.05
 43
0.05
 50
90.0
  0
TEXT
  5
8EC
  8
0
  6
BYBLOCK
 62
     7
 10
156.111073
 20
123.922896
 30
0.0
 40
0.08
  1
0.90
 50
90.0
 72
     1
 11
156.071073
 21
124.029563
 31
0.0
 73
     2
  0
POINT
  5
8ED
  8
DEFPOINTS
  6
BYBLOCK
 62
     0
 10
155.753831
 20
123.579563
 30
0.0
  0
POINT
  5
8EE
  8
DEFPOINTS
  6
BYBLOCK
 62
     0
 10
155.318257
 20
124.479563
 30
0.0
  0
POINT
  5
8EF
  8
DEFPOINTS
  6
BYBLOCK
 62
     0
 10
156.151073
 20
124.479563
 30
0.0
  0
ENDBLK
  5
8F1
  8
0
  0
BLOCK
  8
0
  2
*D35
 70
     1
 10
0.0
 20
0.0
 30
0.0
  3
*D35
  1

  0
LINE
  5
8F3
  8
0
  6
BYBLOCK
 62
    71
 10
155.398257
 20
124.479563
 30
0.0
 11
156.231073
 21
124.479563
 31
0.0
  0
LINE
  5
8F4
  8
0
  6
BYBLOCK
 62
    71
 10
154.851857
 20
124.729563
 30
0.0
 11
156.231073
 21
124.729563
 31
0.0
  0
LINE
  5
8F5
  8
0
  6
BYBLOCK
 62
    71
 10
156.151073
 20
124.429563
 30
0.0
 11
156.151073
 21
124.379563
 31
0.0
  0
LINE
  5
8F6
  8
0
  6
BYBLOCK
 62
    71
 10
156.151073
 20
124.779563
 30
0.0
 11
156.151073
 21
124.829563
 31
0.0
  0
INSERT
  5
8F7
  8
0
  6
BYBLOCK
 62
    71
  2
TICK
 10
156.151073
 20
124.479563
 30
0.0
 41
0.05
 42
0.05
 43
0.05
 50
90.0
  0
INSERT
  5
8F8
  8
0
  6
BYBLOCK
 62
    71
  2
TICK
 10
156.151073
 20
124.729563
 30
0.0
 41
0.05
 42
0.05
 43
0.05
 50
270.0
  0
TEXT
  5
8F9
  8
0
  6
BYBLOCK
 62
     7
 10
156.111073
 20
124.831595
 30
0.0
 40
0.08
  1
0.25
 50
90.0
 72
     1
 11
156.071073
 21
124.944928
 31
0.0
 73
     2
  0
POINT
  5
8FA
  8
DEFPOINTS
  6
BYBLOCK
 62
     0
 10
155.318257
 20
124.479563
 30
0.0
  0
POINT
  5
8FB
  8
DEFPOINTS
  6
BYBLOCK
 62
     0
 10
154.771857
 20
124.729563
 30
0.0
  0
POINT
  5
8FC
  8
DEFPOINTS
  6
BYBLOCK
 62
     0
 10
156.151073
 20
124.729563
 30
0.0
  0
ENDBLK
  5
8FE
  8
0
  0
BLOCK
  8
0
  2
*D36
 70
     1
 10
0.0
 20
0.0
 30
0.0
  3
*D36
  1

  0
LINE
  5
900
  8
0
  6
BYBLOCK
 62
    71
 10
154.399015
 20
124.404732
 30
0.0
 11
154.50153
 21
123.989971
 31
0.0
  0
LINE
  5
901
  8
0
  6
BYBLOCK
 62
    71
 10
154.50153
 20
123.989971
 30
0.0
 11
154.597507
 21
123.601656
 31
0.0
  0
INSERT
  5
902
  8
0
  6
BYBLOCK
 62
    71
  2
TICK
 10
154.387018
 20
124.453271
 30
0.0
 41
0.05
 42
0.05
 43
0.05
 50
103.883238
  0
TEXT
  5
903
  8
0
  6
BYBLOCK
 62
     7
 10
154.562756
 20
123.908961
 30
0.0
 40
0.08
  1
R0.90
 50
283.883238
 72
     1
 11
154.636779
 21
123.776177
 31
0.0
 73
     2
  0
POINT
  5
904
  8
DEFPOINTS
  6
BYBLOCK
 62
     0
 10
154.387018
 20
124.453271
 30
0.0
  0
POINT
  5
905
  8
DEFPOINTS
  6
BYBLOCK
 62
     0
 10
154.602968
 20
123.579563
 30
0.0
  0
ENDBLK
  5
907
  8
0
  0
BLOCK
  8
0
  2
VILADOMAT
 70
     0
 10
0.0
 20
0.0
 30
0.0
  3
VILADOMAT
  1

  0
DIMENSION
  5
90C
  8
COTES
  2
*D23
 10
-5.873182
 20
3.756356
 30
0.0
 11
-5.729876
 21
3.648369
 31
0.0
 12
-150.766336
 22
-121.491862
 32
0.0
 70
   128
  3
STANDARD
 13
-6.961681
 23
3.506356
 33
0.0
 14
-7.454083
 24
3.756356
 34
0.0
 50
90.0
  0
DIMENSION
  5
90D
  8
COTES
  2
*D22
 10
-5.873182
 20
3.506356
 30
0.0
 11
-5.953182
 21
3.008237
 31
0.0
 12
-150.766336
 22
-121.491862
 32
0.0
  3
STANDARD
 13
-6.461314
 23
2.510118
 33
0.0
 14
-6.874814
 24
3.506356
 34
0.0
 50
90.0
  0
DIMENSION
  5
90E
  8
COTES
  2
*D21
 10
-5.873182
 20
2.510118
 30
0.0
 11
-5.953182
 21
1.708237
 31
0.0
 12
-150.766336
 22
-121.491862
 32
0.0
  3
STANDARD
 13
-6.461314
 23
0.906356
 33
0.0
 14
-6.459187
 24
2.510118
 34
0.0
 50
90.0
  0
DIMENSION
  5
90F
  8
COTES
  2
*D20
 10
-5.873182
 20
0.906356
 30
0.0
 11
-5.723056
 21
0.765255
 31
0.0
 12
-150.766336
 22
-121.491862
 32
0.0
 70
   128
  3
STANDARD
 13
-6.459881
 23
0.606356
 33
0.0
 14
-6.461314
 24
0.906356
 34
0.0
 50
90.0
  0
DIMENSION
  5
910
  8
COTES
  2
*D19
 10
-6.459881
 20
0.243823
 30
0.0
 11
-6.568968
 21
0.06322
 31
0.0
 12
-150.766336
 22
-121.491862
 32
0.0
 70
   128
  3
STANDARD
 13
-6.709881
 23
0.607079
 33
0.0
 14
-6.459881
 24
0.606356
 34
0.0
  0
ARC
  5
911
  8
SECCIO
 10
-7.709881
 20
2.506356
 30
0.0
 40
1.25
 50
0.0
 51
180.0
  0
ARC
  5
912
  8
SECCIO
 10
-7.709881
 20
2.506356
 30
0.0
 40
1.0
 50
0.0
 51
180.0
  0
LINE
  5
913
  8
SECCIO
 10
-6.459881
 20
0.606356
 30
0.0
 11
-6.459881
 21
2.506356
 31
0.0
  0
LINE
  5
914
  8
SECCIO
 10
-8.709881
 20
2.506356
 30
0.0
 11
-8.709881
 21
1.206356
 31
0.0
  0
LINE
  5
915
  8
SECCIO
 10
-6.709881
 20
0.906356
 30
0.0
 11
-6.709881
 21
2.506356
 31
0.0
  0
LINE
  5
916
  8
SECCIO
 10
-8.959881
 20
2.506356
 30
0.0
 11
-8.959881
 21
0.606356
 31
0.0
  0
LINE
  5
917
  8
SECCIO
 10
-8.959881
 20
0.606356
 30
0.0
 11
-6.459881
 21
0.606356
 31
0.0
  0
DIMENSION
  5
918
  8
COTES
  2
*D25
 10
-6.709881
 20
0.243823
 30
0.0
 11
-7.680661
 21
0.240433
 31
0.0
 12
-150.766336
 22
-121.491862
 32
0.0
 70
   128
  3
STANDARD
 13
-8.709881
 23
0.60456
 33
0.0
 14
-6.709881
 24
0.607079
 34
0.0
  0
DIMENSION
  5
919
  8
COTES
  2
*D24
 10
-7.489777
 20
1.206356
 30
0.0
 11
-7.587663
 21
1.061654
 31
0.0
 12
-150.766336
 22
-121.491862
 32
0.0
 70
   128
  3
STANDARD
 13
-7.709881
 23
0.906356
 33
0.0
 14
-7.709881
 24
1.206356
 34
0.0
 50
90.0
  0
DIMENSION
  5
91A
  8
COTES
  2
*D18
 10
-8.709881
 20
0.242889
 30
0.0
 11
-8.840095
 21
0.06322
 31
0.0
 12
-150.766336
 22
-121.491862
 32
0.0
 70
   128
  3
STANDARD
 13
-8.959881
 23
0.606356
 33
0.0
 14
-8.709881
 24
0.60456
 34
0.0
  0
DIMENSION
  5
91B
  8
COTES
  2
*D17
 10
-7.709881
 20
2.506356
 30
0.0
 11
-7.789881
 21
2.781234
 31
0.0
 12
-150.766336
 22
-121.491862
 32
0.0
 70
     4
  3
STANDARD
 15
-7.709881
 25
3.506356
 35
0.0
 40
-0.485122
  0
DIMENSION
  5
91C
  8
COTES
  2
*D16
 10
-6.709881
 20
1.430369
 30
0.0
 11
-7.209881
 21
1.510369
 31
0.0
 12
-150.766336
 22
-121.491862
 32
0.0
  3
STANDARD
 13
-7.709881
 23
1.206356
 33
0.0
 14
-6.709881
 24
0.906356
 34
0.0
  0
DIMENSION
  5
91D
  8
COTES
  2
*D15
 10
-7.709881
 20
1.430369
 30
0.0
 11
-8.209881
 21
1.510369
 31
0.0
 12
-150.766336
 22
-121.491862
 32
0.0
  3
STANDARD
 13
-8.709881
 23
1.206356
 33
0.0
 14
-7.709881
 24
1.206356
 34
0.0
  0
LINE
  5
91E
  8
SECCIO
 10
-7.709881
 20
0.906356
 30
0.0
 11
-6.709881
 21
0.906356
 31
0.0
  0
LINE
  5
91F
  8
SECCIO
 10
-7.709881
 20
1.206356
 30
0.0
 11
-8.709881
 21
1.206356
 31
0.0
  0
LINE
  5
920
  8
SECCIO
 10
-7.709881
 20
0.906356
 30
0.0
 11
-7.709881
 21
1.206356
 31
0.0
  0
DIMENSION
  5
921
  8
COTES
  2
*D36
 10
-3.301087
 20
2.087702
 30
0.0
 11
-3.267276
 21
2.284316
 31
0.0
 12
-157.904055
 22
-121.491862
 32
0.0
 70
     4
  3
STANDARD
 15
-3.517037
 25
2.96141
 35
0.0
 40
-0.477242
  0
DIMENSION
  5
922
  8
COTES
  2
*D35
 10
-1.752982
 20
3.237702
 30
0.0
 11
-1.832982
 21
3.453066
 31
0.0
 12
-157.904055
 22
-121.491862
 32
0.0
 70
   128
  3
STANDARD
 13
-2.585798
 23
2.987702
 33
0.0
 14
-3.132198
 24
3.237702
 34
0.0
 50
90.0
  0
DIMENSION
  5
923
  8
COTES
  2
*D34
 10
-1.752982
 20
2.987702
 30
0.0
 11
-1.832982
 21
2.537702
 31
0.0
 12
-157.904055
 22
-121.491862
 32
0.0
  3
STANDARD
 13
-2.150224
 23
2.087702
 33
0.0
 14
-2.585798
 24
2.987702
 34
0.0
 50
90.0
  0
DIMENSION
  5
924
  8
COTES
  2
*D33
 10
-1.752982
 20
2.087702
 30
0.0
 11
-1.832982
 21
1.637702
 31
0.0
 12
-157.904055
 22
-121.491862
 32
0.0
  3
STANDARD
 13
-2.150224
 23
1.187702
 33
0.0
 14
-2.150224
 24
2.087702
 34
0.0
 50
90.0
  0
DIMENSION
  5
925
  8
COTES
  2
*D32
 10
-1.752982
 20
1.187702
 30
0.0
 11
-1.832982
 21
1.041669
 31
0.0
 12
-157.904055
 22
-121.491862
 32
0.0
 70
   128
  3
STANDARD
 13
-2.151087
 23
0.887702
 33
0.0
 14
-2.150224
 24
1.187702
 34
0.0
 50
90.0
  0
DIMENSION
  5
926
  8
COTES
  2
*D31
 10
-2.151087
 20
0.551273
 30
0.0
 11
-1.944173
 21
0.631273
 31
0.0
 12
-157.904055
 22
-121.491862
 32
0.0
 70
   128
  3
STANDARD
 13
-2.401087
 23
0.888348
 33
0.0
 14
-2.151087
 24
0.887702
 34
0.0
  0
DIMENSION
  5
927
  8
COTES
  2
*D30
 10
-2.401087
 20
0.551273
 30
0.0
 11
-3.301087
 21
0.631273
 31
0.0
 12
-157.904055
 22
-121.491862
 32
0.0
  3
STANDARD
 13
-4.201087
 23
0.88488
 33
0.0
 14
-2.401087
 24
0.888348
 34
0.0
  0
DIMENSION
  5
928
  8
COTES
  2
*D29
 10
-4.201087
 20
0.551273
 30
0.0
 11
-4.642955
 21
0.631273
 31
0.0
 12
-157.904055
 22
-121.491862
 32
0.0
 70
   128
  3
STANDARD
 13
-4.451087
 23
0.887702
 33
0.0
 14
-4.201087
 24
0.88488
 34
0.0
  0
DIMENSION
  5
929
  8
COTES
  2
*D28
 10
-2.904206
 20
1.487702
 30
0.0
 11
-2.984206
 21
1.346714
 31
0.0
 12
-157.904055
 22
-121.491862
 32
0.0
 70
   128
  3
STANDARD
 13
-3.201087
 23
1.187702
 33
0.0
 14
-3.201087
 24
1.487702
 34
0.0
 50
90.0
  0
DIMENSION
  5
92A
  8
COTES
  2
*D27
 10
-2.401087
 20
1.756918
 30
0.0
 11
-2.801087
 21
1.836918
 31
0.0
 12
-157.904055
 22
-121.491862
 32
0.0
  3
STANDARD
 13
-3.201087
 23
1.487702
 33
0.0
 14
-2.401087
 24
1.187702
 34
0.0
  0
DIMENSION
  5
92B
  8
COTES
  2
*D26
 10
-3.201087
 20
1.756918
 30
0.0
 11
-3.701087
 21
1.836918
 31
0.0
 12
-157.904055
 22
-121.491862
 32
0.0
  3
STANDARD
 13
-4.201087
 23
1.487702
 33
0.0
 14
-3.201087
 24
1.487702
 34
0.0
  0
LINE
  5
92C
  8
SECCIO
 10
-3.201087
 20
1.187702
 30
0.0
 11
-3.201087
 21
1.487702
 31
0.0
  0
LINE
  5
92D
  8
SECCIO
 10
-4.201087
 20
1.487702
 30
0.0
 11
-3.201087
 21
1.487702
 31
0.0
  0
LINE
  5
92E
  8
SECCIO
 10
-4.451087
 20
0.887702
 30
0.0
 11
-4.451087
 21
2.087702
 31
0.0
  0
ARC
  5
92F
  8
SECCIO
 10
-3.301087
 20
2.087702
 30
0.0
 40
1.15
 50
0.0
 51
180.0
  0
LINE
  5
930
  8
SECCIO
 10
-2.151087
 20
0.887702
 30
0.0
 11
-2.151087
 21
2.087702
 31
0.0
  0
LINE
  5
931
  8
SECCIO
 10
-3.201087
 20
1.187702
 30
0.0
 11
-2.401087
 21
1.187702
 31
0.0
  0
ARC
  5
932
  8
SECCIO
 10
-3.301087
 20
2.087702
 30
0.0
 40
0.9
 50
0.0
 51
180.0
  0
LINE
  5
933
  8
SECCIO
 10
-4.201087
 20
1.487702
 30
0.0
 11
-4.201087
 21
2.087702
 31
0.0
  0
LINE
  5
934
  8
SECCIO
 10
-2.401087
 20
1.187702
 30
0.0
 11
-2.401087
 21
2.087702
 31
0.0
  0
LINE
  5
935
  8
SECCIO
 10
-4.451087
 20
0.887702
 30
0.0
 11
-2.151087
 21
0.887702
 31
0.0
  0
ENDBLK
  5
937
  8
0
  0
BLOCK
  8
0
  2
*D38
 70
     1
 10
0.0
 20
0.0
 30
0.0
  3
*D38
  1

  0
LINE
  5
A73
  8
0
  6
BYBLOCK
 62
    71
 10
317.176625
 20
35.659793
 30
0.0
 11
318.265124
 21
35.659793
 31
0.0
  0
LINE
  5
A74
  8
0
  6
BYBLOCK
 62
    71
 10
316.684223
 20
35.909793
 30
0.0
 11
318.265124
 21
35.909793
 31
0.0
  0
LINE
  5
A75
  8
0
  6
BYBLOCK
 62
    71
 10
318.185124
 20
35.609793
 30
0.0
 11
318.185124
 21
35.559793
 31
0.0
  0
LINE
  5
A76
  8
0
  6
BYBLOCK
 62
    71
 10
318.185124
 20
35.959793
 30
0.0
 11
318.185124
 21
36.009793
 31
0.0
  0
TEXT
  5
C11
  8
0
 62
     7
 10
318.168
 20
35.6602
 30
0.0
 40
0.08
  1
0.25
  0
LINE
  5
A78
  8
0
  6
BYBLOCK
 62
    71
 10
318.185124
 20
35.659793
 30
0.0
 11
318.185124
 21
35.909793
 31
0.0
  0
INSERT
  5
A79
  8
0
  6
BYBLOCK
 62
    71
  2
TICK
 10
318.185124
 20
35.659793
 30
0.0
 41
0.05
 42
0.05
 43
0.05
 50
90.0
  0
INSERT
  5
A7A
  8
0
  6
BYBLOCK
 62
    71
  2
TICK
 10
318.185124
 20
35.909793
 30
0.0
 41
0.05
 42
0.05
 43
0.05
 50
270.0
  0
POINT
  5
A7B
  8
DEFPOINTS
  6
BYBLOCK
 62
     0
 10
317.096625
 20
35.659793
 30
0.0
  0
POINT
  5
A7C
  8
DEFPOINTS
  6
BYBLOCK
 62
     0
 10
316.604223
 20
35.909793
 30
0.0
  0
POINT
  5
A7D
  8
DEFPOINTS
  6
BYBLOCK
 62
     0
 10
318.185124
 20
35.909793
 30
0.0
  0
ENDBLK
  5
A7E
  8
0
  0
BLOCK
  8
0
  2
*D39
 70
     1
 10
0.0
 20
0.0
 30
0.0
  3
*D39
  1

  0
LINE
  5
A80
  8
0
  6
BYBLOCK
 62
    71
 10
317.676992
 20
34.663556
 30
0.0
 11
318.265124
 21
34.663556
 31
0.0
  0
LINE
  5
A81
  8
0
  6
BYBLOCK
 62
    71
 10
317.263492
 20
35.659793
 30
0.0
 11
318.265124
 21
35.659793
 31
0.0
  0
LINE
  5
A82
  8
0
  6
BYBLOCK
 62
    71
 10
318.185124
 20
34.713556
 30
0.0
 11
318.185124
 21
35.609793
 31
0.0
  0
INSERT
  5
A83
  8
0
  6
BYBLOCK
 62
    71
  2
TICK
 10
318.185124
 20
34.663556
 30
0.0
 41
0.05
 42
0.05
 43
0.05
 50
270.0
  0
INSERT
  5
A84
  8
0
  6
BYBLOCK
 62
    71
  2
TICK
 10
318.185124
 20
35.659793
 30
0.0
 41
0.05
 42
0.05
 43
0.05
 50
90.0
  0
TEXT
  5
C12
  8
0
 62
     7
 10
317.945
 20
35.0201
 30
0.0
 40
0.08
  1
1.00
  0
POINT
  5
A86
  8
DEFPOINTS
  6
BYBLOCK
 62
     0
 10
317.596992
 20
34.663556
 30
0.0
  0
POINT
  5
A87
  8
DEFPOINTS
  6
BYBLOCK
 62
     0
 10
317.183492
 20
35.659793
 30
0.0
  0
POINT
  5
A88
  8
DEFPOINTS
  6
BYBLOCK
 62
     0
 10
318.185124
 20
35.659793
 30
0.0
  0
ENDBLK
  5
A89
  8
0
  0
BLOCK
  8
0
  2
*D40
 70
     1
 10
0.0
 20
0.0
 30
0.0
  3
*D40
  1

  0
LINE
  5
A8B
  8
0
  6
BYBLOCK
 62
    71
 10
317.676992
 20
33.059793
 30
0.0
 11
318.265124
 21
33.059793
 31
0.0
  0
LINE
  5
A8C
  8
0
  6
BYBLOCK
 62
    71
 10
317.679119
 20
34.663556
 30
0.0
 11
318.265124
 21
34.663556
 31
0.0
  0
LINE
  5
A8D
  8
0
  6
BYBLOCK
 62
    71
 10
318.185124
 20
33.109793
 30
0.0
 11
318.185124
 21
34.613556
 31
0.0
  0
INSERT
  5
A8E
  8
0
  6
BYBLOCK
 62
    71
  2
TICK
 10
318.185124
 20
33.059793
 30
0.0
 41
0.05
 42
0.05
 43
0.05
 50
270.0
  0
INSERT
  5
A8F
  8
0
  6
BYBLOCK
 62
    71
  2
TICK
 10
318.185124
 20
34.663556
 30
0.0
 41
0.05
 42
0.05
 43
0.05
 50
90.0
  0
TEXT
  5
C13
  8
0
 62
     7
 10
317.945
 20
33.7201
 30
0.0
 40
0.08
  1
1.60
  0
POINT
  5
A91
  8
DEFPOINTS
  6
BYBLOCK
 62
     0
 10
317.596992
 20
33.059793
 30
0.0
  0
POINT
  5
A92
  8
DEFPOINTS
  6
BYBLOCK
 62
     0
 10
317.599119
 20
34.663556
 30
0.0
  0
POINT
  5
A93
  8
DEFPOINTS
  6
BYBLOCK
 62
     0
 10
318.185124
 20
34.663556
 30
0.0
  0
ENDBLK
  5
A94
  8
0
  0
BLOCK
  8
0
  2
*D41
 70
     1
 10
0.0
 20
0.0
 30
0.0
  3
*D41
  1

  0
LINE
  5
A96
  8
0
  6
BYBLOCK
 62
    71
 10
317.678425
 20
32.759793
 30
0.0
 11
318.265124
 21
32.759793
 31
0.0
  0
LINE
  5
A97
  8
0
  6
BYBLOCK
 62
    71
 10
317.676992
 20
33.059793
 30
0.0
 11
318.265124
 21
33.059793
 31
0.0
  0
LINE
  5
A98
  8
0
  6
BYBLOCK
 62
    71
 10
318.185124
 20
32.809793
 30
0.0
 11
318.185124
 21
33.009793
 31
0.0
  0
TEXT
  5
C14
  8
0
 62
     7
 10
318.175
 20
32.7771
 30
0.0
 40
0.08
  1
0.30
  0
INSERT
  5
A9A
  8
0
  6
BYBLOCK
 62
    71
  2
TICK
 10
318.185124
 20
32.759793
 30
0.0
 41
0.05
 42
0.05
 43
0.05
 50
270.0
  0
INSERT
  5
A9B
  8
0
  6
BYBLOCK
 62
    71
  2
TICK
 10
318.185124
 20
33.059793
 30
0.0
 41
0.05
 42
0.05
 43
0.05
 50
90.0
  0
POINT
  5
A9C
  8
DEFPOINTS
  6
BYBLOCK
 62
     0
 10
317.598425
 20
32.759793
 30
0.0
  0
POINT
  5
A9D
  8
DEFPOINTS
  6
BYBLOCK
 62
     0
 10
317.596992
 20
33.059793
 30
0.0
  0
POINT
  5
A9E
  8
DEFPOINTS
  6
BYBLOCK
 62
     0
 10
318.185124
 20
33.059793
 30
0.0
  0
ENDBLK
  5
A9F
  8
0
  0
BLOCK
  8
0
  2
*D42
 70
     1
 10
0.0
 20
0.0
 30
0.0
  3
*D42
  1

  0
LINE
  5
AA1
  8
0
  6
BYBLOCK
 62
    71
 10
317.348425
 20
32.680516
 30
0.0
 11
317.348425
 21
32.317261
 31
0.0
  0
LINE
  5
AA2
  8
0
  6
BYBLOCK
 62
    71
 10
317.598425
 20
32.679793
 30
0.0
 11
317.598425
 21
32.317261
 31
0.0
  0
LINE
  5
AA3
  8
0
  6
BYBLOCK
 62
    71
 10
317.298425
 20
32.397261
 30
0.0
 11
317.248425
 21
32.397261
 31
0.0
  0
LINE
  5
AA4
  8
0
  6
BYBLOCK
 62
    71
 10
317.648425
 20
32.397261
 30
0.0
 11
317.698425
 21
32.397261
 31
0.0
  0
TEXT
  5
C15
  8
0
 62
     7
 10
317.329
 20
32.0751
 30
0.0
 40
0.08
  1
0.25
  0
LINE
  5
AA6
  8
0
  6
BYBLOCK
 62
    71
 10
317.348425
 20
32.397261
 30
0.0
 11
317.598425
 21
32.397261
 31
0.0
  0
INSERT
  5
AA7
  8
0
  6
BYBLOCK
 62
    71
  2
TICK
 10
317.348425
 20
32.397261
 30
0.0
 41
0.05
 42
0.05
 43
0.05
  0
INSERT
  5
AA8
  8
0
  6
BYBLOCK
 62
    71
  2
TICK
 10
317.598425
 20
32.397261
 30
0.0
 41
0.05
 42
0.05
 43
0.05
 50
180.0
  0
POINT
  5
AA9
  8
DEFPOINTS
  6
BYBLOCK
 62
     0
 10
317.348425
 20
32.760516
 30
0.0
  0
POINT
  5
AAA
  8
DEFPOINTS
  6
BYBLOCK
 62
     0
 10
317.598425
 20
32.759793
 30
0.0
  0
POINT
  5
AAB
  8
DEFPOINTS
  6
BYBLOCK
 62
     0
 10
317.598425
 20
32.397261
 30
0.0
  0
ENDBLK
  5
AAC
  8
0
  0
BLOCK
  8
0
  2
*D43
 70
     1
 10
0.0
 20
0.0
 30
0.0
  3
*D43
  1

  0
LINE
  5
AAE
  8
0
  6
BYBLOCK
 62
    71
 10
315.348425
 20
32.677998
 30
0.0
 11
315.348425
 21
32.317261
 31
0.0
  0
LINE
  5
AAF
  8
0
  6
BYBLOCK
 62
    71
 10
317.348425
 20
32.680516
 30
0.0
 11
317.348425
 21
32.317261
 31
0.0
  0
LINE
  5
AB0
  8
0
  6
BYBLOCK
 62
    71
 10
315.398425
 20
32.397261
 30
0.0
 11
316.190978
 21
32.397261
 31
0.0
  0
LINE
  5
AB1
  8
0
  6
BYBLOCK
 62
    71
 10
317.298425
 20
32.397261
 30
0.0
 11
316.564312
 21
32.397261
 31
0.0
  0
TEXT
  5
C16
  8
0
 62
     7
 10
316.218
 20
32.2523
 30
0.0
 40
0.08
  1
2.00
  0
INSERT
  5
AB3
  8
0
  6
BYBLOCK
 62
    71
  2
TICK
 10
315.348425
 20
32.397261
 30
0.0
 41
0.05
 42
0.05
 43
0.05
 50
180.0
  0
INSERT
  5
AB4
  8
0
  6
BYBLOCK
 62
    71
  2
TICK
 10
317.348425
 20
32.397261
 30
0.0
 41
0.05
 42
0.05
 43
0.05
  0
POINT
  5
AB5
  8
DEFPOINTS
  6
BYBLOCK
 62
     0
 10
315.348425
 20
32.757998
 30
0.0
  0
POINT
  5
AB6
  8
DEFPOINTS
  6
BYBLOCK
 62
     0
 10
317.348425
 20
32.760516
 30
0.0
  0
POINT
  5
AB7
  8
DEFPOINTS
  6
BYBLOCK
 62
     0
 10
317.348425
 20
32.397261
 30
0.0
  0
ENDBLK
  5
AB8
  8
0
  0
BLOCK
  8
0
  2
*D44
 70
     1
 10
0.0
 20
0.0
 30
0.0
  3
*D44
  1

  0
LINE
  5
ABA
  8
0
  6
BYBLOCK
 62
    71
 10
316.428425
 20
33.059793
 30
0.0
 11
316.648529
 21
33.059793
 31
0.0
  0
LINE
  5
ABB
  8
0
  6
BYBLOCK
 62
    71
 10
316.428425
 20
33.359793
 30
0.0
 11
316.648529
 21
33.359793
 31
0.0
  0
LINE
  5
ABC
  8
0
  6
BYBLOCK
 62
    71
 10
316.568529
 20
33.109793
 30
0.0
 11
316.568529
 21
33.309793
 31
0.0
  0
TEXT
  5
C17
  8
0
 62
     7
 10
316.311
 20
33.0735
 30
0.0
 40
0.08
  1
0.30
  0
INSERT
  5
ABE
  8
0
  6
BYBLOCK
 62
    71
  2
TICK
 10
316.568529
 20
33.059793
 30
0.0
 41
0.05
 42
0.05
 43
0.05
 50
270.0
  0
INSERT
  5
ABF
  8
0
  6
BYBLOCK
 62
    71
  2
TICK
 10
316.568529
 20
33.359793
 30
0.0
 41
0.05
 42
0.05
 43
0.05
 50
90.0
  0
POINT
  5
AC0
  8
DEFPOINTS
  6
BYBLOCK
 62
     0
 10
316.348425
 20
33.059793
 30
0.0
  0
POINT
  5
AC1
  8
DEFPOINTS
  6
BYBLOCK
 62
     0
 10
316.348425
 20
33.359793
 30
0.0
  0
POINT
  5
AC2
  8
DEFPOINTS
  6
BYBLOCK
 62
     0
 10
316.568529
 20
33.359793
 30
0.0
  0
ENDBLK
  5
AC3
  8
0
  0
BLOCK
  8
0
  2
*D45
 70
     1
 10
0.0
 20
0.0
 30
0.0
  3
*D45
  1

  0
LINE
  5
AC5
  8
0
  6
BYBLOCK
 62
    71
 10
315.098425
 20
32.679793
 30
0.0
 11
315.098425
 21
32.316327
 31
0.0
  0
LINE
  5
AC6
  8
0
  6
BYBLOCK
 62
    71
 10
315.348425
 20
32.677998
 30
0.0
 11
315.348425
 21
32.316327
 31
0.0
  0
LINE
  5
AC7
  8
0
  6
BYBLOCK
 62
    71
 10
315.048425
 20
32.396327
 30
0.0
 11
314.998425
 21
32.396327
 31
0.0
  0
LINE
  5
AC8
  8
0
  6
BYBLOCK
 62
    71
 10
315.398425
 20
32.396327
 30
0.0
 11
315.448425
 21
32.396327
 31
0.0
  0
TEXT
  5
C18
  8
0
 62
     7
 10
315.058
 20
32.0751
 30
0.0
 40
0.08
  1
0.25
  0
LINE
  5
ACA
  8
0
  6
BYBLOCK
 62
    71
 10
315.098425
 20
32.396327
 30
0.0
 11
315.348425
 21
32.396327
 31
0.0
  0
INSERT
  5
ACB
  8
0
  6
BYBLOCK
 62
    71
  2
TICK
 10
315.098425
 20
32.396327
 30
0.0
 41
0.05
 42
0.05
 43
0.05
  0
INSERT
  5
ACC
  8
0
  6
BYBLOCK
 62
    71
  2
TICK
 10
315.348425
 20
32.396327
 30
0.0
 41
0.05
 42
0.05
 43
0.05
 50
180.0
  0
POINT
  5
ACD
  8
DEFPOINTS
  6
BYBLOCK
 62
     0
 10
315.098425
 20
32.759793
 30
0.0
  0
POINT
  5
ACE
  8
DEFPOINTS
  6
BYBLOCK
 62
     0
 10
315.348425
 20
32.757998
 30
0.0
  0
POINT
  5
ACF
  8
DEFPOINTS
  6
BYBLOCK
 62
     0
 10
315.348425
 20
32.396327
 30
0.0
  0
ENDBLK
  5
AD0
  8
0
  0
BLOCK
  8
0
  2
*D46
 70
     1
 10
0.0
 20
0.0
 30
0.0
  3
*D46
  1

  0
LINE
  5
AD2
  8
0
  6
BYBLOCK
 62
    71
 10
316.348425
 20
33.409793
 30
0.0
 11
316.348425
 21
34.961338
 31
0.0
  0
LINE
  5
AD3
  8
0
  6
BYBLOCK
 62
    71
 10
316.348425
 20
35.609793
 30
0.0
 11
316.348425
 21
35.388005
 31
0.0
  0
TEXT
  5
C19
  8
0
 62
     7
 10
316.188
 20
35.0331
 30
0.0
 40
0.08
  1
R1.00
  0
INSERT
  5
AD5
  8
0
  6
BYBLOCK
 62
    71
  2
TICK
 10
316.348425
 20
35.659793
 30
0.0
 41
0.05
 42
0.05
 43
0.05
 50
90.0
  0
POINT
  5
AD6
  8
DEFPOINTS
  6
BYBLOCK
 62
     0
 10
316.348425
 20
35.659793
 30
0.0
  0
POINT
  5
AD7
  8
DEFPOINTS
  6
BYBLOCK
 62
     0
 10
316.348425
 20
34.659793
 30
0.0
  0
ENDBLK
  5
AD8
  8
0
  0
BLOCK
  8
0
  2
*D47
 70
     1
 10
0.0
 20
0.0
 30
0.0
  3
*D47
  1

  0
LINE
  5
ADA
  8
0
  6
BYBLOCK
 62
    71
 10
316.348425
 20
33.439793
 30
0.0
 11
316.348425
 21
33.663807
 31
0.0
  0
LINE
  5
ADB
  8
0
  6
BYBLOCK
 62
    71
 10
317.348425
 20
33.139793
 30
0.0
 11
317.348425
 21
33.663807
 31
0.0
  0
LINE
  5
ADC
  8
0
  6
BYBLOCK
 62
    71
 10
316.398425
 20
33.583807
 30
0.0
 11
317.298425
 21
33.583807
 31
0.0
  0
INSERT
  5
ADD
  8
0
  6
BYBLOCK
 62
    71
  2
TICK
 10
316.348425
 20
33.583807
 30
0.0
 41
0.05
 42
0.05
 43
0.05
 50
180.0
  0
INSERT
  5
ADE
  8
0
  6
BYBLOCK
 62
    71
  2
TICK
 10
317.348425
 20
33.583807
 30
0.0
 41
0.05
 42
0.05
 43
0.05
  0
TEXT
  5
C1A
  8
0
 62
     7
 10
316.688
 20
33.5222
 30
0.0
 40
0.08
  1
1.00
  0
POINT
  5
AE0
  8
DEFPOINTS
  6
BYBLOCK
 62
     0
 10
316.348425
 20
33.359793
 30
0.0
  0
POINT
  5
AE1
  8
DEFPOINTS
  6
BYBLOCK
 62
     0
 10
317.348425
 20
33.059793
 30
0.0
  0
POINT
  5
AE2
  8
DEFPOINTS
  6
BYBLOCK
 62
     0
 10
317.348425
 20
33.583807
 30
0.0
  0
ENDBLK
  5
AE3
  8
0
  0
BLOCK
  8
0
  2
*D48
 70
     1
 10
0.0
 20
0.0
 30
0.0
  3
*D48
  1

  0
LINE
  5
AE5
  8
0
  6
BYBLOCK
 62
    71
 10
315.348425
 20
33.439793
 30
0.0
 11
315.348425
 21
33.663807
 31
0.0
  0
LINE
  5
AE6
  8
0
  6
BYBLOCK
 62
    71
 10
316.348425
 20
33.439793
 30
0.0
 11
316.348425
 21
33.663807
 31
0.0
  0
LINE
  5
AE7
  8
0
  6
BYBLOCK
 62
    71
 10
315.398425
 20
33.583807
 30
0.0
 11
316.298425
 21
33.583807
 31
0.0
  0
INSERT
  5
AE8
  8
0
  6
BYBLOCK
 62
    71
  2
TICK
 10
315.348425
 20
33.583807
 30
0.0
 41
0.05
 42
0.05
 43
0.05
 50
180.0
  0
INSERT
  5
AE9
  8
0
  6
BYBLOCK
 62
    71
  2
TICK
 10
316.348425
 20
33.583807
 30
0.0
 41
0.05
 42
0.05
 43
0.05
  0
TEXT
  5
C1B
  8
0
 62
     7
 10
315.688
 20
33.5222
 30
0.0
 40
0.08
  1
1.00
  0
POINT
  5
AEB
  8
DEFPOINTS
  6
BYBLOCK
 62
     0
 10
315.348425
 20
33.359793
 30
0.0
  0
POINT
  5
AEC
  8
DEFPOINTS
  6
BYBLOCK
 62
     0
 10
316.348425
 20
33.359793
 30
0.0
  0
POINT
  5
AED
  8
DEFPOINTS
  6
BYBLOCK
 62
     0
 10
316.348425
 20
33.583807
 30
0.0
  0
ENDBLK
  5
AEE
  8
0
  0
BLOCK
  8
0
  2
*D49
 70
     1
 10
0.0
 20
0.0
 30
0.0
  3
*D49
  1

  0
LINE
  5
AF0
  8
0
  6
BYBLOCK
 62
    71
 10
321.057149
 20
33.027656
 30
0.0
 11
320.710168
 21
34.431502
 31
0.0
  0
LINE
  5
AF1
  8
0
  6
BYBLOCK
 62
    71
 10
320.553266
 20
35.066308
 30
0.0
 11
320.601393
 21
34.871592
 31
0.0
  0
TEXT
  5
C1C
  8
0
 62
     7
 10
320.496
 20
34.5099
 30
0.0
 40
0.08
  1
R0.90
  0
INSERT
  5
AF3
  8
0
  6
BYBLOCK
 62
    71
  2
TICK
 10
320.541269
 20
35.114847
 30
0.0
 41
0.05
 42
0.05
 43
0.05
 50
103.883238
  0
POINT
  5
AF4
  8
DEFPOINTS
  6
BYBLOCK
 62
     0
 10
320.541269
 20
35.114847
 30
0.0
  0
POINT
  5
AF5
  8
DEFPOINTS
  6
BYBLOCK
 62
     0
 10
320.757219
 20
34.241139
 30
0.0
  0
ENDBLK
  5
AF6
  8
0
  0
BLOCK
  8
0
  2
*D50
 70
     1
 10
0.0
 20
0.0
 30
0.0
  3
*D50
  1

  0
LINE
  5
AF8
  8
0
  6
BYBLOCK
 62
    71
 10
321.552508
 20
35.141139
 30
0.0
 11
322.385324
 21
35.141139
 31
0.0
  0
LINE
  5
AF9
  8
0
  6
BYBLOCK
 62
    71
 10
321.006108
 20
35.391139
 30
0.0
 11
322.385324
 21
35.391139
 31
0.0
  0
LINE
  5
AFA
  8
0
  6
BYBLOCK
 62
    71
 10
322.305324
 20
35.091139
 30
0.0
 11
322.305324
 21
35.041139
 31
0.0
  0
LINE
  5
AFB
  8
0
  6
BYBLOCK
 62
    71
 10
322.305324
 20
35.441139
 30
0.0
 11
322.305324
 21
35.491139
 31
0.0
  0
TEXT
  5
C1D
  8
0
 62
     7
 10
322.065
 20
35.4649
 30
0.0
 40
0.08
  1
0.25
  0
LINE
  5
AFD
  8
0
  6
BYBLOCK
 62
    71
 10
322.305324
 20
35.141139
 30
0.0
 11
322.305324
 21
35.391139
 31
0.0
  0
INSERT
  5
AFE
  8
0
  6
BYBLOCK
 62
    71
  2
TICK
 10
322.305324
 20
35.141139
 30
0.0
 41
0.05
 42
0.05
 43
0.05
 50
90.0
  0
INSERT
  5
AFF
  8
0
  6
BYBLOCK
 62
    71
  2
TICK
 10
322.305324
 20
35.391139
 30
0.0
 41
0.05
 42
0.05
 43
0.05
 50
270.0
  0
POINT
  5
B00
  8
DEFPOINTS
  6
BYBLOCK
 62
     0
 10
321.472508
 20
35.141139
 30
0.0
  0
POINT
  5
B01
  8
DEFPOINTS
  6
BYBLOCK
 62
     0
 10
320.926108
 20
35.391139
 30
0.0
  0
POINT
  5
B02
  8
DEFPOINTS
  6
BYBLOCK
 62
     0
 10
322.305324
 20
35.391139
 30
0.0
  0
ENDBLK
  5
B03
  8
0
  0
BLOCK
  8
0
  2
*D51
 70
     1
 10
0.0
 20
0.0
 30
0.0
  3
*D51
  1

  0
LINE
  5
B05
  8
0
  6
BYBLOCK
 62
    71
 10
321.988082
 20
34.241139
 30
0.0
 11
322.385324
 21
34.241139
 31
0.0
  0
LINE
  5
B06
  8
0
  6
BYBLOCK
 62
    71
 10
321.552508
 20
35.141139
 30
0.0
 11
322.385324
 21
35.141139
 31
0.0
  0
LINE
  5
B07
  8
0
  6
BYBLOCK
 62
    71
 10
322.305324
 20
34.291139
 30
0.0
 11
322.305324
 21
35.091139
 31
0.0
  0
INSERT
  5
B08
  8
0
  6
BYBLOCK
 62
    71
  2
TICK
 10
322.305324
 20
34.241139
 30
0.0
 41
0.05
 42
0.05
 43
0.05
 50
270.0
  0
INSERT
  5
B09
  8
0
  6
BYBLOCK
 62
    71
  2
TICK
 10
322.305324
 20
35.141139
 30
0.0
 41
0.05
 42
0.05
 43
0.05
 50
90.0
  0
TEXT
  5
C1E
  8
0
 62
     7
 10
322.065
 20
34.5495
 30
0.0
 40
0.08
  1
0.90
  0
POINT
  5
B0B
  8
DEFPOINTS
  6
BYBLOCK
 62
     0
 10
321.908082
 20
34.241139
 30
0.0
  0
POINT
  5
B0C
  8
DEFPOINTS
  6
BYBLOCK
 62
     0
 10
321.472508
 20
35.141139
 30
0.0
  0
POINT
  5
B0D
  8
DEFPOINTS
  6
BYBLOCK
 62
     0
 10
322.305324
 20
35.141139
 30
0.0
  0
ENDBLK
  5
B0E
  8
0
  0
BLOCK
  8
0
  2
*D52
 70
     1
 10
0.0
 20
0.0
 30
0.0
  3
*D52
  1

  0
LINE
  5
B10
  8
0
  6
BYBLOCK
 62
    71
 10
321.988082
 20
33.341139
 30
0.0
 11
322.385324
 21
33.341139
 31
0.0
  0
LINE
  5
B11
  8
0
  6
BYBLOCK
 62
    71
 10
321.988082
 20
34.241139
 30
0.0
 11
322.385324
 21
34.241139
 31
0.0
  0
LINE
  5
B12
  8
0
  6
BYBLOCK
 62
    71
 10
322.305324
 20
33.391139
 30
0.0
 11
322.305324
 21
34.191139
 31
0.0
  0
INSERT
  5
B13
  8
0
  6
BYBLOCK
 62
    71
  2
TICK
 10
322.305324
 20
33.341139
 30
0.0
 41
0.05
 42
0.05
 43
0.05
 50
270.0
  0
INSERT
  5
B14
  8
0
  6
BYBLOCK
 62
    71
  2
TICK
 10
322.305324
 20
34.241139
 30
0.0
 41
0.05
 42
0.05
 43
0.05
 50
90.0
  0
TEXT
  5
C1F
  8
0
 62
     7
 10
322.065
 20
33.6495
 30
0.0
 40
0.08
  1
0.90
  0
POINT
  5
B16
  8
DEFPOINTS
  6
BYBLOCK
 62
     0
 10
321.908082
 20
33.341139
 30
0.0
  0
POINT
  5
B17
  8
DEFPOINTS
  6
BYBLOCK
 62
     0
 10
321.908082
 20
34.241139
 30
0.0
  0
POINT
  5
B18
  8
DEFPOINTS
  6
BYBLOCK
 62
     0
 10
322.305324
 20
34.241139
 30
0.0
  0
ENDBLK
  5
B19
  8
0
  0
BLOCK
  8
0
  2
*D53
 70
     1
 10
0.0
 20
0.0
 30
0.0
  3
*D53
  1

  0
LINE
  5
B1B
  8
0
  6
BYBLOCK
 62
    71
 10
321.987219
 20
33.041139
 30
0.0
 11
322.385324
 21
33.041139
 31
0.0
  0
LINE
  5
B1C
  8
0
  6
BYBLOCK
 62
    71
 10
321.988082
 20
33.341139
 30
0.0
 11
322.385324
 21
33.341139
 31
0.0
  0
LINE
  5
B1D
  8
0
  6
BYBLOCK
 62
    71
 10
322.305324
 20
33.091139
 30
0.0
 11
322.305324
 21
33.291139
 31
0.0
  0
TEXT
  5
C20
  8
0
 62
     7
 10
322.065
 20
33.0535
 30
0.0
 40
0.08
  1
0.30
  0
INSERT
  5
B1F
  8
0
  6
BYBLOCK
 62
    71
  2
TICK
 10
322.305324
 20
33.041139
 30
0.0
 41
0.05
 42
0.05
 43
0.05
 50
270.0
  0
INSERT
  5
B20
  8
0
  6
BYBLOCK
 62
    71
  2
TICK
 10
322.305324
 20
33.341139
 30
0.0
 41
0.05
 42
0.05
 43
0.05
 50
90.0
  0
POINT
  5
B21
  8
DEFPOINTS
  6
BYBLOCK
 62
     0
 10
321.907219
 20
33.041139
 30
0.0
  0
POINT
  5
B22
  8
DEFPOINTS
  6
BYBLOCK
 62
     0
 10
321.908082
 20
33.341139
 30
0.0
  0
POINT
  5
B23
  8
DEFPOINTS
  6
BYBLOCK
 62
     0
 10
322.305324
 20
33.341139
 30
0.0
  0
ENDBLK
  5
B24
  8
0
  0
BLOCK
  8
0
  2
*D54
 70
     1
 10
0.0
 20
0.0
 30
0.0
  3
*D54
  1

  0
LINE
  5
B26
  8
0
  6
BYBLOCK
 62
    71
 10
321.657219
 20
32.961786
 30
0.0
 11
321.657219
 21
32.624711
 31
0.0
  0
LINE
  5
B27
  8
0
  6
BYBLOCK
 62
    71
 10
321.907219
 20
32.961139
 30
0.0
 11
321.907219
 21
32.624711
 31
0.0
  0
LINE
  5
B28
  8
0
  6
BYBLOCK
 62
    71
 10
321.607219
 20
32.704711
 30
0.0
 11
321.557219
 21
32.704711
 31
0.0
  0
LINE
  5
B29
  8
0
  6
BYBLOCK
 62
    71
 10
321.957219
 20
32.704711
 30
0.0
 11
322.007219
 21
32.704711
 31
0.0
  0
TEXT
  5
C21
  8
0
 62
     7
 10
321.954
 20
32.6431
 30
0.0
 40
0.08
  1
0.25
  0
LINE
  5
B2B
  8
0
  6
BYBLOCK
 62
    71
 10
321.657219
 20
32.704711
 30
0.0
 11
321.907219
 21
32.704711
 31
0.0
  0
INSERT
  5
B2C
  8
0
  6
BYBLOCK
 62
    71
  2
TICK
 10
321.657219
 20
32.704711
 30
0.0
 41
0.05
 42
0.05
 43
0.05
  0
INSERT
  5
B2D
  8
0
  6
BYBLOCK
 62
    71
  2
TICK
 10
321.907219
 20
32.704711
 30
0.0
 41
0.05
 42
0.05
 43
0.05
 50
180.0
  0
POINT
  5
B2E
  8
DEFPOINTS
  6
BYBLOCK
 62
     0
 10
321.657219
 20
33.041786
 30
0.0
  0
POINT
  5
B2F
  8
DEFPOINTS
  6
BYBLOCK
 62
     0
 10
321.907219
 20
33.041139
 30
0.0
  0
POINT
  5
B30
  8
DEFPOINTS
  6
BYBLOCK
 62
     0
 10
321.907219
 20
32.704711
 30
0.0
  0
ENDBLK
  5
B31
  8
0
  0
BLOCK
  8
0
  2
*D55
 70
     1
 10
0.0
 20
0.0
 30
0.0
  3
*D55
  1

  0
LINE
  5
B33
  8
0
  6
BYBLOCK
 62
    71
 10
319.857219
 20
32.958318
 30
0.0
 11
319.857219
 21
32.624711
 31
0.0
  0
LINE
  5
B34
  8
0
  6
BYBLOCK
 62
    71
 10
321.657219
 20
32.961786
 30
0.0
 11
321.657219
 21
32.624711
 31
0.0
  0
LINE
  5
B35
  8
0
  6
BYBLOCK
 62
    71
 10
319.907219
 20
32.704711
 30
0.0
 11
321.607219
 21
32.704711
 31
0.0
  0
INSERT
  5
B36
  8
0
  6
BYBLOCK
 62
    71
  2
TICK
 10
319.857219
 20
32.704711
 30
0.0
 41
0.05
 42
0.05
 43
0.05
 50
180.0
  0
INSERT
  5
B37
  8
0
  6
BYBLOCK
 62
    71
  2
TICK
 10
321.657219
 20
32.704711
 30
0.0
 41
0.05
 42
0.05
 43
0.05
  0
TEXT
  5
C22
  8
0
 62
     7
 10
320.597
 20
32.6431
 30
0.0
 40
0.08
  1
1.80
  0
POINT
  5
B39
  8
DEFPOINTS
  6
BYBLOCK
 62
     0
 10
319.857219
 20
33.038318
 30
0.0
  0
POINT
  5
B3A
  8
DEFPOINTS
  6
BYBLOCK
 62
     0
 10
321.657219
 20
33.041786
 30
0.0
  0
POINT
  5
B3B
  8
DEFPOINTS
  6
BYBLOCK
 62
     0
 10
321.657219
 20
32.704711
 30
0.0
  0
ENDBLK
  5
B3C
  8
0
  0
BLOCK
  8
0
  2
*D56
 70
     1
 10
0.0
 20
0.0
 30
0.0
  3
*D56
  1

  0
LINE
  5
B3E
  8
0
  6
BYBLOCK
 62
    71
 10
319.607219
 20
32.961139
 30
0.0
 11
319.607219
 21
32.624711
 31
0.0
  0
LINE
  5
B3F
  8
0
  6
BYBLOCK
 62
    71
 10
319.857219
 20
32.958318
 30
0.0
 11
319.857219
 21
32.624711
 31
0.0
  0
LINE
  5
B40
  8
0
  6
BYBLOCK
 62
    71
 10
319.557219
 20
32.704711
 30
0.0
 11
319.507219
 21
32.704711
 31
0.0
  0
LINE
  5
B41
  8
0
  6
BYBLOCK
 62
    71
 10
319.907219
 20
32.704711
 30
0.0
 11
319.957219
 21
32.704711
 31
0.0
  0
TEXT
  5
C23
  8
0
 62
     7
 10
319.255
 20
32.6431
 30
0.0
 40
0.08
  1
0.25
  0
LINE
  5
B43
  8
0
  6
BYBLOCK
 62
    71
 10
319.607219
 20
32.704711
 30
0.0
 11
319.857219
 21
32.704711
 31
0.0
  0
INSERT
  5
B44
  8
0
  6
BYBLOCK
 62
    71
  2
TICK
 10
319.607219
 20
32.704711
 30
0.0
 41
0.05
 42
0.05
 43
0.05
  0
INSERT
  5
B45
  8
0
  6
BYBLOCK
 62
    71
  2
TICK
 10
319.857219
 20
32.704711
 30
0.0
 41
0.05
 42
0.05
 43
0.05
 50
180.0
  0
POINT
  5
B46
  8
DEFPOINTS
  6
BYBLOCK
 62
     0
 10
319.607219
 20
33.041139
 30
0.0
  0
POINT
  5
B47
  8
DEFPOINTS
  6
BYBLOCK
 62
     0
 10
319.857219
 20
33.038318
 30
0.0
  0
POINT
  5
B48
  8
DEFPOINTS
  6
BYBLOCK
 62
     0
 10
319.857219
 20
32.704711
 30
0.0
  0
ENDBLK
  5
B49
  8
0
  0
BLOCK
  8
0
  2
*D57
 70
     1
 10
0.0
 20
0.0
 30
0.0
  3
*D57
  1

  0
LINE
  5
B4B
  8
0
  6
BYBLOCK
 62
    71
 10
320.937219
 20
33.341139
 30
0.0
 11
321.2341
 21
33.341139
 31
0.0
  0
LINE
  5
B4C
  8
0
  6
BYBLOCK
 62
    71
 10
320.937219
 20
33.641139
 30
0.0
 11
321.2341
 21
33.641139
 31
0.0
  0
LINE
  5
B4D
  8
0
  6
BYBLOCK
 62
    71
 10
321.1541
 20
33.391139
 30
0.0
 11
321.1541
 21
33.591139
 31
0.0
  0
TEXT
  5
C24
  8
0
 62
     7
 10
320.914
 20
33.3586
 30
0.0
 40
0.08
  1
0.30
  0
INSERT
  5
B4F
  8
0
  6
BYBLOCK
 62
    71
  2
TICK
 10
321.1541
 20
33.341139
 30
0.0
 41
0.05
 42
0.05
 43
0.05
 50
270.0
  0
INSERT
  5
B50
  8
0
  6
BYBLOCK
 62
    71
  2
TICK
 10
321.1541
 20
33.641139
 30
0.0
 41
0.05
 42
0.05
 43
0.05
 50
90.0
  0
POINT
  5
B51
  8
DEFPOINTS
  6
BYBLOCK
 62
     0
 10
320.857219
 20
33.341139
 30
0.0
  0
POINT
  5
B52
  8
DEFPOINTS
  6
BYBLOCK
 62
     0
 10
320.857219
 20
33.641139
 30
0.0
  0
POINT
  5
B53
  8
DEFPOINTS
  6
BYBLOCK
 62
     0
 10
321.1541
 20
33.641139
 30
0.0
  0
ENDBLK
  5
B54
  8
0
  0
BLOCK
  8
0
  2
*D58
 70
     1
 10
0.0
 20
0.0
 30
0.0
  3
*D58
  1

  0
LINE
  5
B56
  8
0
  6
BYBLOCK
 62
    71
 10
320.857219
 20
33.721139
 30
0.0
 11
320.857219
 21
33.990356
 31
0.0
  0
LINE
  5
B57
  8
0
  6
BYBLOCK
 62
    71
 10
321.657219
 20
33.421139
 30
0.0
 11
321.657219
 21
33.990356
 31
0.0
  0
LINE
  5
B58
  8
0
  6
BYBLOCK
 62
    71
 10
320.907219
 20
33.910356
 30
0.0
 11
321.607219
 21
33.910356
 31
0.0
  0
INSERT
  5
B59
  8
0
  6
BYBLOCK
 62
    71
  2
TICK
 10
320.857219
 20
33.910356
 30
0.0
 41
0.05
 42
0.05
 43
0.05
 50
180.0
  0
INSERT
  5
B5A
  8
0
  6
BYBLOCK
 62
    71
  2
TICK
 10
321.657219
 20
33.910356
 30
0.0
 41
0.05
 42
0.05
 43
0.05
  0
TEXT
  5
C25
  8
0
 62
     7
 10
321.097
 20
33.8488
 30
0.0
 40
0.08
  1
0.80
  0
POINT
  5
B5C
  8
DEFPOINTS
  6
BYBLOCK
 62
     0
 10
320.857219
 20
33.641139
 30
0.0
  0
POINT
  5
B5D
  8
DEFPOINTS
  6
BYBLOCK
 62
     0
 10
321.657219
 20
33.341139
 30
0.0
  0
POINT
  5
B5E
  8
DEFPOINTS
  6
BYBLOCK
 62
     0
 10
321.657219
 20
33.910356
 30
0.0
  0
ENDBLK
  5
B5F
  8
0
  0
BLOCK
  8
0
  2
*D59
 70
     1
 10
0.0
 20
0.0
 30
0.0
  3
*D59
  1

  0
LINE
  5
B61
  8
0
  6
BYBLOCK
 62
    71
 10
319.857219
 20
33.721139
 30
0.0
 11
319.857219
 21
33.990356
 31
0.0
  0
LINE
  5
B62
  8
0
  6
BYBLOCK
 62
    71
 10
320.857219
 20
33.721139
 30
0.0
 11
320.857219
 21
33.990356
 31
0.0
  0
LINE
  5
B63
  8
0
  6
BYBLOCK
 62
    71
 10
319.907219
 20
33.910356
 30
0.0
 11
320.807219
 21
33.910356
 31
0.0
  0
INSERT
  5
B64
  8
0
  6
BYBLOCK
 62
    71
  2
TICK
 10
319.857219
 20
33.910356
 30
0.0
 41
0.05
 42
0.05
 43
0.05
 50
180.0
  0
INSERT
  5
B65
  8
0
  6
BYBLOCK
 62
    71
  2
TICK
 10
320.857219
 20
33.910356
 30
0.0
 41
0.05
 42
0.05
 43
0.05
  0
TEXT
  5
C26
  8
0
 62
     7
 10
320.197
 20
33.8488
 30
0.0
 40
0.08
  1
1.00
  0
POINT
  5
B67
  8
DEFPOINTS
  6
BYBLOCK
 62
     0
 10
319.857219
 20
33.641139
 30
0.0
  0
POINT
  5
B68
  8
DEFPOINTS
  6
BYBLOCK
 62
     0
 10
320.857219
 20
33.641139
 30
0.0
  0
POINT
  5
B69
  8
DEFPOINTS
  6
BYBLOCK
 62
     0
 10
320.857219
 20
33.910356
 30
0.0
  0
ENDBLK
  5
B6A
  8
0
  0
BLOCK
  8
0
  2
*D60
 70
     1
 10
0.0
 20
0.0
 30
0.0
  3
*D60
  1

  0
LINE
  5
B76
  8
0
  6
BYBLOCK
 62
     0
 10
325.084413
 20
35.303824
 30
0.0
 11
326.249519
 21
35.303824
 31
0.0
  0
LINE
  5
B77
  8
0
  6
BYBLOCK
 62
     0
 10
324.084413
 20
37.303824
 30
0.0
 11
326.249519
 21
37.303824
 31
0.0
  0
LINE
  5
B78
  8
0
  6
BYBLOCK
 62
     0
 10
326.234519
 20
35.453824
 30
0.0
 11
326.234519
 21
37.153824
 31
0.0
  0
SOLID
  5
B79
  8
0
  6
BYBLOCK
 62
     0
 10
326.209519
 20
35.453824
 30
0.0
 11
326.259519
 21
35.453824
 31
0.0
 12
326.234519
 22
35.303824
 32
0.0
 13
326.234519
 23
35.303824
 33
0.0
  0
SOLID
  5
B7A
  8
0
  6
BYBLOCK
 62
     0
 10
326.209519
 20
37.153824
 30
0.0
 11
326.259519
 21
37.153824
 31
0.0
 12
326.234519
 22
37.303824
 32
0.0
 13
326.234519
 23
37.303824
 33
0.0
  0
TEXT
  5
C27
  8
0
 62
     0
 10
326.01
 20
36.1711
 30
0.0
 40
0.075
  1
2.00
  7
ROMANC
  0
POINT
  5
B7C
  8
DEFPOINTS
  6
BYBLOCK
 62
     0
 10
325.069413
 20
35.303824
 30
0.0
  0
POINT
  5
B7D
  8
DEFPOINTS
  6
BYBLOCK
 62
     0
 10
324.069413
 20
37.303824
 30
0.0
  0
POINT
  5
B7E
  8
DEFPOINTS
  6
BYBLOCK
 62
     0
 10
326.234519
 20
37.303824
 30
0.0
  0
ENDBLK
  5
B7F
  8
0
  0
BLOCK
  8
0
  2
*D61
 70
     1
 10
0.0
 20
0.0
 30
0.0
  3
*D61
  1

  0
LINE
  5
B83
  8
0
  6
BYBLOCK
 62
     0
 10
324.084413
 20
37.303824
 30
0.0
 11
325.602341
 21
37.303824
 31
0.0
  0
LINE
  5
B84
  8
0
  6
BYBLOCK
 62
     0
 10
325.084413
 20
36.303824
 30
0.0
 11
325.602341
 21
36.303824
 31
0.0
  0
LINE
  5
B85
  8
0
  6
BYBLOCK
 62
     0
 10
325.587341
 20
37.153824
 30
0.0
 11
325.587341
 21
36.453824
 31
0.0
  0
SOLID
  5
B86
  8
0
  6
BYBLOCK
 62
     0
 10
325.562341
 20
37.153824
 30
0.0
 11
325.612341
 21
37.153824
 31
0.0
 12
325.587341
 22
37.303824
 32
0.0
 13
325.587341
 23
37.303824
 33
0.0
  0
SOLID
  5
B87
  8
0
  6
BYBLOCK
 62
     0
 10
325.562341
 20
36.453824
 30
0.0
 11
325.612341
 21
36.453824
 31
0.0
 12
325.587341
 22
36.303824
 32
0.0
 13
325.587341
 23
36.303824
 33
0.0
  0
TEXT
  5
C28
  8
0
 62
     0
 10
325.362
 20
36.6711
 30
0.0
 40
0.075
  1
1.00
  7
ROMANC
  0
POINT
  5
B89
  8
DEFPOINTS
  6
BYBLOCK
 62
     0
 10
324.069413
 20
37.303824
 30
0.0
  0
POINT
  5
B8A
  8
DEFPOINTS
  6
BYBLOCK
 62
     0
 10
325.069413
 20
36.303824
 30
0.0
  0
POINT
  5
B8B
  8
DEFPOINTS
  6
BYBLOCK
 62
     0
 10
325.587341
 20
36.303824
 30
0.0
  0
ENDBLK
  5
B8C
  8
0
  0
BLOCK
  8
0
  2
*D62
 70
     1
 10
0.0
 20
0.0
 30
0.0
  3
*D62
  1

  0
LINE
  5
B90
  8
0
  6
BYBLOCK
 62
     0
 10
325.084413
 20
35.603824
 30
0.0
 11
325.602341
 21
35.603824
 31
0.0
  0
LINE
  5
B91
  8
0
  6
BYBLOCK
 62
     0
 10
325.587341
 20
36.153824
 30
0.0
 11
325.587341
 21
35.753824
 31
0.0
  0
SOLID
  5
B92
  8
0
  6
BYBLOCK
 62
     0
 10
325.562341
 20
36.153824
 30
0.0
 11
325.612341
 21
36.153824
 31
0.0
 12
325.587341
 22
36.303824
 32
0.0
 13
325.587341
 23
36.303824
 33
0.0
  0
SOLID
  5
B93
  8
0
  6
BYBLOCK
 62
     0
 10
325.562341
 20
35.753824
 30
0.0
 11
325.612341
 21
35.753824
 31
0.0
 12
325.587341
 22
35.603824
 32
0.0
 13
325.587341
 23
35.603824
 33
0.0
  0
TEXT
  5
C29
  8
0
 62
     0
 10
325.362
 20
35.8211
 30
0.0
 40
0.075
  1
0.70
  7
ROMANC
  0
POINT
  5
B95
  8
DEFPOINTS
  6
BYBLOCK
 62
     0
 10
325.069413
 20
36.303824
 30
0.0
  0
POINT
  5
B96
  8
DEFPOINTS
  6
BYBLOCK
 62
     0
 10
325.069413
 20
35.603824
 30
0.0
  0
POINT
  5
B97
  8
DEFPOINTS
  6
BYBLOCK
 62
     0
 10
325.587341
 20
35.603824
 30
0.0
  0
ENDBLK
  5
B98
  8
0
  0
BLOCK
  8
0
  2
*D63
 70
     1
 10
0.0
 20
0.0
 30
0.0
  3
*D63
  1

  0
LINE
  5
B9C
  8
0
  6
BYBLOCK
 62
     0
 10
325.099413
 20
35.303824
 30
0.0
 11
325.602341
 21
35.303824
 31
0.0
  0
LINE
  5
B9D
  8
0
  6
BYBLOCK
 62
     0
 10
325.587341
 20
35.753824
 30
0.0
 11
325.587341
 21
35.903824
 31
0.0
  0
LINE
  5
B9E
  8
0
  6
BYBLOCK
 62
     0
 10
325.587341
 20
35.153824
 30
0.0
 11
325.587341
 21
35.003824
 31
0.0
  0
LINE
  5
B9F
  8
0
  6
BYBLOCK
 62
     0
 10
325.587341
 20
35.603824
 30
0.0
 11
325.587341
 21
35.303824
 31
0.0
  0
SOLID
  5
BA0
  8
0
  6
BYBLOCK
 62
     0
 10
325.562341
 20
35.753824
 30
0.0
 11
325.612341
 21
35.753824
 31
0.0
 12
325.587341
 22
35.603824
 32
0.0
 13
325.587341
 23
35.603824
 33
0.0
  0
SOLID
  5
BA1
  8
0
  6
BYBLOCK
 62
     0
 10
325.562341
 20
35.153824
 30
0.0
 11
325.612341
 21
35.153824
 31
0.0
 12
325.587341
 22
35.303824
 32
0.0
 13
325.587341
 23
35.303824
 33
0.0
  0
TEXT
  5
C2A
  8
0
 62
     0
 10
325.362
 20
35.3211
 30
0.0
 40
0.075
  1
0.30
  7
ROMANC
  0
POINT
  5
BA3
  8
DEFPOINTS
  6
BYBLOCK
 62
     0
 10
325.069413
 20
35.603824
 30
0.0
  0
POINT
  5
BA4
  8
DEFPOINTS
  6
BYBLOCK
 62
     0
 10
325.084413
 20
35.303824
 30
0.0
  0
POINT
  5
BA5
  8
DEFPOINTS
  6
BYBLOCK
 62
     0
 10
325.587341
 20
35.303824
 30
0.0
  0
ENDBLK
  5
BA6
  8
0
  0
BLOCK
  8
0
  2
*D64
 70
     1
 10
0.0
 20
0.0
 30
0.0
  3
*D64
  1

  0
LINE
  5
BAB
  8
0
  6
BYBLOCK
 62
     0
 10
323.069413
 20
35.588824
 30
0.0
 11
323.069413
 21
34.34883
 31
0.0
  0
LINE
  5
BAC
  8
0
  6
BYBLOCK
 62
     0
 10
325.069413
 20
35.288824
 30
0.0
 11
325.069413
 21
34.34883
 31
0.0
  0
LINE
  5
BAD
  8
0
  6
BYBLOCK
 62
     0
 10
323.219413
 20
34.36383
 30
0.0
 11
324.919413
 21
34.36383
 31
0.0
  0
SOLID
  5
BAE
  8
0
  6
BYBLOCK
 62
     0
 10
323.219413
 20
34.38883
 30
0.0
 11
323.219413
 21
34.33883
 31
0.0
 12
323.069413
 22
34.36383
 32
0.0
 13
323.069413
 23
34.36383
 33
0.0
  0
SOLID
  5
BAF
  8
0
  6
BYBLOCK
 62
     0
 10
324.919413
 20
34.38883
 30
0.0
 11
324.919413
 21
34.33883
 31
0.0
 12
325.069413
 22
34.36383
 32
0.0
 13
325.069413
 23
34.36383
 33
0.0
  0
TEXT
  5
C2B
  8
0
 62
     0
 10
323.919
 20
34.3061
 30
0.0
 40
0.075
  1
2.00
  7
ROMANC
  0
POINT
  5
BB1
  8
DEFPOINTS
  6
BYBLOCK
 62
     0
 10
323.069413
 20
35.603824
 30
0.0
  0
POINT
  5
BB2
  8
DEFPOINTS
  6
BYBLOCK
 62
     0
 10
325.069413
 20
35.303824
 30
0.0
  0
POINT
  5
BB3
  8
DEFPOINTS
  6
BYBLOCK
 62
     0
 10
325.069413
 20
34.36383
 30
0.0
  0
ENDBLK
  5
BB4
  8
0
  0
BLOCK
  8
0
  2
*D65
 70
     1
 10
0.0
 20
0.0
 30
0.0
  3
*D65
  1

  0
LINE
  5
BB8
  8
0
  6
BYBLOCK
 62
     0
 10
323.069413
 20
35.588824
 30
0.0
 11
323.069413
 21
34.889677
 31
0.0
  0
LINE
  5
BB9
  8
0
  6
BYBLOCK
 62
     0
 10
324.069413
 20
35.288824
 30
0.0
 11
324.069413
 21
34.889677
 31
0.0
  0
LINE
  5
BBA
  8
0
  6
BYBLOCK
 62
     0
 10
323.219413
 20
34.904677
 30
0.0
 11
323.919413
 21
34.904677
 31
0.0
  0
SOLID
  5
BBB
  8
0
  6
BYBLOCK
 62
     0
 10
323.219413
 20
34.929677
 30
0.0
 11
323.219413
 21
34.879677
 31
0.0
 12
323.069413
 22
34.904677
 32
0.0
 13
323.069413
 23
34.904677
 33
0.0
  0
SOLID
  5
BBC
  8
0
  6
BYBLOCK
 62
     0
 10
323.919413
 20
34.929677
 30
0.0
 11
323.919413
 21
34.879677
 31
0.0
 12
324.069413
 22
34.904677
 32
0.0
 13
324.069413
 23
34.904677
 33
0.0
  0
TEXT
  5
C2C
  8
0
 62
     0
 10
323.419
 20
34.8469
 30
0.0
 40
0.075
  1
1.00
  7
ROMANC
  0
POINT
  5
BBE
  8
DEFPOINTS
  6
BYBLOCK
 62
     0
 10
323.069413
 20
35.603824
 30
0.0
  0
POINT
  5
BBF
  8
DEFPOINTS
  6
BYBLOCK
 62
     0
 10
324.069413
 20
35.303824
 30
0.0
  0
POINT
  5
BC0
  8
DEFPOINTS
  6
BYBLOCK
 62
     0
 10
324.069413
 20
34.904677
 30
0.0
  0
ENDBLK
  5
BC1
  8
0
  0
BLOCK
  8
0
  2
*D66
 70
     1
 10
0.0
 20
0.0
 30
0.0
  3
*D66
  1

  0
LINE
  5
BC5
  8
0
  6
BYBLOCK
 62
     0
 10
325.099413
 20
35.288824
 30
0.0
 11
325.099413
 21
34.889677
 31
0.0
  0
LINE
  5
BC6
  8
0
  6
BYBLOCK
 62
     0
 10
324.219413
 20
34.904677
 30
0.0
 11
324.949413
 21
34.904677
 31
0.0
  0
SOLID
  5
BC7
  8
0
  6
BYBLOCK
 62
     0
 10
324.219413
 20
34.929677
 30
0.0
 11
324.219413
 21
34.879677
 31
0.0
 12
324.069413
 22
34.904677
 32
0.0
 13
324.069413
 23
34.904677
 33
0.0
  0
SOLID
  5
BC8
  8
0
  6
BYBLOCK
 62
     0
 10
324.949413
 20
34.929677
 30
0.0
 11
324.949413
 21
34.879677
 31
0.0
 12
325.099413
 22
34.904677
 32
0.0
 13
325.099413
 23
34.904677
 33
0.0
  0
TEXT
  5
C2D
  8
0
 62
     0
 10
324.434
 20
34.8469
 30
0.0
 40
0.075
  1
1.03
  7
ROMANC
  0
POINT
  5
BCA
  8
DEFPOINTS
  6
BYBLOCK
 62
     0
 10
324.069413
 20
35.303824
 30
0.0
  0
POINT
  5
BCB
  8
DEFPOINTS
  6
BYBLOCK
 62
     0
 10
325.099413
 20
35.303824
 30
0.0
  0
POINT
  5
BCC
  8
DEFPOINTS
  6
BYBLOCK
 62
     0
 10
325.099413
 20
34.904677
 30
0.0
  0
ENDBLK
  5
BCD
  8
0
  0
BLOCK
  8
0
  2
*D67
 70
     1
 10
0.0
 20
0.0
 30
0.0
  3
*D67
  1

  0
LINE
  5
BD1
  8
0
  6
BYBLOCK
 62
     0
 10
324.949413
 20
34.904677
 30
0.0
 11
324.369413
 21
34.904677
 31
0.0
  0
SOLID
  5
BD2
  8
0
  6
BYBLOCK
 62
     0
 10
324.949413
 20
34.929677
 30
0.0
 11
324.949413
 21
34.879677
 31
0.0
 12
325.099413
 22
34.904677
 32
0.0
 13
325.099413
 23
34.904677
 33
0.0
  0
SOLID
  5
BD3
  8
0
  6
BYBLOCK
 62
     0
 10
324.369413
 20
34.929677
 30
0.0
 11
324.369413
 21
34.879677
 31
0.0
 12
324.219413
 22
34.904677
 32
0.0
 13
324.219413
 23
34.904677
 33
0.0
  0
TEXT
  5
C2E
  8
0
 62
     0
 10
324.509
 20
34.8469
 30
0.0
 40
0.075
  1
0.88
  7
ROMANC
  0
POINT
  5
BD5
  8
DEFPOINTS
  6
BYBLOCK
 62
     0
 10
325.099413
 20
35.303824
 30
0.0
  0
POINT
  5
BD6
  8
DEFPOINTS
  6
BYBLOCK
 62
     0
 10
324.219413
 20
34.904677
 30
0.0
  0
POINT
  5
BD7
  8
DEFPOINTS
  6
BYBLOCK
 62
     0
 10
324.219413
 20
34.904677
 30
0.0
  0
ENDBLK
  5
BD8
  8
0
  0
BLOCK
  8
0
  2
*D68
 70
     1
 10
0.0
 20
0.0
 30
0.0
  3
*D68
  1

  0
LINE
  5
BDC
  8
0
  6
BYBLOCK
 62
     0
 10
325.069413
 20
35.288824
 30
0.0
 11
325.069413
 21
34.889677
 31
0.0
  0
LINE
  5
BDD
  8
0
  6
BYBLOCK
 62
     0
 10
324.219413
 20
34.904677
 30
0.0
 11
324.919413
 21
34.904677
 31
0.0
  0
SOLID
  5
BDE
  8
0
  6
BYBLOCK
 62
     0
 10
324.219413
 20
34.929677
 30
0.0
 11
324.219413
 21
34.879677
 31
0.0
 12
324.069413
 22
34.904677
 32
0.0
 13
324.069413
 23
34.904677
 33
0.0
  0
SOLID
  5
BDF
  8
0
  6
BYBLOCK
 62
     0
 10
324.919413
 20
34.929677
 30
0.0
 11
324.919413
 21
34.879677
 31
0.0
 12
325.069413
 22
34.904677
 32
0.0
 13
325.069413
 23
34.904677
 33
0.0
  0
TEXT
  5
C2F
  8
0
 62
     0
 10
324.419
 20
34.8469
 30
0.0
 40
0.075
  1
1.00
  7
ROMANC
  0
POINT
  5
BE1
  8
DEFPOINTS
  6
BYBLOCK
 62
     0
 10
324.069413
 20
35.303824
 30
0.0
  0
POINT
  5
BE2
  8
DEFPOINTS
  6
BYBLOCK
 62
     0
 10
325.069413
 20
35.303824
 30
0.0
  0
POINT
  5
BE3
  8
DEFPOINTS
  6
BYBLOCK
 62
     0
 10
325.069413
 20
34.904677
 30
0.0
  0
ENDBLK
  5
BE4
  8
0
  0
ENDSEC
  0
SECTION
  2
ENTITIES
  0
LINE
  5
27
  8
0
 10
329.348696
 20
29.863623
 30
0.0
 11
329.348696
 21
44.713623
 31
0.0
  0
LINE
  5
28
  8
0
 10
318.848696
 20
44.713623
 30
0.0
 11
318.848696
 21
29.863623
 31
0.0
  0
LINE
  5
29
  8
0
 10
318.848696
 20
29.863623
 30
0.0
 11
329.348696
 21
29.863623
 31
0.0
  0
TEXT
  5
2A
  8
0
 10
321.773149
 20
42.309482
 30
0.0
 40
0.3
  1
TIPUS   NT327A
  7
ROMANC
  0
TEXT
  5
2D
  8
0
 10
321.735227
 20
40.527599
 30
0.0
 40
0.3
  1
P = 71.4 dm
  7
ROMANC
  0
TEXT
  5
2E
  8
0
 10
321.786243
 20
41.225178
 30
0.0
 40
0.3
  1
S = 327 dm
  7
ROMANC
  0
TEXT
  5
2F
  8
0
 10
321.773149
 20
41.823768
 30
0.0
 40
0.3
  1
ESCALA  1:50
  7
ROMANC
  0
TEXT
  5
30
  8
0
 10
324.963001
 20
41.531094
 30
0.0
 40
0.1
  1
2
  7
ROMANC
  0
LINE
  5
31
  8
0
 10
329.348696
 20
44.713623
 30
0.0
 11
318.848696
 21
44.713623
 31
0.0
  0
LINE
  5
CDF
  8
0
  6
BYBLOCK
 62
     0
 10
325.099413
 20
35.303824
 30
0.0
 11
325.602341
 21
35.303824
 31
0.0
  0
LINE
  5
CE0
  8
0
  6
BYBLOCK
 62
     0
 10
325.587341
 20
35.753824
 30
0.0
 11
325.587341
 21
35.903824
 31
0.0
  0
LINE
  5
CE1
  8
0
  6
BYBLOCK
 62
     0
 10
325.587341
 20
35.153824
 30
0.0
 11
325.587341
 21
35.003824
 31
0.0
  0
LINE
  5
CE2
  8
0
  6
BYBLOCK
 62
     0
 10
325.587341
 20
35.603824
 30
0.0
 11
325.587341
 21
35.303824
 31
0.0
  0
SOLID
  5
CE3
  8
0
  6
BYBLOCK
 62
     0
 10
325.562341
 20
35.753824
 30
0.0
 11
325.612341
 21
35.753824
 31
0.0
 12
325.587341
 22
35.603824
 32
0.0
 13
325.587341
 23
35.603824
 33
0.0
  0
SOLID
  5
CE4
  8
0
  6
BYBLOCK
 62
     0
 10
325.562341
 20
35.153824
 30
0.0
 11
325.612341
 21
35.153824
 31
0.0
 12
325.587341
 22
35.303824
 32
0.0
 13
325.587341
 23
35.303824
 33
0.0
  0
TEXT
  5
CE5
  8
0
 62
     0
 10
325.362
 20
35.3211
 30
0.0
 40
0.075
  1
0.30
  7
ROMANC
  0
POINT
  5
CE6
  8
DEFPOINTS
  6
BYBLOCK
 62
     0
 10
325.069413
 20
35.603824
 30
0.0
  0
POINT
  5
CE7
  8
DEFPOINTS
  6
BYBLOCK
 62
     0
 10
325.084413
 20
35.303824
 30
0.0
  0
POINT
  5
CE8
  8
DEFPOINTS
  6
BYBLOCK
 62
     0
 10
325.587341
 20
35.303824
 30
0.0
  0
LINE
  5
CE9
  8
0
  6
BYBLOCK
 62
     0
 10
325.084413
 20
35.603824
 30
0.0
 11
325.602341
 21
35.603824
 31
0.0
  0
LINE
  5
CEA
  8
0
  6
BYBLOCK
 62
     0
 10
325.587341
 20
36.153824
 30
0.0
 11
325.587341
 21
35.753824
 31
0.0
  0
SOLID
  5
CEB
  8
0
  6
BYBLOCK
 62
     0
 10
325.562341
 20
36.153824
 30
0.0
 11
325.612341
 21
36.153824
 31
0.0
 12
325.587341
 22
36.303824
 32
0.0
 13
325.587341
 23
36.303824
 33
0.0
  0
SOLID
  5
CEC
  8
0
  6
BYBLOCK
 62
     0
 10
325.562341
 20
35.753824
 30
0.0
 11
325.612341
 21
35.753824
 31
0.0
 12
325.587341
 22
35.603824
 32
0.0
 13
325.587341
 23
35.603824
 33
0.0
  0
TEXT
  5
CED
  8
0
 62
     0
 10
325.362
 20
35.8211
 30
0.0
 40
0.075
  1
0.70
  7
ROMANC
  0
POINT
  5
CEE
  8
DEFPOINTS
  6
BYBLOCK
 62
     0
 10
325.069413
 20
36.303824
 30
0.0
  0
POINT
  5
CEF
  8
DEFPOINTS
  6
BYBLOCK
 62
     0
 10
325.069413
 20
35.603824
 30
0.0
  0
POINT
  5
CF0
  8
DEFPOINTS
  6
BYBLOCK
 62
     0
 10
325.587341
 20
35.603824
 30
0.0
  0
LINE
  5
CF1
  8
0
  6
BYBLOCK
 62
     0
 10
324.084413
 20
37.303824
 30
0.0
 11
325.602341
 21
37.303824
 31
0.0
  0
LINE
  5
CF2
  8
0
  6
BYBLOCK
 62
     0
 10
325.084413
 20
36.303824
 30
0.0
 11
325.602341
 21
36.303824
 31
0.0
  0
LINE
  5
CF3
  8
0
  6
BYBLOCK
 62
     0
 10
325.587341
 20
37.153824
 30
0.0
 11
325.587341
 21
36.453824
 31
0.0
  0
SOLID
  5
CF4
  8
0
  6
BYBLOCK
 62
     0
 10
325.562341
 20
37.153824
 30
0.0
 11
325.612341
 21
37.153824
 31
0.0
 12
325.587341
 22
37.303824
 32
0.0
 13
325.587341
 23
37.303824
 33
0.0
  0
SOLID
  5
CF5
  8
0
  6
BYBLOCK
 62
     0
 10
325.562341
 20
36.453824
 30
0.0
 11
325.612341
 21
36.453824
 31
0.0
 12
325.587341
 22
36.303824
 32
0.0
 13
325.587341
 23
36.303824
 33
0.0
  0
TEXT
  5
CF6
  8
0
 62
     0
 10
325.362
 20
36.6711
 30
0.0
 40
0.075
  1
1.00
  7
ROMANC
  0
POINT
  5
CF7
  8
DEFPOINTS
  6
BYBLOCK
 62
     0
 10
324.069413
 20
37.303824
 30
0.0
  0
POINT
  5
CF8
  8
DEFPOINTS
  6
BYBLOCK
 62
     0
 10
325.069413
 20
36.303824
 30
0.0
  0
POINT
  5
CF9
  8
DEFPOINTS
  6
BYBLOCK
 62
     0
 10
325.587341
 20
36.303824
 30
0.0
  0
LINE
  5
CFA
  8
0
  6
BYBLOCK
 62
     0
 10
325.084413
 20
35.303824
 30
0.0
 11
326.249519
 21
35.303824
 31
0.0
  0
LINE
  5
CFB
  8
0
  6
BYBLOCK
 62
     0
 10
324.084413
 20
37.303824
 30
0.0
 11
326.249519
 21
37.303824
 31
0.0
  0
LINE
  5
CFC
  8
0
  6
BYBLOCK
 62
     0
 10
326.234519
 20
35.453824
 30
0.0
 11
326.234519
 21
37.153824
 31
0.0
  0
SOLID
  5
CFD
  8
0
  6
BYBLOCK
 62
     0
 10
326.209519
 20
35.453824
 30
0.0
 11
326.259519
 21
35.453824
 31
0.0
 12
326.234519
 22
35.303824
 32
0.0
 13
326.234519
 23
35.303824
 33
0.0
  0
SOLID
  5
CFE
  8
0
  6
BYBLOCK
 62
     0
 10
326.209519
 20
37.153824
 30
0.0
 11
326.259519
 21
37.153824
 31
0.0
 12
326.234519
 22
37.303824
 32
0.0
 13
326.234519
 23
37.303824
 33
0.0
  0
TEXT
  5
CFF
  8
0
 62
     0
 10
326.01
 20
36.1711
 30
0.0
 40
0.075
  1
2.00
  7
ROMANC
  0
POINT
  5
D00
  8
DEFPOINTS
  6
BYBLOCK
 62
     0
 10
325.069413
 20
35.303824
 30
0.0
  0
POINT
  5
D01
  8
DEFPOINTS
  6
BYBLOCK
 62
     0
 10
324.069413
 20
37.303824
 30
0.0
  0
POINT
  5
D02
  8
DEFPOINTS
  6
BYBLOCK
 62
     0
 10
326.234519
 20
37.303824
 30
0.0
  0
ARC
  5
D03
  8
0
 10
324.069413
 20
36.303824
 30
0.0
 40
1.01
 50
0.0
 51
180.0
  0
LINE
  5
D04
  8
0
 10
323.059413
 20
36.303824
 30
0.0
 11
323.059413
 21
35.593824
 31
0.0
  0
LINE
  5
D05
  8
0
 10
323.059413
 20
35.593824
 30
0.0
 11
324.059413
 21
35.593824
 31
0.0
  0
LINE
  5
D06
  8
0
 10
324.059413
 20
35.593824
 30
0.0
 11
324.059413
 21
35.293824
 31
0.0
  0
LINE
  5
D07
  8
0
 10
324.059413
 20
35.293824
 30
0.0
 11
325.079413
 21
35.293824
 31
0.0
  0
LINE
  5
D08
  8
0
 10
325.079413
 20
35.293824
 30
0.0
 11
325.079413
 21
36.303824
 31
0.0
  0
ARC
  5
D09
  8
0
 10
324.069413
 20
36.303824
 30
0.0
 40
0.99
 50
0.0
 51
180.0
  0
LINE
  5
D0A
  8
0
 10
323.079413
 20
36.303824
 30
0.0
 11
323.079413
 21
35.613824
 31
0.0
  0
LINE
  5
D0B
  8
0
 10
323.079413
 20
35.613824
 30
0.0
 11
324.079413
 21
35.613824
 31
0.0
  0
LINE
  5
D0C
  8
0
 10
324.079413
 20
35.613824
 30
0.0
 11
324.079413
 21
35.313824
 31
0.0
  0
LINE
  5
D0D
  8
0
 10
324.079413
 20
35.313824
 30
0.0
 11
325.059413
 21
35.313824
 31
0.0
  0
LINE
  5
D0E
  8
0
 10
325.059413
 20
35.313824
 30
0.0
 11
325.059413
 21
36.303824
 31
0.0
  0
ARC
  5
D0F
  8
0
 10
324.069413
 20
36.303824
 30
0.0
 40
1.0
 50
0.0
 51
180.0
  0
LINE
  5
D10
  8
0
 10
323.069413
 20
36.303824
 30
0.0
 11
323.069413
 21
35.603824
 31
0.0
  0
LINE
  5
D11
  8
0
 10
323.069413
 20
35.603824
 30
0.0
 11
324.069413
 21
35.603824
 31
0.0
  0
LINE
  5
D12
  8
0
 10
324.069413
 20
35.603824
 30
0.0
 11
324.069413
 21
35.303824
 31
0.0
  0
LINE
  5
D13
  8
0
 10
324.069413
 20
35.303824
 30
0.0
 11
325.069413
 21
35.303824
 31
0.0
  0
LINE
  5
D14
  8
0
 10
325.069413
 20
35.303824
 30
0.0
 11
325.069413
 21
36.303824
 31
0.0
  0
LINE
  5
D15
  8
0
  6
BYBLOCK
 62
     0
 10
325.069413
 20
35.288824
 30
0.0
 11
325.069413
 21
34.889677
 31
0.0
  0
LINE
  5
D16
  8
0
  6
BYBLOCK
 62
     0
 10
324.219413
 20
34.904677
 30
0.0
 11
324.919413
 21
34.904677
 31
0.0
  0
SOLID
  5
D17
  8
0
  6
BYBLOCK
 62
     0
 10
324.219413
 20
34.929677
 30
0.0
 11
324.219413
 21
34.879677
 31
0.0
 12
324.069413
 22
34.904677
 32
0.0
 13
324.069413
 23
34.904677
 33
0.0
  0
SOLID
  5
D18
  8
0
  6
BYBLOCK
 62
     0
 10
324.919413
 20
34.929677
 30
0.0
 11
324.919413
 21
34.879677
 31
0.0
 12
325.069413
 22
34.904677
 32
0.0
 13
325.069413
 23
34.904677
 33
0.0
  0
TEXT
  5
D19
  8
0
 62
     0
 10
324.419
 20
34.8469
 30
0.0
 40
0.075
  1
1.00
  7
ROMANC
  0
POINT
  5
D1A
  8
DEFPOINTS
  6
BYBLOCK
 62
     0
 10
324.069413
 20
35.303824
 30
0.0
  0
POINT
  5
D1B
  8
DEFPOINTS
  6
BYBLOCK
 62
     0
 10
325.069413
 20
35.303824
 30
0.0
  0
POINT
  5
D1C
  8
DEFPOINTS
  6
BYBLOCK
 62
     0
 10
325.069413
 20
34.904677
 30
0.0
  0
LINE
  5
D1D
  8
0
  6
BYBLOCK
 62
     0
 10
323.069413
 20
35.588824
 30
0.0
 11
323.069413
 21
34.889677
 31
0.0
  0
LINE
  5
D1E
  8
0
  6
BYBLOCK
 62
     0
 10
324.069413
 20
35.288824
 30
0.0
 11
324.069413
 21
34.889677
 31
0.0
  0
LINE
  5
D1F
  8
0
  6
BYBLOCK
 62
     0
 10
323.219413
 20
34.904677
 30
0.0
 11
323.919413
 21
34.904677
 31
0.0
  0
SOLID
  5
D20
  8
0
  6
BYBLOCK
 62
     0
 10
323.219413
 20
34.929677
 30
0.0
 11
323.219413
 21
34.879677
 31
0.0
 12
323.069413
 22
34.904677
 32
0.0
 13
323.069413
 23
34.904677
 33
0.0
  0
SOLID
  5
D21
  8
0
  6
BYBLOCK
 62
     0
 10
323.919413
 20
34.929677
 30
0.0
 11
323.919413
 21
34.879677
 31
0.0
 12
324.069413
 22
34.904677
 32
0.0
 13
324.069413
 23
34.904677
 33
0.0
  0
TEXT
  5
D22
  8
0
 62
     0
 10
323.419
 20
34.8469
 30
0.0
 40
0.075
  1
1.00
  7
ROMANC
  0
POINT
  5
D23
  8
DEFPOINTS
  6
BYBLOCK
 62
     0
 10
323.069413
 20
35.603824
 30
0.0
  0
POINT
  5
D24
  8
DEFPOINTS
  6
BYBLOCK
 62
     0
 10
324.069413
 20
35.303824
 30
0.0
  0
POINT
  5
D25
  8
DEFPOINTS
  6
BYBLOCK
 62
     0
 10
324.069413
 20
34.904677
 30
0.0
  0
LINE
  5
D26
  8
0
  6
BYBLOCK
 62
     0
 10
323.069413
 20
35.588824
 30
0.0
 11
323.069413
 21
34.34883
 31
0.0
  0
LINE
  5
D27
  8
0
  6
BYBLOCK
 62
     0
 10
325.069413
 20
35.288824
 30
0.0
 11
325.069413
 21
34.34883
 31
0.0
  0
LINE
  5
D28
  8
0
  6
BYBLOCK
 62
     0
 10
323.219413
 20
34.36383
 30
0.0
 11
324.919413
 21
34.36383
 31
0.0
  0
SOLID
  5
D29
  8
0
  6
BYBLOCK
 62
     0
 10
323.219413
 20
34.38883
 30
0.0
 11
323.219413
 21
34.33883
 31
0.0
 12
323.069413
 22
34.36383
 32
0.0
 13
323.069413
 23
34.36383
 33
0.0
  0
SOLID
  5
D2A
  8
0
  6
BYBLOCK
 62
     0
 10
324.919413
 20
34.38883
 30
0.0
 11
324.919413
 21
34.33883
 31
0.0
 12
325.069413
 22
34.36383
 32
0.0
 13
325.069413
 23
34.36383
 33
0.0
  0
TEXT
  5
D2B
  8
0
 62
     0
 10
323.919
 20
34.3061
 30
0.0
 40
0.075
  1
2.00
  7
ROMANC
  0
POINT
  5
D2C
  8
DEFPOINTS
  6
BYBLOCK
 62
     0
 10
323.069413
 20
35.603824
 30
0.0
  0
POINT
  5
D2D
  8
DEFPOINTS
  6
BYBLOCK
 62
     0
 10
325.069413
 20
35.303824
 30
0.0
  0
POINT
  5
D2E
  8
DEFPOINTS
  6
BYBLOCK
 62
     0
 10
325.069413
 20
34.36383
 30
0.0
  0
ENDSEC
  0
EOF
