  0
SECTION
  2
HEADER
  9
$ACADVER
  1
AC1015
  9
$ACADMAINTVER
 70
     6
  9
$DWGCODEPAGE
  3
ANSI_1252
  9
$INSBASE
 10
0.0
 20
0.0
 30
0.0
  9
$EXTMIN
 10
281.3950692441339
 20
29.89660406180441
 30
-0.0000000349181948
  9
$EXTMAX
 10
291.8969308140734
 20
44.74796749579872
 30
0.0000000814935747
  9
$LIMMIN
 10
280.3959999999999
 20
28.89699999999999
  9
$LIMMAX
 10
292.8959999999999
 20
43.74699999999999
  9
$ORTHOMODE
 70
     1
  9
$REGENMODE
 70
     1
  9
$FILLMODE
 70
     1
  9
$QTEXTMODE
 70
     0
  9
$MIRRTEXT
 70
     1
  9
$LTSCALE
 40
1.0
  9
$ATTMODE
 70
     1
  9
$TEXTSIZE
 40
0.2
  9
$TRACEWID
 40
0.05
  9
$TEXTSTYLE
  7
STANDARD
  9
$CLAYER
  8
0
  9
$CELTYPE
  6
BYLAYER
  9
$CECOLOR
 62
   256
  9
$CELTSCALE
 40
1.0
  9
$DISPSILH
 70
     0
  9
$DIMSCALE
 40
1.0
  9
$DIMASZ
 40
0.18
  9
$DIMEXO
 40
0.0625
  9
$DIMDLI
 40
0.38
  9
$DIMRND
 40
0.0
  9
$DIMDLE
 40
0.0
  9
$DIMEXE
 40
0.18
  9
$DIMTP
 40
0.0
  9
$DIMTM
 40
0.0
  9
$DIMTXT
 40
0.18
  9
$DIMCEN
 40
0.09
  9
$DIMTSZ
 40
0.0
  9
$DIMTOL
 70
     0
  9
$DIMLIM
 70
     0
  9
$DIMTIH
 70
     1
  9
$DIMTOH
 70
     1
  9
$DIMSE1
 70
     0
  9
$DIMSE2
 70
     0
  9
$DIMTAD
 70
     0
  9
$DIMZIN
 70
     0
  9
$DIMBLK
  1

  9
$DIMASO
 70
     1
  9
$DIMSHO
 70
     1
  9
$DIMPOST
  1

  9
$DIMAPOST
  1

  9
$DIMALT
 70
     0
  9
$DIMALTD
 70
     2
  9
$DIMALTF
 40
25.4
  9
$DIMLFAC
 40
1.0
  9
$DIMTOFL
 70
     0
  9
$DIMTVP
 40
0.0
  9
$DIMTIX
 70
     0
  9
$DIMSOXD
 70
     0
  9
$DIMSAH
 70
     0
  9
$DIMBLK1
  1

  9
$DIMBLK2
  1

  9
$DIMSTYLE
  2
STANDARD
  9
$DIMCLRD
 70
     0
  9
$DIMCLRE
 70
     0
  9
$DIMCLRT
 70
     0
  9
$DIMTFAC
 40
1.0
  9
$DIMGAP
 40
0.09
  9
$DIMJUST
 70
     0
  9
$DIMSD1
 70
     0
  9
$DIMSD2
 70
     0
  9
$DIMTOLJ
 70
     1
  9
$DIMTZIN
 70
     0
  9
$DIMALTZ
 70
     0
  9
$DIMALTTZ
 70
     0
  9
$DIMUPT
 70
     0
  9
$DIMDEC
 70
     4
  9
$DIMTDEC
 70
     4
  9
$DIMALTU
 70
     2
  9
$DIMALTTD
 70
     2
  9
$DIMTXSTY
  7
STANDARD
  9
$DIMAUNIT
 70
     0
  9
$DIMADEC
 70
     0
  9
$DIMALTRND
 40
0.0
  9
$DIMAZIN
 70
     0
  9
$DIMDSEP
 70
    46
  9
$DIMATFIT
 70
     3
  9
$DIMFRAC
 70
     0
  9
$DIMLDRBLK
  1

  9
$DIMLUNIT
 70
     2
  9
$DIMLWD
 70
    -2
  9
$DIMLWE
 70
    -2
  9
$DIMTMOVE
 70
     0
  9
$LUNITS
 70
     2
  9
$LUPREC
 70
     4
  9
$SKETCHINC
 40
0.1
  9
$FILLETRAD
 40
0.0
  9
$AUNITS
 70
     0
  9
$AUPREC
 70
     0
  9
$MENU
  1
acad
  9
$ELEVATION
 40
0.0
  9
$PELEVATION
 40
0.0
  9
$THICKNESS
 40
0.0
  9
$LIMCHECK
 70
     0
  9
$CHAMFERA
 40
0.0
  9
$CHAMFERB
 40
0.0
  9
$CHAMFERC
 40
0.0
  9
$CHAMFERD
 40
0.0
  9
$SKPOLY
 70
     0
  9
$TDCREATE
 40
2448315.373408102
  9
$TDUCREATE
 40
2448315.290074768
  9
$TDUPDATE
 40
2451836.698173484
  9
$TDUUPDATE
 40
2451836.614840150
  9
$TDINDWG
 40
0.0421121644
  9
$TDUSRTIMER
 40
0.0420821528
  9
$USRTIMER
 70
     1
  9
$ANGBASE
 50
0.0
  9
$ANGDIR
 70
     0
  9
$PDMODE
 70
     0
  9
$PDSIZE
 40
0.0
  9
$PLINEWID
 40
0.0
  9
$SPLFRAME
 70
     0
  9
$SPLINETYPE
 70
     6
  9
$SPLINESEGS
 70
     8
  9
$HANDSEED
  5
3E4
  9
$SURFTAB1
 70
     6
  9
$SURFTAB2
 70
     6
  9
$SURFTYPE
 70
     6
  9
$SURFU
 70
     6
  9
$SURFV
 70
     6
  9
$UCSBASE
  2

  9
$UCSNAME
  2

  9
$UCSORG
 10
0.0
 20
0.0
 30
0.0
  9
$UCSXDIR
 10
1.0
 20
0.0
 30
0.0
  9
$UCSYDIR
 10
0.0
 20
1.0
 30
0.0
  9
$UCSORTHOREF
  2

  9
$UCSORTHOVIEW
 70
     0
  9
$UCSORGTOP
 10
0.0
 20
0.0
 30
0.0
  9
$UCSORGBOTTOM
 10
0.0
 20
0.0
 30
0.0
  9
$UCSORGLEFT
 10
0.0
 20
0.0
 30
0.0
  9
$UCSORGRIGHT
 10
0.0
 20
0.0
 30
0.0
  9
$UCSORGFRONT
 10
0.0
 20
0.0
 30
0.0
  9
$UCSORGBACK
 10
0.0
 20
0.0
 30
0.0
  9
$PUCSBASE
  2

  9
$PUCSNAME
  2

  9
$PUCSORG
 10
0.0
 20
0.0
 30
0.0
  9
$PUCSXDIR
 10
1.0
 20
0.0
 30
0.0
  9
$PUCSYDIR
 10
0.0
 20
1.0
 30
0.0
  9
$PUCSORTHOREF
  2

  9
$PUCSORTHOVIEW
 70
     0
  9
$PUCSORGTOP
 10
0.0
 20
0.0
 30
0.0
  9
$PUCSORGBOTTOM
 10
0.0
 20
0.0
 30
0.0
  9
$PUCSORGLEFT
 10
0.0
 20
0.0
 30
0.0
  9
$PUCSORGRIGHT
 10
0.0
 20
0.0
 30
0.0
  9
$PUCSORGFRONT
 10
0.0
 20
0.0
 30
0.0
  9
$PUCSORGBACK
 10
0.0
 20
0.0
 30
0.0
  9
$USERI1
 70
     0
  9
$USERI2
 70
     0
  9
$USERI3
 70
     0
  9
$USERI4
 70
     0
  9
$USERI5
 70
     0
  9
$USERR1
 40
0.0
  9
$USERR2
 40
0.0
  9
$USERR3
 40
0.0
  9
$USERR4
 40
0.0
  9
$USERR5
 40
0.0
  9
$WORLDVIEW
 70
     1
  9
$SHADEDGE
 70
     3
  9
$SHADEDIF
 70
    70
  9
$TILEMODE
 70
     1
  9
$MAXACTVP
 70
    16
  9
$PINSBASE
 10
0.0
 20
0.0
 30
0.0
  9
$PLIMCHECK
 70
     0
  9
$PEXTMIN
 10
0.3356100001950608
 20
0.467916977571349
 30
0.0
  9
$PEXTMAX
 10
199.6258939823488
 20
286.3192515252361
 30
0.0
  9
$PLIMMIN
 10
-5.027083396911621
 20
-5.111741065979003
  9
$PLIMMAX
 10
204.9885873794554
 20
291.8989095687866
  9
$UNITMODE
 70
     0
  9
$VISRETAIN
 70
     0
  9
$PLINEGEN
 70
     0
  9
$PSLTSCALE
 70
     1
  9
$TREEDEPTH
 70
  3020
  9
$CMLSTYLE
  2
STANDARD
  9
$CMLJUST
 70
     0
  9
$CMLSCALE
 40
1.0
  9
$PROXYGRAPHICS
 70
     1
  9
$MEASUREMENT
 70
     0
  9
$CELWEIGHT
370
    -1
  9
$ENDCAPS
280
     0
  9
$JOINSTYLE
280
     0
  9
$LWDISPLAY
290
     0
  9
$INSUNITS
 70
     0
  9
$HYPERLINKBASE
  1

  9
$STYLESHEET
  1
T:\CFG ACAD2000\Plot Styles\xvr.ctb
  9
$XEDIT
290
     1
  9
$CEPSNTYPE
380
     0
  9
$PSTYLEMODE
290
     1
  9
$FINGERPRINTGUID
  2
{A09CBBB2-476A-11D4-A5CD-0008C769B1B5}
  9
$VERSIONGUID
  2
{0137A44B-A500-11D4-A637-0008C769B1B5}
  9
$EXTNAMES
290
     1
  9
$PSVPSCALE
 40
0.0
  9
$OLESTARTUP
290
     0
  0
ENDSEC
  0
SECTION
  2
CLASSES
  0
CLASS
  1
ACDBDICTIONARYWDFLT
  2
AcDbDictionaryWithDefault
  3
AutoCAD 2000
 90
        0
280
     0
281
     0
  0
CLASS
  1
ACDBPLACEHOLDER
  2
AcDbPlaceHolder
  3
AutoCAD 2000
 90
        0
280
     0
281
     0
  0
CLASS
  1
LAYOUT
  2
AcDbLayout
  3
AutoCAD 2000
 90
        0
280
     0
281
     0
  0
CLASS
  1
LONG_TRANSACTION
  2
AcDbLongTransaction
  3
AutoCAD 2000
 90
    32768
280
     0
281
     0
  0
CLASS
  1
LWPOLYLINE
  2
AcDbPolyline
  3
AutoCAD 2000
 90
    32768
280
     0
281
     1
  0
CLASS
  1
HATCH
  2
AcDbHatch
  3
AutoCAD 2000
 90
    32768
280
     0
281
     1
  0
CLASS
  1
XRECORD
  2
AcDbXrecord
  3
AutoCAD 2000
 90
    32768
280
     0
281
     0
  0
CLASS
  1
LONG_TRANSACTION
  2
AcDbLongTransaction
  3
AutoCAD 2000
 90
    32768
280
     0
281
     0
  0
CLASS
  1
LWPOLYLINE
  2
AcDbPolyline
  3
AutoCAD 2000
 90
    32768
280
     0
281
     1
  0
CLASS
  1
HATCH
  2
AcDbHatch
  3
AutoCAD 2000
 90
    32768
280
     0
281
     1
  0
CLASS
  1
XRECORD
  2
AcDbXrecord
  3
AutoCAD 2000
 90
    32768
280
     0
281
     0
  0
CLASS
  1
PLOTSETTINGS
  2
AcDbPlotSettings
  3
AutoCAD 2000
 90
        0
280
     0
281
     0
  0
CLASS
  1
LONG_TRANSACTION
  2
AcDbLongTransaction
  3
AutoCAD 2000
 90
    32768
280
     0
281
     0
  0
CLASS
  1
LWPOLYLINE
  2
AcDbPolyline
  3
AutoCAD 2000
 90
    32768
280
     0
281
     1
  0
CLASS
  1
HATCH
  2
AcDbHatch
  3
AutoCAD 2000
 90
    32768
280
     0
281
     1
  0
CLASS
  1
XRECORD
  2
AcDbXrecord
  3
AutoCAD 2000
 90
    32768
280
     0
281
     0
  0
ENDSEC
  0
SECTION
  2
TABLES
  0
TABLE
  2
VPORT
  5
8
330
0
100
AcDbSymbolTable
 70
     6
  0
VPORT
  5
3E3
330
8
100
AcDbSymbolTableRecord
100
AcDbViewportTableRecord
  2
*Active
 70
     0
 10
0.0
 20
0.0
 11
1.0
 21
1.0
 12
286.6460000291037
 22
37.32228577880157
 13
0.0
 23
0.0
 14
1.0
 24
1.0
 15
0.0
 25
0.0
 16
0.0
 26
0.0
 36
1.0
 17
0.0
 27
0.0
 37
0.0
 40
14.98699232380247
 41
1.211890243902439
 42
50.0
 43
0.0
 44
0.0
 50
0.0
 51
0.0
 71
     0
 72
   100
 73
     1
 74
     1
 75
     0
 76
     0
 77
     0
 78
     0
281
     0
 65
     1
110
0.0
120
0.0
130
0.0
111
1.0
121
0.0
131
0.0
112
0.0
122
1.0
132
0.0
 79
     0
146
0.0
  0
ENDTAB
  0
TABLE
  2
LTYPE
  5
5
330
0
100
AcDbSymbolTable
 70
     1
  0
LTYPE
  5
13
330
5
100
AcDbSymbolTableRecord
100
AcDbLinetypeTableRecord
  2
BYBLOCK
 70
     0
  3

 72
    65
 73
     0
 40
0.0
  0
LTYPE
  5
14
330
5
100
AcDbSymbolTableRecord
100
AcDbLinetypeTableRecord
  2
BYLAYER
 70
     0
  3

 72
    65
 73
     0
 40
0.0
  0
LTYPE
  5
15
330
5
100
AcDbSymbolTableRecord
100
AcDbLinetypeTableRecord
  2
CONTINUOUS
 70
     0
  3
Solid line
 72
    65
 73
     0
 40
0.0
  0
ENDTAB
  0
TABLE
  2
LAYER
  5
2
330
0
100
AcDbSymbolTable
 70
     8
  0
LAYER
  5
10
330
2
100
AcDbSymbolTableRecord
100
AcDbLayerTableRecord
  2
0
 70
     0
 62
     7
  6
CONTINUOUS
370
    -3
390
F
  0
LAYER
  5
22
330
2
100
AcDbSymbolTableRecord
100
AcDbLayerTableRecord
  2
1
 70
     0
 62
     7
  6
CONTINUOUS
370
    -3
390
F
  0
LAYER
  5
23
330
2
100
AcDbSymbolTableRecord
100
AcDbLayerTableRecord
  2
7
 70
     0
 62
     7
  6
CONTINUOUS
370
    -3
390
F
  0
LAYER
  5
24
330
2
100
AcDbSymbolTableRecord
100
AcDbLayerTableRecord
  2
8
 70
     0
 62
     7
  6
CONTINUOUS
370
    -3
390
F
  0
LAYER
  5
25
330
2
100
AcDbSymbolTableRecord
100
AcDbLayerTableRecord
  2
9
 70
     0
 62
     7
  6
CONTINUOUS
370
    -3
390
F
  0
LAYER
  5
26
330
2
100
AcDbSymbolTableRecord
100
AcDbLayerTableRecord
  2
22
 70
     0
 62
     7
  6
CONTINUOUS
370
    -3
390
F
  0
LAYER
  5
27
330
2
100
AcDbSymbolTableRecord
100
AcDbLayerTableRecord
  2
25
 70
     0
 62
     7
  6
CONTINUOUS
370
    -3
390
F
  0
LAYER
  5
7F
330
2
100
AcDbSymbolTableRecord
100
AcDbLayerTableRecord
  2
DEFPOINTS
 70
     0
 62
     7
  6
CONTINUOUS
290
     0
370
    -3
390
F
  0
ENDTAB
  0
TABLE
  2
STYLE
  5
3
330
0
100
AcDbSymbolTable
 70
     2
  0
STYLE
  5
11
330
3
100
AcDbSymbolTableRecord
100
AcDbTextStyleTableRecord
  2
STANDARD
 70
     0
 40
0.0
 41
1.0
 50
0.0
 71
     0
 42
0.2
  3
txt
  4

  0
STYLE
  5
28
330
3
100
AcDbSymbolTableRecord
100
AcDbTextStyleTableRecord
  2
ROMANC
 70
     0
 40
0.0
 41
1.0
 50
0.0
 71
     0
 42
0.2
  3
ROMANC
  4

  0
ENDTAB
  0
TABLE
  2
VIEW
  5
6
330
0
100
AcDbSymbolTable
 70
     0
  0
ENDTAB
  0
TABLE
  2
UCS
  5
7
330
0
100
AcDbSymbolTable
 70
     0
  0
ENDTAB
  0
TABLE
  2
APPID
  5
9
330
0
100
AcDbSymbolTable
 70
     1
  0
APPID
  5
12
330
9
100
AcDbSymbolTableRecord
100
AcDbRegAppTableRecord
  2
ACAD
 70
     0
  0
ENDTAB
  0
TABLE
  2
DIMSTYLE
  5
A
330
0
100
AcDbSymbolTable
 70
     1
100
AcDbDimStyleTable
 71
     1
340
7A
  0
DIMSTYLE
105
7A
102
{ACAD_REACTORS
330
290
330
282
330
274
330
257
330
249
330
266
330
2D7
330
2BA
330
2AC
330
2C8
330
326
330
2FC
330
30A
330
318
330
33F
330
390
330
39E
330
3AC
330
3BA
330
3C9
102
}
330
A
100
AcDbSymbolTableRecord
100
AcDbDimStyleTableRecord
  2
STANDARD
 70
     0
340
11
  0
ENDTAB
  0
TABLE
  2
BLOCK_RECORD
  5
1
330
0
100
AcDbSymbolTable
 70
    29
  0
BLOCK_RECORD
  5
1E
102
{ACAD_XDICTIONARY
360
1AC
102
}
330
1
100
AcDbSymbolTableRecord
100
AcDbBlockTableRecord
  2
*MODEL_SPACE
340
234
  0
BLOCK_RECORD
  5
1A
102
{ACAD_XDICTIONARY
360
1AA
102
}
330
1
100
AcDbSymbolTableRecord
100
AcDbBlockTableRecord
  2
*PAPER_SPACE
340
235
  0
BLOCK_RECORD
  5
C8
330
1
100
AcDbSymbolTableRecord
100
AcDbBlockTableRecord
  2
*D0
340
0
  0
BLOCK_RECORD
  5
D6
330
1
100
AcDbSymbolTableRecord
100
AcDbBlockTableRecord
  2
*D1
340
0
  0
BLOCK_RECORD
  5
E5
330
1
100
AcDbSymbolTableRecord
100
AcDbBlockTableRecord
  2
*D2
340
0
  0
BLOCK_RECORD
  5
F3
330
1
100
AcDbSymbolTableRecord
100
AcDbBlockTableRecord
  2
*D3
340
0
  0
BLOCK_RECORD
  5
102
330
1
100
AcDbSymbolTableRecord
100
AcDbBlockTableRecord
  2
*D4
340
0
  0
BLOCK_RECORD
  5
150
330
1
100
AcDbSymbolTableRecord
100
AcDbBlockTableRecord
  2
*D5
340
0
  0
BLOCK_RECORD
  5
15E
330
1
100
AcDbSymbolTableRecord
100
AcDbBlockTableRecord
  2
*D6
340
0
  0
BLOCK_RECORD
  5
1B8
330
1
100
AcDbSymbolTableRecord
100
AcDbBlockTableRecord
  2
*D7
340
0
  0
BLOCK_RECORD
  5
1C6
330
1
100
AcDbSymbolTableRecord
100
AcDbBlockTableRecord
  2
*D8
340
0
  0
BLOCK_RECORD
  5
24A
330
1
100
AcDbSymbolTableRecord
100
AcDbBlockTableRecord
  2
*D9
340
0
  0
BLOCK_RECORD
  5
258
330
1
100
AcDbSymbolTableRecord
100
AcDbBlockTableRecord
  2
*D10
340
0
  0
BLOCK_RECORD
  5
267
330
1
100
AcDbSymbolTableRecord
100
AcDbBlockTableRecord
  2
*D11
340
0
  0
BLOCK_RECORD
  5
275
330
1
100
AcDbSymbolTableRecord
100
AcDbBlockTableRecord
  2
*D12
340
0
  0
BLOCK_RECORD
  5
283
330
1
100
AcDbSymbolTableRecord
100
AcDbBlockTableRecord
  2
*D13
340
0
  0
BLOCK_RECORD
  5
291
330
1
100
AcDbSymbolTableRecord
100
AcDbBlockTableRecord
  2
*D14
340
0
  0
BLOCK_RECORD
  5
2AD
330
1
100
AcDbSymbolTableRecord
100
AcDbBlockTableRecord
  2
*D15
340
0
  0
BLOCK_RECORD
  5
2BB
330
1
100
AcDbSymbolTableRecord
100
AcDbBlockTableRecord
  2
*D16
340
0
  0
BLOCK_RECORD
  5
2C9
330
1
100
AcDbSymbolTableRecord
100
AcDbBlockTableRecord
  2
*D17
340
0
  0
BLOCK_RECORD
  5
2D8
330
1
100
AcDbSymbolTableRecord
100
AcDbBlockTableRecord
  2
*D18
340
0
  0
BLOCK_RECORD
  5
2FD
330
1
100
AcDbSymbolTableRecord
100
AcDbBlockTableRecord
  2
*D19
340
0
  0
BLOCK_RECORD
  5
30B
330
1
100
AcDbSymbolTableRecord
100
AcDbBlockTableRecord
  2
*D20
340
0
  0
BLOCK_RECORD
  5
319
330
1
100
AcDbSymbolTableRecord
100
AcDbBlockTableRecord
  2
*D21
340
0
  0
BLOCK_RECORD
  5
327
330
1
100
AcDbSymbolTableRecord
100
AcDbBlockTableRecord
  2
*D22
340
0
  0
BLOCK_RECORD
  5
340
330
1
100
AcDbSymbolTableRecord
100
AcDbBlockTableRecord
  2
*D23
340
0
  0
BLOCK_RECORD
  5
391
330
1
100
AcDbSymbolTableRecord
100
AcDbBlockTableRecord
  2
*D24
340
0
  0
BLOCK_RECORD
  5
39F
330
1
100
AcDbSymbolTableRecord
100
AcDbBlockTableRecord
  2
*D25
340
0
  0
BLOCK_RECORD
  5
3AD
330
1
100
AcDbSymbolTableRecord
100
AcDbBlockTableRecord
  2
*D26
340
0
  0
BLOCK_RECORD
  5
3BB
330
1
100
AcDbSymbolTableRecord
100
AcDbBlockTableRecord
  2
*D27
340
0
  0
BLOCK_RECORD
  5
3CA
330
1
100
AcDbSymbolTableRecord
100
AcDbBlockTableRecord
  2
*D28
340
0
  0
ENDTAB
  0
ENDSEC
  0
SECTION
  2
BLOCKS
  0
BLOCK
  5
1F
330
1E
100
AcDbEntity
  8
0
100
AcDbBlockBegin
  2
*MODEL_SPACE
 70
     0
 10
0.0
 20
0.0
 30
0.0
  3
*MODEL_SPACE
  1

  0
ENDBLK
  5
20
330
1E
100
AcDbEntity
  8
0
100
AcDbBlockEnd
  0
BLOCK
  5
1B
330
1A
100
AcDbEntity
 67
     1
  8
0
100
AcDbBlockBegin
  2
*PAPER_SPACE
 70
     0
 10
0.0
 20
0.0
 30
0.0
  3
*PAPER_SPACE
  1

  0
ENDBLK
  5
1C
330
1A
100
AcDbEntity
 67
     1
  8
0
100
AcDbBlockEnd
  0
BLOCK
  5
D3
330
C8
100
AcDbEntity
  8
0
100
AcDbBlockBegin
  2
*D0
 70
     1
 10
0.0
 20
0.0
 30
0.0
  3
*D0
  1

  0
LINE
  5
17F
330
C8
100
AcDbEntity
  8
0
 62
     0
100
AcDbLine
 10
286.1242114476576
 20
36.24736563458589
 30
0.0
 11
288.1582790844173
 21
36.24736563458589
 31
0.0
  0
LINE
  5
180
330
C8
100
AcDbEntity
  8
0
 62
     0
100
AcDbLine
 10
286.1242114476576
 20
34.62736563458587
 30
0.0
 11
288.1582790844173
 21
34.62736563458587
 31
0.0
  0
LINE
  5
181
330
C8
100
AcDbEntity
  8
0
 62
     0
100
AcDbLine
 10
287.9782790844175
 20
36.06736563458589
 30
0.0
 11
287.9782790844175
 21
35.612166902036
 31
0.0
  0
LINE
  5
182
330
C8
100
AcDbEntity
  8
0
 62
     0
100
AcDbLine
 10
287.9782790844175
 20
34.80736563458587
 30
0.0
 11
287.9782790844175
 21
35.25216690203601
 31
0.0
  0
SOLID
  5
183
330
C8
100
AcDbEntity
  8
0
 62
     0
100
AcDbTrace
 10
287.9482790844173
 20
36.06736563458589
 30
0.0
 11
288.0082790844173
 21
36.06736563458589
 31
0.0
 12
287.9782790844175
 22
36.24736563458589
 32
0.0
 13
287.9782790844175
 23
36.24736563458589
 33
0.0
  0
SOLID
  5
184
330
C8
100
AcDbEntity
  8
0
 62
     0
100
AcDbTrace
 10
287.9482790844173
 20
34.80736563458587
 30
0.0
 11
288.0082790844173
 21
34.80736563458587
 31
0.0
 12
287.9782790844175
 22
34.62736563458587
 32
0.0
 13
287.9782790844175
 23
34.62736563458587
 33
0.0
  0
MTEXT
  5
185
330
C8
100
AcDbEntity
  8
0
 62
     0
100
AcDbMText
 10
287.9782790844175
 20
35.43216690203603
 30
0.0
 40
0.18
 41
0.0
 71
     5
 72
     1
  1
\A1;1.6200
 73
     1
 44
1.0
1001
ACAD
1000
MTEXTBEGIN
1070
    73
1070
     1
1070
    44
1040
1.0
1070
    74
1070
     0
1000
MTEXTEND
1000
MTEXTBEGIN
1070
    73
1070
     1
1070
    44
1040
1.0
1070
    74
1070
     0
1000
MTEXTEND
1000
MTEXTBEGIN
1070
    73
1070
     1
1070
    44
1040
1.0
1070
    74
1070
     0
1000
MTEXTEND
  0
POINT
  5
186
330
C8
100
AcDbEntity
  8
DEFPOINTS
 62
     0
100
AcDbPoint
 10
286.0617114476576
 20
36.24736563458589
 30
0.0
  0
POINT
  5
187
330
C8
100
AcDbEntity
  8
DEFPOINTS
 62
     0
100
AcDbPoint
 10
286.0617114476576
 20
34.62736563458587
 30
0.0
  0
POINT
  5
188
330
C8
100
AcDbEntity
  8
DEFPOINTS
 62
     0
100
AcDbPoint
 10
287.9782790844175
 20
34.62736563458587
 30
0.0
  0
ENDBLK
  5
D4
330
C8
100
AcDbEntity
  8
0
100
AcDbBlockEnd
  0
BLOCK
  5
E2
330
D6
100
AcDbEntity
  8
0
100
AcDbBlockBegin
  2
*D1
 70
     1
 10
0.0
 20
0.0
 30
0.0
  3
*D1
  1

  0
LINE
  5
144
330
D6
100
AcDbEntity
  8
0
 62
     0
100
AcDbLine
 10
286.5742114476576
 20
34.77736563458589
 30
0.0
 11
287.8483853356226
 21
34.77736563458589
 31
0.0
  0
LINE
  5
145
330
D6
100
AcDbEntity
  8
0
 62
     0
100
AcDbLine
 10
286.1867114476576
 20
34.62736563458587
 30
0.0
 11
287.8483853356226
 21
34.62736563458587
 31
0.0
  0
LINE
  5
146
330
D6
100
AcDbEntity
  8
0
 62
     0
100
AcDbLine
 10
287.6683853356226
 20
34.95736563458589
 30
0.0
 11
287.6683853356226
 21
35.13736563458589
 31
0.0
  0
LINE
  5
147
330
D6
100
AcDbEntity
  8
0
 62
     0
100
AcDbLine
 10
287.6683853356226
 20
34.44736563458587
 30
0.0
 11
287.6683853356226
 21
34.26736563458582
 31
0.0
  0
LINE
  5
148
330
D6
100
AcDbEntity
  8
0
 62
     0
100
AcDbLine
 10
287.6683853356226
 20
34.26736563458582
 30
0.0
 11
287.4883853356226
 21
34.26736563458582
 31
0.0
  0
SOLID
  5
149
330
D6
100
AcDbEntity
  8
0
 62
     0
100
AcDbTrace
 10
287.6383853356226
 20
34.95736563458589
 30
0.0
 11
287.6983853356226
 21
34.95736563458589
 31
0.0
 12
287.6683853356226
 22
34.77736563458589
 32
0.0
 13
287.6683853356226
 23
34.77736563458589
 33
0.0
  0
SOLID
  5
14A
330
D6
100
AcDbEntity
  8
0
 62
     0
100
AcDbTrace
 10
287.6383853356226
 20
34.44736563458587
 30
0.0
 11
287.6983853356226
 21
34.44736563458587
 31
0.0
 12
287.6683853356226
 22
34.62736563458587
 32
0.0
 13
287.6683853356226
 23
34.62736563458587
 33
0.0
  0
MTEXT
  5
14B
330
D6
100
AcDbEntity
  8
0
 62
     0
100
AcDbMText
 10
287.0233853356226
 20
34.26736563458587
 30
0.0
 40
0.18
 41
0.0
 71
     5
 72
     1
  1
\A1;0.1500
 73
     1
 44
1.0
1001
ACAD
1000
MTEXTBEGIN
1070
    73
1070
     1
1070
    44
1040
1.0
1070
    74
1070
     0
1000
MTEXTEND
1000
MTEXTBEGIN
1070
    73
1070
     1
1070
    44
1040
1.0
1070
    74
1070
     0
1000
MTEXTEND
1000
MTEXTBEGIN
1070
    73
1070
     1
1070
    44
1040
1.0
1070
    74
1070
     0
1000
MTEXTEND
  0
POINT
  5
14C
330
D6
100
AcDbEntity
  8
DEFPOINTS
 62
     0
100
AcDbPoint
 10
286.5117114476575
 20
34.77736563458589
 30
0.0
  0
POINT
  5
14D
330
D6
100
AcDbEntity
  8
DEFPOINTS
 62
     0
100
AcDbPoint
 10
286.1242114476576
 20
34.62736563458587
 30
0.0
  0
POINT
  5
14E
330
D6
100
AcDbEntity
  8
DEFPOINTS
 62
     0
100
AcDbPoint
 10
287.6683853356226
 20
34.62736563458587
 30
0.0
  0
ENDBLK
  5
E3
330
D6
100
AcDbEntity
  8
0
100
AcDbBlockEnd
  0
BLOCK
  5
F0
330
E5
100
AcDbEntity
  8
0
100
AcDbBlockBegin
  2
*D2
 70
     1
 10
0.0
 20
0.0
 30
0.0
  3
*D2
  1

  0
LINE
  5
110
330
E5
100
AcDbEntity
  8
0
 62
     0
100
AcDbLine
 10
285.5617114476576
 20
35.73986563458588
 30
0.0
 11
285.5617114476576
 21
36.95556457024231
 31
0.0
  0
LINE
  5
111
330
E5
100
AcDbEntity
  8
0
 62
     0
100
AcDbLine
 10
286.5617114476576
 20
35.73986563458642
 30
0.0
 11
286.5617114476576
 21
36.95556457024231
 31
0.0
  0
LINE
  5
112
330
E5
100
AcDbEntity
  8
0
 62
     0
100
AcDbLine
 10
285.3817114476576
 20
36.77556457024229
 30
0.0
 11
285.2017114476576
 21
36.77556457024229
 31
0.0
  0
LINE
  5
113
330
E5
100
AcDbEntity
  8
0
 62
     0
100
AcDbLine
 10
286.7417114476576
 20
36.77556457024229
 30
0.0
 11
286.9217114476576
 21
36.77556457024229
 31
0.0
  0
SOLID
  5
114
330
E5
100
AcDbEntity
  8
0
 62
     0
100
AcDbTrace
 10
285.3817114476576
 20
36.80556457024231
 30
0.0
 11
285.3817114476576
 21
36.74556457024229
 31
0.0
 12
285.5617114476576
 22
36.77556457024229
 32
0.0
 13
285.5617114476576
 23
36.77556457024229
 33
0.0
  0
SOLID
  5
115
330
E5
100
AcDbEntity
  8
0
 62
     0
100
AcDbTrace
 10
286.7417114476576
 20
36.80556457024231
 30
0.0
 11
286.7417114476576
 21
36.74556457024229
 31
0.0
 12
286.5617114476576
 22
36.77556457024229
 32
0.0
 13
286.5617114476576
 23
36.77556457024229
 33
0.0
  0
MTEXT
  5
116
330
E5
100
AcDbEntity
  8
0
 62
     0
100
AcDbMText
 10
286.0617114476576
 20
36.77556457024229
 30
0.0
 40
0.18
 41
0.0
 71
     5
 72
     1
  1
\A1;1.0000
 73
     1
 44
1.0
1001
ACAD
1000
MTEXTBEGIN
1070
    73
1070
     1
1070
    44
1040
1.0
1070
    74
1070
     0
1000
MTEXTEND
1000
MTEXTBEGIN
1070
    73
1070
     1
1070
    44
1040
1.0
1070
    74
1070
     0
1000
MTEXTEND
1000
MTEXTBEGIN
1070
    73
1070
     1
1070
    44
1040
1.0
1070
    74
1070
     0
1000
MTEXTEND
  0
POINT
  5
117
330
E5
100
AcDbEntity
  8
DEFPOINTS
 62
     0
100
AcDbPoint
 10
285.5617114476576
 20
35.67736563458588
 30
0.0
  0
POINT
  5
118
330
E5
100
AcDbEntity
  8
DEFPOINTS
 62
     0
100
AcDbPoint
 10
286.5617114476576
 20
35.67736563458643
 30
0.0
  0
POINT
  5
119
330
E5
100
AcDbEntity
  8
DEFPOINTS
 62
     0
100
AcDbPoint
 10
286.5617114476576
 20
36.77556457024229
 30
0.0
  0
ENDBLK
  5
F1
330
E5
100
AcDbEntity
  8
0
100
AcDbBlockEnd
  0
BLOCK
  5
FF
330
F3
100
AcDbEntity
  8
0
100
AcDbBlockBegin
  2
*D3
 70
     1
 10
0.0
 20
0.0
 30
0.0
  3
*D3
  1

  0
LINE
  5
F4
330
F3
100
AcDbEntity
  8
0
 62
     0
100
AcDbLine
 10
285.8105925973381
 20
34.3259387771153
 30
0.0
 11
285.0996894655242
 21
34.3259387771153
 31
0.0
  0
LINE
  5
F5
330
F3
100
AcDbEntity
  8
0
 62
     0
100
AcDbLine
 10
285.7605925973383
 20
35.22593877711502
 30
0.0
 11
285.0996894655242
 21
35.22593877711502
 31
0.0
  0
LINE
  5
F6
330
F3
100
AcDbEntity
  8
0
 62
     0
100
AcDbLine
 10
285.2796894655241
 20
34.5059387771153
 30
0.0
 11
285.2796894655241
 21
35.04593877711501
 31
0.0
  0
LINE
  5
F7
330
F3
100
AcDbEntity
  8
0
 62
     0
100
AcDbLine
 10
285.2796894655241
 20
35.22593877711502
 30
0.0
 11
285.2796894655241
 21
35.40593877711502
 31
0.0
  0
LINE
  5
F8
330
F3
100
AcDbEntity
  8
0
 62
     0
100
AcDbLine
 10
285.2796894655241
 20
35.40593877711502
 30
0.0
 11
285.4596894655241
 21
35.40593877711502
 31
0.0
  0
SOLID
  5
F9
330
F3
100
AcDbEntity
  8
0
 62
     0
100
AcDbTrace
 10
285.2496894655241
 20
34.5059387771153
 30
0.0
 11
285.3096894655241
 21
34.5059387771153
 31
0.0
 12
285.2796894655241
 22
34.3259387771153
 32
0.0
 13
285.2796894655241
 23
34.3259387771153
 33
0.0
  0
SOLID
  5
FA
330
F3
100
AcDbEntity
  8
0
 62
     0
100
AcDbTrace
 10
285.2496894655241
 20
35.04593877711501
 30
0.0
 11
285.3096894655241
 21
35.04593877711501
 31
0.0
 12
285.2796894655241
 22
35.22593877711502
 32
0.0
 13
285.2796894655241
 23
35.22593877711502
 33
0.0
  0
MTEXT
  5
FB
330
F3
100
AcDbEntity
  8
0
 62
     0
100
AcDbMText
 10
285.9396894655241
 20
35.40593877711506
 30
0.0
 40
0.18
 41
0.0
 71
     5
 72
     1
  1
\A1;0.9000
 73
     1
 44
1.0
1001
ACAD
1000
MTEXTBEGIN
1070
    73
1070
     1
1070
    44
1040
1.0
1070
    74
1070
     0
1000
MTEXTEND
1000
MTEXTBEGIN
1070
    73
1070
     1
1070
    44
1040
1.0
1070
    74
1070
     0
1000
MTEXTEND
1000
MTEXTBEGIN
1070
    73
1070
     1
1070
    44
1040
1.0
1070
    74
1070
     0
1000
MTEXTEND
  0
POINT
  5
FC
330
F3
100
AcDbEntity
  8
DEFPOINTS
 62
     0
100
AcDbPoint
 10
285.8730925973381
 20
34.3259387771153
 30
0.0
  0
POINT
  5
FD
330
F3
100
AcDbEntity
  8
DEFPOINTS
 62
     0
100
AcDbPoint
 10
285.8230925973383
 20
35.22593877711502
 30
0.0
  0
POINT
  5
FE
330
F3
100
AcDbEntity
  8
DEFPOINTS
 62
     0
100
AcDbPoint
 10
285.2796894655241
 20
35.22593877711502
 30
0.0
  0
ENDBLK
  5
100
330
F3
100
AcDbEntity
  8
0
100
AcDbBlockEnd
  0
BLOCK
  5
10E
330
102
100
AcDbEntity
  8
0
100
AcDbBlockBegin
  2
*D4
 70
     1
 10
0.0
 20
0.0
 30
0.0
  3
*D4
  1

  0
LINE
  5
12F
330
102
100
AcDbEntity
  8
0
 62
     0
100
AcDbLine
 10
285.4992114476576
 20
35.67736563458588
 30
0.0
 11
284.8683083158433
 21
35.67736563458588
 31
0.0
  0
LINE
  5
130
330
102
100
AcDbEntity
  8
0
 62
     0
100
AcDbLine
 10
285.5492114476577
 20
34.77736563458589
 30
0.0
 11
284.8683083158433
 21
34.77736563458589
 31
0.0
  0
LINE
  5
131
330
102
100
AcDbEntity
  8
0
 62
     0
100
AcDbLine
 10
285.0483083158436
 20
35.49736563458588
 30
0.0
 11
285.0483083158436
 21
34.95736563458589
 31
0.0
  0
LINE
  5
132
330
102
100
AcDbEntity
  8
0
 62
     0
100
AcDbLine
 10
285.0483083158436
 20
34.77736563458589
 30
0.0
 11
285.0483083158436
 21
34.59736563458589
 31
0.0
  0
LINE
  5
133
330
102
100
AcDbEntity
  8
0
 62
     0
100
AcDbLine
 10
285.0483083158436
 20
34.59736563458589
 30
0.0
 11
284.8683083158433
 21
34.59736563458589
 31
0.0
  0
SOLID
  5
134
330
102
100
AcDbEntity
  8
0
 62
     0
100
AcDbTrace
 10
285.0183083158436
 20
35.49736563458588
 30
0.0
 11
285.0783083158436
 21
35.49736563458588
 31
0.0
 12
285.0483083158436
 22
35.67736563458588
 32
0.0
 13
285.0483083158436
 23
35.67736563458588
 33
0.0
  0
SOLID
  5
135
330
102
100
AcDbEntity
  8
0
 62
     0
100
AcDbTrace
 10
285.0183083158436
 20
34.95736563458589
 30
0.0
 11
285.0783083158436
 21
34.95736563458589
 31
0.0
 12
285.0483083158436
 22
34.77736563458589
 32
0.0
 13
285.0483083158436
 23
34.77736563458589
 33
0.0
  0
MTEXT
  5
136
330
102
100
AcDbEntity
  8
0
 62
     0
100
AcDbMText
 10
284.3883083158436
 20
34.59736563458594
 30
0.0
 40
0.18
 41
0.0
 71
     5
 72
     1
  1
\A1;0.9000
 73
     1
 44
1.0
1001
ACAD
1000
MTEXTBEGIN
1070
    73
1070
     1
1070
    44
1040
1.0
1070
    74
1070
     0
1000
MTEXTEND
1000
MTEXTBEGIN
1070
    73
1070
     1
1070
    44
1040
1.0
1070
    74
1070
     0
1000
MTEXTEND
1000
MTEXTBEGIN
1070
    73
1070
     1
1070
    44
1040
1.0
1070
    74
1070
     0
1000
MTEXTEND
  0
POINT
  5
137
330
102
100
AcDbEntity
  8
DEFPOINTS
 62
     0
100
AcDbPoint
 10
285.5617114476576
 20
35.67736563458588
 30
0.0
  0
POINT
  5
138
330
102
100
AcDbEntity
  8
DEFPOINTS
 62
     0
100
AcDbPoint
 10
285.6117114476576
 20
34.77736563458589
 30
0.0
  0
POINT
  5
139
330
102
100
AcDbEntity
  8
DEFPOINTS
 62
     0
100
AcDbPoint
 10
285.0483083158436
 20
34.77736563458589
 30
0.0
  0
ENDBLK
  5
10F
330
102
100
AcDbEntity
  8
0
100
AcDbBlockEnd
  0
BLOCK
  5
15B
330
150
100
AcDbEntity
  8
0
100
AcDbBlockBegin
  2
*D5
 70
     1
 10
0.0
 20
0.0
 30
0.0
  3
*D5
  1

  0
LINE
  5
151
330
150
100
AcDbEntity
  8
0
 62
     0
100
AcDbLine
 10
286.5117114476575
 20
34.71486563458589
 30
0.0
 11
286.5117114476575
 21
33.55990820404632
 31
0.0
  0
LINE
  5
152
330
150
100
AcDbEntity
  8
0
 62
     0
100
AcDbLine
 10
285.6117114476576
 20
34.71486563458589
 30
0.0
 11
285.6117114476576
 21
33.55990820404632
 31
0.0
  0
LINE
  5
153
330
150
100
AcDbEntity
  8
0
 62
     0
100
AcDbLine
 10
286.3317114476576
 20
33.73990820404632
 30
0.0
 11
285.7917114476576
 21
33.73990820404632
 31
0.0
  0
LINE
  5
154
330
150
100
AcDbEntity
  8
0
 62
     0
100
AcDbLine
 10
285.6117114476576
 20
33.73990820404632
 30
0.0
 11
285.4317114476576
 21
33.73990820404632
 31
0.0
  0
SOLID
  5
155
330
150
100
AcDbEntity
  8
0
 62
     0
100
AcDbTrace
 10
286.3317114476576
 20
33.76990820404632
 30
0.0
 11
286.3317114476576
 21
33.70990820404632
 31
0.0
 12
286.5117114476575
 22
33.73990820404632
 32
0.0
 13
286.5117114476575
 23
33.73990820404632
 33
0.0
  0
SOLID
  5
156
330
150
100
AcDbEntity
  8
0
 62
     0
100
AcDbTrace
 10
285.7917114476576
 20
33.76990820404632
 30
0.0
 11
285.7917114476576
 21
33.70990820404632
 31
0.0
 12
285.6117114476576
 22
33.73990820404632
 32
0.0
 13
285.6117114476576
 23
33.73990820404632
 33
0.0
  0
MTEXT
  5
157
330
150
100
AcDbEntity
  8
0
 62
     0
100
AcDbMText
 10
284.9517114476573
 20
33.73990820404632
 30
0.0
 40
0.18
 41
0.0
 71
     5
 72
     1
  1
\A1;0.9000
 73
     1
 44
1.0
1001
ACAD
1000
MTEXTBEGIN
1070
    73
1070
     1
1070
    44
1040
1.0
1070
    74
1070
     0
1000
MTEXTEND
1000
MTEXTBEGIN
1070
    73
1070
     1
1070
    44
1040
1.0
1070
    74
1070
     0
1000
MTEXTEND
1000
MTEXTBEGIN
1070
    73
1070
     1
1070
    44
1040
1.0
1070
    74
1070
     0
1000
MTEXTEND
  0
POINT
  5
158
330
150
100
AcDbEntity
  8
DEFPOINTS
 62
     0
100
AcDbPoint
 10
286.5117114476575
 20
34.77736563458589
 30
0.0
  0
POINT
  5
159
330
150
100
AcDbEntity
  8
DEFPOINTS
 62
     0
100
AcDbPoint
 10
285.6117114476576
 20
34.77736563458589
 30
0.0
  0
POINT
  5
15A
330
150
100
AcDbEntity
  8
DEFPOINTS
 62
     0
100
AcDbPoint
 10
285.6117114476576
 20
33.73990820404632
 30
0.0
  0
ENDBLK
  5
15C
330
150
100
AcDbEntity
  8
0
100
AcDbBlockEnd
  0
BLOCK
  5
169
330
15E
100
AcDbEntity
  8
0
100
AcDbBlockBegin
  2
*D6
 70
     1
 10
0.0
 20
0.0
 30
0.0
  3
*D6
  1

  0
LINE
  5
16B
330
15E
100
AcDbEntity
  8
0
 62
     0
100
AcDbLine
 10
286.2270677236876
 20
34.69872330784411
 30
0.0
 11
286.2270677236876
 21
33.84122994766753
 31
0.0
  0
LINE
  5
16C
330
15E
100
AcDbEntity
  8
0
 62
     0
100
AcDbLine
 10
285.8963551716275
 20
34.69872330784411
 30
0.0
 11
285.8963551716275
 21
33.84122994766753
 31
0.0
  0
LINE
  5
16D
330
15E
100
AcDbEntity
  8
0
 62
     0
100
AcDbLine
 10
286.4070677236876
 20
34.02122994766753
 30
0.0
 11
286.5870677236876
 21
34.02122994766753
 31
0.0
  0
LINE
  5
16E
330
15E
100
AcDbEntity
  8
0
 62
     0
100
AcDbLine
 10
285.7163551716275
 20
34.02122994766753
 30
0.0
 11
285.5363551716276
 21
34.02122994766753
 31
0.0
  0
SOLID
  5
16F
330
15E
100
AcDbEntity
  8
0
 62
     0
100
AcDbTrace
 10
286.4070677236876
 20
34.05122994766751
 30
0.0
 11
286.4070677236876
 21
33.99122994766753
 31
0.0
 12
286.2270677236876
 22
34.02122994766753
 32
0.0
 13
286.2270677236876
 23
34.02122994766753
 33
0.0
  0
SOLID
  5
170
330
15E
100
AcDbEntity
  8
0
 62
     0
100
AcDbTrace
 10
285.7163551716275
 20
34.05122994766751
 30
0.0
 11
285.7163551716275
 21
33.99122994766753
 31
0.0
 12
285.8963551716275
 22
34.02122994766753
 32
0.0
 13
285.8963551716275
 23
34.02122994766753
 33
0.0
  0
MTEXT
  5
171
330
15E
100
AcDbEntity
  8
0
 62
     0
100
AcDbMText
 10
285.0563551716276
 20
34.02122994766753
 30
0.0
 40
0.18
 41
0.0
 71
     5
 72
     1
  1
\A1;0.3000
 73
     1
 44
1.0
1001
ACAD
1000
MTEXTBEGIN
1070
    73
1070
     1
1070
    44
1040
1.0
1070
    74
1070
     0
1000
MTEXTEND
1000
MTEXTBEGIN
1070
    73
1070
     1
1070
    44
1040
1.0
1070
    74
1070
     0
1000
MTEXTEND
1000
MTEXTBEGIN
1070
    73
1070
     1
1070
    44
1040
1.0
1070
    74
1070
     0
1000
MTEXTEND
  0
POINT
  5
172
330
15E
100
AcDbEntity
  8
DEFPOINTS
 62
     0
100
AcDbPoint
 10
286.2270677236876
 20
34.76122330784411
 30
0.0
  0
POINT
  5
173
330
15E
100
AcDbEntity
  8
DEFPOINTS
 62
     0
100
AcDbPoint
 10
285.8963551716275
 20
34.76122330784411
 30
0.0
  0
POINT
  5
174
330
15E
100
AcDbEntity
  8
DEFPOINTS
 62
     0
100
AcDbPoint
 10
285.8963551716275
 20
34.02122994766753
 30
0.0
  0
ENDBLK
  5
16A
330
15E
100
AcDbEntity
  8
0
100
AcDbBlockEnd
  0
BLOCK
  5
1C3
330
1B8
100
AcDbEntity
  8
0
100
AcDbBlockBegin
  2
*D7
 70
     1
 10
0.0
 20
0.0
 30
0.0
  3
*D7
  1

  0
LINE
  5
1B9
330
1B8
100
AcDbEntity
  8
0
 62
     0
100
AcDbLine
 10
286.1367417659177
 20
35.23981668125815
 30
0.0
 11
286.1367417659177
 21
34.38562200535304
 31
0.0
  0
LINE
  5
1BA
330
1B8
100
AcDbEntity
  8
0
 62
     0
100
AcDbLine
 10
286.7367417659178
 20
35.23981668125815
 30
0.0
 11
286.7367417659178
 21
34.38562200535304
 31
0.0
  0
LINE
  5
1BB
330
1B8
100
AcDbEntity
  8
0
 62
     0
100
AcDbLine
 10
286.3167417659178
 20
34.56562200535306
 30
0.0
 11
286.5567417659178
 21
34.56562200535306
 31
0.0
  0
LINE
  5
1BC
330
1B8
100
AcDbEntity
  8
0
 62
     0
100
AcDbLine
 10
286.7367417659178
 20
34.56562200535306
 30
0.0
 11
286.9167417659178
 21
34.56562200535306
 31
0.0
  0
SOLID
  5
1BD
330
1B8
100
AcDbEntity
  8
0
 62
     0
100
AcDbTrace
 10
286.3167417659178
 20
34.59562200535305
 30
0.0
 11
286.3167417659178
 21
34.53562200535306
 31
0.0
 12
286.1367417659177
 22
34.56562200535306
 32
0.0
 13
286.1367417659177
 23
34.56562200535306
 33
0.0
  0
SOLID
  5
1BE
330
1B8
100
AcDbEntity
  8
0
 62
     0
100
AcDbTrace
 10
286.5567417659178
 20
34.59562200535305
 30
0.0
 11
286.5567417659178
 21
34.53562200535306
 31
0.0
 12
286.7367417659178
 22
34.56562200535306
 32
0.0
 13
286.7367417659178
 23
34.56562200535306
 33
0.0
  0
MTEXT
  5
1BF
330
1B8
100
AcDbEntity
  8
0
 62
     0
100
AcDbMText
 10
287.3967417659176
 20
34.56562200535306
 30
0.0
 40
0.18
 41
0.0
 71
     5
 72
     1
  1
\A1;0.6000
 73
     1
 44
1.0
1001
ACAD
1000
MTEXTBEGIN
1070
    73
1070
     1
1070
    44
1040
1.0
1070
    74
1070
     0
1000
MTEXTEND
1000
MTEXTBEGIN
1070
    73
1070
     1
1070
    44
1040
1.0
1070
    74
1070
     0
1000
MTEXTEND
  0
POINT
  5
1C0
330
1B8
100
AcDbEntity
  8
DEFPOINTS
 62
     0
100
AcDbPoint
 10
286.1367417659177
 20
35.30231668125817
 30
0.0
  0
POINT
  5
1C1
330
1B8
100
AcDbEntity
  8
DEFPOINTS
 62
     0
100
AcDbPoint
 10
286.7367417659178
 20
35.30231668125817
 30
0.0
  0
POINT
  5
1C2
330
1B8
100
AcDbEntity
  8
DEFPOINTS
 62
     0
100
AcDbPoint
 10
286.7367417659178
 20
34.56562200535306
 30
0.0
  0
ENDBLK
  5
1C4
330
1B8
100
AcDbEntity
  8
0
100
AcDbBlockEnd
  0
BLOCK
  5
1D2
330
1C6
100
AcDbEntity
  8
0
100
AcDbBlockBegin
  2
*D8
 70
     1
 10
0.0
 20
0.0
 30
0.0
  3
*D8
  1

  0
LINE
  5
1C7
330
1C6
100
AcDbEntity
  8
0
 62
     0
100
AcDbLine
 10
286.7992417659178
 20
35.30231668125817
 30
0.0
 11
287.5292753889695
 21
35.30231668125817
 31
0.0
  0
LINE
  5
1C8
330
1C6
100
AcDbEntity
  8
0
 62
     0
100
AcDbLine
 10
286.7992417659178
 20
36.05231668125817
 30
0.0
 11
287.5292753889695
 21
36.05231668125817
 31
0.0
  0
LINE
  5
1C9
330
1C6
100
AcDbEntity
  8
0
 62
     0
100
AcDbLine
 10
287.3492753889697
 20
35.48231668125817
 30
0.0
 11
287.3492753889697
 21
35.87231668125815
 31
0.0
  0
LINE
  5
1CA
330
1C6
100
AcDbEntity
  8
0
 62
     0
100
AcDbLine
 10
287.3492753889697
 20
36.05231668125817
 30
0.0
 11
287.3492753889697
 21
36.23231668125814
 31
0.0
  0
LINE
  5
1CB
330
1C6
100
AcDbEntity
  8
0
 62
     0
100
AcDbLine
 10
287.3492753889697
 20
36.23231668125814
 30
0.0
 11
287.5292753889695
 21
36.23231668125814
 31
0.0
  0
SOLID
  5
1CC
330
1C6
100
AcDbEntity
  8
0
 62
     0
100
AcDbTrace
 10
287.3192753889696
 20
35.48231668125817
 30
0.0
 11
287.3792753889696
 21
35.48231668125817
 31
0.0
 12
287.3492753889697
 22
35.30231668125817
 32
0.0
 13
287.3492753889697
 23
35.30231668125817
 33
0.0
  0
SOLID
  5
1CD
330
1C6
100
AcDbEntity
  8
0
 62
     0
100
AcDbTrace
 10
287.3192753889696
 20
35.87231668125815
 30
0.0
 11
287.3792753889696
 21
35.87231668125815
 31
0.0
 12
287.3492753889697
 22
36.05231668125817
 32
0.0
 13
287.3492753889697
 23
36.05231668125817
 33
0.0
  0
MTEXT
  5
1CE
330
1C6
100
AcDbEntity
  8
0
 62
     0
100
AcDbMText
 10
288.0242753889696
 20
36.23231668125821
 30
0.0
 40
0.18
 41
0.0
 71
     5
 72
     1
  1
\A1;0.7500
 73
     1
 44
1.0
1001
ACAD
1000
MTEXTBEGIN
1070
    73
1070
     1
1070
    44
1040
1.0
1070
    74
1070
     0
1000
MTEXTEND
1000
MTEXTBEGIN
1070
    73
1070
     1
1070
    44
1040
1.0
1070
    74
1070
     0
1000
MTEXTEND
  0
POINT
  5
1CF
330
1C6
100
AcDbEntity
  8
DEFPOINTS
 62
     0
100
AcDbPoint
 10
286.7367417659178
 20
35.30231668125817
 30
0.0
  0
POINT
  5
1D0
330
1C6
100
AcDbEntity
  8
DEFPOINTS
 62
     0
100
AcDbPoint
 10
286.7367417659178
 20
36.05231668125817
 30
0.0
  0
POINT
  5
1D1
330
1C6
100
AcDbEntity
  8
DEFPOINTS
 62
     0
100
AcDbPoint
 10
287.3492753889697
 20
36.05231668125817
 30
0.0
  0
ENDBLK
  5
1D3
330
1C6
100
AcDbEntity
  8
0
100
AcDbBlockEnd
  0
BLOCK
  5
255
330
24A
100
AcDbEntity
  8
0
100
AcDbBlockBegin
  2
*D9
 70
     1
 10
0.0
 20
0.0
 30
0.0
  3
*D9
  1

  0
LINE
  5
24B
330
24A
100
AcDbEntity
  8
0
 62
     0
370
    -2
100
AcDbLine
 10
286.6467456167093
 20
34.62759726469128
 30
0.0
 11
288.8253088570537
 21
34.62759726469128
 31
0.0
  0
LINE
  5
24C
330
24A
100
AcDbEntity
  8
0
 62
     0
370
    -2
100
AcDbLine
 10
286.6467456167093
 20
36.42759726469127
 30
0.0
 11
288.8253088570537
 21
36.42759726469127
 31
0.0
  0
LINE
  5
24D
330
24A
100
AcDbEntity
  8
0
 62
     0
370
    -2
100
AcDbLine
 10
288.6453088570537
 20
34.80759726469129
 30
0.0
 11
288.6453088570537
 21
35.34759726469128
 31
0.0
  0
LINE
  5
24E
330
24A
100
AcDbEntity
  8
0
 62
     0
370
    -2
100
AcDbLine
 10
288.6453088570537
 20
36.24759726469127
 30
0.0
 11
288.6453088570537
 21
35.70759726469128
 31
0.0
  0
SOLID
  5
24F
330
24A
100
AcDbEntity
  8
0
 62
     0
100
AcDbTrace
 10
288.6153088570537
 20
34.80759726469129
 30
0.0
 11
288.6753088570537
 21
34.80759726469129
 31
0.0
 12
288.6453088570537
 22
34.62759726469128
 32
0.0
 13
288.6453088570537
 23
34.62759726469128
 33
0.0
  0
SOLID
  5
250
330
24A
100
AcDbEntity
  8
0
 62
     0
100
AcDbTrace
 10
288.6153088570537
 20
36.24759726469127
 30
0.0
 11
288.6753088570537
 21
36.24759726469127
 31
0.0
 12
288.6453088570537
 22
36.42759726469127
 32
0.0
 13
288.6453088570537
 23
36.42759726469127
 33
0.0
  0
MTEXT
  5
251
330
24A
100
AcDbEntity
  8
0
 62
     0
100
AcDbMText
 10
288.6453088570537
 20
35.52759726469133
 30
0.0
 40
0.18
 41
0.0
 71
     5
 72
     1
  1
\A1;1.8000
 73
     1
 44
1.0
  0
POINT
  5
252
330
24A
100
AcDbEntity
  8
DEFPOINTS
 62
     0
100
AcDbPoint
 10
286.5842456167093
 20
34.62759726469128
 30
0.0
  0
POINT
  5
253
330
24A
100
AcDbEntity
  8
DEFPOINTS
 62
     0
100
AcDbPoint
 10
286.5842456167093
 20
36.42759726469127
 30
0.0
  0
POINT
  5
254
330
24A
100
AcDbEntity
  8
DEFPOINTS
 62
     0
100
AcDbPoint
 10
288.6453088570537
 20
36.42759726469127
 30
0.0
  0
ENDBLK
  5
256
330
24A
100
AcDbEntity
  8
0
100
AcDbBlockEnd
  0
BLOCK
  5
264
330
258
100
AcDbEntity
  8
0
100
AcDbBlockBegin
  2
*D10
 70
     1
 10
0.0
 20
0.0
 30
0.0
  3
*D10
  1

  0
LINE
  5
259
330
258
100
AcDbEntity
  8
0
 62
     0
370
    -2
100
AcDbLine
 10
287.1467456167092
 20
34.82759726469121
 30
0.0
 11
288.5715070680554
 21
34.82759726469121
 31
0.0
  0
LINE
  5
25A
330
258
100
AcDbEntity
  8
0
 62
     0
370
    -2
100
AcDbLine
 10
286.6467456167093
 20
34.62759726469128
 30
0.0
 11
288.5715070680554
 21
34.62759726469128
 31
0.0
  0
LINE
  5
25B
330
258
100
AcDbEntity
  8
0
 62
     0
370
    -2
100
AcDbLine
 10
288.3915070680554
 20
35.0075972646912
 30
0.0
 11
288.3915070680554
 21
35.1875972646912
 31
0.0
  0
LINE
  5
25C
330
258
100
AcDbEntity
  8
0
 62
     0
370
    -2
100
AcDbLine
 10
288.3915070680554
 20
34.44759726469129
 30
0.0
 11
288.3915070680554
 21
34.26759726469128
 31
0.0
  0
LINE
  5
25D
330
258
100
AcDbEntity
  8
0
 62
     0
370
    -2
100
AcDbLine
 10
288.3915070680554
 20
34.26759726469128
 30
0.0
 11
288.2115070680555
 21
34.26759726469128
 31
0.0
  0
SOLID
  5
25E
330
258
100
AcDbEntity
  8
0
 62
     0
100
AcDbTrace
 10
288.3615070680555
 20
35.0075972646912
 30
0.0
 11
288.4215070680554
 21
35.0075972646912
 31
0.0
 12
288.3915070680554
 22
34.82759726469121
 32
0.0
 13
288.3915070680554
 23
34.82759726469121
 33
0.0
  0
SOLID
  5
25F
330
258
100
AcDbEntity
  8
0
 62
     0
100
AcDbTrace
 10
288.3615070680555
 20
34.44759726469129
 30
0.0
 11
288.4215070680554
 21
34.44759726469129
 31
0.0
 12
288.3915070680554
 22
34.62759726469128
 32
0.0
 13
288.3915070680554
 23
34.62759726469128
 33
0.0
  0
MTEXT
  5
260
330
258
100
AcDbEntity
  8
0
 62
     0
100
AcDbMText
 10
287.7315070680554
 20
34.26759726469134
 30
0.0
 40
0.18
 41
0.0
 71
     5
 72
     1
  1
\A1;0.2000
 73
     1
 44
1.0
  0
POINT
  5
261
330
258
100
AcDbEntity
  8
DEFPOINTS
 62
     0
100
AcDbPoint
 10
287.0842456167092
 20
34.82759726469121
 30
0.0
  0
POINT
  5
262
330
258
100
AcDbEntity
  8
DEFPOINTS
 62
     0
100
AcDbPoint
 10
286.5842456167093
 20
34.62759726469128
 30
0.0
  0
POINT
  5
263
330
258
100
AcDbEntity
  8
DEFPOINTS
 62
     0
100
AcDbPoint
 10
288.3915070680554
 20
34.62759726469128
 30
0.0
  0
ENDBLK
  5
265
330
258
100
AcDbEntity
  8
0
100
AcDbBlockEnd
  0
BLOCK
  5
272
330
267
100
AcDbEntity
  8
0
100
AcDbBlockBegin
  2
*D11
 70
     1
 10
0.0
 20
0.0
 30
0.0
  3
*D11
  1

  0
LINE
  5
268
330
267
100
AcDbEntity
  8
0
 62
     0
370
    -2
100
AcDbLine
 10
287.1467456167092
 20
34.82759726469121
 30
0.0
 11
287.9100842611589
 21
34.82759726469121
 31
0.0
  0
LINE
  5
269
330
267
100
AcDbEntity
  8
0
 62
     0
370
    -2
100
AcDbLine
 10
287.1967456167092
 20
35.87759726469178
 30
0.0
 11
287.9100842611589
 21
35.87759726469178
 31
0.0
  0
LINE
  5
26A
330
267
100
AcDbEntity
  8
0
 62
     0
370
    -2
100
AcDbLine
 10
287.7300842611589
 20
35.0075972646912
 30
0.0
 11
287.7300842611589
 21
35.17259726469148
 31
0.0
  0
LINE
  5
26B
330
267
100
AcDbEntity
  8
0
 62
     0
370
    -2
100
AcDbLine
 10
287.7300842611589
 20
35.69759726469178
 30
0.0
 11
287.7300842611589
 21
35.53259726469149
 31
0.0
  0
SOLID
  5
26C
330
267
100
AcDbEntity
  8
0
 62
     0
100
AcDbTrace
 10
287.7000842611589
 20
35.0075972646912
 30
0.0
 11
287.7600842611589
 21
35.0075972646912
 31
0.0
 12
287.7300842611589
 22
34.82759726469121
 32
0.0
 13
287.7300842611589
 23
34.82759726469121
 33
0.0
  0
SOLID
  5
26D
330
267
100
AcDbEntity
  8
0
 62
     0
100
AcDbTrace
 10
287.7000842611589
 20
35.69759726469178
 30
0.0
 11
287.7600842611589
 21
35.69759726469178
 31
0.0
 12
287.7300842611589
 22
35.87759726469178
 32
0.0
 13
287.7300842611589
 23
35.87759726469178
 33
0.0
  0
MTEXT
  5
26E
330
267
100
AcDbEntity
  8
0
 62
     0
100
AcDbMText
 10
287.7300842611589
 20
35.35259726469154
 30
0.0
 40
0.18
 41
0.0
 71
     5
 72
     1
  1
\A1;1.0500
 73
     1
 44
1.0
  0
POINT
  5
26F
330
267
100
AcDbEntity
  8
DEFPOINTS
 62
     0
100
AcDbPoint
 10
287.0842456167092
 20
34.82759726469121
 30
0.0
  0
POINT
  5
270
330
267
100
AcDbEntity
  8
DEFPOINTS
 62
     0
100
AcDbPoint
 10
287.1342456167092
 20
35.87759726469178
 30
0.0
  0
POINT
  5
271
330
267
100
AcDbEntity
  8
DEFPOINTS
 62
     0
100
AcDbPoint
 10
287.7300842611589
 20
35.87759726469178
 30
0.0
  0
ENDBLK
  5
273
330
267
100
AcDbEntity
  8
0
100
AcDbBlockEnd
  0
BLOCK
  5
280
330
275
100
AcDbEntity
  8
0
100
AcDbBlockBegin
  2
*D12
 70
     1
 10
0.0
 20
0.0
 30
0.0
  3
*D12
  1

  0
LINE
  5
276
330
275
100
AcDbEntity
  8
0
 62
     0
370
    -2
100
AcDbLine
 10
287.1342456167092
 20
35.9400972646912
 30
0.0
 11
287.1342456167092
 21
37.24630340069863
 31
0.0
  0
LINE
  5
277
330
275
100
AcDbEntity
  8
0
 62
     0
370
    -2
100
AcDbLine
 10
286.0342456167092
 20
35.9400972646912
 30
0.0
 11
286.0342456167092
 21
37.24630340069863
 31
0.0
  0
LINE
  5
278
330
275
100
AcDbEntity
  8
0
 62
     0
370
    -2
100
AcDbLine
 10
287.3142456167093
 20
37.06630340069863
 30
0.0
 11
287.4942456167092
 21
37.06630340069863
 31
0.0
  0
LINE
  5
279
330
275
100
AcDbEntity
  8
0
 62
     0
370
    -2
100
AcDbLine
 10
285.8542456167092
 20
37.06630340069863
 30
0.0
 11
285.6742456167092
 21
37.06630340069863
 31
0.0
  0
SOLID
  5
27A
330
275
100
AcDbEntity
  8
0
 62
     0
100
AcDbTrace
 10
287.3142456167093
 20
37.09630340069864
 30
0.0
 11
287.3142456167093
 21
37.03630340069863
 31
0.0
 12
287.1342456167092
 22
37.06630340069863
 32
0.0
 13
287.1342456167092
 23
37.06630340069863
 33
0.0
  0
SOLID
  5
27B
330
275
100
AcDbEntity
  8
0
 62
     0
100
AcDbTrace
 10
285.8542456167092
 20
37.09630340069864
 30
0.0
 11
285.8542456167092
 21
37.03630340069863
 31
0.0
 12
286.0342456167092
 22
37.06630340069863
 32
0.0
 13
286.0342456167092
 23
37.06630340069863
 33
0.0
  0
MTEXT
  5
27C
330
275
100
AcDbEntity
  8
0
 62
     0
100
AcDbMText
 10
286.5842456167092
 20
37.06630340069863
 30
0.0
 40
0.18
 41
0.0
 71
     5
 72
     1
  1
\A1;1.1000
 73
     1
 44
1.0
  0
POINT
  5
27D
330
275
100
AcDbEntity
  8
DEFPOINTS
 62
     0
100
AcDbPoint
 10
287.1342456167092
 20
35.8775972646912
 30
0.0
  0
POINT
  5
27E
330
275
100
AcDbEntity
  8
DEFPOINTS
 62
     0
100
AcDbPoint
 10
286.0342456167092
 20
35.8775972646912
 30
0.0
  0
POINT
  5
27F
330
275
100
AcDbEntity
  8
DEFPOINTS
 62
     0
100
AcDbPoint
 10
286.0342456167092
 20
37.06630340069863
 30
0.0
  0
ENDBLK
  5
281
330
275
100
AcDbEntity
  8
0
100
AcDbBlockEnd
  0
BLOCK
  5
28E
330
283
100
AcDbEntity
  8
0
100
AcDbBlockBegin
  2
*D13
 70
     1
 10
0.0
 20
0.0
 30
0.0
  3
*D13
  1

  0
LINE
  5
284
330
283
100
AcDbEntity
  8
0
 62
     0
370
    -2
100
AcDbLine
 10
286.0842456167092
 20
34.7650972646912
 30
0.0
 11
286.0842456167092
 21
33.72615886868909
 31
0.0
  0
LINE
  5
285
330
283
100
AcDbEntity
  8
0
 62
     0
370
    -2
100
AcDbLine
 10
287.0842456167092
 20
34.7650972646912
 30
0.0
 11
287.0842456167092
 21
33.72615886868909
 31
0.0
  0
LINE
  5
286
330
283
100
AcDbEntity
  8
0
 62
     0
370
    -2
100
AcDbLine
 10
285.9042456167092
 20
33.90615886868909
 30
0.0
 11
285.7242456167092
 21
33.90615886868909
 31
0.0
  0
LINE
  5
287
330
283
100
AcDbEntity
  8
0
 62
     0
370
    -2
100
AcDbLine
 10
287.2642456167092
 20
33.90615886868909
 30
0.0
 11
287.4442456167092
 21
33.90615886868909
 31
0.0
  0
SOLID
  5
288
330
283
100
AcDbEntity
  8
0
 62
     0
100
AcDbTrace
 10
285.9042456167092
 20
33.93615886868909
 30
0.0
 11
285.9042456167092
 21
33.87615886868909
 31
0.0
 12
286.0842456167092
 22
33.90615886868909
 32
0.0
 13
286.0842456167092
 23
33.90615886868909
 33
0.0
  0
SOLID
  5
289
330
283
100
AcDbEntity
  8
0
 62
     0
100
AcDbTrace
 10
287.2642456167092
 20
33.93615886868909
 30
0.0
 11
287.2642456167092
 21
33.87615886868909
 31
0.0
 12
287.0842456167092
 22
33.90615886868909
 32
0.0
 13
287.0842456167092
 23
33.90615886868909
 33
0.0
  0
MTEXT
  5
28A
330
283
100
AcDbEntity
  8
0
 62
     0
100
AcDbMText
 10
286.5842456167092
 20
33.90615886868909
 30
0.0
 40
0.18
 41
0.0
 71
     5
 72
     1
  1
\A1;1.0000
 73
     1
 44
1.0
  0
POINT
  5
28B
330
283
100
AcDbEntity
  8
DEFPOINTS
 62
     0
100
AcDbPoint
 10
286.0842456167092
 20
34.82759726469121
 30
0.0
  0
POINT
  5
28C
330
283
100
AcDbEntity
  8
DEFPOINTS
 62
     0
100
AcDbPoint
 10
287.0842456167092
 20
34.82759726469121
 30
0.0
  0
POINT
  5
28D
330
283
100
AcDbEntity
  8
DEFPOINTS
 62
     0
100
AcDbPoint
 10
287.0842456167092
 20
33.90615886868909
 30
0.0
  0
ENDBLK
  5
28F
330
283
100
AcDbEntity
  8
0
100
AcDbBlockEnd
  0
BLOCK
  5
29C
330
291
100
AcDbEntity
  8
0
100
AcDbBlockBegin
  2
*D14
 70
     1
 10
0.0
 20
0.0
 30
0.0
  3
*D14
  1

  0
LINE
  5
292
330
291
100
AcDbEntity
  8
0
 62
     0
370
    -2
100
AcDbLine
 10
286.7842456167092
 20
34.7650972646912
 30
0.0
 11
286.7842456167092
 21
34.09522682232724
 31
0.0
  0
LINE
  5
293
330
291
100
AcDbEntity
  8
0
 62
     0
370
    -2
100
AcDbLine
 10
286.3842456167093
 20
34.76509726469121
 30
0.0
 11
286.3842456167093
 21
34.09522682232724
 31
0.0
  0
LINE
  5
294
330
291
100
AcDbEntity
  8
0
 62
     0
370
    -2
100
AcDbLine
 10
286.9642456167092
 20
34.27522682232724
 30
0.0
 11
287.1442456167092
 21
34.27522682232724
 31
0.0
  0
LINE
  5
295
330
291
100
AcDbEntity
  8
0
 62
     0
370
    -2
100
AcDbLine
 10
286.2042456167092
 20
34.27522682232724
 30
0.0
 11
286.0242456167093
 21
34.27522682232724
 31
0.0
  0
SOLID
  5
296
330
291
100
AcDbEntity
  8
0
 62
     0
100
AcDbTrace
 10
286.9642456167092
 20
34.30522682232724
 30
0.0
 11
286.9642456167092
 21
34.24522682232724
 31
0.0
 12
286.7842456167092
 22
34.27522682232724
 32
0.0
 13
286.7842456167092
 23
34.27522682232724
 33
0.0
  0
SOLID
  5
297
330
291
100
AcDbEntity
  8
0
 62
     0
100
AcDbTrace
 10
286.2042456167092
 20
34.30522682232724
 30
0.0
 11
286.2042456167092
 21
34.24522682232724
 31
0.0
 12
286.3842456167093
 22
34.27522682232724
 32
0.0
 13
286.3842456167093
 23
34.27522682232724
 33
0.0
  0
MTEXT
  5
298
330
291
100
AcDbEntity
  8
0
 62
     0
100
AcDbMText
 10
285.5442456167093
 20
34.27522682232724
 30
0.0
 40
0.18
 41
0.0
 71
     5
 72
     1
  1
\A1;0.4000
 73
     1
 44
1.0
  0
POINT
  5
299
330
291
100
AcDbEntity
  8
DEFPOINTS
 62
     0
100
AcDbPoint
 10
286.7842456167092
 20
34.82759726469121
 30
0.0
  0
POINT
  5
29A
330
291
100
AcDbEntity
  8
DEFPOINTS
 62
     0
100
AcDbPoint
 10
286.3842456167093
 20
34.82759726469121
 30
0.0
  0
POINT
  5
29B
330
291
100
AcDbEntity
  8
DEFPOINTS
 62
     0
100
AcDbPoint
 10
286.3842456167093
 20
34.27522682232724
 30
0.0
  0
ENDBLK
  5
29D
330
291
100
AcDbEntity
  8
0
100
AcDbBlockEnd
  0
BLOCK
  5
2B8
330
2AD
100
AcDbEntity
  8
0
100
AcDbBlockBegin
  2
*D15
 70
     1
 10
0.0
 20
0.0
 30
0.0
  3
*D15
  1

  0
LINE
  5
2AE
330
2AD
100
AcDbEntity
  8
0
 62
     0
370
    -2
100
AcDbLine
 10
285.7050330425836
 20
36.27272684655441
 30
0.0
 11
284.6520227933623
 21
36.27272684655441
 31
0.0
  0
LINE
  5
2AF
330
2AD
100
AcDbEntity
  8
0
 62
     0
370
    -2
100
AcDbLine
 10
285.7050330425836
 20
34.97272684655441
 30
0.0
 11
284.6520227933623
 21
34.97272684655441
 31
0.0
  0
LINE
  5
2B0
330
2AD
100
AcDbEntity
  8
0
 62
     0
370
    -2
100
AcDbLine
 10
284.8320227933624
 20
36.09272684655441
 30
0.0
 11
284.8320227933624
 21
35.80272684655441
 31
0.0
  0
LINE
  5
2B1
330
2AD
100
AcDbEntity
  8
0
 62
     0
370
    -2
100
AcDbLine
 10
284.8320227933624
 20
35.15272684655441
 30
0.0
 11
284.8320227933624
 21
35.44272684655441
 31
0.0
  0
SOLID
  5
2B2
330
2AD
100
AcDbEntity
  8
0
 62
     0
100
AcDbTrace
 10
284.8020227933624
 20
36.09272684655441
 30
0.0
 11
284.8620227933623
 21
36.09272684655441
 31
0.0
 12
284.8320227933624
 22
36.27272684655441
 32
0.0
 13
284.8320227933624
 23
36.27272684655441
 33
0.0
  0
SOLID
  5
2B3
330
2AD
100
AcDbEntity
  8
0
 62
     0
100
AcDbTrace
 10
284.8020227933624
 20
35.15272684655441
 30
0.0
 11
284.8620227933623
 21
35.15272684655441
 31
0.0
 12
284.8320227933624
 22
34.97272684655441
 32
0.0
 13
284.8320227933624
 23
34.97272684655441
 33
0.0
  0
MTEXT
  5
2B4
330
2AD
100
AcDbEntity
  8
0
 62
     0
100
AcDbMText
 10
284.8320227933624
 20
35.62272684655446
 30
0.0
 40
0.18
 41
0.0
 71
     5
 72
     1
  1
\A1;1.3000
 73
     1
 44
1.0
  0
POINT
  5
2B5
330
2AD
100
AcDbEntity
  8
DEFPOINTS
 62
     0
100
AcDbPoint
 10
285.7675330425836
 20
36.27272684655441
 30
0.0
  0
POINT
  5
2B6
330
2AD
100
AcDbEntity
  8
DEFPOINTS
 62
     0
100
AcDbPoint
 10
285.7675330425836
 20
34.97272684655441
 30
0.0
  0
POINT
  5
2B7
330
2AD
100
AcDbEntity
  8
DEFPOINTS
 62
     0
100
AcDbPoint
 10
284.8320227933624
 20
34.97272684655441
 30
0.0
  0
ENDBLK
  5
2B9
330
2AD
100
AcDbEntity
  8
0
100
AcDbBlockEnd
  0
BLOCK
  5
2C6
330
2BB
100
AcDbEntity
  8
0
100
AcDbBlockBegin
  2
*D16
 70
     1
 10
0.0
 20
0.0
 30
0.0
  3
*D16
  1

  0
LINE
  5
2BC
330
2BB
100
AcDbEntity
  8
0
 62
     0
370
    -2
100
AcDbLine
 10
287.2675330425836
 20
36.33522684655441
 30
0.0
 11
287.2675330425836
 21
37.02324948486312
 31
0.0
  0
LINE
  5
2BD
330
2BB
100
AcDbEntity
  8
0
 62
     0
370
    -2
100
AcDbLine
 10
285.7675330425836
 20
36.33522684655441
 30
0.0
 11
285.7675330425836
 21
37.02324948486312
 31
0.0
  0
LINE
  5
2BE
330
2BB
100
AcDbEntity
  8
0
 62
     0
370
    -2
100
AcDbLine
 10
287.0875330425836
 20
36.84324948486312
 30
0.0
 11
286.9825330425836
 21
36.84324948486312
 31
0.0
  0
LINE
  5
2BF
330
2BB
100
AcDbEntity
  8
0
 62
     0
370
    -2
100
AcDbLine
 10
285.9475330425836
 20
36.84324948486312
 30
0.0
 11
286.0525330425836
 21
36.84324948486312
 31
0.0
  0
SOLID
  5
2C0
330
2BB
100
AcDbEntity
  8
0
 62
     0
100
AcDbTrace
 10
287.0875330425836
 20
36.87324948486312
 30
0.0
 11
287.0875330425836
 21
36.81324948486312
 31
0.0
 12
287.2675330425836
 22
36.84324948486312
 32
0.0
 13
287.2675330425836
 23
36.84324948486312
 33
0.0
  0
SOLID
  5
2C1
330
2BB
100
AcDbEntity
  8
0
 62
     0
100
AcDbTrace
 10
285.9475330425836
 20
36.87324948486312
 30
0.0
 11
285.9475330425836
 21
36.81324948486312
 31
0.0
 12
285.7675330425836
 22
36.84324948486312
 32
0.0
 13
285.7675330425836
 23
36.84324948486312
 33
0.0
  0
MTEXT
  5
2C2
330
2BB
100
AcDbEntity
  8
0
 62
     0
100
AcDbMText
 10
286.5175330425836
 20
36.84324948486312
 30
0.0
 40
0.18
 41
0.0
 71
     5
 72
     1
  1
\A1;1.5000
 73
     1
 44
1.0
  0
POINT
  5
2C3
330
2BB
100
AcDbEntity
  8
DEFPOINTS
 62
     0
100
AcDbPoint
 10
287.2675330425836
 20
36.27272684655441
 30
0.0
  0
POINT
  5
2C4
330
2BB
100
AcDbEntity
  8
DEFPOINTS
 62
     0
100
AcDbPoint
 10
285.7675330425836
 20
36.27272684655441
 30
0.0
  0
POINT
  5
2C5
330
2BB
100
AcDbEntity
  8
DEFPOINTS
 62
     0
100
AcDbPoint
 10
285.7675330425836
 20
36.84324948486312
 30
0.0
  0
ENDBLK
  5
2C7
330
2BB
100
AcDbEntity
  8
0
100
AcDbBlockEnd
  0
BLOCK
  5
2D5
330
2C9
100
AcDbEntity
  8
0
100
AcDbBlockBegin
  2
*D17
 70
     1
 10
0.0
 20
0.0
 30
0.0
  3
*D17
  1

  0
LINE
  5
2CA
330
2C9
100
AcDbEntity
  8
0
 62
     0
370
    -2
100
AcDbLine
 10
287.3300330425836
 20
35.22272684655441
 30
0.0
 11
288.7084292499844
 21
35.22272684655441
 31
0.0
  0
LINE
  5
2CB
330
2C9
100
AcDbEntity
  8
0
 62
     0
370
    -2
100
AcDbLine
 10
286.8300330425836
 20
34.97272684655441
 30
0.0
 11
288.7084292499844
 21
34.97272684655441
 31
0.0
  0
LINE
  5
2CC
330
2C9
100
AcDbEntity
  8
0
 62
     0
370
    -2
100
AcDbLine
 10
288.5284292499844
 20
35.40272684655441
 30
0.0
 11
288.5284292499844
 21
35.58272684655441
 31
0.0
  0
LINE
  5
2CD
330
2C9
100
AcDbEntity
  8
0
 62
     0
370
    -2
100
AcDbLine
 10
288.5284292499844
 20
34.79272684655441
 30
0.0
 11
288.5284292499844
 21
34.61272684655441
 31
0.0
  0
LINE
  5
2CE
330
2C9
100
AcDbEntity
  8
0
 62
     0
370
    -2
100
AcDbLine
 10
288.5284292499844
 20
34.61272684655441
 30
0.0
 11
288.3484292499844
 21
34.61272684655441
 31
0.0
  0
SOLID
  5
2CF
330
2C9
100
AcDbEntity
  8
0
 62
     0
100
AcDbTrace
 10
288.4984292499844
 20
35.40272684655441
 30
0.0
 11
288.5584292499844
 21
35.40272684655441
 31
0.0
 12
288.5284292499844
 22
35.22272684655441
 32
0.0
 13
288.5284292499844
 23
35.22272684655441
 33
0.0
  0
SOLID
  5
2D0
330
2C9
100
AcDbEntity
  8
0
 62
     0
100
AcDbTrace
 10
288.4984292499844
 20
34.79272684655441
 30
0.0
 11
288.5584292499844
 21
34.79272684655441
 31
0.0
 12
288.5284292499844
 22
34.97272684655441
 32
0.0
 13
288.5284292499844
 23
34.97272684655441
 33
0.0
  0
MTEXT
  5
2D1
330
2C9
100
AcDbEntity
  8
0
 62
     0
100
AcDbMText
 10
287.8534292499844
 20
34.61272684655446
 30
0.0
 40
0.18
 41
0.0
 71
     5
 72
     1
  1
\A1;0.2500
 73
     1
 44
1.0
  0
POINT
  5
2D2
330
2C9
100
AcDbEntity
  8
DEFPOINTS
 62
     0
100
AcDbPoint
 10
287.2675330425836
 20
35.22272684655441
 30
0.0
  0
POINT
  5
2D3
330
2C9
100
AcDbEntity
  8
DEFPOINTS
 62
     0
100
AcDbPoint
 10
286.7675330425836
 20
34.97272684655441
 30
0.0
  0
POINT
  5
2D4
330
2C9
100
AcDbEntity
  8
DEFPOINTS
 62
     0
100
AcDbPoint
 10
288.5284292499844
 20
34.97272684655441
 30
0.0
  0
ENDBLK
  5
2D6
330
2C9
100
AcDbEntity
  8
0
100
AcDbBlockEnd
  0
BLOCK
  5
2E3
330
2D8
100
AcDbEntity
  8
0
100
AcDbBlockBegin
  2
*D18
 70
     1
 10
0.0
 20
0.0
 30
0.0
  3
*D18
  1

  0
LINE
  5
2D9
330
2D8
100
AcDbEntity
  8
0
 62
     0
370
    -2
100
AcDbLine
 10
287.2675330425836
 20
35.16022684655441
 30
0.0
 11
287.2675330425836
 21
34.03995555494817
 31
0.0
  0
LINE
  5
2DA
330
2D8
100
AcDbEntity
  8
0
 62
     0
370
    -2
100
AcDbLine
 10
286.7675330425836
 20
34.91022684655441
 30
0.0
 11
286.7675330425836
 21
34.03995555494817
 31
0.0
  0
LINE
  5
2DB
330
2D8
100
AcDbEntity
  8
0
 62
     0
370
    -2
100
AcDbLine
 10
287.4475330425836
 20
34.21995555494817
 30
0.0
 11
287.6275330425836
 21
34.21995555494817
 31
0.0
  0
LINE
  5
2DC
330
2D8
100
AcDbEntity
  8
0
 62
     0
370
    -2
100
AcDbLine
 10
286.5875330425836
 20
34.21995555494817
 30
0.0
 11
286.4075330425837
 21
34.21995555494817
 31
0.0
  0
SOLID
  5
2DD
330
2D8
100
AcDbEntity
  8
0
 62
     0
100
AcDbTrace
 10
287.4475330425836
 20
34.24995555494817
 30
0.0
 11
287.4475330425836
 21
34.18995555494817
 31
0.0
 12
287.2675330425836
 22
34.21995555494817
 32
0.0
 13
287.2675330425836
 23
34.21995555494817
 33
0.0
  0
SOLID
  5
2DE
330
2D8
100
AcDbEntity
  8
0
 62
     0
100
AcDbTrace
 10
286.5875330425836
 20
34.24995555494817
 30
0.0
 11
286.5875330425836
 21
34.18995555494817
 31
0.0
 12
286.7675330425836
 22
34.21995555494817
 32
0.0
 13
286.7675330425836
 23
34.21995555494817
 33
0.0
  0
MTEXT
  5
2DF
330
2D8
100
AcDbEntity
  8
0
 62
     0
100
AcDbMText
 10
285.9275330425836
 20
34.21995555494817
 30
0.0
 40
0.18
 41
0.0
 71
     5
 72
     1
  1
\A1;0.5000
 73
     1
 44
1.0
  0
POINT
  5
2E0
330
2D8
100
AcDbEntity
  8
DEFPOINTS
 62
     0
100
AcDbPoint
 10
287.2675330425836
 20
35.22272684655441
 30
0.0
  0
POINT
  5
2E1
330
2D8
100
AcDbEntity
  8
DEFPOINTS
 62
     0
100
AcDbPoint
 10
286.7675330425836
 20
34.97272684655441
 30
0.0
  0
POINT
  5
2E2
330
2D8
100
AcDbEntity
  8
DEFPOINTS
 62
     0
100
AcDbPoint
 10
286.7675330425836
 20
34.21995555494817
 30
0.0
  0
ENDBLK
  5
2E4
330
2D8
100
AcDbEntity
  8
0
100
AcDbBlockEnd
  0
BLOCK
  5
308
330
2FD
100
AcDbEntity
  8
0
100
AcDbBlockBegin
  2
*D19
 70
     1
 10
0.0
 20
0.0
 30
0.0
  3
*D19
  1

  0
LINE
  5
363
330
2FD
100
AcDbEntity
  8
0
 62
     0
370
    -2
100
AcDbLine
 10
286.2863795599981
 20
34.6989918314248
 30
0.0
 11
288.9366025086916
 21
34.6989918314248
 31
0.0
  0
LINE
  5
364
330
2FD
100
AcDbEntity
  8
0
 62
     0
370
    -2
100
AcDbLine
 10
286.2863795599981
 20
36.49899183142487
 30
0.0
 11
288.9366025086916
 21
36.49899183142487
 31
0.0
  0
LINE
  5
365
330
2FD
100
AcDbEntity
  8
0
 62
     0
370
    -2
100
AcDbLine
 10
288.7566025086917
 20
34.8789918314248
 30
0.0
 11
288.7566025086917
 21
35.41899183142484
 31
0.0
  0
LINE
  5
366
330
2FD
100
AcDbEntity
  8
0
 62
     0
370
    -2
100
AcDbLine
 10
288.7566025086917
 20
36.31899183142487
 30
0.0
 11
288.7566025086917
 21
35.77899183142484
 31
0.0
  0
SOLID
  5
367
330
2FD
100
AcDbEntity
  8
0
 62
     0
100
AcDbTrace
 10
288.7266025086917
 20
34.8789918314248
 30
0.0
 11
288.7866025086916
 21
34.8789918314248
 31
0.0
 12
288.7566025086917
 22
34.6989918314248
 32
0.0
 13
288.7566025086917
 23
34.6989918314248
 33
0.0
  0
SOLID
  5
368
330
2FD
100
AcDbEntity
  8
0
 62
     0
100
AcDbTrace
 10
288.7266025086917
 20
36.31899183142487
 30
0.0
 11
288.7866025086916
 21
36.31899183142487
 31
0.0
 12
288.7566025086917
 22
36.49899183142487
 32
0.0
 13
288.7566025086917
 23
36.49899183142487
 33
0.0
  0
MTEXT
  5
369
330
2FD
100
AcDbEntity
  8
0
 62
     0
100
AcDbMText
 10
288.7566025086917
 20
35.59899183142489
 30
0.0
 40
0.18
 41
0.0
 71
     5
 72
     1
  1
\A1;1.8000
 73
     1
 44
1.0
  0
POINT
  5
36A
330
2FD
100
AcDbEntity
  8
DEFPOINTS
 62
     0
100
AcDbPoint
 10
286.223879559998
 20
34.6989918314248
 30
0.0
  0
POINT
  5
36B
330
2FD
100
AcDbEntity
  8
DEFPOINTS
 62
     0
100
AcDbPoint
 10
286.223879559998
 20
36.49899183142487
 30
0.0
  0
POINT
  5
36C
330
2FD
100
AcDbEntity
  8
DEFPOINTS
 62
     0
100
AcDbPoint
 10
288.7566025086917
 20
36.49899183142487
 30
0.0
  0
ENDBLK
  5
309
330
2FD
100
AcDbEntity
  8
0
100
AcDbBlockEnd
  0
BLOCK
  5
316
330
30B
100
AcDbEntity
  8
0
100
AcDbBlockBegin
  2
*D20
 70
     1
 10
0.0
 20
0.0
 30
0.0
  3
*D20
  1

  0
LINE
  5
359
330
30B
100
AcDbEntity
  8
0
 62
     0
370
    -2
100
AcDbLine
 10
286.798879559998
 20
34.83649183142488
 30
0.0
 11
286.798879559998
 21
34.03995555494817
 31
0.0
  0
LINE
  5
35A
330
30B
100
AcDbEntity
  8
0
 62
     0
370
    -2
100
AcDbLine
 10
285.6488795599981
 20
34.83649183142488
 30
0.0
 11
285.6488795599981
 21
34.03995555494817
 31
0.0
  0
LINE
  5
35B
330
30B
100
AcDbEntity
  8
0
 62
     0
370
    -2
100
AcDbLine
 10
286.9788795599981
 20
34.21995555494817
 30
0.0
 11
287.1588795599981
 21
34.21995555494817
 31
0.0
  0
LINE
  5
35C
330
30B
100
AcDbEntity
  8
0
 62
     0
370
    -2
100
AcDbLine
 10
285.4688795599981
 20
34.21995555494817
 30
0.0
 11
285.2888795599981
 21
34.21995555494817
 31
0.0
  0
SOLID
  5
35D
330
30B
100
AcDbEntity
  8
0
 62
     0
100
AcDbTrace
 10
286.9788795599981
 20
34.24995555494817
 30
0.0
 11
286.9788795599981
 21
34.18995555494817
 31
0.0
 12
286.798879559998
 22
34.21995555494817
 32
0.0
 13
286.798879559998
 23
34.21995555494817
 33
0.0
  0
SOLID
  5
35E
330
30B
100
AcDbEntity
  8
0
 62
     0
100
AcDbTrace
 10
285.4688795599981
 20
34.24995555494817
 30
0.0
 11
285.4688795599981
 21
34.18995555494817
 31
0.0
 12
285.6488795599981
 22
34.21995555494817
 32
0.0
 13
285.6488795599981
 23
34.21995555494817
 33
0.0
  0
MTEXT
  5
35F
330
30B
100
AcDbEntity
  8
0
 62
     0
100
AcDbMText
 10
286.2238795599981
 20
34.21995555494817
 30
0.0
 40
0.18
 41
0.0
 71
     5
 72
     1
  1
\A1;1.1500
 73
     1
 44
1.0
  0
POINT
  5
360
330
30B
100
AcDbEntity
  8
DEFPOINTS
 62
     0
100
AcDbPoint
 10
286.798879559998
 20
34.89899183142488
 30
0.0
  0
POINT
  5
361
330
30B
100
AcDbEntity
  8
DEFPOINTS
 62
     0
100
AcDbPoint
 10
285.6488795599981
 20
34.89899183142488
 30
0.0
  0
POINT
  5
362
330
30B
100
AcDbEntity
  8
DEFPOINTS
 62
     0
100
AcDbPoint
 10
285.6488795599981
 20
34.21995555494817
 30
0.0
  0
ENDBLK
  5
317
330
30B
100
AcDbEntity
  8
0
100
AcDbBlockEnd
  0
BLOCK
  5
324
330
319
100
AcDbEntity
  8
0
100
AcDbBlockBegin
  2
*D21
 70
     1
 10
0.0
 20
0.0
 30
0.0
  3
*D21
  1

  0
LINE
  5
34F
330
319
100
AcDbEntity
  8
0
 62
     0
370
    -2
100
AcDbLine
 10
286.8238795599981
 20
35.96149183142482
 30
0.0
 11
286.8238795599981
 21
37.13730574116709
 31
0.0
  0
LINE
  5
350
330
319
100
AcDbEntity
  8
0
 62
     0
370
    -2
100
AcDbLine
 10
285.6238795599981
 20
35.96149183142488
 30
0.0
 11
285.6238795599981
 21
37.13730574116709
 31
0.0
  0
LINE
  5
351
330
319
100
AcDbEntity
  8
0
 62
     0
370
    -2
100
AcDbLine
 10
287.0038795599981
 20
36.95730574116709
 30
0.0
 11
287.1838795599981
 21
36.95730574116709
 31
0.0
  0
LINE
  5
352
330
319
100
AcDbEntity
  8
0
 62
     0
370
    -2
100
AcDbLine
 10
285.443879559998
 20
36.95730574116709
 30
0.0
 11
285.263879559998
 21
36.95730574116709
 31
0.0
  0
SOLID
  5
353
330
319
100
AcDbEntity
  8
0
 62
     0
100
AcDbTrace
 10
287.0038795599981
 20
36.9873057411671
 30
0.0
 11
287.0038795599981
 21
36.92730574116709
 31
0.0
 12
286.8238795599981
 22
36.95730574116709
 32
0.0
 13
286.8238795599981
 23
36.95730574116709
 33
0.0
  0
SOLID
  5
354
330
319
100
AcDbEntity
  8
0
 62
     0
100
AcDbTrace
 10
285.443879559998
 20
36.9873057411671
 30
0.0
 11
285.443879559998
 21
36.92730574116709
 31
0.0
 12
285.6238795599981
 22
36.95730574116709
 32
0.0
 13
285.6238795599981
 23
36.95730574116709
 33
0.0
  0
MTEXT
  5
355
330
319
100
AcDbEntity
  8
0
 62
     0
100
AcDbMText
 10
286.2238795599981
 20
36.95730574116709
 30
0.0
 40
0.18
 41
0.0
 71
     5
 72
     1
  1
\A1;1.2000
 73
     1
 44
1.0
  0
POINT
  5
356
330
319
100
AcDbEntity
  8
DEFPOINTS
 62
     0
100
AcDbPoint
 10
286.8238795599981
 20
35.89899183142482
 30
0.0
  0
POINT
  5
357
330
319
100
AcDbEntity
  8
DEFPOINTS
 62
     0
100
AcDbPoint
 10
285.6238795599981
 20
35.89899183142488
 30
0.0
  0
POINT
  5
358
330
319
100
AcDbEntity
  8
DEFPOINTS
 62
     0
100
AcDbPoint
 10
285.6238795599981
 20
36.95730574116709
 30
0.0
  0
ENDBLK
  5
325
330
319
100
AcDbEntity
  8
0
100
AcDbBlockEnd
  0
BLOCK
  5
333
330
327
100
AcDbEntity
  8
0
100
AcDbBlockBegin
  2
*D22
 70
     1
 10
0.0
 20
0.0
 30
0.0
  3
*D22
  1

  0
LINE
  5
36D
330
327
100
AcDbEntity
  8
0
 62
     0
370
    -2
100
AcDbLine
 10
286.8613795599981
 20
34.89899183142488
 30
0.0
 11
288.5715253504992
 21
34.89899183142488
 31
0.0
  0
LINE
  5
36E
330
327
100
AcDbEntity
  8
0
 62
     0
370
    -2
100
AcDbLine
 10
286.2863795599981
 20
34.6989918314248
 30
0.0
 11
288.5715253504992
 21
34.6989918314248
 31
0.0
  0
LINE
  5
36F
330
327
100
AcDbEntity
  8
0
 62
     0
370
    -2
100
AcDbLine
 10
288.3915253504992
 20
35.07899183142487
 30
0.0
 11
288.3915253504992
 21
35.25899183142488
 31
0.0
  0
LINE
  5
370
330
327
100
AcDbEntity
  8
0
 62
     0
370
    -2
100
AcDbLine
 10
288.3915253504992
 20
34.5189918314248
 30
0.0
 11
288.3915253504992
 21
34.3389918314248
 31
0.0
  0
LINE
  5
371
330
327
100
AcDbEntity
  8
0
 62
     0
370
    -2
100
AcDbLine
 10
288.3915253504992
 20
34.3389918314248
 30
0.0
 11
288.2115253504992
 21
34.3389918314248
 31
0.0
  0
SOLID
  5
372
330
327
100
AcDbEntity
  8
0
 62
     0
100
AcDbTrace
 10
288.3615253504992
 20
35.07899183142487
 30
0.0
 11
288.4215253504992
 21
35.07899183142487
 31
0.0
 12
288.3915253504992
 22
34.89899183142488
 32
0.0
 13
288.3915253504992
 23
34.89899183142488
 33
0.0
  0
SOLID
  5
373
330
327
100
AcDbEntity
  8
0
 62
     0
100
AcDbTrace
 10
288.3615253504992
 20
34.5189918314248
 30
0.0
 11
288.4215253504992
 21
34.5189918314248
 31
0.0
 12
288.3915253504992
 22
34.6989918314248
 32
0.0
 13
288.3915253504992
 23
34.6989918314248
 33
0.0
  0
MTEXT
  5
374
330
327
100
AcDbEntity
  8
0
 62
     0
100
AcDbMText
 10
287.7315253504992
 20
34.33899183142485
 30
0.0
 40
0.18
 41
0.0
 71
     5
 72
     1
  1
\A1;0.2000
 73
     1
 44
1.0
  0
POINT
  5
375
330
327
100
AcDbEntity
  8
DEFPOINTS
 62
     0
100
AcDbPoint
 10
286.798879559998
 20
34.89899183142488
 30
0.0
  0
POINT
  5
376
330
327
100
AcDbEntity
  8
DEFPOINTS
 62
     0
100
AcDbPoint
 10
286.223879559998
 20
34.6989918314248
 30
0.0
  0
POINT
  5
377
330
327
100
AcDbEntity
  8
DEFPOINTS
 62
     0
100
AcDbPoint
 10
288.3915253504992
 20
34.6989918314248
 30
0.0
  0
ENDBLK
  5
334
330
327
100
AcDbEntity
  8
0
100
AcDbBlockEnd
  0
BLOCK
  5
34B
330
340
100
AcDbEntity
  8
0
100
AcDbBlockBegin
  2
*D23
 70
     1
 10
0.0
 20
0.0
 30
0.0
  3
*D23
  1

  0
LINE
  5
378
330
340
100
AcDbEntity
  8
0
 62
     0
370
    -2
100
AcDbLine
 10
286.8863795599981
 20
35.89899183142482
 30
0.0
 11
287.864188304246
 21
35.89899183142482
 31
0.0
  0
LINE
  5
379
330
340
100
AcDbEntity
  8
0
 62
     0
370
    -2
100
AcDbLine
 10
286.8613795599981
 20
34.89899183142488
 30
0.0
 11
287.864188304246
 21
34.89899183142488
 31
0.0
  0
LINE
  5
37A
330
340
100
AcDbEntity
  8
0
 62
     0
370
    -2
100
AcDbLine
 10
287.684188304246
 20
35.71899183142482
 30
0.0
 11
287.684188304246
 21
35.57899183142485
 31
0.0
  0
LINE
  5
37B
330
340
100
AcDbEntity
  8
0
 62
     0
370
    -2
100
AcDbLine
 10
287.684188304246
 20
35.07899183142487
 30
0.0
 11
287.684188304246
 21
35.21899183142485
 31
0.0
  0
SOLID
  5
37C
330
340
100
AcDbEntity
  8
0
 62
     0
100
AcDbTrace
 10
287.654188304246
 20
35.71899183142482
 30
0.0
 11
287.714188304246
 21
35.71899183142482
 31
0.0
 12
287.684188304246
 22
35.89899183142482
 32
0.0
 13
287.684188304246
 23
35.89899183142482
 33
0.0
  0
SOLID
  5
37D
330
340
100
AcDbEntity
  8
0
 62
     0
100
AcDbTrace
 10
287.654188304246
 20
35.07899183142487
 30
0.0
 11
287.714188304246
 21
35.07899183142487
 31
0.0
 12
287.684188304246
 22
34.89899183142488
 32
0.0
 13
287.684188304246
 23
34.89899183142488
 33
0.0
  0
MTEXT
  5
37E
330
340
100
AcDbEntity
  8
0
 62
     0
100
AcDbMText
 10
287.684188304246
 20
35.3989918314249
 30
0.0
 40
0.18
 41
0.0
 71
     5
 72
     1
  1
\A1;1.0000
 73
     1
 44
1.0
  0
POINT
  5
37F
330
340
100
AcDbEntity
  8
DEFPOINTS
 62
     0
100
AcDbPoint
 10
286.8238795599981
 20
35.89899183142482
 30
0.0
  0
POINT
  5
380
330
340
100
AcDbEntity
  8
DEFPOINTS
 62
     0
100
AcDbPoint
 10
286.798879559998
 20
34.89899183142488
 30
0.0
  0
POINT
  5
381
330
340
100
AcDbEntity
  8
DEFPOINTS
 62
     0
100
AcDbPoint
 10
287.684188304246
 20
34.89899183142488
 30
0.0
  0
ENDBLK
  5
34C
330
340
100
AcDbEntity
  8
0
100
AcDbBlockEnd
  0
BLOCK
  5
39C
330
391
100
AcDbEntity
  8
0
100
AcDbBlockBegin
  2
*D24
 70
     1
 10
0.0
 20
0.0
 30
0.0
  3
*D24
  1

  0
LINE
  5
3D7
330
391
100
AcDbEntity
  8
0
 62
     0
370
    -2
100
AcDbLine
 10
286.1722929306445
 20
34.72180308268558
 30
0.0
 11
288.7540639017259
 21
34.72180308268558
 31
0.0
  0
LINE
  5
3D8
330
391
100
AcDbEntity
  8
0
 62
     0
370
    -2
100
AcDbLine
 10
286.1722929306445
 20
36.77180308268566
 30
0.0
 11
288.7540639017259
 21
36.77180308268566
 31
0.0
  0
LINE
  5
3D9
330
391
100
AcDbEntity
  8
0
 62
     0
370
    -2
100
AcDbLine
 10
288.5740639017258
 20
34.90180308268558
 30
0.0
 11
288.5740639017258
 21
36.0793030826856
 31
0.0
  0
LINE
  5
3DA
330
391
100
AcDbEntity
  8
0
 62
     0
370
    -2
100
AcDbLine
 10
288.5740639017258
 20
36.59180308268566
 30
0.0
 11
288.5740639017258
 21
36.4393030826856
 31
0.0
  0
SOLID
  5
3DB
330
391
100
AcDbEntity
  8
0
 62
     0
100
AcDbTrace
 10
288.5440639017259
 20
34.90180308268558
 30
0.0
 11
288.6040639017258
 21
34.90180308268558
 31
0.0
 12
288.5740639017258
 22
34.72180308268558
 32
0.0
 13
288.5740639017258
 23
34.72180308268558
 33
0.0
  0
SOLID
  5
3DC
330
391
100
AcDbEntity
  8
0
 62
     0
100
AcDbTrace
 10
288.5440639017259
 20
36.59180308268566
 30
0.0
 11
288.6040639017258
 21
36.59180308268566
 31
0.0
 12
288.5740639017258
 22
36.77180308268566
 32
0.0
 13
288.5740639017258
 23
36.77180308268566
 33
0.0
  0
MTEXT
  5
3DD
330
391
100
AcDbEntity
  8
0
 62
     0
100
AcDbMText
 10
288.5740639017258
 20
36.25930308268564
 30
0.0
 40
0.18
 41
0.0
 71
     5
 72
     1
  1
\A1;2.0500
 73
     1
 44
1.0
  0
POINT
  5
3DE
330
391
100
AcDbEntity
  8
DEFPOINTS
 62
     0
100
AcDbPoint
 10
286.1097929306445
 20
34.72180308268558
 30
0.0
  0
POINT
  5
3DF
330
391
100
AcDbEntity
  8
DEFPOINTS
 62
     0
100
AcDbPoint
 10
286.1097929306445
 20
36.77180308268566
 30
0.0
  0
POINT
  5
3E0
330
391
100
AcDbEntity
  8
DEFPOINTS
 62
     0
100
AcDbPoint
 10
288.5740639017258
 20
36.77180308268566
 30
0.0
  0
ENDBLK
  5
39D
330
391
100
AcDbEntity
  8
0
100
AcDbBlockEnd
  0
BLOCK
  5
3AA
330
39F
100
AcDbEntity
  8
0
100
AcDbBlockBegin
  2
*D25
 70
     1
 10
0.0
 20
0.0
 30
0.0
  3
*D25
  1

  0
LINE
  5
3A0
330
39F
100
AcDbEntity
  8
0
 62
     0
370
    -2
100
AcDbLine
 10
287.1097929306445
 20
36.28430308268563
 30
0.0
 11
287.1097929306445
 21
37.68477580634967
 31
0.0
  0
LINE
  5
3A1
330
39F
100
AcDbEntity
  8
0
 62
     0
370
    -2
100
AcDbLine
 10
285.1097929306445
 20
36.28430308268571
 30
0.0
 11
285.1097929306445
 21
37.68477580634967
 31
0.0
  0
LINE
  5
3A2
330
39F
100
AcDbEntity
  8
0
 62
     0
370
    -2
100
AcDbLine
 10
286.9297929306445
 20
37.50477580634967
 30
0.0
 11
286.5897929306445
 21
37.50477580634967
 31
0.0
  0
LINE
  5
3A3
330
39F
100
AcDbEntity
  8
0
 62
     0
370
    -2
100
AcDbLine
 10
285.2897929306445
 20
37.50477580634967
 30
0.0
 11
285.6297929306445
 21
37.50477580634967
 31
0.0
  0
SOLID
  5
3A4
330
39F
100
AcDbEntity
  8
0
 62
     0
100
AcDbTrace
 10
286.9297929306445
 20
37.53477580634967
 30
0.0
 11
286.9297929306445
 21
37.47477580634967
 31
0.0
 12
287.1097929306445
 22
37.50477580634967
 32
0.0
 13
287.1097929306445
 23
37.50477580634967
 33
0.0
  0
SOLID
  5
3A5
330
39F
100
AcDbEntity
  8
0
 62
     0
100
AcDbTrace
 10
285.2897929306445
 20
37.53477580634967
 30
0.0
 11
285.2897929306445
 21
37.47477580634967
 31
0.0
 12
285.1097929306445
 22
37.50477580634967
 32
0.0
 13
285.1097929306445
 23
37.50477580634967
 33
0.0
  0
MTEXT
  5
3A6
330
39F
100
AcDbEntity
  8
0
 62
     0
100
AcDbMText
 10
286.1097929306445
 20
37.50477580634967
 30
0.0
 40
0.18
 41
0.0
 71
     5
 72
     1
  1
\A1;2.0000
 73
     1
 44
1.0
  0
POINT
  5
3A7
330
39F
100
AcDbEntity
  8
DEFPOINTS
 62
     0
100
AcDbPoint
 10
287.1097929306445
 20
36.22180308268563
 30
0.0
  0
POINT
  5
3A8
330
39F
100
AcDbEntity
  8
DEFPOINTS
 62
     0
100
AcDbPoint
 10
285.1097929306445
 20
36.22180308268571
 30
0.0
  0
POINT
  5
3A9
330
39F
100
AcDbEntity
  8
DEFPOINTS
 62
     0
100
AcDbPoint
 10
285.1097929306445
 20
37.50477580634967
 30
0.0
  0
ENDBLK
  5
3AB
330
39F
100
AcDbEntity
  8
0
100
AcDbBlockEnd
  0
BLOCK
  5
3B8
330
3AD
100
AcDbEntity
  8
0
100
AcDbBlockBegin
  2
*D26
 70
     1
 10
0.0
 20
0.0
 30
0.0
  3
*D26
  1

  0
LINE
  5
3AE
330
3AD
100
AcDbEntity
  8
0
 62
     0
370
    -2
100
AcDbLine
 10
286.4597929306446
 20
35.00930308268567
 30
0.0
 11
286.4597929306446
 21
34.13120055999135
 31
0.0
  0
LINE
  5
3AF
330
3AD
100
AcDbEntity
  8
0
 62
     0
370
    -2
100
AcDbLine
 10
285.7597929306444
 20
35.00930308268566
 30
0.0
 11
285.7597929306444
 21
34.13120055999135
 31
0.0
  0
LINE
  5
3B0
330
3AD
100
AcDbEntity
  8
0
 62
     0
370
    -2
100
AcDbLine
 10
286.2797929306446
 20
34.31120055999135
 30
0.0
 11
285.9397929306445
 21
34.31120055999135
 31
0.0
  0
LINE
  5
3B1
330
3AD
100
AcDbEntity
  8
0
 62
     0
370
    -2
100
AcDbLine
 10
285.7597929306444
 20
34.31120055999135
 30
0.0
 11
285.5797929306445
 21
34.31120055999135
 31
0.0
  0
SOLID
  5
3B2
330
3AD
100
AcDbEntity
  8
0
 62
     0
100
AcDbTrace
 10
286.2797929306446
 20
34.34120055999135
 30
0.0
 11
286.2797929306446
 21
34.28120055999134
 31
0.0
 12
286.4597929306446
 22
34.31120055999135
 32
0.0
 13
286.4597929306446
 23
34.31120055999135
 33
0.0
  0
SOLID
  5
3B3
330
3AD
100
AcDbEntity
  8
0
 62
     0
100
AcDbTrace
 10
285.9397929306445
 20
34.34120055999135
 30
0.0
 11
285.9397929306445
 21
34.28120055999134
 31
0.0
 12
285.7597929306444
 22
34.31120055999135
 32
0.0
 13
285.7597929306444
 23
34.31120055999135
 33
0.0
  0
MTEXT
  5
3B4
330
3AD
100
AcDbEntity
  8
0
 62
     0
100
AcDbMText
 10
285.0997929306444
 20
34.31120055999135
 30
0.0
 40
0.18
 41
0.0
 71
     5
 72
     1
  1
\A1;0.7000
 73
     1
 44
1.0
  0
POINT
  5
3B5
330
3AD
100
AcDbEntity
  8
DEFPOINTS
 62
     0
100
AcDbPoint
 10
286.4597929306446
 20
35.07180308268567
 30
0.0
  0
POINT
  5
3B6
330
3AD
100
AcDbEntity
  8
DEFPOINTS
 62
     0
100
AcDbPoint
 10
285.7597929306444
 20
35.07180308268566
 30
0.0
  0
POINT
  5
3B7
330
3AD
100
AcDbEntity
  8
DEFPOINTS
 62
     0
100
AcDbPoint
 10
285.7597929306444
 20
34.31120055999135
 30
0.0
  0
ENDBLK
  5
3B9
330
3AD
100
AcDbEntity
  8
0
100
AcDbBlockEnd
  0
BLOCK
  5
3C7
330
3BB
100
AcDbEntity
  8
0
100
AcDbBlockBegin
  2
*D27
 70
     1
 10
0.0
 20
0.0
 30
0.0
  3
*D27
  1

  0
LINE
  5
3BC
330
3BB
100
AcDbEntity
  8
0
 62
     0
370
    -2
100
AcDbLine
 10
287.1722929306445
 20
35.07180308268566
 30
0.0
 11
288.0239095296019
 21
35.07180308268566
 31
0.0
  0
LINE
  5
3BD
330
3BB
100
AcDbEntity
  8
0
 62
     0
370
    -2
100
AcDbLine
 10
286.1722929306445
 20
34.72180308268558
 30
0.0
 11
288.0239095296019
 21
34.72180308268558
 31
0.0
  0
LINE
  5
3BE
330
3BB
100
AcDbEntity
  8
0
 62
     0
370
    -2
100
AcDbLine
 10
287.8439095296019
 20
35.25180308268566
 30
0.0
 11
287.8439095296019
 21
35.43180308268566
 31
0.0
  0
LINE
  5
3BF
330
3BB
100
AcDbEntity
  8
0
 62
     0
370
    -2
100
AcDbLine
 10
287.8439095296019
 20
34.54180308268558
 30
0.0
 11
287.8439095296019
 21
34.36180308268558
 31
0.0
  0
LINE
  5
3C0
330
3BB
100
AcDbEntity
  8
0
 62
     0
370
    -2
100
AcDbLine
 10
287.8439095296019
 20
34.36180308268558
 30
0.0
 11
287.6639095296019
 21
34.36180308268558
 31
0.0
  0
SOLID
  5
3C1
330
3BB
100
AcDbEntity
  8
0
 62
     0
100
AcDbTrace
 10
287.8139095296019
 20
35.25180308268566
 30
0.0
 11
287.8739095296019
 21
35.25180308268566
 31
0.0
 12
287.8439095296019
 22
35.07180308268566
 32
0.0
 13
287.8439095296019
 23
35.07180308268566
 33
0.0
  0
SOLID
  5
3C2
330
3BB
100
AcDbEntity
  8
0
 62
     0
100
AcDbTrace
 10
287.8139095296019
 20
34.54180308268558
 30
0.0
 11
287.8739095296019
 21
34.54180308268558
 31
0.0
 12
287.8439095296019
 22
34.72180308268558
 32
0.0
 13
287.8439095296019
 23
34.72180308268558
 33
0.0
  0
MTEXT
  5
3C3
330
3BB
100
AcDbEntity
  8
0
 62
     0
100
AcDbMText
 10
287.1689095296019
 20
34.36180308268563
 30
0.0
 40
0.18
 41
0.0
 71
     5
 72
     1
  1
\A1;0.3500
 73
     1
 44
1.0
  0
POINT
  5
3C4
330
3BB
100
AcDbEntity
  8
DEFPOINTS
 62
     0
100
AcDbPoint
 10
287.1097929306445
 20
35.07180308268566
 30
0.0
  0
POINT
  5
3C5
330
3BB
100
AcDbEntity
  8
DEFPOINTS
 62
     0
100
AcDbPoint
 10
286.1097929306445
 20
34.72180308268558
 30
0.0
  0
POINT
  5
3C6
330
3BB
100
AcDbEntity
  8
DEFPOINTS
 62
     0
100
AcDbPoint
 10
287.8439095296019
 20
34.72180308268558
 30
0.0
  0
ENDBLK
  5
3C8
330
3BB
100
AcDbEntity
  8
0
100
AcDbBlockEnd
  0
BLOCK
  5
3D5
330
3CA
100
AcDbEntity
  8
0
100
AcDbBlockBegin
  2
*D28
 70
     1
 10
0.0
 20
0.0
 30
0.0
  3
*D28
  1

  0
LINE
  5
3CB
330
3CA
100
AcDbEntity
  8
0
 62
     0
370
    -2
100
AcDbLine
 10
287.1722929306445
 20
36.22180308268563
 30
0.0
 11
287.8185535967654
 21
36.22180308268563
 31
0.0
  0
LINE
  5
3CC
330
3CA
100
AcDbEntity
  8
0
 62
     0
370
    -2
100
AcDbLine
 10
287.1722929306445
 20
35.07180308268566
 30
0.0
 11
287.8185535967654
 21
35.07180308268566
 31
0.0
  0
LINE
  5
3CD
330
3CA
100
AcDbEntity
  8
0
 62
     0
370
    -2
100
AcDbLine
 10
287.6385535967654
 20
36.04180308268563
 30
0.0
 11
287.6385535967654
 21
35.82680308268564
 31
0.0
  0
LINE
  5
3CE
330
3CA
100
AcDbEntity
  8
0
 62
     0
370
    -2
100
AcDbLine
 10
287.6385535967654
 20
35.25180308268566
 30
0.0
 11
287.6385535967654
 21
35.46680308268564
 31
0.0
  0
SOLID
  5
3CF
330
3CA
100
AcDbEntity
  8
0
 62
     0
100
AcDbTrace
 10
287.6085535967654
 20
36.04180308268563
 30
0.0
 11
287.6685535967654
 21
36.04180308268563
 31
0.0
 12
287.6385535967654
 22
36.22180308268563
 32
0.0
 13
287.6385535967654
 23
36.22180308268563
 33
0.0
  0
SOLID
  5
3D0
330
3CA
100
AcDbEntity
  8
0
 62
     0
100
AcDbTrace
 10
287.6085535967654
 20
35.25180308268566
 30
0.0
 11
287.6685535967654
 21
35.25180308268566
 31
0.0
 12
287.6385535967654
 22
35.07180308268566
 32
0.0
 13
287.6385535967654
 23
35.07180308268566
 33
0.0
  0
MTEXT
  5
3D1
330
3CA
100
AcDbEntity
  8
0
 62
     0
100
AcDbMText
 10
287.6385535967654
 20
35.64680308268569
 30
0.0
 40
0.18
 41
0.0
 71
     5
 72
     1
  1
\A1;1.1500
 73
     1
 44
1.0
  0
POINT
  5
3D2
330
3CA
100
AcDbEntity
  8
DEFPOINTS
 62
     0
100
AcDbPoint
 10
287.1097929306445
 20
36.22180308268563
 30
0.0
  0
POINT
  5
3D3
330
3CA
100
AcDbEntity
  8
DEFPOINTS
 62
     0
100
AcDbPoint
 10
287.1097929306445
 20
35.07180308268566
 30
0.0
  0
POINT
  5
3D4
330
3CA
100
AcDbEntity
  8
DEFPOINTS
 62
     0
100
AcDbPoint
 10
287.6385535967654
 20
35.07180308268566
 30
0.0
  0
ENDBLK
  5
3D6
330
3CA
100
AcDbEntity
  8
0
100
AcDbBlockEnd
  0
ENDSEC
  0
SECTION
  2
ENTITIES
  0
TEXT
  5
2C
330
1E
100
AcDbEntity
  8
0
  6
Continuous
100
AcDbText
 10
287.2805487186718
 20
41.39364127471099
 30
0.0
 40
0.1
  1
2
  7
ROMANC
100
AcDbText
  0
TEXT
  5
2D
330
1E
100
AcDbEntity
  8
0
  6
Continuous
100
AcDbText
 10
283.9259999999999
 20
41.768
 30
0.0
 40
0.3
  1
ESCALA  1:50
  7
ROMANC
100
AcDbText
  0
LWPOLYLINE
  5
2E
330
1E
100
AcDbEntity
  8
0
  6
Continuous
100
AcDbPolyline
 90
        4
 70
     1
 43
0.0
 10
281.3959999999998
 20
44.747
 10
291.8959999999998
 20
44.747
 10
291.8959999999998
 20
29.897
 10
281.3959999999998
 20
29.897
  0
TEXT
  5
34
330
1E
100
AcDbEntity
  8
0
  6
Continuous
100
AcDbText
 10
283.9259999999999
 20
42.381
 30
0.0
 40
0.3
  1
TIPUS   NT326A
  7
ROMANC
100
AcDbText
  0
TEXT
  5
3C
330
1E
100
AcDbEntity
  8
0
  6
Continuous
100
AcDbText
 10
283.9449999999999
 20
41.09899999999997
 30
0.0
 40
0.3
  1
S = 326 dm
  7
ROMANC
100
AcDbText
  0
TEXT
  5
3D
330
1E
100
AcDbEntity
  8
0
  6
Continuous
100
AcDbText
 10
283.922
 20
40.529
 30
0.0
 40
0.3
  1
P = 56 dm
  7
ROMANC
100
AcDbText
  0
LWPOLYLINE
  5
38F
330
1E
100
AcDbEntity
  8
0
100
AcDbPolyline
 90
        6
 70
     1
 43
0.0
 10
286.4597929306446
 20
35.07180308268567
 10
287.1097929306445
 20
35.07180308268566
 10
287.1097929306445
 20
36.22180308268566
 42
0.5499999999999941
 10
285.1097929306445
 20
36.22180308268566
 10
285.1097929306445
 20
35.07180308268566
 10
285.7597929306444
 20
35.07180308268566
 42
0.9999999999999186
  0
DIMENSION
  5
390
330
1E
100
AcDbEntity
  8
0
100
AcDbDimension
  2
*D24
 10
288.5740639017258
 20
36.77180308268566
 30
0.0
 11
288.5740639017258
 21
36.25930308268564
 31
0.0
 70
   160
 71
     5
 42
2.050000000000082
  3
STANDARD
100
AcDbAlignedDimension
 13
286.1097929306445
 23
34.72180308268558
 33
0.0
 14
286.1097929306445
 24
36.77180308268566
 34
0.0
 50
90.0
100
AcDbRotatedDimension
  0
DIMENSION
  5
39E
330
1E
100
AcDbEntity
  8
0
100
AcDbDimension
  2
*D25
 10
285.1097929306445
 20
37.50477580634967
 30
0.0
 11
286.1097929306445
 21
37.50477580634967
 31
0.0
 70
    32
 71
     5
 42
2.0
  3
STANDARD
100
AcDbAlignedDimension
 13
287.1097929306445
 23
36.22180308268563
 33
0.0
 14
285.1097929306445
 24
36.22180308268571
 34
0.0
100
AcDbRotatedDimension
  0
DIMENSION
  5
3AC
330
1E
100
AcDbEntity
  8
0
100
AcDbDimension
  2
*D26
 10
285.7597929306444
 20
34.31120055999135
 30
0.0
 11
285.0997929306444
 21
34.31120055999135
 31
0.0
 70
    32
 71
     5
 42
0.7000000000001592
  3
STANDARD
100
AcDbAlignedDimension
 13
286.4597929306446
 23
35.07180308268567
 33
0.0
 14
285.7597929306444
 24
35.07180308268566
 34
0.0
100
AcDbRotatedDimension
  0
DIMENSION
  5
3BA
330
1E
100
AcDbEntity
  8
0
100
AcDbDimension
  2
*D27
 10
287.8439095296019
 20
34.72180308268558
 30
0.0
 11
287.1689095296019
 21
34.36180308268563
 31
0.0
 70
    32
 71
     5
 42
0.3500000000000796
  3
STANDARD
100
AcDbAlignedDimension
 13
287.1097929306445
 23
35.07180308268566
 33
0.0
 14
286.1097929306445
 24
34.72180308268558
 34
0.0
 50
90.0
100
AcDbRotatedDimension
  0
DIMENSION
  5
3C9
330
1E
100
AcDbEntity
  8
0
100
AcDbDimension
  2
*D28
 10
287.6385535967654
 20
35.07180308268566
 30
0.0
 11
287.6385535967654
 21
35.64680308268569
 31
0.0
 70
    32
 71
     5
 42
1.14999999999997
  3
STANDARD
100
AcDbAlignedDimension
 13
287.1097929306445
 23
36.22180308268563
 33
0.0
 14
287.1097929306445
 24
35.07180308268566
 34
0.0
 50
90.0
100
AcDbRotatedDimension
  0
LWPOLYLINE
  5
3E1
330
1E
100
AcDbEntity
  8
0
100
AcDbPolyline
 90
        6
 70
     1
 43
0.0
 10
286.449645840004
 20
35.08180308268566
 10
287.0997929306445
 20
35.08180308268566
 10
287.0997929306445
 20
36.21889317997082
 42
0.5483938411260997
 10
285.1197929306445
 20
36.21889317997082
 10
285.1197929306445
 20
35.08180308268566
 10
285.7699400212851
 20
35.08180308268566
 42
1.029857301087439
  0
LWPOLYLINE
  5
3E2
330
1E
100
AcDbEntity
  8
0
100
AcDbPolyline
 90
        6
 70
     1
 43
0.0
 10
286.4696540149535
 20
35.06180308268567
 10
287.1197929306445
 20
35.06180308268566
 10
287.1197929306445
 20
36.22469969244703
 42
0.5515875150877628
 10
285.0997929306445
 20
36.22469969244703
 10
285.0997929306445
 20
35.06180308268566
 10
285.7499318463355
 20
35.06180308268566
 42
0.9725975251570833
  0
VIEWPORT
  5
1D9
330
1A
100
AcDbEntity
 67
     1
  8
0
100
AcDbViewport
 10
99.980751991272
 20
143.3935842514038
 30
0.0
 40
440.9297543499659
 41
314.2372683715819
 68
     1
 69
     1
 12
99.980751991272
 22
143.3935842514038
 13
0.0
 23
0.0
 14
10.0
 24
10.0
 15
10.0
 25
10.0
 16
0.0
 26
0.0
 36
1.0
 17
0.0
 27
0.0
 37
0.0
 42
50.0
 43
0.0
 44
0.0
 45
314.2372683715819
 50
0.0
 51
0.0
 72
   100
 90
    32800
  1

281
     0
 71
     1
 74
     0
110
0.0
120
0.0
130
0.0
111
1.0
121
0.0
131
0.0
112
0.0
122
1.0
132
0.0
 79
     0
146
0.0
  0
VIEWPORT
  5
1DB
330
1A
100
AcDbEntity
 67
     1
  8
0
100
AcDbViewport
 10
99.980751991272
 20
143.3935842514036
 30
0.0
 40
199.2902839821538
 41
285.8513345476648
 68
     2
 69
     2
 12
286.6488322780006
 22
37.31916769001135
 13
0.0
 23
0.0
 14
1.0
 24
1.0
 15
0.0
 25
0.0
 16
0.0
 26
0.0
 36
1.0
 17
0.0
 27
0.0
 37
0.0
 42
50.0
 43
0.0
 44
0.0
 45
15.39450171875231
 50
0.0
 51
0.0
 72
   100
 90
    32800
  1

281
     0
 71
     1
 74
     0
110
0.0
120
0.0
130
0.0
111
1.0
121
0.0
131
0.0
112
0.0
122
1.0
132
0.0
 79
     0
146
0.0
  0
ENDSEC
  0
SECTION
  2
OBJECTS
  0
DICTIONARY
  5
C
330
0
100
AcDbDictionary
281
     1
  3
ACAD_GROUP
350
D
  3
ACAD_LAYOUT
350
19
  3
ACAD_MLINESTYLE
350
16
  3
ACAD_PLOTSETTINGS
350
18
  3
ACAD_PLOTSTYLENAME
350
E
  0
DICTIONARY
  5
1AC
330
1E
100
AcDbDictionary
280
     1
281
     1
  3
ACAD_LAYOUTSELFREF
360
22D
  0
DICTIONARY
  5
1AA
330
1A
100
AcDbDictionary
280
     1
281
     1
  3
ACAD_LAYOUTSELFREF
360
22C
  0
DICTIONARY
  5
D
102
{ACAD_REACTORS
330
C
102
}
330
C
100
AcDbDictionary
281
     1
  0
DICTIONARY
  5
19
102
{ACAD_REACTORS
330
C
102
}
330
C
100
AcDbDictionary
281
     1
  3
Model
350
234
  3
Presentación1
350
235
  0
DICTIONARY
  5
16
102
{ACAD_REACTORS
330
C
102
}
330
C
100
AcDbDictionary
281
     1
  3
STANDARD
350
17
  0
DICTIONARY
  5
18
102
{ACAD_REACTORS
330
C
102
}
330
C
100
AcDbDictionary
281
     1
  3
SECCIONS
350
20A
  0
ACDBDICTIONARYWDFLT
  5
E
102
{ACAD_REACTORS
330
C
102
}
330
C
100
AcDbDictionary
281
     1
  3
Normal
350
F
100
AcDbDictionaryWithDefault
340
F
  0
XRECORD
  5
22D
102
{ACAD_REACTORS
330
1AC
102
}
330
1AC
100
AcDbXrecord
280
     1
340
1E
  0
XRECORD
  5
22C
102
{ACAD_REACTORS
330
1AA
102
}
330
1AA
100
AcDbXrecord
280
     1
340
1A
  0
LAYOUT
  5
234
102
{ACAD_REACTORS
330
19
102
}
330
19
100
AcDbPlotSettings
  1

  2
HP DesignJet 750C/PS FILE
  4

  6

 40
0.0
 41
0.0
 42
0.0
 43
0.0
 44
0.0
 45
0.0
 46
0.0
 47
0.0
 48
0.0
 49
0.0
140
0.0
141
0.0
142
1.0
143
1.0
 70
 11952
 72
     0
 73
     1
 74
     0
  7
T:\CFG ACAD2000\Plot Styles\xvr.ctb
 75
     0
147
1.0
148
-7090.473598226942
149
-757.6512562692685
100
AcDbLayout
  1
Model
 70
     1
 71
     0
 10
0.0
 20
0.0
 11
12.0
 21
9.0
 12
0.0
 22
0.0
 32
0.0
 14
0.0
 24
0.0
 34
0.0
 15
0.0
 25
0.0
 35
0.0
146
0.0
 13
0.0
 23
0.0
 33
0.0
 16
1.0
 26
0.0
 36
0.0
 17
0.0
 27
1.0
 37
0.0
 76
     0
330
1E
  0
LAYOUT
  5
235
102
{ACAD_REACTORS
330
19
102
}
330
19
100
AcDbPlotSettings
  1

  2
HP DesignJet 750C/PS FILE
  4

  6

 40
0.0
 41
0.0
 42
0.0
 43
0.0
 44
0.0
 45
0.0
 46
0.0
 47
0.0
 48
0.0
 49
0.0
140
0.0
141
0.0
142
1.0
143
1.0
 70
   688
 72
     0
 73
     0
 74
     5
  7
T:\CFG ACAD2000\Plot Styles\xvr.ctb
 75
    16
147
1.0
148
0.0
149
0.0
100
AcDbLayout
  1
Presentación1
 70
     1
 71
     1
 10
-5.027083396911621
 20
-5.111741065979003
 11
204.9885873794554
 21
291.8989095687866
 12
0.0
 22
0.0
 32
0.0
 14
0.3356100001950608
 24
0.467916977571349
 34
0.0
 15
199.6258939823488
 25
286.3192515252361
 35
0.0
146
0.0
 13
0.0
 23
0.0
 33
0.0
 16
1.0
 26
0.0
 36
0.0
 17
0.0
 27
1.0
 37
0.0
 76
     0
330
1A
331
1D9
  0
MLINESTYLE
  5
17
102
{ACAD_REACTORS
330
16
102
}
330
16
100
AcDbMlineStyle
  2
STANDARD
 70
     0
  3

 62
   256
 51
90.0
 52
90.0
 71
     2
 49
0.5
 62
   256
  6
BYLAYER
 49
-0.5
 62
   256
  6
BYLAYER
  0
PLOTSETTINGS
  5
20A
102
{ACAD_REACTORS
330
18
102
}
330
18
100
AcDbPlotSettings
  1
seccions
  2
\\SERVIDOR1\LS8100PS
  4
A4
  6

 40
5.365749835968016
 41
5.4080810546875
 42
5.154083251953125
 43
5.154083251953125
 44
209.9733276367186
 45
296.9683227539062
 46
0.0
 47
0.0
 48
281.3959999999998
 49
29.897
140
291.8959999999998
141
44.747
142
1.0
143
0.0526438507570551
 70
  1712
 72
     1
 73
     0
 74
     4
  7
T:\CFG ACAD2000\Plot Styles\xvr.ctb
 75
     0
147
18.99557090940928
148
-281.3959999999998
149
-29.897
  0
ACDBPLACEHOLDER
  5
F
102
{ACAD_REACTORS
330
E
102
}
330
E
  0
ENDSEC
  0
EOF
