  0
SECTION
  2
HEADER
  9
$ACADVER
  1
AC1015
  9
$ACADMAINTVER
 70
     6
  9
$DWGCODEPAGE
  3
ANSI_1252
  9
$INSBASE
 10
0.0
 20
0.0
 30
0.0
  9
$EXTMIN
 10
108.8388072569375
 20
194.8609323148393
 30
-0.0000000000112498
  9
$EXTMAX
 10
110.9536749345177
 20
197.8519598045991
 30
0.0000000000002956
  9
$LIMMIN
 10
0.0
 20
0.0
  9
$LIMMAX
 10
420.0
 20
297.0
  9
$ORTHOMODE
 70
     0
  9
$REGENMODE
 70
     1
  9
$FILLMODE
 70
     1
  9
$QTEXTMODE
 70
     0
  9
$MIRRTEXT
 70
     1
  9
$LTSCALE
 40
1.0
  9
$ATTMODE
 70
     1
  9
$TEXTSIZE
 40
2.5
  9
$TRACEWID
 40
1.0
  9
$TEXTSTYLE
  7
Standard
  9
$CLAYER
  8
0
  9
$CELTYPE
  6
ByLayer
  9
$CECOLOR
 62
   256
  9
$CELTSCALE
 40
1.0
  9
$DISPSILH
 70
     0
  9
$DIMSCALE
 40
0.2
  9
$DIMASZ
 40
0.18
  9
$DIMEXO
 40
0.0625
  9
$DIMDLI
 40
0.38
  9
$DIMRND
 40
0.0
  9
$DIMDLE
 40
0.0
  9
$DIMEXE
 40
0.18
  9
$DIMTP
 40
0.0
  9
$DIMTM
 40
0.0
  9
$DIMTXT
 40
0.18
  9
$DIMCEN
 40
0.09
  9
$DIMTSZ
 40
0.0
  9
$DIMTOL
 70
     0
  9
$DIMLIM
 70
     0
  9
$DIMTIH
 70
     0
  9
$DIMTOH
 70
     0
  9
$DIMSE1
 70
     0
  9
$DIMSE2
 70
     0
  9
$DIMTAD
 70
     0
  9
$DIMZIN
 70
     0
  9
$DIMBLK
  1

  9
$DIMASO
 70
     1
  9
$DIMSHO
 70
     1
  9
$DIMPOST
  1

  9
$DIMAPOST
  1

  9
$DIMALT
 70
     0
  9
$DIMALTD
 70
     2
  9
$DIMALTF
 40
25.4
  9
$DIMLFAC
 40
1.0
  9
$DIMTOFL
 70
     0
  9
$DIMTVP
 40
0.0
  9
$DIMTIX
 70
     0
  9
$DIMSOXD
 70
     0
  9
$DIMSAH
 70
     0
  9
$DIMBLK1
  1

  9
$DIMBLK2
  1

  9
$DIMSTYLE
  2
Standard
  9
$DIMCLRD
 70
     0
  9
$DIMCLRE
 70
     0
  9
$DIMCLRT
 70
     0
  9
$DIMTFAC
 40
1.0
  9
$DIMGAP
 40
0.09
  9
$DIMJUST
 70
     0
  9
$DIMSD1
 70
     0
  9
$DIMSD2
 70
     0
  9
$DIMTOLJ
 70
     1
  9
$DIMTZIN
 70
     0
  9
$DIMALTZ
 70
     0
  9
$DIMALTTZ
 70
     0
  9
$DIMUPT
 70
     0
  9
$DIMDEC
 70
     4
  9
$DIMTDEC
 70
     4
  9
$DIMALTU
 70
     2
  9
$DIMALTTD
 70
     2
  9
$DIMTXSTY
  7
Standard
  9
$DIMAUNIT
 70
     0
  9
$DIMADEC
 70
     0
  9
$DIMALTRND
 40
0.0
  9
$DIMAZIN
 70
     0
  9
$DIMDSEP
 70
    46
  9
$DIMATFIT
 70
     3
  9
$DIMFRAC
 70
     0
  9
$DIMLDRBLK
  1

  9
$DIMLUNIT
 70
     2
  9
$DIMLWD
 70
    -2
  9
$DIMLWE
 70
    -2
  9
$DIMTMOVE
 70
     0
  9
$LUNITS
 70
     2
  9
$LUPREC
 70
     4
  9
$SKETCHINC
 40
1.0
  9
$FILLETRAD
 40
0.0954640423026945
  9
$AUNITS
 70
     0
  9
$AUPREC
 70
     0
  9
$MENU
  1
.
  9
$ELEVATION
 40
0.0
  9
$PELEVATION
 40
0.0
  9
$THICKNESS
 40
0.0
  9
$LIMCHECK
 70
     0
  9
$CHAMFERA
 40
10.0
  9
$CHAMFERB
 40
10.0
  9
$CHAMFERC
 40
20.0
  9
$CHAMFERD
 40
0.0
  9
$SKPOLY
 70
     0
  9
$TDCREATE
 40
2451689.495486597
  9
$TDUCREATE
 40
2451689.412153263
  9
$TDUPDATE
 40
2451690.389295405
  9
$TDUUPDATE
 40
2451690.305962071
  9
$TDINDWG
 40
0.0628312037
  9
$TDUSRTIMER
 40
0.0628310880
  9
$USRTIMER
 70
     1
  9
$ANGBASE
 50
0.0
  9
$ANGDIR
 70
     0
  9
$PDMODE
 70
     0
  9
$PDSIZE
 40
0.0
  9
$PLINEWID
 40
0.0
  9
$SPLFRAME
 70
     0
  9
$SPLINETYPE
 70
     6
  9
$SPLINESEGS
 70
     8
  9
$HANDSEED
  5
312
  9
$SURFTAB1
 70
     6
  9
$SURFTAB2
 70
     6
  9
$SURFTYPE
 70
     6
  9
$SURFU
 70
     6
  9
$SURFV
 70
     6
  9
$UCSBASE
  2

  9
$UCSNAME
  2

  9
$UCSORG
 10
0.0
 20
0.0
 30
0.0
  9
$UCSXDIR
 10
1.0
 20
0.0
 30
0.0
  9
$UCSYDIR
 10
0.0
 20
1.0
 30
0.0
  9
$UCSORTHOREF
  2

  9
$UCSORTHOVIEW
 70
     0
  9
$UCSORGTOP
 10
0.0
 20
0.0
 30
0.0
  9
$UCSORGBOTTOM
 10
0.0
 20
0.0
 30
0.0
  9
$UCSORGLEFT
 10
0.0
 20
0.0
 30
0.0
  9
$UCSORGRIGHT
 10
0.0
 20
0.0
 30
0.0
  9
$UCSORGFRONT
 10
0.0
 20
0.0
 30
0.0
  9
$UCSORGBACK
 10
0.0
 20
0.0
 30
0.0
  9
$PUCSBASE
  2

  9
$PUCSNAME
  2

  9
$PUCSORG
 10
0.0
 20
0.0
 30
0.0
  9
$PUCSXDIR
 10
1.0
 20
0.0
 30
0.0
  9
$PUCSYDIR
 10
0.0
 20
1.0
 30
0.0
  9
$PUCSORTHOREF
  2

  9
$PUCSORTHOVIEW
 70
     0
  9
$PUCSORGTOP
 10
0.0
 20
0.0
 30
0.0
  9
$PUCSORGBOTTOM
 10
0.0
 20
0.0
 30
0.0
  9
$PUCSORGLEFT
 10
0.0
 20
0.0
 30
0.0
  9
$PUCSORGRIGHT
 10
0.0
 20
0.0
 30
0.0
  9
$PUCSORGFRONT
 10
0.0
 20
0.0
 30
0.0
  9
$PUCSORGBACK
 10
0.0
 20
0.0
 30
0.0
  9
$USERI1
 70
     0
  9
$USERI2
 70
     0
  9
$USERI3
 70
     0
  9
$USERI4
 70
     0
  9
$USERI5
 70
     0
  9
$USERR1
 40
0.0
  9
$USERR2
 40
0.0
  9
$USERR3
 40
0.0
  9
$USERR4
 40
0.0
  9
$USERR5
 40
0.0
  9
$WORLDVIEW
 70
     1
  9
$SHADEDGE
 70
     3
  9
$SHADEDIF
 70
    70
  9
$TILEMODE
 70
     1
  9
$MAXACTVP
 70
    64
  9
$PINSBASE
 10
0.0
 20
0.0
 30
0.0
  9
$PLIMCHECK
 70
     0
  9
$PEXTMIN
 10
26.04558448791504
 20
19.52625021934507
 30
0.0
  9
$PEXTMAX
 10
234.4102603912353
 20
175.7362519741057
 30
0.0
  9
$PLIMMIN
 10
-17.9810791015625
 20
-7.482416629791258
  9
$PLIMMAX
 10
278.9449157714843
 20
202.4909110069275
  9
$UNITMODE
 70
     0
  9
$VISRETAIN
 70
     1
  9
$PLINEGEN
 70
     0
  9
$PSLTSCALE
 70
     1
  9
$TREEDEPTH
 70
  3020
  9
$CMLSTYLE
  2
Standard
  9
$CMLJUST
 70
     0
  9
$CMLSCALE
 40
20.0
  9
$PROXYGRAPHICS
 70
     1
  9
$MEASUREMENT
 70
     1
  9
$CELWEIGHT
370
    -1
  9
$ENDCAPS
280
     0
  9
$JOINSTYLE
280
     0
  9
$LWDISPLAY
290
     0
  9
$INSUNITS
 70
     4
  9
$HYPERLINKBASE
  1

  9
$STYLESHEET
  1

  9
$XEDIT
290
     1
  9
$CEPSNTYPE
380
     0
  9
$PSTYLEMODE
290
     1
  9
$FINGERPRINTGUID
  2
{8BB245F1-314F-11D4-A5AD-0008C769B1B5}
  9
$VERSIONGUID
  2
{66FCDA47-3204-11D4-A5AE-0008C769B1B5}
  9
$EXTNAMES
290
     1
  9
$PSVPSCALE
 40
0.0
  9
$OLESTARTUP
290
     0
  0
ENDSEC
  0
SECTION
  2
CLASSES
  0
CLASS
  1
ACDBDICTIONARYWDFLT
  2
AcDbDictionaryWithDefault
  3
AutoCAD 2000
 90
        0
280
     0
281
     0
  0
CLASS
  1
ACDBPLACEHOLDER
  2
AcDbPlaceHolder
  3
AutoCAD 2000
 90
        0
280
     0
281
     0
  0
CLASS
  1
LAYOUT
  2
AcDbLayout
  3
AutoCAD 2000
 90
        0
280
     0
281
     0
  0
ENDSEC
  0
SECTION
  2
TABLES
  0
TABLE
  2
VPORT
  5
8
330
0
100
AcDbSymbolTable
 70
     2
  0
VPORT
  5
311
330
8
100
AcDbSymbolTableRecord
100
AcDbViewportTableRecord
  2
*Active
 70
     0
 10
0.0
 20
0.0
 11
1.0
 21
1.0
 12
110.4293586565911
 22
196.3564460597192
 13
0.0
 23
0.0
 14
10.0
 24
10.0
 15
10.0
 25
10.0
 16
0.0
 26
0.0
 36
1.0
 17
0.0
 27
0.0
 37
0.0
 40
3.019113639152662
 41
1.256568778979907
 42
50.0
 43
0.0
 44
0.0
 50
0.0
 51
0.0
 71
     0
 72
   100
 73
     1
 74
     3
 75
     0
 76
     0
 77
     0
 78
     0
281
     0
 65
     1
110
0.0
120
0.0
130
0.0
111
1.0
121
0.0
131
0.0
112
0.0
122
1.0
132
0.0
 79
     0
146
0.0
  0
ENDTAB
  0
TABLE
  2
LTYPE
  5
5
330
0
100
AcDbSymbolTable
 70
     1
  0
LTYPE
  5
14
330
5
100
AcDbSymbolTableRecord
100
AcDbLinetypeTableRecord
  2
ByBlock
 70
     0
  3

 72
    65
 73
     0
 40
0.0
  0
LTYPE
  5
15
330
5
100
AcDbSymbolTableRecord
100
AcDbLinetypeTableRecord
  2
ByLayer
 70
     0
  3

 72
    65
 73
     0
 40
0.0
  0
LTYPE
  5
16
330
5
100
AcDbSymbolTableRecord
100
AcDbLinetypeTableRecord
  2
Continuous
 70
     0
  3
Solid line
 72
    65
 73
     0
 40
0.0
  0
ENDTAB
  0
TABLE
  2
LAYER
  5
2
330
0
100
AcDbSymbolTable
 70
     2
  0
LAYER
  5
10
330
2
100
AcDbSymbolTableRecord
100
AcDbLayerTableRecord
  2
0
 70
     0
 62
     7
  6
Continuous
370
    -3
390
F
  0
LAYER
  5
47
330
2
100
AcDbSymbolTableRecord
100
AcDbLayerTableRecord
  2
Defpoints
 70
     0
 62
     7
  6
Continuous
290
     0
370
    -3
390
F
  0
ENDTAB
  0
TABLE
  2
STYLE
  5
3
330
0
100
AcDbSymbolTable
 70
     2
  0
STYLE
  5
11
330
3
100
AcDbSymbolTableRecord
100
AcDbTextStyleTableRecord
  2
Standard
 70
     0
 40
0.0
 41
1.0
 50
0.0
 71
     0
 42
2.5
  3
txt
  4

  0
STYLE
  5
33
330
3
100
AcDbSymbolTableRecord
100
AcDbTextStyleTableRecord
  2
ROMANC
 70
     0
 40
0.0
 41
1.0
 50
0.0
 71
     0
 42
0.2
  3
ROMANC
  4

  0
ENDTAB
  0
TABLE
  2
VIEW
  5
6
330
0
100
AcDbSymbolTable
 70
     0
  0
ENDTAB
  0
TABLE
  2
UCS
  5
7
330
0
100
AcDbSymbolTable
 70
     0
  0
ENDTAB
  0
TABLE
  2
APPID
  5
9
330
0
100
AcDbSymbolTable
 70
     1
  0
APPID
  5
12
330
9
100
AcDbSymbolTableRecord
100
AcDbRegAppTableRecord
  2
ACAD
 70
     0
  0
ENDTAB
  0
TABLE
  2
DIMSTYLE
  5
A
330
0
100
AcDbSymbolTable
 70
     2
100
AcDbDimStyleTable
 71
     2
340
34
340
27
  0
DIMSTYLE
105
27
330
A
100
AcDbSymbolTableRecord
100
AcDbDimStyleTableRecord
  2
ISO-25
 70
     0
 41
2.5
 42
0.625
 43
3.75
 44
1.25
 73
     0
 74
     0
 77
     1
 78
     8
140
2.5
141
2.5
143
0.03937007874016
147
0.625
171
     3
172
     1
271
     2
272
     2
274
     3
278
    44
283
     0
284
     8
340
11
  0
DIMSTYLE
105
34
102
{ACAD_REACTORS
330
21E
330
22C
330
244
330
252
330
260
330
2B4
102
}
330
A
100
AcDbSymbolTableRecord
100
AcDbDimStyleTableRecord
  2
Standard
 70
     0
 40
0.2
 73
     0
 74
     0
340
11
  0
ENDTAB
  0
TABLE
  2
BLOCK_RECORD
  5
1
330
0
100
AcDbSymbolTable
 70
    26
  0
BLOCK_RECORD
  5
1F
330
1
100
AcDbSymbolTableRecord
100
AcDbBlockTableRecord
  2
*Model_Space
340
22
  0
BLOCK_RECORD
  5
1B
330
1
100
AcDbSymbolTableRecord
100
AcDbBlockTableRecord
  2
*Paper_Space
340
1E
  0
BLOCK_RECORD
  5
23
330
1
100
AcDbSymbolTableRecord
100
AcDbBlockTableRecord
  2
*Paper_Space0
340
26
  0
BLOCK_RECORD
  5
48
330
1
100
AcDbSymbolTableRecord
100
AcDbBlockTableRecord
  2
*D1
340
0
  0
BLOCK_RECORD
  5
57
330
1
100
AcDbSymbolTableRecord
100
AcDbBlockTableRecord
  2
*D2
340
0
  0
BLOCK_RECORD
  5
6D
330
1
100
AcDbSymbolTableRecord
100
AcDbBlockTableRecord
  2
*D3
340
0
  0
BLOCK_RECORD
  5
A5
330
1
100
AcDbSymbolTableRecord
100
AcDbBlockTableRecord
  2
*D4
340
0
  0
BLOCK_RECORD
  5
B3
330
1
100
AcDbSymbolTableRecord
100
AcDbBlockTableRecord
  2
*D5
340
0
  0
BLOCK_RECORD
  5
CB
330
1
100
AcDbSymbolTableRecord
100
AcDbBlockTableRecord
  2
*D6
340
0
  0
BLOCK_RECORD
  5
101
330
1
100
AcDbSymbolTableRecord
100
AcDbBlockTableRecord
  2
*D7
340
0
  0
BLOCK_RECORD
  5
12E
330
1
100
AcDbSymbolTableRecord
100
AcDbBlockTableRecord
  2
*D8
340
0
  0
BLOCK_RECORD
  5
13C
330
1
100
AcDbSymbolTableRecord
100
AcDbBlockTableRecord
  2
*D9
340
0
  0
BLOCK_RECORD
  5
14A
330
1
100
AcDbSymbolTableRecord
100
AcDbBlockTableRecord
  2
*D10
340
0
  0
BLOCK_RECORD
  5
155
330
1
100
AcDbSymbolTableRecord
100
AcDbBlockTableRecord
  2
*D11
340
0
  0
BLOCK_RECORD
  5
163
330
1
100
AcDbSymbolTableRecord
100
AcDbBlockTableRecord
  2
*D12
340
0
  0
BLOCK_RECORD
  5
171
330
1
100
AcDbSymbolTableRecord
100
AcDbBlockTableRecord
  2
*D13
340
0
  0
BLOCK_RECORD
  5
17F
330
1
100
AcDbSymbolTableRecord
100
AcDbBlockTableRecord
  2
*D14
340
0
  0
BLOCK_RECORD
  5
18D
330
1
100
AcDbSymbolTableRecord
100
AcDbBlockTableRecord
  2
*D15
340
0
  0
BLOCK_RECORD
  5
19C
330
1
100
AcDbSymbolTableRecord
100
AcDbBlockTableRecord
  2
*D16
340
0
  0
BLOCK_RECORD
  5
1AA
330
1
100
AcDbSymbolTableRecord
100
AcDbBlockTableRecord
  2
*D17
340
0
  0
BLOCK_RECORD
  5
1B8
330
1
100
AcDbSymbolTableRecord
100
AcDbBlockTableRecord
  2
*D18
340
0
  0
BLOCK_RECORD
  5
1C1
330
1
100
AcDbSymbolTableRecord
100
AcDbBlockTableRecord
  2
*D19
340
0
  0
BLOCK_RECORD
  5
21F
330
1
100
AcDbSymbolTableRecord
100
AcDbBlockTableRecord
  2
*D20
340
0
  0
BLOCK_RECORD
  5
22D
330
1
100
AcDbSymbolTableRecord
100
AcDbBlockTableRecord
  2
*D21
340
0
  0
BLOCK_RECORD
  5
245
330
1
100
AcDbSymbolTableRecord
100
AcDbBlockTableRecord
  2
*D22
340
0
  0
BLOCK_RECORD
  5
253
330
1
100
AcDbSymbolTableRecord
100
AcDbBlockTableRecord
  2
*D23
340
0
  0
BLOCK_RECORD
  5
261
330
1
100
AcDbSymbolTableRecord
100
AcDbBlockTableRecord
  2
*D24
340
0
  0
BLOCK_RECORD
  5
2B5
330
1
100
AcDbSymbolTableRecord
100
AcDbBlockTableRecord
  2
*D25
340
0
  0
ENDTAB
  0
ENDSEC
  0
SECTION
  2
BLOCKS
  0
BLOCK
  5
20
330
1F
100
AcDbEntity
  8
0
100
AcDbBlockBegin
  2
*Model_Space
 70
     0
 10
0.0
 20
0.0
 30
0.0
  3
*Model_Space
  1

  0
ENDBLK
  5
21
330
1F
100
AcDbEntity
  8
0
100
AcDbBlockEnd
  0
BLOCK
  5
1C
330
1B
100
AcDbEntity
 67
     1
  8
0
100
AcDbBlockBegin
  2
*Paper_Space
 70
     0
 10
0.0
 20
0.0
 30
0.0
  3
*Paper_Space
  1

  0
ENDBLK
  5
1D
330
1B
100
AcDbEntity
 67
     1
  8
0
100
AcDbBlockEnd
  0
BLOCK
  5
24
330
23
100
AcDbEntity
  8
0
100
AcDbBlockBegin
  2
*Paper_Space0
 70
     0
 10
0.0
 20
0.0
 30
0.0
  3
*Paper_Space0
  1

  0
ENDBLK
  5
25
330
23
100
AcDbEntity
  8
0
100
AcDbBlockEnd
  0
BLOCK
  5
54
330
48
100
AcDbEntity
  8
0
100
AcDbBlockBegin
  2
*D1
 70
     1
 10
0.0
 20
0.0
 30
0.0
  3
*D1
  1

  0
LINE
  5
49
330
48
100
AcDbEntity
  8
0
 62
     0
370
    -2
100
AcDbLine
 10
110.6126327245481
 20
196.2319080559368
 30
0.0
 11
111.2529556781061
 21
196.2319080559368
 31
0.0
  0
LINE
  5
4A
330
48
100
AcDbEntity
  8
0
 62
     0
370
    -2
100
AcDbLine
 10
110.6126327245481
 20
195.9485319398331
 30
0.0
 11
111.2529556781061
 21
195.9485319398331
 31
0.0
  0
LINE
  5
4B
330
48
100
AcDbEntity
  8
0
 62
     0
370
    -2
100
AcDbLine
 10
110.0029556781061
 20
198.7319080559368
 30
0.0
 11
110.0029556781061
 21
201.2319080559368
 31
0.0
  0
LINE
  5
4C
330
48
100
AcDbEntity
  8
0
 62
     0
370
    -2
100
AcDbLine
 10
110.0029556781061
 20
193.4485319398331
 30
0.0
 11
110.0029556781061
 21
182.1985319398331
 31
0.0
  0
LINE
  5
4D
330
48
100
AcDbEntity
  8
0
 62
     0
370
    -2
100
AcDbLine
 10
110.0029556781061
 20
196.2319080559368
 30
0.0
 11
110.0029556781061
 21
195.9485319398331
 31
0.0
  0
SOLID
  5
4E
330
48
100
AcDbEntity
  8
0
 62
     0
100
AcDbTrace
 10
109.5862890114394
 20
198.7319080559368
 30
0.0
 11
110.4196223447727
 21
198.7319080559368
 31
0.0
 12
110.0029556781061
 22
196.2319080559368
 32
0.0
 13
110.0029556781061
 23
196.2319080559368
 33
0.0
  0
SOLID
  5
4F
330
48
100
AcDbEntity
  8
0
 62
     0
100
AcDbTrace
 10
109.5862890114394
 20
193.4485319398331
 30
0.0
 11
110.4196223447727
 21
193.4485319398331
 31
0.0
 12
110.0029556781061
 22
195.9485319398331
 32
0.0
 13
110.0029556781061
 23
195.9485319398331
 33
0.0
  0
MTEXT
  5
50
330
48
100
AcDbEntity
  8
0
 62
     0
100
AcDbMText
 10
107.9196223447727
 20
186.5735319398331
 30
0.0
 40
2.5
 41
0.0
 71
     5
 72
     1
  1
0,28
 11
0.0000000000000001
 21
1.0
 31
0.0
 73
     1
 44
1.0
  0
POINT
  5
51
330
48
100
AcDbEntity
  8
Defpoints
 62
     0
100
AcDbPoint
 10
109.9876327245482
 20
196.2319080559368
 30
0.0
  0
POINT
  5
52
330
48
100
AcDbEntity
  8
Defpoints
 62
     0
100
AcDbPoint
 10
109.9876327245482
 20
195.9485319398331
 30
0.0
  0
POINT
  5
53
330
48
100
AcDbEntity
  8
Defpoints
 62
     0
100
AcDbPoint
 10
110.0029556781061
 20
195.9485319398331
 30
0.0
  0
ENDBLK
  5
55
330
48
100
AcDbEntity
  8
0
100
AcDbBlockEnd
  0
BLOCK
  5
63
330
57
100
AcDbEntity
  8
0
100
AcDbBlockBegin
  2
*D2
 70
     1
 10
0.0
 20
0.0
 30
0.0
  3
*D2
  1

  0
LINE
  5
58
330
57
100
AcDbEntity
  8
0
 62
     0
370
    -2
100
AcDbLine
 10
111.357818706102
 20
194.0797791870588
 30
0.0
 11
111.01813814087
 21
194.0797791870588
 31
0.0
  0
LINE
  5
59
330
57
100
AcDbEntity
  8
0
 62
     0
370
    -2
100
AcDbLine
 10
111.357818706102
 20
193.834697346282
 30
0.0
 11
111.01813814087
 21
193.834697346282
 31
0.0
  0
LINE
  5
5A
330
57
100
AcDbEntity
  8
0
 62
     0
370
    -2
100
AcDbLine
 10
111.19813814087
 20
194.2597791870589
 30
0.0
 11
111.19813814087
 21
194.4397791870589
 31
0.0
  0
LINE
  5
5B
330
57
100
AcDbEntity
  8
0
 62
     0
370
    -2
100
AcDbLine
 10
111.19813814087
 20
193.6546973462819
 30
0.0
 11
111.19813814087
 21
193.474697346282
 31
0.0
  0
LINE
  5
5C
330
57
100
AcDbEntity
  8
0
 62
     0
370
    -2
100
AcDbLine
 10
111.19813814087
 20
193.474697346282
 30
0.0
 11
111.01813814087
 21
193.474697346282
 31
0.0
  0
SOLID
  5
5D
330
57
100
AcDbEntity
  8
0
 62
     0
100
AcDbTrace
 10
111.16813814087
 20
194.2597791870589
 30
0.0
 11
111.2281381408701
 21
194.2597791870589
 31
0.0
 12
111.19813814087
 22
194.0797791870588
 32
0.0
 13
111.19813814087
 23
194.0797791870588
 33
0.0
  0
SOLID
  5
5E
330
57
100
AcDbEntity
  8
0
 62
     0
100
AcDbTrace
 10
111.16813814087
 20
193.6546973462819
 30
0.0
 11
111.2281381408701
 21
193.6546973462819
 31
0.0
 12
111.19813814087
 22
193.834697346282
 32
0.0
 13
111.19813814087
 23
193.834697346282
 33
0.0
  0
MTEXT
  5
5F
330
57
100
AcDbEntity
  8
0
 62
     0
100
AcDbMText
 10
110.52313814087
 20
193.474697346282
 30
0.0
 40
0.18
 41
0.0
 71
     5
 72
     1
  1
\A1;0.2451
 73
     1
 44
1.0
  0
POINT
  5
60
330
57
100
AcDbEntity
  8
Defpoints
 62
     0
100
AcDbPoint
 10
111.4203187061022
 20
194.0797791870588
 30
0.0
  0
POINT
  5
61
330
57
100
AcDbEntity
  8
Defpoints
 62
     0
100
AcDbPoint
 10
111.4203187061022
 20
193.834697346282
 30
0.0
  0
POINT
  5
62
330
57
100
AcDbEntity
  8
Defpoints
 62
     0
100
AcDbPoint
 10
111.19813814087
 20
193.834697346282
 30
0.0
  0
ENDBLK
  5
64
330
57
100
AcDbEntity
  8
0
100
AcDbBlockEnd
  0
BLOCK
  5
79
330
6D
100
AcDbEntity
  8
0
100
AcDbBlockBegin
  2
*D3
 70
     1
 10
0.0
 20
0.0
 30
0.0
  3
*D3
  1

  0
LINE
  5
10E
330
6D
100
AcDbEntity
  8
0
 62
     0
370
    -2
100
AcDbLine
 10
110.1503673523328
 20
196.2780839131655
 30
0.0
 11
110.3896089567359
 21
196.2780839131655
 31
0.0
  0
LINE
  5
10F
330
6D
100
AcDbEntity
  8
0
 62
     0
370
    -2
100
AcDbLine
 10
109.9828673523328
 20
195.9580839131655
 30
0.0
 11
110.3896089567359
 21
195.9580839131655
 31
0.0
  0
LINE
  5
110
330
6D
100
AcDbEntity
  8
0
 62
     0
370
    -2
100
AcDbLine
 10
110.353608956736
 20
196.2420839131655
 30
0.0
 11
110.353608956736
 21
196.1810839131655
 31
0.0
  0
LINE
  5
111
330
6D
100
AcDbEntity
  8
0
 62
     0
370
    -2
100
AcDbLine
 10
110.353608956736
 20
195.9940839131655
 30
0.0
 11
110.353608956736
 21
196.0550839131655
 31
0.0
  0
SOLID
  5
112
330
6D
100
AcDbEntity
  8
0
 62
     0
100
AcDbTrace
 10
110.347608956736
 20
196.2420839131655
 30
0.0
 11
110.3596089567359
 21
196.2420839131655
 31
0.0
 12
110.353608956736
 22
196.2780839131655
 32
0.0
 13
110.353608956736
 23
196.2780839131655
 33
0.0
  0
SOLID
  5
113
330
6D
100
AcDbEntity
  8
0
 62
     0
100
AcDbTrace
 10
110.347608956736
 20
195.9940839131655
 30
0.0
 11
110.3596089567359
 21
195.9940839131655
 31
0.0
 12
110.353608956736
 22
195.9580839131655
 32
0.0
 13
110.353608956736
 23
195.9580839131655
 33
0.0
  0
MTEXT
  5
114
330
6D
100
AcDbEntity
  8
0
 62
     0
100
AcDbMText
 10
110.353608956736
 20
196.1180839131655
 30
0.0
 40
0.036
 41
0.0
 71
     5
 72
     1
  1
\A1;1.60
 11
0.0000000000000001
 21
1.0
 31
0.0
 73
     1
 44
1.0
  0
POINT
  5
115
330
6D
100
AcDbEntity
  8
Defpoints
 62
     0
100
AcDbPoint
 10
110.1378673523327
 20
196.2780839131655
 30
0.0
  0
POINT
  5
116
330
6D
100
AcDbEntity
  8
Defpoints
 62
     0
100
AcDbPoint
 10
109.9703673523328
 20
195.9580839131655
 30
0.0
  0
POINT
  5
117
330
6D
100
AcDbEntity
  8
Defpoints
 62
     0
100
AcDbPoint
 10
110.353608956736
 20
195.9580839131655
 30
0.0
  0
ENDBLK
  5
7A
330
6D
100
AcDbEntity
  8
0
100
AcDbBlockEnd
  0
BLOCK
  5
B0
330
A5
100
AcDbEntity
  8
0
100
AcDbBlockBegin
  2
*D4
 70
     1
 10
0.0
 20
0.0
 30
0.0
  3
*D4
  1

  0
LINE
  5
EC
330
A5
100
AcDbEntity
  8
0
 62
     0
370
    -2
100
AcDbLine
 10
110.1378673523327
 20
195.9655839131655
 30
0.0
 11
110.1378673523327
 21
195.8525902149745
 31
0.0
  0
LINE
  5
ED
330
A5
100
AcDbEntity
  8
0
 62
     0
370
    -2
100
AcDbLine
 10
109.9578673523327
 20
195.9655839131655
 30
0.0
 11
109.9578673523327
 21
195.8525902149745
 31
0.0
  0
LINE
  5
EE
330
A5
100
AcDbEntity
  8
0
 62
     0
370
    -2
100
AcDbLine
 10
110.1738673523328
 20
195.8885902149745
 30
0.0
 11
110.2098673523328
 21
195.8885902149745
 31
0.0
  0
LINE
  5
EF
330
A5
100
AcDbEntity
  8
0
 62
     0
370
    -2
100
AcDbLine
 10
109.9218673523328
 20
195.8885902149745
 30
0.0
 11
109.8858673523327
 21
195.8885902149745
 31
0.0
  0
SOLID
  5
F0
330
A5
100
AcDbEntity
  8
0
 62
     0
100
AcDbTrace
 10
110.1738673523328
 20
195.8945902149745
 30
0.0
 11
110.1738673523328
 21
195.8825902149745
 31
0.0
 12
110.1378673523327
 22
195.8885902149745
 32
0.0
 13
110.1378673523327
 23
195.8885902149745
 33
0.0
  0
SOLID
  5
F1
330
A5
100
AcDbEntity
  8
0
 62
     0
100
AcDbTrace
 10
109.9218673523328
 20
195.8945902149745
 30
0.0
 11
109.9218673523328
 21
195.8825902149745
 31
0.0
 12
109.9578673523327
 22
195.8885902149745
 32
0.0
 13
109.9578673523327
 23
195.8885902149745
 33
0.0
  0
MTEXT
  5
F2
330
A5
100
AcDbEntity
  8
0
 62
     0
100
AcDbMText
 10
110.0478673523328
 20
195.8885902149745
 30
0.0
 40
0.036
 41
0.0
 71
     5
 72
     1
  1
\A1;0.90
 73
     1
 44
1.0
  0
POINT
  5
F3
330
A5
100
AcDbEntity
  8
Defpoints
 62
     0
100
AcDbPoint
 10
110.1378673523327
 20
195.9780839131655
 30
0.0
  0
POINT
  5
F4
330
A5
100
AcDbEntity
  8
Defpoints
 62
     0
100
AcDbPoint
 10
109.9578673523327
 20
195.9780839131655
 30
0.0
  0
POINT
  5
F5
330
A5
100
AcDbEntity
  8
Defpoints
 62
     0
100
AcDbPoint
 10
109.9578673523327
 20
195.8885902149745
 30
0.0
  0
ENDBLK
  5
B1
330
A5
100
AcDbEntity
  8
0
100
AcDbBlockEnd
  0
BLOCK
  5
BE
330
B3
100
AcDbEntity
  8
0
100
AcDbBlockBegin
  2
*D5
 70
     1
 10
0.0
 20
0.0
 30
0.0
  3
*D5
  1

  0
LINE
  5
E2
330
B3
100
AcDbEntity
  8
0
 62
     0
370
    -2
100
AcDbLine
 10
109.6378673523328
 20
195.9655839131655
 30
0.0
 11
109.6378673523328
 21
195.8525902149745
 31
0.0
  0
LINE
  5
E3
330
B3
100
AcDbEntity
  8
0
 62
     0
370
    -2
100
AcDbLine
 10
109.4578673523328
 20
195.9655839131655
 30
0.0
 11
109.4578673523328
 21
195.8525902149745
 31
0.0
  0
LINE
  5
E4
330
B3
100
AcDbEntity
  8
0
 62
     0
370
    -2
100
AcDbLine
 10
109.6738673523327
 20
195.8885902149745
 30
0.0
 11
109.7098673523328
 21
195.8885902149745
 31
0.0
  0
LINE
  5
E5
330
B3
100
AcDbEntity
  8
0
 62
     0
370
    -2
100
AcDbLine
 10
109.4218673523327
 20
195.8885902149745
 30
0.0
 11
109.3858673523327
 21
195.8885902149745
 31
0.0
  0
SOLID
  5
E6
330
B3
100
AcDbEntity
  8
0
 62
     0
100
AcDbTrace
 10
109.6738673523327
 20
195.8945902149745
 30
0.0
 11
109.6738673523327
 21
195.8825902149745
 31
0.0
 12
109.6378673523328
 22
195.8885902149745
 32
0.0
 13
109.6378673523328
 23
195.8885902149745
 33
0.0
  0
SOLID
  5
E7
330
B3
100
AcDbEntity
  8
0
 62
     0
100
AcDbTrace
 10
109.4218673523327
 20
195.8945902149745
 30
0.0
 11
109.4218673523327
 21
195.8825902149745
 31
0.0
 12
109.4578673523328
 22
195.8885902149745
 32
0.0
 13
109.4578673523328
 23
195.8885902149745
 33
0.0
  0
MTEXT
  5
E8
330
B3
100
AcDbEntity
  8
0
 62
     0
100
AcDbMText
 10
109.5478673523327
 20
195.8885902149745
 30
0.0
 40
0.036
 41
0.0
 71
     5
 72
     1
  1
\A1;0.90
 73
     1
 44
1.0
  0
POINT
  5
E9
330
B3
100
AcDbEntity
  8
Defpoints
 62
     0
100
AcDbPoint
 10
109.6378673523328
 20
195.9780839131655
 30
0.0
  0
POINT
  5
EA
330
B3
100
AcDbEntity
  8
Defpoints
 62
     0
100
AcDbPoint
 10
109.4578673523328
 20
195.9780839131655
 30
0.0
  0
POINT
  5
EB
330
B3
100
AcDbEntity
  8
Defpoints
 62
     0
100
AcDbPoint
 10
109.4578673523328
 20
195.8885902149745
 30
0.0
  0
ENDBLK
  5
BF
330
B3
100
AcDbEntity
  8
0
100
AcDbBlockEnd
  0
BLOCK
  5
D6
330
CB
100
AcDbEntity
  8
0
100
AcDbBlockBegin
  2
*D6
 70
     1
 10
0.0
 20
0.0
 30
0.0
  3
*D6
  1

  0
LINE
  5
D8
330
CB
100
AcDbEntity
  8
0
 62
     0
370
    -2
100
AcDbLine
 10
110.1378673523327
 20
195.9655839131655
 30
0.0
 11
110.1378673523327
 21
195.7744742673664
 31
0.0
  0
LINE
  5
D9
330
CB
100
AcDbEntity
  8
0
 62
     0
370
    -2
100
AcDbLine
 10
109.4578673523328
 20
195.9655839131655
 30
0.0
 11
109.4578673523328
 21
195.7744742673664
 31
0.0
  0
LINE
  5
DA
330
CB
100
AcDbEntity
  8
0
 62
     0
370
    -2
100
AcDbLine
 10
110.1018673523328
 20
195.8104742673663
 30
0.0
 11
109.8668673523327
 21
195.8104742673663
 31
0.0
  0
LINE
  5
DB
330
CB
100
AcDbEntity
  8
0
 62
     0
370
    -2
100
AcDbLine
 10
109.4938673523327
 20
195.8104742673663
 30
0.0
 11
109.7288673523328
 21
195.8104742673663
 31
0.0
  0
SOLID
  5
DC
330
CB
100
AcDbEntity
  8
0
 62
     0
100
AcDbTrace
 10
110.1018673523328
 20
195.8164742673664
 30
0.0
 11
110.1018673523328
 21
195.8044742673664
 31
0.0
 12
110.1378673523327
 22
195.8104742673663
 32
0.0
 13
110.1378673523327
 23
195.8104742673663
 33
0.0
  0
SOLID
  5
DD
330
CB
100
AcDbEntity
  8
0
 62
     0
100
AcDbTrace
 10
109.4938673523327
 20
195.8164742673664
 30
0.0
 11
109.4938673523327
 21
195.8044742673664
 31
0.0
 12
109.4578673523328
 22
195.8104742673663
 32
0.0
 13
109.4578673523328
 23
195.8104742673663
 33
0.0
  0
MTEXT
  5
DE
330
CB
100
AcDbEntity
  8
0
 62
     0
100
AcDbMText
 10
109.7978673523328
 20
195.8104742673663
 30
0.0
 40
0.036
 41
0.0
 71
     5
 72
     1
  1
\A1;3.40
 73
     1
 44
1.0
  0
POINT
  5
DF
330
CB
100
AcDbEntity
  8
Defpoints
 62
     0
100
AcDbPoint
 10
110.1378673523327
 20
195.9780839131655
 30
0.0
  0
POINT
  5
E0
330
CB
100
AcDbEntity
  8
Defpoints
 62
     0
100
AcDbPoint
 10
109.4578673523328
 20
195.9780839131655
 30
0.0
  0
POINT
  5
E1
330
CB
100
AcDbEntity
  8
Defpoints
 62
     0
100
AcDbPoint
 10
109.4578673523328
 20
195.8104742673663
 30
0.0
  0
ENDBLK
  5
D7
330
CB
100
AcDbEntity
  8
0
100
AcDbBlockEnd
  0
BLOCK
  5
10C
330
101
100
AcDbEntity
  8
0
100
AcDbBlockBegin
  2
*D7
 70
     1
 10
0.0
 20
0.0
 30
0.0
  3
*D7
  1

  0
LINE
  5
102
330
101
100
AcDbEntity
  8
0
 62
     0
370
    -2
100
AcDbLine
 10
109.9703673523328
 20
195.9580839131655
 30
0.0
 11
110.2807721511194
 21
195.9580839131655
 31
0.0
  0
LINE
  5
103
330
101
100
AcDbEntity
  8
0
 62
     0
370
    -2
100
AcDbLine
 10
110.1503673523328
 20
195.9780839131655
 30
0.0
 11
110.2807721511194
 21
195.9780839131655
 31
0.0
  0
LINE
  5
104
330
101
100
AcDbEntity
  8
0
 62
     0
370
    -2
100
AcDbLine
 10
110.2447721511195
 20
195.9220839131655
 30
0.0
 11
110.2447721511195
 21
195.8860839131655
 31
0.0
  0
LINE
  5
105
330
101
100
AcDbEntity
  8
0
 62
     0
370
    -2
100
AcDbLine
 10
110.2447721511195
 20
196.0140839131653
 30
0.0
 11
110.2447721511195
 21
196.0500839131655
 31
0.0
  0
SOLID
  5
106
330
101
100
AcDbEntity
  8
0
 62
     0
100
AcDbTrace
 10
110.2387721511195
 20
195.9220839131655
 30
0.0
 11
110.2507721511195
 21
195.9220839131655
 31
0.0
 12
110.2447721511195
 22
195.9580839131655
 32
0.0
 13
110.2447721511195
 23
195.9580839131655
 33
0.0
  0
SOLID
  5
107
330
101
100
AcDbEntity
  8
0
 62
     0
100
AcDbTrace
 10
110.2387721511195
 20
196.0140839131653
 30
0.0
 11
110.2507721511195
 21
196.0140839131653
 31
0.0
 12
110.2447721511195
 22
195.9780839131655
 32
0.0
 13
110.2447721511195
 23
195.9780839131655
 33
0.0
  0
MTEXT
  5
108
330
101
100
AcDbEntity
  8
0
 62
     0
100
AcDbMText
 10
110.2447721511195
 20
196.1100839131655
 30
0.0
 40
0.036
 41
0.0
 71
     5
 72
     1
  1
\A1;0.10
 11
0.0000000000000001
 21
1.0
 31
0.0
 73
     1
 44
1.0
  0
POINT
  5
109
330
101
100
AcDbEntity
  8
Defpoints
 62
     0
100
AcDbPoint
 10
109.9578673523327
 20
195.9580839131655
 30
0.0
  0
POINT
  5
10A
330
101
100
AcDbEntity
  8
Defpoints
 62
     0
100
AcDbPoint
 10
110.1378673523327
 20
195.9780839131655
 30
0.0
  0
POINT
  5
10B
330
101
100
AcDbEntity
  8
Defpoints
 62
     0
100
AcDbPoint
 10
110.2447721511195
 20
195.9780839131655
 30
0.0
  0
ENDBLK
  5
10D
330
101
100
AcDbEntity
  8
0
100
AcDbBlockEnd
  0
BLOCK
  5
139
330
12E
100
AcDbEntity
  8
0
100
AcDbBlockBegin
  2
*D8
 70
     1
 10
0.0
 20
0.0
 30
0.0
  3
*D8
  1

  0
LINE
  5
1F3
330
12E
100
AcDbEntity
  8
0
 62
     0
370
    -2
100
AcDbLine
 10
110.1910679092934
 20
195.3041525273135
 30
0.0
 11
110.5044274531175
 21
195.3041525273135
 31
0.0
  0
LINE
  5
1F4
330
12E
100
AcDbEntity
  8
0
 62
     0
370
    -2
100
AcDbLine
 10
109.8660679092934
 20
195.1475449126343
 30
0.0
 11
110.5044274531175
 21
195.1475449126343
 31
0.0
  0
LINE
  5
1F5
330
12E
100
AcDbEntity
  8
0
 62
     0
370
    -2
100
AcDbLine
 10
110.4684274531175
 20
195.3401525273135
 30
0.0
 11
110.4684274531175
 21
195.3761525273135
 31
0.0
  0
LINE
  5
1F6
330
12E
100
AcDbEntity
  8
0
 62
     0
370
    -2
100
AcDbLine
 10
110.4684274531175
 20
195.1115449126343
 30
0.0
 11
110.4684274531175
 21
195.0755449126343
 31
0.0
  0
SOLID
  5
1F7
330
12E
100
AcDbEntity
  8
0
 62
     0
100
AcDbTrace
 10
110.4624274531174
 20
195.3401525273135
 30
0.0
 11
110.4744274531175
 21
195.3401525273135
 31
0.0
 12
110.4684274531175
 22
195.3041525273135
 32
0.0
 13
110.4684274531175
 23
195.3041525273135
 33
0.0
  0
SOLID
  5
1F8
330
12E
100
AcDbEntity
  8
0
 62
     0
100
AcDbTrace
 10
110.4624274531174
 20
195.1115449126343
 30
0.0
 11
110.4744274531175
 21
195.1115449126343
 31
0.0
 12
110.4684274531175
 22
195.1475449126343
 32
0.0
 13
110.4684274531175
 23
195.1475449126343
 33
0.0
  0
MTEXT
  5
1F9
330
12E
100
AcDbEntity
  8
0
 62
     0
100
AcDbMText
 10
110.4684274531175
 20
195.2258487199739
 30
0.0
 40
0.036
 41
0.0
 71
     5
 72
     1
  1
\A1;0.15
 11
0.0000000000000001
 21
1.0
 31
0.0
 73
     1
 44
1.0
  0
POINT
  5
1FA
330
12E
100
AcDbEntity
  8
Defpoints
 62
     0
100
AcDbPoint
 10
110.1785679092934
 20
195.3041525273135
 30
0.0
  0
POINT
  5
1FB
330
12E
100
AcDbEntity
  8
Defpoints
 62
     0
100
AcDbPoint
 10
109.8535679092934
 20
195.1475449126343
 30
0.0
  0
POINT
  5
1FC
330
12E
100
AcDbEntity
  8
Defpoints
 62
     0
100
AcDbPoint
 10
110.4684274531175
 20
195.1475449126343
 30
0.0
  0
ENDBLK
  5
13A
330
12E
100
AcDbEntity
  8
0
100
AcDbBlockEnd
  0
BLOCK
  5
147
330
13C
100
AcDbEntity
  8
0
100
AcDbBlockBegin
  2
*D9
 70
     1
 10
0.0
 20
0.0
 30
0.0
  3
*D9
  1

  0
LINE
  5
1FD
330
13C
100
AcDbEntity
  8
0
 62
     0
370
    -2
100
AcDbLine
 10
109.8785679092934
 20
195.1475449126343
 30
0.0
 11
110.7154986442384
 21
195.1475449126343
 31
0.0
  0
LINE
  5
1FE
330
13C
100
AcDbEntity
  8
0
 62
     0
370
    -2
100
AcDbLine
 10
109.8660679092934
 20
196.6937006309283
 30
0.0
 11
110.7154986442384
 21
196.6937006309283
 31
0.0
  0
LINE
  5
1FF
330
13C
100
AcDbEntity
  8
0
 62
     0
370
    -2
100
AcDbLine
 10
110.6794986442384
 20
195.1835449126343
 30
0.0
 11
110.6794986442384
 21
195.8576227717813
 31
0.0
  0
LINE
  5
200
330
13C
100
AcDbEntity
  8
0
 62
     0
370
    -2
100
AcDbLine
 10
110.6794986442384
 20
196.6577006309283
 30
0.0
 11
110.6794986442384
 21
195.9836227717813
 31
0.0
  0
SOLID
  5
201
330
13C
100
AcDbEntity
  8
0
 62
     0
100
AcDbTrace
 10
110.6734986442384
 20
195.1835449126343
 30
0.0
 11
110.6854986442384
 21
195.1835449126343
 31
0.0
 12
110.6794986442384
 22
195.1475449126343
 32
0.0
 13
110.6794986442384
 23
195.1475449126343
 33
0.0
  0
SOLID
  5
202
330
13C
100
AcDbEntity
  8
0
 62
     0
100
AcDbTrace
 10
110.6734986442384
 20
196.6577006309283
 30
0.0
 11
110.6854986442384
 21
196.6577006309283
 31
0.0
 12
110.6794986442384
 22
196.6937006309283
 32
0.0
 13
110.6794986442384
 23
196.6937006309283
 33
0.0
  0
MTEXT
  5
203
330
13C
100
AcDbEntity
  8
0
 62
     0
100
AcDbMText
 10
110.6794986442384
 20
195.9206227717813
 30
0.0
 40
0.036
 41
0.0
 71
     5
 72
     1
  1
\A1;1.60
 11
0.0000000000000001
 21
1.0
 31
0.0
 73
     1
 44
1.0
  0
POINT
  5
204
330
13C
100
AcDbEntity
  8
Defpoints
 62
     0
100
AcDbPoint
 10
109.8660679092934
 20
195.1475449126343
 30
0.0
  0
POINT
  5
205
330
13C
100
AcDbEntity
  8
Defpoints
 62
     0
100
AcDbPoint
 10
109.8535679092934
 20
196.6937006309283
 30
0.0
  0
POINT
  5
206
330
13C
100
AcDbEntity
  8
Defpoints
 62
     0
100
AcDbPoint
 10
110.6794986442384
 20
196.6937006309283
 30
0.0
  0
ENDBLK
  5
148
330
13C
100
AcDbEntity
  8
0
100
AcDbBlockEnd
  0
BLOCK
  5
152
330
14A
100
AcDbEntity
  8
0
100
AcDbBlockBegin
  2
*D10
 70
     1
 10
0.0
 20
0.0
 30
0.0
  3
*D10
  1

  0
LINE
  5
1EC
330
14A
100
AcDbEntity
  8
0
 62
     0
370
    -2
100
AcDbLine
 10
109.3537932576834
 20
196.632218483678
 30
0.0
 11
109.4899545184272
 21
196.5385247672532
 31
0.0
  0
MTEXT
  5
1ED
330
14A
100
AcDbEntity
  8
0
 62
     0
100
AcDbMText
 10
109.2845933987961
 20
196.6798354925085
 30
0.0
 40
0.036
 41
0.0
 71
     5
 72
     1
  1
\A1;R0.40
 11
0.8238078438970994
 21
-0.5668691527448046
 31
0.0
 73
     1
 44
1.0
  0
SOLID
  5
1EE
330
14A
100
AcDbEntity
  8
0
 62
     0
100
AcDbTrace
 10
109.4933557333436
 20
196.5434676143166
 30
0.0
 11
109.4865533035108
 21
196.5335819201898
 31
0.0
 12
109.5196116008074
 22
196.5181174777545
 32
0.0
 13
109.5196116008074
 23
196.5181174777545
 33
0.0
  0
LINE
  5
1EF
330
14A
100
AcDbEntity
  8
0
 62
     0
370
    -2
100
AcDbLine
 10
109.8355679092934
 20
196.2883193142051
 30
0.0
 11
109.8715679092934
 21
196.2883193142051
 31
0.0
  0
LINE
  5
1F0
330
14A
100
AcDbEntity
  8
0
 62
     0
370
    -2
100
AcDbLine
 10
109.8535679092935
 20
196.2703193142051
 30
0.0
 11
109.8535679092935
 21
196.306319314205
 31
0.0
  0
POINT
  5
1F1
330
14A
100
AcDbEntity
  8
Defpoints
 62
     0
100
AcDbPoint
 10
109.5196116008074
 20
196.5181174777545
 30
0.0
  0
POINT
  5
1F2
330
14A
100
AcDbEntity
  8
Defpoints
 62
     0
100
AcDbPoint
 10
109.8535679092935
 20
196.2883193142049
 30
0.0
  0
ENDBLK
  5
153
330
14A
100
AcDbEntity
  8
0
100
AcDbBlockEnd
  0
BLOCK
  5
160
330
155
100
AcDbEntity
  8
0
100
AcDbBlockBegin
  2
*D11
 70
     1
 10
0.0
 20
0.0
 30
0.0
  3
*D11
  1

  0
LINE
  5
156
330
155
100
AcDbEntity
  8
0
 62
     0
370
    -2
100
AcDbLine
 10
109.4535679092933
 20
196.3416525273135
 30
0.0
 11
109.4535679092933
 21
194.9557885568916
 31
0.0
  0
LINE
  5
157
330
155
100
AcDbEntity
  8
0
 62
     0
370
    -2
100
AcDbLine
 10
109.5285679092933
 20
195.2916525273135
 30
0.0
 11
109.5285679092933
 21
194.9557885568916
 31
0.0
  0
LINE
  5
158
330
155
100
AcDbEntity
  8
0
 62
     0
370
    -2
100
AcDbLine
 10
109.4175679092934
 20
194.9917885568916
 30
0.0
 11
109.3815679092934
 21
194.9917885568916
 31
0.0
  0
LINE
  5
159
330
155
100
AcDbEntity
  8
0
 62
     0
370
    -2
100
AcDbLine
 10
109.5645679092934
 20
194.9917885568916
 30
0.0
 11
109.6005679092933
 21
194.9917885568916
 31
0.0
  0
SOLID
  5
15A
330
155
100
AcDbEntity
  8
0
 62
     0
100
AcDbTrace
 10
109.4175679092934
 20
194.9977885568916
 30
0.0
 11
109.4175679092934
 21
194.9857885568916
 31
0.0
 12
109.4535679092933
 22
194.9917885568916
 32
0.0
 13
109.4535679092933
 23
194.9917885568916
 33
0.0
  0
SOLID
  5
15B
330
155
100
AcDbEntity
  8
0
 62
     0
100
AcDbTrace
 10
109.5645679092934
 20
194.9977885568916
 30
0.0
 11
109.5645679092934
 21
194.9857885568916
 31
0.0
 12
109.5285679092933
 22
194.9917885568916
 32
0.0
 13
109.5285679092933
 23
194.9917885568916
 33
0.0
  0
MTEXT
  5
15C
330
155
100
AcDbEntity
  8
0
 62
     0
100
AcDbMText
 10
109.6995679092934
 20
194.9917885568916
 30
0.0
 40
0.036
 41
0.0
 71
     5
 72
     1
  1
\A1;0.0750
 73
     1
 44
1.0
  0
POINT
  5
15D
330
155
100
AcDbEntity
  8
Defpoints
 62
     0
100
AcDbPoint
 10
109.4535679092933
 20
196.3541525273135
 30
0.0
  0
POINT
  5
15E
330
155
100
AcDbEntity
  8
Defpoints
 62
     0
100
AcDbPoint
 10
109.5285679092933
 20
195.3041525273135
 30
0.0
  0
POINT
  5
15F
330
155
100
AcDbEntity
  8
Defpoints
 62
     0
100
AcDbPoint
 10
109.5285679092933
 20
194.9917885568916
 30
0.0
  0
ENDBLK
  5
161
330
155
100
AcDbEntity
  8
0
100
AcDbBlockEnd
  0
BLOCK
  5
16E
330
163
100
AcDbEntity
  8
0
100
AcDbBlockBegin
  2
*D12
 70
     1
 10
0.0
 20
0.0
 30
0.0
  3
*D12
  1

  0
LINE
  5
164
330
163
100
AcDbEntity
  8
0
 62
     0
370
    -2
100
AcDbLine
 10
109.5285679092933
 20
195.2916525273135
 30
0.0
 11
109.5285679092933
 21
194.9557885568916
 31
0.0
  0
LINE
  5
165
330
163
100
AcDbEntity
  8
0
 62
     0
370
    -2
100
AcDbLine
 10
109.6535679092933
 20
195.2916525273134
 30
0.0
 11
109.6535679092933
 21
194.9557885568916
 31
0.0
  0
LINE
  5
166
330
163
100
AcDbEntity
  8
0
 62
     0
370
    -2
100
AcDbLine
 10
109.5645679092934
 20
194.9917885568916
 30
0.0
 11
109.6175679092934
 21
194.9917885568916
 31
0.0
  0
LINE
  5
167
330
163
100
AcDbEntity
  8
0
 62
     0
370
    -2
100
AcDbLine
 10
109.6535679092933
 20
194.9917885568916
 30
0.0
 11
109.6895679092934
 21
194.9917885568916
 31
0.0
  0
SOLID
  5
168
330
163
100
AcDbEntity
  8
0
 62
     0
100
AcDbTrace
 10
109.5645679092934
 20
194.9977885568916
 30
0.0
 11
109.5645679092934
 21
194.9857885568916
 31
0.0
 12
109.5285679092933
 22
194.9917885568916
 32
0.0
 13
109.5285679092933
 23
194.9917885568916
 33
0.0
  0
SOLID
  5
169
330
163
100
AcDbEntity
  8
0
 62
     0
100
AcDbTrace
 10
109.6175679092934
 20
194.9977885568916
 30
0.0
 11
109.6175679092934
 21
194.9857885568916
 31
0.0
 12
109.6535679092933
 22
194.9917885568916
 32
0.0
 13
109.6535679092933
 23
194.9917885568916
 33
0.0
  0
MTEXT
  5
16A
330
163
100
AcDbEntity
  8
0
 62
     0
100
AcDbMText
 10
109.7855679092934
 20
194.9917885568916
 30
0.0
 40
0.036
 41
0.0
 71
     5
 72
     1
  1
\A1;0.1250
 73
     1
 44
1.0
  0
POINT
  5
16B
330
163
100
AcDbEntity
  8
Defpoints
 62
     0
100
AcDbPoint
 10
109.5285679092933
 20
195.3041525273135
 30
0.0
  0
POINT
  5
16C
330
163
100
AcDbEntity
  8
Defpoints
 62
     0
100
AcDbPoint
 10
109.6535679092933
 20
195.3041525273135
 30
0.0
  0
POINT
  5
16D
330
163
100
AcDbEntity
  8
Defpoints
 62
     0
100
AcDbPoint
 10
109.6535679092933
 20
194.9917885568916
 30
0.0
  0
ENDBLK
  5
16F
330
163
100
AcDbEntity
  8
0
100
AcDbBlockEnd
  0
BLOCK
  5
17C
330
171
100
AcDbEntity
  8
0
100
AcDbBlockBegin
  2
*D13
 70
     1
 10
0.0
 20
0.0
 30
0.0
  3
*D13
  1

  0
LINE
  5
172
330
171
100
AcDbEntity
  8
0
 62
     0
370
    -2
100
AcDbLine
 10
109.6535679092933
 20
195.2916525273134
 30
0.0
 11
109.6535679092933
 21
194.9557885568916
 31
0.0
  0
LINE
  5
173
330
171
100
AcDbEntity
  8
0
 62
     0
370
    -2
100
AcDbLine
 10
110.0535679092935
 20
195.2916525273135
 30
0.0
 11
110.0535679092935
 21
194.9557885568916
 31
0.0
  0
LINE
  5
174
330
171
100
AcDbEntity
  8
0
 62
     0
370
    -2
100
AcDbLine
 10
109.6895679092934
 20
194.9917885568916
 30
0.0
 11
109.7575679092934
 21
194.9917885568916
 31
0.0
  0
LINE
  5
175
330
171
100
AcDbEntity
  8
0
 62
     0
370
    -2
100
AcDbLine
 10
110.0175679092935
 20
194.9917885568916
 30
0.0
 11
109.9495679092933
 21
194.9917885568916
 31
0.0
  0
SOLID
  5
176
330
171
100
AcDbEntity
  8
0
 62
     0
100
AcDbTrace
 10
109.6895679092934
 20
194.9977885568916
 30
0.0
 11
109.6895679092934
 21
194.9857885568916
 31
0.0
 12
109.6535679092933
 22
194.9917885568916
 32
0.0
 13
109.6535679092933
 23
194.9917885568916
 33
0.0
  0
SOLID
  5
177
330
171
100
AcDbEntity
  8
0
 62
     0
100
AcDbTrace
 10
110.0175679092935
 20
194.9977885568916
 30
0.0
 11
110.0175679092935
 21
194.9857885568916
 31
0.0
 12
110.0535679092935
 22
194.9917885568916
 32
0.0
 13
110.0535679092935
 23
194.9917885568916
 33
0.0
  0
MTEXT
  5
178
330
171
100
AcDbEntity
  8
0
 62
     0
100
AcDbMText
 10
109.8535679092934
 20
194.9917885568916
 30
0.0
 40
0.036
 41
0.0
 71
     5
 72
     1
  1
\A1;0.4000
 73
     1
 44
1.0
  0
POINT
  5
179
330
171
100
AcDbEntity
  8
Defpoints
 62
     0
100
AcDbPoint
 10
109.6535679092933
 20
195.3041525273135
 30
0.0
  0
POINT
  5
17A
330
171
100
AcDbEntity
  8
Defpoints
 62
     0
100
AcDbPoint
 10
110.0535679092935
 20
195.3041525273135
 30
0.0
  0
POINT
  5
17B
330
171
100
AcDbEntity
  8
Defpoints
 62
     0
100
AcDbPoint
 10
110.0535679092935
 20
194.9917885568916
 30
0.0
  0
ENDBLK
  5
17D
330
171
100
AcDbEntity
  8
0
100
AcDbBlockEnd
  0
BLOCK
  5
18A
330
17F
100
AcDbEntity
  8
0
100
AcDbBlockBegin
  2
*D14
 70
     1
 10
0.0
 20
0.0
 30
0.0
  3
*D14
  1

  0
LINE
  5
180
330
17F
100
AcDbEntity
  8
0
 62
     0
370
    -2
100
AcDbLine
 10
110.0535679092935
 20
195.2916525273135
 30
0.0
 11
110.0535679092935
 21
194.9557885568916
 31
0.0
  0
LINE
  5
181
330
17F
100
AcDbEntity
  8
0
 62
     0
370
    -2
100
AcDbLine
 10
110.1785679092934
 20
195.2916525273135
 30
0.0
 11
110.1785679092934
 21
194.9557885568916
 31
0.0
  0
LINE
  5
182
330
17F
100
AcDbEntity
  8
0
 62
     0
370
    -2
100
AcDbLine
 10
110.0895679092934
 20
194.9917885568916
 30
0.0
 11
110.1425679092933
 21
194.9917885568916
 31
0.0
  0
LINE
  5
183
330
17F
100
AcDbEntity
  8
0
 62
     0
370
    -2
100
AcDbLine
 10
110.1785679092934
 20
194.9917885568916
 30
0.0
 11
110.2145679092934
 21
194.9917885568916
 31
0.0
  0
SOLID
  5
184
330
17F
100
AcDbEntity
  8
0
 62
     0
100
AcDbTrace
 10
110.0895679092934
 20
194.9977885568916
 30
0.0
 11
110.0895679092934
 21
194.9857885568916
 31
0.0
 12
110.0535679092935
 22
194.9917885568916
 32
0.0
 13
110.0535679092935
 23
194.9917885568916
 33
0.0
  0
SOLID
  5
185
330
17F
100
AcDbEntity
  8
0
 62
     0
100
AcDbTrace
 10
110.1425679092933
 20
194.9977885568916
 30
0.0
 11
110.1425679092933
 21
194.9857885568916
 31
0.0
 12
110.1785679092934
 22
194.9917885568916
 32
0.0
 13
110.1785679092934
 23
194.9917885568916
 33
0.0
  0
MTEXT
  5
186
330
17F
100
AcDbEntity
  8
0
 62
     0
100
AcDbMText
 10
110.3105679092933
 20
194.9917885568916
 30
0.0
 40
0.036
 41
0.0
 71
     5
 72
     1
  1
\A1;0.1250
 73
     1
 44
1.0
  0
POINT
  5
187
330
17F
100
AcDbEntity
  8
Defpoints
 62
     0
100
AcDbPoint
 10
110.0535679092935
 20
195.3041525273135
 30
0.0
  0
POINT
  5
188
330
17F
100
AcDbEntity
  8
Defpoints
 62
     0
100
AcDbPoint
 10
110.1785679092934
 20
195.3041525273135
 30
0.0
  0
POINT
  5
189
330
17F
100
AcDbEntity
  8
Defpoints
 62
     0
100
AcDbPoint
 10
110.1785679092934
 20
194.9917885568916
 30
0.0
  0
ENDBLK
  5
18B
330
17F
100
AcDbEntity
  8
0
100
AcDbBlockEnd
  0
BLOCK
  5
198
330
18D
100
AcDbEntity
  8
0
100
AcDbBlockBegin
  2
*D15
 70
     1
 10
0.0
 20
0.0
 30
0.0
  3
*D15
  1

  0
LINE
  5
18E
330
18D
100
AcDbEntity
  8
0
 62
     0
370
    -2
100
AcDbLine
 10
110.1785679092934
 20
195.2916525273135
 30
0.0
 11
110.1785679092934
 21
194.9557885568916
 31
0.0
  0
LINE
  5
18F
330
18D
100
AcDbEntity
  8
0
 62
     0
370
    -2
100
AcDbLine
 10
110.2535679092934
 20
196.3416525273135
 30
0.0
 11
110.2535679092934
 21
194.9557885568916
 31
0.0
  0
LINE
  5
190
330
18D
100
AcDbEntity
  8
0
 62
     0
370
    -2
100
AcDbLine
 10
110.1425679092933
 20
194.9917885568916
 30
0.0
 11
110.1065679092934
 21
194.9917885568916
 31
0.0
  0
LINE
  5
191
330
18D
100
AcDbEntity
  8
0
 62
     0
370
    -2
100
AcDbLine
 10
110.2895679092934
 20
194.9917885568916
 30
0.0
 11
110.3255679092933
 21
194.9917885568916
 31
0.0
  0
SOLID
  5
192
330
18D
100
AcDbEntity
  8
0
 62
     0
100
AcDbTrace
 10
110.1425679092933
 20
194.9977885568916
 30
0.0
 11
110.1425679092933
 21
194.9857885568916
 31
0.0
 12
110.1785679092934
 22
194.9917885568916
 32
0.0
 13
110.1785679092934
 23
194.9917885568916
 33
0.0
  0
SOLID
  5
193
330
18D
100
AcDbEntity
  8
0
 62
     0
100
AcDbTrace
 10
110.2895679092934
 20
194.9977885568916
 30
0.0
 11
110.2895679092934
 21
194.9857885568916
 31
0.0
 12
110.2535679092934
 22
194.9917885568916
 32
0.0
 13
110.2535679092934
 23
194.9917885568916
 33
0.0
  0
MTEXT
  5
194
330
18D
100
AcDbEntity
  8
0
 62
     0
100
AcDbMText
 10
110.4245679092934
 20
194.9917885568916
 30
0.0
 40
0.036
 41
0.0
 71
     5
 72
     1
  1
\A1;0.0750
 73
     1
 44
1.0
  0
POINT
  5
195
330
18D
100
AcDbEntity
  8
Defpoints
 62
     0
100
AcDbPoint
 10
110.1785679092934
 20
195.3041525273135
 30
0.0
  0
POINT
  5
196
330
18D
100
AcDbEntity
  8
Defpoints
 62
     0
100
AcDbPoint
 10
110.2535679092934
 20
196.3541525273135
 30
0.0
  0
POINT
  5
197
330
18D
100
AcDbEntity
  8
Defpoints
 62
     0
100
AcDbPoint
 10
110.2535679092934
 20
194.9917885568916
 30
0.0
  0
ENDBLK
  5
199
330
18D
100
AcDbEntity
  8
0
100
AcDbBlockEnd
  0
BLOCK
  5
1A7
330
19C
100
AcDbEntity
  8
0
100
AcDbBlockBegin
  2
*D16
 70
     1
 10
0.0
 20
0.0
 30
0.0
  3
*D16
  1

  0
LINE
  5
1D8
330
19C
100
AcDbEntity
  8
0
 62
     0
370
    -2
100
AcDbLine
 10
110.1785679092934
 20
195.2916525273135
 30
0.0
 11
110.1785679092934
 21
194.969549807556
 31
0.0
  0
LINE
  5
1D9
330
19C
100
AcDbEntity
  8
0
 62
     0
370
    -2
100
AcDbLine
 10
109.5285679092933
 20
195.2916525273135
 30
0.0
 11
109.5285679092933
 21
194.969549807556
 31
0.0
  0
LINE
  5
1DA
330
19C
100
AcDbEntity
  8
0
 62
     0
370
    -2
100
AcDbLine
 10
110.1425679092933
 20
195.005549807556
 30
0.0
 11
109.9225679092934
 21
195.005549807556
 31
0.0
  0
LINE
  5
1DB
330
19C
100
AcDbEntity
  8
0
 62
     0
370
    -2
100
AcDbLine
 10
109.5645679092934
 20
195.005549807556
 30
0.0
 11
109.7845679092934
 21
195.005549807556
 31
0.0
  0
SOLID
  5
1DC
330
19C
100
AcDbEntity
  8
0
 62
     0
100
AcDbTrace
 10
110.1425679092933
 20
195.011549807556
 30
0.0
 11
110.1425679092933
 21
194.999549807556
 31
0.0
 12
110.1785679092934
 22
195.005549807556
 32
0.0
 13
110.1785679092934
 23
195.005549807556
 33
0.0
  0
SOLID
  5
1DD
330
19C
100
AcDbEntity
  8
0
 62
     0
100
AcDbTrace
 10
109.5645679092934
 20
195.011549807556
 30
0.0
 11
109.5645679092934
 21
194.999549807556
 31
0.0
 12
109.5285679092933
 22
195.005549807556
 32
0.0
 13
109.5285679092933
 23
195.005549807556
 33
0.0
  0
MTEXT
  5
1DE
330
19C
100
AcDbEntity
  8
0
 62
     0
100
AcDbMText
 10
109.8535679092934
 20
195.005549807556
 30
0.0
 40
0.036
 41
0.0
 71
     5
 72
     1
  1
\A1;0.65
 73
     1
 44
1.0
  0
POINT
  5
1DF
330
19C
100
AcDbEntity
  8
Defpoints
 62
     0
100
AcDbPoint
 10
110.1785679092934
 20
195.3041525273135
 30
0.0
  0
POINT
  5
1E0
330
19C
100
AcDbEntity
  8
Defpoints
 62
     0
100
AcDbPoint
 10
109.5285679092933
 20
195.3041525273135
 30
0.0
  0
POINT
  5
1E1
330
19C
100
AcDbEntity
  8
Defpoints
 62
     0
100
AcDbPoint
 10
109.5285679092933
 20
195.005549807556
 30
0.0
  0
ENDBLK
  5
1A8
330
19C
100
AcDbEntity
  8
0
100
AcDbBlockEnd
  0
BLOCK
  5
1B5
330
1AA
100
AcDbEntity
  8
0
100
AcDbBlockBegin
  2
*D17
 70
     1
 10
0.0
 20
0.0
 30
0.0
  3
*D17
  1

  0
LINE
  5
1E2
330
1AA
100
AcDbEntity
  8
0
 62
     0
370
    -2
100
AcDbLine
 10
110.2644249236423
 20
196.1397699074936
 30
0.0
 11
110.2644249236423
 21
194.8823952106423
 31
0.0
  0
LINE
  5
1E3
330
1AA
100
AcDbEntity
  8
0
 62
     0
370
    -2
100
AcDbLine
 10
109.4434411568267
 20
196.1658752539092
 30
0.0
 11
109.4434411568267
 21
194.8823952106423
 31
0.0
  0
LINE
  5
1E4
330
1AA
100
AcDbEntity
  8
0
 62
     0
370
    -2
100
AcDbLine
 10
110.2284249236422
 20
194.9183952106423
 30
0.0
 11
109.9229330402345
 21
194.9183952106423
 31
0.0
  0
LINE
  5
1E5
330
1AA
100
AcDbEntity
  8
0
 62
     0
370
    -2
100
AcDbLine
 10
109.4794411568267
 20
194.9183952106423
 30
0.0
 11
109.7849330402345
 21
194.9183952106423
 31
0.0
  0
SOLID
  5
1E6
330
1AA
100
AcDbEntity
  8
0
 62
     0
100
AcDbTrace
 10
110.2284249236422
 20
194.9243952106423
 30
0.0
 11
110.2284249236422
 21
194.9123952106423
 31
0.0
 12
110.2644249236423
 22
194.9183952106423
 32
0.0
 13
110.2644249236423
 23
194.9183952106423
 33
0.0
  0
SOLID
  5
1E7
330
1AA
100
AcDbEntity
  8
0
 62
     0
100
AcDbTrace
 10
109.4794411568267
 20
194.9243952106423
 30
0.0
 11
109.4794411568267
 21
194.9123952106423
 31
0.0
 12
109.4434411568267
 22
194.9183952106423
 32
0.0
 13
109.4434411568267
 23
194.9183952106423
 33
0.0
  0
MTEXT
  5
1E8
330
1AA
100
AcDbEntity
  8
0
 62
     0
100
AcDbMText
 10
109.8539330402345
 20
194.9183952106423
 30
0.0
 40
0.036
 41
0.0
 71
     5
 72
     1
  1
\A1;0.85
 73
     1
 44
1.0
  0
POINT
  5
1E9
330
1AA
100
AcDbEntity
  8
Defpoints
 62
     0
100
AcDbPoint
 10
110.2644249236423
 20
196.1522699074936
 30
0.0
  0
POINT
  5
1EA
330
1AA
100
AcDbEntity
  8
Defpoints
 62
     0
100
AcDbPoint
 10
109.4434411568267
 20
196.1783752539093
 30
0.0
  0
POINT
  5
1EB
330
1AA
100
AcDbEntity
  8
Defpoints
 62
     0
100
AcDbPoint
 10
109.4434411568267
 20
194.9183952106423
 30
0.0
  0
ENDBLK
  5
1B6
330
1AA
100
AcDbEntity
  8
0
100
AcDbBlockEnd
  0
BLOCK
  5
1BE
330
1B8
100
AcDbEntity
  8
0
100
AcDbBlockBegin
  2
*D18
 70
     1
 10
0.0
 20
0.0
 30
0.0
  3
*D18
  1

  0
LINE
  5
1B9
330
1B8
100
AcDbEntity
  8
0
 62
     0
370
    -2
100
AcDbLine
 10
109.7946173706453
 20
195.4053678003455
 30
0.0
 11
109.9812677726816
 21
195.2413215822778
 31
0.0
  0
MTEXT
  5
1BA
330
1B8
100
AcDbEntity
  8
0
 62
     0
100
AcDbMText
 10
109.7067357720337
 20
195.4826065511475
 30
0.0
 40
0.036
 41
0.0
 71
     5
 72
     1
  1
\A1;R0.2060
 11
0.75112477445879
 21
-0.6601602632650892
 31
0.0
 73
     1
 44
1.0
  0
SOLID
  5
1BB
330
1B8
100
AcDbEntity
  8
0
 62
     0
100
AcDbTrace
 10
109.9852287342613
 20
195.2458283309246
 30
0.0
 11
109.977306811102
 21
195.236814833631
 31
0.0
 12
110.0083082645622
 22
195.2175558128003
 32
0.0
 13
110.0083082645622
 23
195.2175558128003
 33
0.0
  0
POINT
  5
1BC
330
1B8
100
AcDbEntity
  8
Defpoints
 62
     0
100
AcDbPoint
 10
110.0083082645622
 20
195.2175558128003
 30
0.0
  0
POINT
  5
1BD
330
1B8
100
AcDbEntity
  8
Defpoints
 62
     0
100
AcDbPoint
 10
109.8535679092935
 20
195.3535564310005
 30
0.0
  0
ENDBLK
  5
1BF
330
1B8
100
AcDbEntity
  8
0
100
AcDbBlockEnd
  0
BLOCK
  5
1CC
330
1C1
100
AcDbEntity
  8
0
100
AcDbBlockBegin
  2
*D19
 70
     1
 10
0.0
 20
0.0
 30
0.0
  3
*D19
  1

  0
LINE
  5
1CE
330
1C1
100
AcDbEntity
  8
0
 62
     0
370
    -2
100
AcDbLine
 10
110.0535679092935
 20
195.2916525273135
 30
0.0
 11
110.0535679092935
 21
195.047530239703
 31
0.0
  0
LINE
  5
1CF
330
1C1
100
AcDbEntity
  8
0
 62
     0
370
    -2
100
AcDbLine
 10
109.6535679092933
 20
195.2916525273134
 30
0.0
 11
109.6535679092933
 21
195.047530239703
 31
0.0
  0
LINE
  5
1D0
330
1C1
100
AcDbEntity
  8
0
 62
     0
370
    -2
100
AcDbLine
 10
110.0175679092935
 20
195.0835302397031
 30
0.0
 11
109.9045679092934
 21
195.0835302397031
 31
0.0
  0
LINE
  5
1D1
330
1C1
100
AcDbEntity
  8
0
 62
     0
370
    -2
100
AcDbLine
 10
109.6895679092934
 20
195.0835302397031
 30
0.0
 11
109.8025679092934
 21
195.0835302397031
 31
0.0
  0
SOLID
  5
1D2
330
1C1
100
AcDbEntity
  8
0
 62
     0
100
AcDbTrace
 10
110.0175679092935
 20
195.0895302397031
 30
0.0
 11
110.0175679092935
 21
195.077530239703
 31
0.0
 12
110.0535679092935
 22
195.0835302397031
 32
0.0
 13
110.0535679092935
 23
195.0835302397031
 33
0.0
  0
SOLID
  5
1D3
330
1C1
100
AcDbEntity
  8
0
 62
     0
100
AcDbTrace
 10
109.6895679092934
 20
195.0895302397031
 30
0.0
 11
109.6895679092934
 21
195.077530239703
 31
0.0
 12
109.6535679092933
 22
195.0835302397031
 32
0.0
 13
109.6535679092933
 23
195.0835302397031
 33
0.0
  0
MTEXT
  5
1D4
330
1C1
100
AcDbEntity
  8
0
 62
     0
100
AcDbMText
 10
109.8535679092934
 20
195.0835302397031
 30
0.0
 40
0.036
 41
0.0
 71
     5
 72
     1
  1
\A1;0.4
 73
     1
 44
1.0
  0
POINT
  5
1D5
330
1C1
100
AcDbEntity
  8
Defpoints
 62
     0
100
AcDbPoint
 10
110.0535679092935
 20
195.3041525273135
 30
0.0
  0
POINT
  5
1D6
330
1C1
100
AcDbEntity
  8
Defpoints
 62
     0
100
AcDbPoint
 10
109.6535679092933
 20
195.3041525273135
 30
0.0
  0
POINT
  5
1D7
330
1C1
100
AcDbEntity
  8
Defpoints
 62
     0
100
AcDbPoint
 10
109.6535679092933
 20
195.0835302397031
 30
0.0
  0
ENDBLK
  5
1CD
330
1C1
100
AcDbEntity
  8
0
100
AcDbBlockEnd
  0
BLOCK
  5
22A
330
21F
100
AcDbEntity
  8
0
100
AcDbBlockBegin
  2
*D20
 70
     1
 10
0.0
 20
0.0
 30
0.0
  3
*D20
  1

  0
LINE
  5
307
330
21F
100
AcDbEntity
  8
0
 62
     0
370
    -2
100
AcDbLine
 10
109.7388508369278
 20
196.7678215064499
 30
0.0
 11
110.7359375813842
 21
196.7678215064499
 31
0.0
  0
LINE
  5
308
330
21F
100
AcDbEntity
  8
0
 62
     0
370
    -2
100
AcDbLine
 10
109.9086220283973
 20
195.2656310251081
 30
0.0
 11
110.7359375813842
 21
195.2656310251081
 31
0.0
  0
LINE
  5
309
330
21F
100
AcDbEntity
  8
0
 62
     0
370
    -2
100
AcDbLine
 10
110.6999375813843
 20
196.7318215064499
 30
0.0
 11
110.6999375813843
 21
196.082726265779
 31
0.0
  0
LINE
  5
30A
330
21F
100
AcDbEntity
  8
0
 62
     0
370
    -2
100
AcDbLine
 10
110.6999375813843
 20
195.3016310251081
 30
0.0
 11
110.6999375813843
 21
195.950726265779
 31
0.0
  0
SOLID
  5
30B
330
21F
100
AcDbEntity
  8
0
 62
     0
100
AcDbTrace
 10
110.6939375813842
 20
196.7318215064499
 30
0.0
 11
110.7059375813842
 21
196.7318215064499
 31
0.0
 12
110.6999375813843
 22
196.7678215064499
 32
0.0
 13
110.6999375813843
 23
196.7678215064499
 33
0.0
  0
SOLID
  5
30C
330
21F
100
AcDbEntity
  8
0
 62
     0
100
AcDbTrace
 10
110.6939375813842
 20
195.3016310251081
 30
0.0
 11
110.7059375813842
 21
195.3016310251081
 31
0.0
 12
110.6999375813843
 22
195.2656310251081
 32
0.0
 13
110.6999375813843
 23
195.2656310251081
 33
0.0
  0
MTEXT
  5
30D
330
21F
100
AcDbEntity
  8
0
 62
     0
100
AcDbMText
 10
110.6999375813842
 20
196.0167262657791
 30
0.0
 40
0.036
 41
0.0
 71
     5
 72
     1
  1
\A1;3.00
 11
0.0000000000000001
 21
1.0
 31
0.0
 73
     1
 44
1.0
  0
POINT
  5
30E
330
21F
100
AcDbEntity
  8
Defpoints
 62
     0
100
AcDbPoint
 10
109.7263508369277
 20
196.7678215064499
 30
0.0
  0
POINT
  5
30F
330
21F
100
AcDbEntity
  8
Defpoints
 62
     0
100
AcDbPoint
 10
109.8961220283973
 20
195.2656310251081
 30
0.0
  0
POINT
  5
310
330
21F
100
AcDbEntity
  8
Defpoints
 62
     0
100
AcDbPoint
 10
110.6999375813843
 20
195.2656310251081
 30
0.0
  0
ENDBLK
  5
22B
330
21F
100
AcDbEntity
  8
0
100
AcDbBlockEnd
  0
BLOCK
  5
238
330
22D
100
AcDbEntity
  8
0
100
AcDbBlockBegin
  2
*D21
 70
     1
 10
0.0
 20
0.0
 30
0.0
  3
*D21
  1

  0
LINE
  5
2FD
330
22D
100
AcDbEntity
  8
0
 62
     0
370
    -2
100
AcDbLine
 10
109.8961220283972
 20
195.2656310251081
 30
0.0
 11
110.2770871670786
 21
195.2656310251081
 31
0.0
  0
LINE
  5
2FE
330
22D
100
AcDbEntity
  8
0
 62
     0
370
    -2
100
AcDbLine
 10
110.1086220283973
 20
195.3406310251081
 30
0.0
 11
110.2770871670786
 21
195.3406310251081
 31
0.0
  0
LINE
  5
2FF
330
22D
100
AcDbEntity
  8
0
 62
     0
370
    -2
100
AcDbLine
 10
110.2410871670786
 20
195.2296310251081
 30
0.0
 11
110.2410871670786
 21
195.1936310251081
 31
0.0
  0
LINE
  5
300
330
22D
100
AcDbEntity
  8
0
 62
     0
370
    -2
100
AcDbLine
 10
110.2410871670786
 20
195.3766310251081
 30
0.0
 11
110.2410871670786
 21
195.4126310251082
 31
0.0
  0
SOLID
  5
301
330
22D
100
AcDbEntity
  8
0
 62
     0
100
AcDbTrace
 10
110.2350871670786
 20
195.2296310251081
 30
0.0
 11
110.2470871670786
 21
195.2296310251081
 31
0.0
 12
110.2410871670786
 22
195.2656310251081
 32
0.0
 13
110.2410871670786
 23
195.2656310251081
 33
0.0
  0
SOLID
  5
302
330
22D
100
AcDbEntity
  8
0
 62
     0
100
AcDbTrace
 10
110.2350871670786
 20
195.3766310251081
 30
0.0
 11
110.2470871670786
 21
195.3766310251081
 31
0.0
 12
110.2410871670786
 22
195.3406310251081
 32
0.0
 13
110.2410871670786
 23
195.3406310251081
 33
0.0
  0
MTEXT
  5
303
330
22D
100
AcDbEntity
  8
0
 62
     0
100
AcDbMText
 10
110.2410871670786
 20
195.4756310251082
 30
0.0
 40
0.036
 41
0.0
 71
     5
 72
     1
  1
\A1;0.15
 11
0.0000000000000001
 21
1.0
 31
0.0
 73
     1
 44
1.0
  0
POINT
  5
304
330
22D
100
AcDbEntity
  8
Defpoints
 62
     0
100
AcDbPoint
 10
109.8836220283972
 20
195.2656310251081
 30
0.0
  0
POINT
  5
305
330
22D
100
AcDbEntity
  8
Defpoints
 62
     0
100
AcDbPoint
 10
110.0961220283973
 20
195.3406310251081
 30
0.0
  0
POINT
  5
306
330
22D
100
AcDbEntity
  8
Defpoints
 62
     0
100
AcDbPoint
 10
110.2410871670786
 20
195.3406310251081
 30
0.0
  0
ENDBLK
  5
239
330
22D
100
AcDbEntity
  8
0
100
AcDbBlockEnd
  0
BLOCK
  5
250
330
245
100
AcDbEntity
  8
0
100
AcDbBlockBegin
  2
*D22
 70
     1
 10
0.0
 20
0.0
 30
0.0
  3
*D22
  1

  0
LINE
  5
2D5
330
245
100
AcDbEntity
  8
0
 62
     0
370
    -2
100
AcDbLine
 10
110.0961220283973
 20
195.3281310251082
 30
0.0
 11
110.0961220283973
 21
195.0357861645139
 31
0.0
  0
LINE
  5
2D6
330
245
100
AcDbEntity
  8
0
 62
     0
370
    -2
100
AcDbLine
 10
109.6711220283973
 20
195.3281310251082
 30
0.0
 11
109.6711220283973
 21
195.0357861645139
 31
0.0
  0
LINE
  5
2D7
330
245
100
AcDbEntity
  8
0
 62
     0
370
    -2
100
AcDbLine
 10
110.0601220283973
 20
195.071786164514
 30
0.0
 11
109.9496220283973
 21
195.071786164514
 31
0.0
  0
LINE
  5
2D8
330
245
100
AcDbEntity
  8
0
 62
     0
370
    -2
100
AcDbLine
 10
109.7071220283973
 20
195.071786164514
 30
0.0
 11
109.8176220283973
 21
195.071786164514
 31
0.0
  0
SOLID
  5
2D9
330
245
100
AcDbEntity
  8
0
 62
     0
100
AcDbTrace
 10
110.0601220283973
 20
195.077786164514
 30
0.0
 11
110.0601220283973
 21
195.065786164514
 31
0.0
 12
110.0961220283973
 22
195.071786164514
 32
0.0
 13
110.0961220283973
 23
195.071786164514
 33
0.0
  0
SOLID
  5
2DA
330
245
100
AcDbEntity
  8
0
 62
     0
100
AcDbTrace
 10
109.7071220283973
 20
195.077786164514
 30
0.0
 11
109.7071220283973
 21
195.065786164514
 31
0.0
 12
109.6711220283973
 22
195.071786164514
 32
0.0
 13
109.6711220283973
 23
195.071786164514
 33
0.0
  0
MTEXT
  5
2DB
330
245
100
AcDbEntity
  8
0
 62
     0
100
AcDbMText
 10
109.8836220283973
 20
195.071786164514
 30
0.0
 40
0.036
 41
0.0
 71
     5
 72
     1
  1
\A1;0.80
 73
     1
 44
1.0
  0
POINT
  5
2DC
330
245
100
AcDbEntity
  8
Defpoints
 62
     0
100
AcDbPoint
 10
110.0961220283973
 20
195.3406310251081
 30
0.0
  0
POINT
  5
2DD
330
245
100
AcDbEntity
  8
Defpoints
 62
     0
100
AcDbPoint
 10
109.6711220283973
 20
195.3406310251081
 30
0.0
  0
POINT
  5
2DE
330
245
100
AcDbEntity
  8
Defpoints
 62
     0
100
AcDbPoint
 10
109.6711220283973
 20
195.071786164514
 30
0.0
  0
ENDBLK
  5
251
330
245
100
AcDbEntity
  8
0
100
AcDbBlockEnd
  0
BLOCK
  5
25E
330
253
100
AcDbEntity
  8
0
100
AcDbBlockBegin
  2
*D23
 70
     1
 10
0.0
 20
0.0
 30
0.0
  3
*D23
  1

  0
LINE
  5
2F3
330
253
100
AcDbEntity
  8
0
 62
     0
370
    -2
100
AcDbLine
 10
109.7836220283973
 20
195.3281310251082
 30
0.0
 11
109.7836220283973
 21
195.1229407614276
 31
0.0
  0
LINE
  5
2F4
330
253
100
AcDbEntity
  8
0
 62
     0
370
    -2
100
AcDbLine
 10
109.9836220283972
 20
195.3281310251082
 30
0.0
 11
109.9836220283972
 21
195.1229407614276
 31
0.0
  0
LINE
  5
2F5
330
253
100
AcDbEntity
  8
0
 62
     0
370
    -2
100
AcDbLine
 10
109.7476220283973
 20
195.1589407614276
 30
0.0
 11
109.7116220283973
 21
195.1589407614276
 31
0.0
  0
LINE
  5
2F6
330
253
100
AcDbEntity
  8
0
 62
     0
370
    -2
100
AcDbLine
 10
110.0196220283973
 20
195.1589407614276
 30
0.0
 11
110.0556220283972
 21
195.1589407614276
 31
0.0
  0
SOLID
  5
2F7
330
253
100
AcDbEntity
  8
0
 62
     0
100
AcDbTrace
 10
109.7476220283973
 20
195.1649407614277
 30
0.0
 11
109.7476220283973
 21
195.1529407614276
 31
0.0
 12
109.7836220283973
 22
195.1589407614276
 32
0.0
 13
109.7836220283973
 23
195.1589407614276
 33
0.0
  0
SOLID
  5
2F8
330
253
100
AcDbEntity
  8
0
 62
     0
100
AcDbTrace
 10
110.0196220283973
 20
195.1649407614277
 30
0.0
 11
110.0196220283973
 21
195.1529407614276
 31
0.0
 12
109.9836220283972
 22
195.1589407614276
 32
0.0
 13
109.9836220283972
 23
195.1589407614276
 33
0.0
  0
MTEXT
  5
2F9
330
253
100
AcDbEntity
  8
0
 62
     0
100
AcDbMText
 10
109.8836220283973
 20
195.1589407614276
 30
0.0
 40
0.036
 41
0.0
 71
     5
 72
     1
  1
\A1;0.40
 73
     1
 44
1.0
  0
POINT
  5
2FA
330
253
100
AcDbEntity
  8
Defpoints
 62
     0
100
AcDbPoint
 10
109.7836220283973
 20
195.3406310251081
 30
0.0
  0
POINT
  5
2FB
330
253
100
AcDbEntity
  8
Defpoints
 62
     0
100
AcDbPoint
 10
109.9836220283972
 20
195.3406310251081
 30
0.0
  0
POINT
  5
2FC
330
253
100
AcDbEntity
  8
Defpoints
 62
     0
100
AcDbPoint
 10
109.9836220283972
 20
195.1589407614276
 30
0.0
  0
ENDBLK
  5
25F
330
253
100
AcDbEntity
  8
0
100
AcDbBlockEnd
  0
BLOCK
  5
26C
330
261
100
AcDbEntity
  8
0
100
AcDbBlockBegin
  2
*D24
 70
     1
 10
0.0
 20
0.0
 30
0.0
  3
*D24
  1

  0
LINE
  5
2E9
330
261
100
AcDbEntity
  8
0
 62
     0
370
    -2
100
AcDbLine
 10
109.6257129651838
 20
196.3221206013154
 30
0.0
 11
109.6257129651838
 21
196.6031755627122
 31
0.0
  0
LINE
  5
2EA
330
261
100
AcDbEntity
  8
0
 62
     0
370
    -2
100
AcDbLine
 10
110.1415310916108
 20
196.3221206013154
 30
0.0
 11
110.1415310916108
 21
196.6031755627122
 31
0.0
  0
LINE
  5
2EB
330
261
100
AcDbEntity
  8
0
 62
     0
370
    -2
100
AcDbLine
 10
109.6617129651838
 20
196.5671755627122
 30
0.0
 11
109.8176220283973
 21
196.5671755627122
 31
0.0
  0
LINE
  5
2EC
330
261
100
AcDbEntity
  8
0
 62
     0
370
    -2
100
AcDbLine
 10
110.1055310916107
 20
196.5671755627122
 30
0.0
 11
109.9496220283973
 21
196.5671755627122
 31
0.0
  0
SOLID
  5
2ED
330
261
100
AcDbEntity
  8
0
 62
     0
100
AcDbTrace
 10
109.6617129651838
 20
196.5731755627122
 30
0.0
 11
109.6617129651838
 21
196.5611755627122
 31
0.0
 12
109.6257129651838
 22
196.5671755627122
 32
0.0
 13
109.6257129651838
 23
196.5671755627122
 33
0.0
  0
SOLID
  5
2EE
330
261
100
AcDbEntity
  8
0
 62
     0
100
AcDbTrace
 10
110.1055310916107
 20
196.5731755627122
 30
0.0
 11
110.1055310916107
 21
196.5611755627122
 31
0.0
 12
110.1415310916108
 22
196.5671755627122
 32
0.0
 13
110.1415310916108
 23
196.5671755627122
 33
0.0
  0
MTEXT
  5
2EF
330
261
100
AcDbEntity
  8
0
 62
     0
100
AcDbMText
 10
109.8836220283973
 20
196.5671755627122
 30
0.0
 40
0.036
 41
0.0
 71
     5
 72
     1
  1
\A1;0.90
 73
     1
 44
1.0
  0
POINT
  5
2F0
330
261
100
AcDbEntity
  8
Defpoints
 62
     0
100
AcDbPoint
 10
109.6257129651838
 20
196.3096206013154
 30
0.0
  0
POINT
  5
2F1
330
261
100
AcDbEntity
  8
Defpoints
 62
     0
100
AcDbPoint
 10
110.1415310916108
 20
196.3096206013154
 30
0.0
  0
POINT
  5
2F2
330
261
100
AcDbEntity
  8
Defpoints
 62
     0
100
AcDbPoint
 10
110.1415310916108
 20
196.5671755627122
 30
0.0
  0
ENDBLK
  5
26D
330
261
100
AcDbEntity
  8
0
100
AcDbBlockEnd
  0
BLOCK
  5
2C0
330
2B5
100
AcDbEntity
  8
0
100
AcDbBlockBegin
  2
*D25
 70
     1
 10
0.0
 20
0.0
 30
0.0
  3
*D25
  1

  0
LINE
  5
2DF
330
2B5
100
AcDbEntity
  8
0
 62
     0
370
    -2
100
AcDbLine
 10
109.5569673913632
 20
196.3069848053489
 30
0.0
 11
109.2185587839753
 21
196.3069848053489
 31
0.0
  0
LINE
  5
2E0
330
2B5
100
AcDbEntity
  8
0
 62
     0
370
    -2
100
AcDbLine
 10
109.6586220283974
 20
195.3406310251081
 30
0.0
 11
109.2185587839753
 21
195.3406310251081
 31
0.0
  0
LINE
  5
2E1
330
2B5
100
AcDbEntity
  8
0
 62
     0
370
    -2
100
AcDbLine
 10
109.2545587839752
 20
196.2709848053489
 30
0.0
 11
109.2545587839752
 21
195.8868079152285
 31
0.0
  0
LINE
  5
2E2
330
2B5
100
AcDbEntity
  8
0
 62
     0
370
    -2
100
AcDbLine
 10
109.2545587839752
 20
195.3766310251081
 30
0.0
 11
109.2545587839752
 21
195.7608079152285
 31
0.0
  0
SOLID
  5
2E3
330
2B5
100
AcDbEntity
  8
0
 62
     0
100
AcDbTrace
 10
109.2485587839753
 20
196.2709848053489
 30
0.0
 11
109.2605587839752
 21
196.2709848053489
 31
0.0
 12
109.2545587839752
 22
196.3069848053489
 32
0.0
 13
109.2545587839752
 23
196.3069848053489
 33
0.0
  0
SOLID
  5
2E4
330
2B5
100
AcDbEntity
  8
0
 62
     0
100
AcDbTrace
 10
109.2485587839753
 20
195.3766310251081
 30
0.0
 11
109.2605587839752
 21
195.3766310251081
 31
0.0
 12
109.2545587839752
 22
195.3406310251081
 32
0.0
 13
109.2545587839752
 23
195.3406310251081
 33
0.0
  0
MTEXT
  5
2E5
330
2B5
100
AcDbEntity
  8
0
 62
     0
100
AcDbMText
 10
109.2545587839752
 20
195.8238079152286
 30
0.0
 40
0.036
 41
0.0
 71
     5
 72
     1
  1
\A1;1.50
 11
0.0000000000000001
 21
1.0
 31
0.0
 73
     1
 44
1.0
  0
POINT
  5
2E6
330
2B5
100
AcDbEntity
  8
Defpoints
 62
     0
100
AcDbPoint
 10
109.5694673913632
 20
196.3069848053489
 30
0.0
  0
POINT
  5
2E7
330
2B5
100
AcDbEntity
  8
Defpoints
 62
     0
100
AcDbPoint
 10
109.6711220283973
 20
195.3406310251081
 30
0.0
  0
POINT
  5
2E8
330
2B5
100
AcDbEntity
  8
Defpoints
 62
     0
100
AcDbPoint
 10
109.2545587839752
 20
195.3406310251081
 30
0.0
  0
ENDBLK
  5
2C1
330
2B5
100
AcDbEntity
  8
0
100
AcDbBlockEnd
  0
ENDSEC
  0
SECTION
  2
ENTITIES
  0
TEXT
  5
40
330
1F
100
AcDbEntity
  8
0
  6
Continuous
100
AcDbText
 10
109.470271207469
 20
197.135929224863
 30
0.0
 40
0.06
  1
P = 839 dm
  7
ROMANC
100
AcDbText
  0
TEXT
  5
41
330
1F
100
AcDbEntity
  8
0
  6
Continuous
100
AcDbText
 10
109.464271207469
 20
197.2689292248631
 30
0.0
 40
0.06
  1
S = 318 dm
  7
ROMANC
100
AcDbText
  0
TEXT
  5
42
330
1F
100
AcDbEntity
  8
0
  6
Continuous
100
AcDbText
 10
109.469271207469
 20
197.498929224863
 30
0.0
 40
0.06
  1
TIPUS   NT318C
  7
ROMANC
100
AcDbText
  0
TEXT
  5
43
330
1F
100
AcDbEntity
  8
0
  6
Continuous
100
AcDbText
 10
109.461271207469
 20
197.404929224863
 30
0.0
 40
0.06
  1
ESCALA  1:20
  7
ROMANC
100
AcDbText
  0
LWPOLYLINE
  5
44
330
1F
100
AcDbEntity
  8
0
  6
Continuous
100
AcDbPolyline
 90
        4
 70
     1
 43
0.0
 10
108.8472712074689
 20
197.836929224863
 10
110.947271207469
 20
197.836929224863
 10
110.947271207469
 20
194.866929224863
 10
108.8472712074689
 20
194.866929224863
  0
TEXT
  5
45
330
1F
100
AcDbEntity
  8
0
  6
Continuous
100
AcDbText
 10
110.060705207469
 20
197.322929224863
 30
0.0
 40
0.018
  1
2
  7
ROMANC
100
AcDbText
  0
LWPOLYLINE
  5
21D
330
1F
100
AcDbEntity
  8
0
100
AcDbPolyline
 90
        8
 70
     1
 43
0.0
 10
109.7836220283973
 20
195.3406310251081
 42
0.7499999999999894
 10
109.9836220283972
 20
195.3406310251081
 10
110.0961220283973
 20
195.3406310251081
 10
110.1593861097077
 20
196.6906310251081
 42
0.1361978754882432
 10
109.491317092216
 20
196.7455851922179
 42
0.9891165244678695
 10
109.5601204524132
 20
196.3625108958565
 42
-0.4497965772722706
 10
109.6257129651838
 20
196.3096206013154
 10
109.6711220283973
 20
195.3406310251081
  0
DIMENSION
  5
21E
330
1F
100
AcDbEntity
  8
0
100
AcDbDimension
  2
*D20
 10
110.6999375813843
 20
195.2656310251081
 30
0.0
 11
110.6999375813842
 21
196.0167262657791
 31
0.0
 70
    32
  1
3.00
 71
     5
 42
1.502190481341813
  3
Standard
100
AcDbAlignedDimension
 13
109.7263508369277
 23
196.7678215064499
 33
0.0
 14
109.8961220283973
 24
195.2656310251081
 34
0.0
 50
90.0
100
AcDbRotatedDimension
  0
DIMENSION
  5
22C
330
1F
100
AcDbEntity
  8
0
100
AcDbDimension
  2
*D21
 10
110.2410871670786
 20
195.3406310251081
 30
0.0
 11
110.2410871670786
 21
195.4756310251082
 31
0.0
 70
    32
  1
0.15
 71
     5
 42
0.0750000000000171
  3
Standard
100
AcDbAlignedDimension
 13
109.8836220283972
 23
195.2656310251081
 33
0.0
 14
110.0961220283973
 24
195.3406310251081
 34
0.0
 50
90.0
100
AcDbRotatedDimension
  0
DIMENSION
  5
244
330
1F
100
AcDbEntity
  8
0
100
AcDbDimension
  2
*D22
 10
109.6711220283973
 20
195.071786164514
 30
0.0
 11
109.8836220283973
 21
195.071786164514
 31
0.0
 70
    32
  1
0.80
 71
     5
 42
0.4249999999999972
  3
Standard
100
AcDbAlignedDimension
 13
110.0961220283973
 23
195.3406310251081
 33
0.0
 14
109.6711220283973
 24
195.3406310251081
 34
0.0
100
AcDbRotatedDimension
  0
DIMENSION
  5
252
330
1F
100
AcDbEntity
  8
0
100
AcDbDimension
  2
*D23
 10
109.9836220283972
 20
195.1589407614276
 30
0.0
 11
109.8836220283973
 21
195.1589407614276
 31
0.0
 70
    32
  1
0.40
 71
     5
 42
0.1999999999999034
  3
Standard
100
AcDbAlignedDimension
 13
109.7836220283973
 23
195.3406310251081
 33
0.0
 14
109.9836220283972
 24
195.3406310251081
 34
0.0
100
AcDbRotatedDimension
  0
DIMENSION
  5
260
330
1F
100
AcDbEntity
  8
0
100
AcDbDimension
  2
*D24
 10
110.1415310916108
 20
196.5671755627122
 30
0.0
 11
109.8836220283973
 21
196.5671755627122
 31
0.0
 70
    32
  1
0.90
 71
     5
 42
0.5158181264269075
  3
Standard
100
AcDbAlignedDimension
 13
109.6257129651838
 23
196.3096206013154
 33
0.0
 14
110.1415310916108
 24
196.3096206013154
 34
0.0
100
AcDbRotatedDimension
  0
DIMENSION
  5
2B4
330
1F
100
AcDbEntity
  8
0
100
AcDbDimension
  2
*D25
 10
109.2545587839752
 20
195.3406310251081
 30
0.0
 11
109.2545587839752
 21
195.8238079152286
 31
0.0
 70
    32
  1
1.50
 71
     5
 42
0.9663537802407233
  3
Standard
100
AcDbAlignedDimension
 13
109.5694673913632
 23
196.3069848053489
 33
0.0
 14
109.6711220283973
 24
195.3406310251081
 34
0.0
 50
90.0
100
AcDbRotatedDimension
  0
VIEWPORT
  5
68
330
1B
100
AcDbEntity
 67
     1
  8
0
100
AcDbViewport
 10
130.4819183349609
 20
97.50424718856812
 30
0.0
 40
314.1477025756835
 41
245.2256005560486
 68
     1
 69
     1
 12
130.4819183349609
 22
97.50424718856812
 13
0.0
 23
0.0
 14
10.0
 24
10.0
 15
10.0
 25
10.0
 16
0.0
 26
0.0
 36
1.0
 17
0.0
 27
0.0
 37
0.0
 42
50.0
 43
0.0
 44
0.0
 45
245.2256005560486
 50
0.0
 51
0.0
 72
   100
 90
    32800
  1

281
     0
 71
     1
 74
     0
110
0.0
120
0.0
130
0.0
111
1.0
121
0.0
131
0.0
112
0.0
122
1.0
132
0.0
 79
     0
146
0.0
  0
VIEWPORT
  5
6A
330
1B
100
AcDbEntity
 67
     1
  8
0
100
AcDbViewport
 10
130.2279224395751
 20
97.63125109672548
 30
0.0
 40
208.3646759033201
 41
156.2100017547606
 68
     2
 69
     2
 12
109.8962410957275
 22
196.3564460597192
 13
0.0
 23
0.0
 14
10.0
 24
10.0
 15
10.0
 25
10.0
 16
0.0
 26
0.0
 36
1.0
 17
0.0
 27
0.0
 37
0.0
 42
50.0
 43
0.0
 44
0.0
 45
3.03490564364375
 50
0.0
 51
0.0
 72
   100
 90
    32864
  1

281
     0
 71
     1
 74
     0
110
0.0
120
0.0
130
0.0
111
1.0
121
0.0
131
0.0
112
0.0
122
1.0
132
0.0
 79
     0
146
0.0
  0
ENDSEC
  0
SECTION
  2
OBJECTS
  0
DICTIONARY
  5
C
330
0
100
AcDbDictionary
281
     1
  3
ACAD_GROUP
350
D
  3
ACAD_PLOTSTYLENAME
350
E
  3
ACAD_MLINESTYLE
350
17
  3
ACAD_PLOTSETTINGS
350
19
  3
ACAD_LAYOUT
350
1A
  0
DICTIONARY
  5
D
102
{ACAD_REACTORS
330
C
102
}
330
C
100
AcDbDictionary
281
     1
  0
ACDBDICTIONARYWDFLT
  5
E
102
{ACAD_REACTORS
330
C
102
}
330
C
100
AcDbDictionary
281
     1
  3
Normal
350
F
100
AcDbDictionaryWithDefault
340
F
  0
DICTIONARY
  5
17
102
{ACAD_REACTORS
330
C
102
}
330
C
100
AcDbDictionary
281
     1
  3
Standard
350
18
  0
DICTIONARY
  5
19
102
{ACAD_REACTORS
330
C
102
}
330
C
100
AcDbDictionary
281
     1
  0
DICTIONARY
  5
1A
102
{ACAD_REACTORS
330
C
102
}
330
C
100
AcDbDictionary
281
     1
  3
Presentación1
350
1E
  3
Model
350
22
  3
Presentación2
350
26
  0
ACDBPLACEHOLDER
  5
F
102
{ACAD_REACTORS
330
E
102
}
330
E
  0
MLINESTYLE
  5
18
102
{ACAD_REACTORS
330
17
102
}
330
17
100
AcDbMlineStyle
  2
STANDARD
 70
     0
  3

 62
   256
 51
90.0
 52
90.0
 71
     2
 49
0.5
 62
   256
  6
BYLAYER
 49
-0.5
 62
   256
  6
BYLAYER
  0
LAYOUT
  5
1E
102
{ACAD_REACTORS
330
1A
102
}
330
1A
100
AcDbPlotSettings
  1

  2
HP DesignJet 750C/PS FILE
  4
A4
  6

 40
7.482416629791258
 41
18.48907089233398
 42
7.228408813476562
 43
17.9810791015625
 44
209.9733276367186
 45
296.9259948730469
 46
0.0
 47
0.0
 48
0.0
 49
0.0
140
0.0
141
0.0
142
1.0
143
1.0
 70
   688
 72
     1
 73
     1
 74
     5
  7

 75
    16
147
1.0
148
0.0
149
0.0
100
AcDbLayout
  1
Presentación1
 70
     1
 71
     1
 10
-17.9810791015625
 20
-7.482416629791258
 11
278.9449157714843
 21
202.4909110069275
 12
0.0
 22
0.0
 32
0.0
 14
26.04558448791504
 24
19.52625021934507
 34
0.0
 15
234.4102603912353
 25
175.7362519741057
 35
0.0
146
0.0
 13
0.0
 23
0.0
 33
0.0
 16
1.0
 26
0.0
 36
0.0
 17
0.0
 27
1.0
 37
0.0
 76
     0
330
1B
331
68
  0
LAYOUT
  5
22
102
{ACAD_REACTORS
330
1A
102
}
330
1A
100
AcDbPlotSettings
  1

  2
HP DesignJet 750C/PS FILE
  4
A4
  6

 40
7.482416629791259
 41
18.48907089233398
 42
7.228408813476562
 43
17.9810791015625
 44
209.9733276367187
 45
296.9259948730469
 46
0.0
 47
0.0
 48
0.0
 49
0.0
140
0.0
141
0.0
142
1.0
143
1.0
 70
 11952
 72
     1
 73
     1
 74
     0
  7

 75
     0
147
1.0
148
-108.9198018370148
149
-194.8468892401428
100
AcDbLayout
  1
Model
 70
     1
 71
     0
 10
0.0
 20
0.0
 11
12.0
 21
9.0
 12
0.0
 22
0.0
 32
0.0
 14
0.0
 24
0.0
 34
0.0
 15
0.0
 25
0.0
 35
0.0
146
0.0
 13
0.0
 23
0.0
 33
0.0
 16
1.0
 26
0.0
 36
0.0
 17
0.0
 27
1.0
 37
0.0
 76
     0
330
1F
  0
LAYOUT
  5
26
102
{ACAD_REACTORS
330
1A
102
}
330
1A
100
AcDbPlotSettings
  1

  2
HP DesignJet 750C/PS FILE
  4

  6

 40
0.0
 41
0.0
 42
0.0
 43
0.0
 44
0.0
 45
0.0
 46
0.0
 47
0.0
 48
0.0
 49
0.0
140
0.0
141
0.0
142
1.0
143
1.0
 70
   688
 72
     0
 73
     0
 74
     5
  7

 75
    16
147
1.0
148
0.0
149
0.0
100
AcDbLayout
  1
Presentación2
 70
     1
 71
     2
 10
0.0
 20
0.0
 11
12.0
 21
9.0
 12
0.0
 22
0.0
 32
0.0
 14
0.0
 24
0.0
 34
0.0
 15
0.0
 25
0.0
 35
0.0
146
0.0
 13
0.0
 23
0.0
 33
0.0
 16
1.0
 26
0.0
 36
0.0
 17
0.0
 27
1.0
 37
0.0
 76
     0
330
23
  0
ENDSEC
  0
EOF
