  0
SECTION
  2
HEADER
  9
$ACADVER
  1
AC1014
  9
$ACADMAINTVER
 70
     9
  9
$DWGCODEPAGE
  3
ANSI_1252
  9
$INSBASE
 10
0.0
 20
0.0
 30
0.0
  9
$EXTMIN
 10
281.3950692441341
 20
29.89657355491301
 30
-98.29650011472404
  9
$EXTMAX
 10
291.8969308140735
 20
44.74748374051749
 30
65.54100007656962
  9
$LIMMIN
 10
280.396
 20
28.89699999999999
  9
$LIMMAX
 10
292.896
 20
43.74699999999999
  9
$ORTHOMODE
 70
     0
  9
$REGENMODE
 70
     1
  9
$FILLMODE
 70
     1
  9
$QTEXTMODE
 70
     0
  9
$MIRRTEXT
 70
     1
  9
$DRAGMODE
 70
     2
  9
$LTSCALE
 40
1.0
  9
$OSMODE
 70
   687
  9
$ATTMODE
 70
     1
  9
$TEXTSIZE
 40
0.2
  9
$TRACEWID
 40
0.05
  9
$TEXTSTYLE
  7
STANDARD
  9
$CLAYER
  8
0
  9
$CELTYPE
  6
BYLAYER
  9
$CECOLOR
 62
   256
  9
$CELTSCALE
 40
1.0
  9
$DELOBJ
 70
     1
  9
$DISPSILH
 70
     0
  9
$DIMSCALE
 40
1.0
  9
$DIMASZ
 40
0.18
  9
$DIMEXO
 40
0.0625
  9
$DIMDLI
 40
0.38
  9
$DIMRND
 40
0.0
  9
$DIMDLE
 40
0.0
  9
$DIMEXE
 40
0.18
  9
$DIMTP
 40
0.0
  9
$DIMTM
 40
0.0
  9
$DIMTXT
 40
0.15
  9
$DIMCEN
 40
0.09
  9
$DIMTSZ
 40
0.0
  9
$DIMTOL
 70
     0
  9
$DIMLIM
 70
     0
  9
$DIMTIH
 70
     1
  9
$DIMTOH
 70
     1
  9
$DIMSE1
 70
     0
  9
$DIMSE2
 70
     0
  9
$DIMTAD
 70
     0
  9
$DIMZIN
 70
     0
  9
$DIMBLK
  1

  9
$DIMASO
 70
     1
  9
$DIMSHO
 70
     1
  9
$DIMPOST
  1

  9
$DIMAPOST
  1

  9
$DIMALT
 70
     0
  9
$DIMALTD
 70
     2
  9
$DIMALTF
 40
25.4
  9
$DIMLFAC
 40
1.0
  9
$DIMTOFL
 70
     0
  9
$DIMTVP
 40
0.0
  9
$DIMTIX
 70
     0
  9
$DIMSOXD
 70
     0
  9
$DIMSAH
 70
     0
  9
$DIMBLK1
  1

  9
$DIMBLK2
  1

  9
$DIMSTYLE
  2
STANDARD
  9
$DIMCLRD
 70
     0
  9
$DIMCLRE
 70
     0
  9
$DIMCLRT
 70
     0
  9
$DIMTFAC
 40
1.0
  9
$DIMGAP
 40
0.09
  9
$DIMJUST
 70
     0
  9
$DIMSD1
 70
     0
  9
$DIMSD2
 70
     0
  9
$DIMTOLJ
 70
     1
  9
$DIMTZIN
 70
     0
  9
$DIMALTZ
 70
     0
  9
$DIMALTTZ
 70
     0
  9
$DIMFIT
 70
     3
  9
$DIMUPT
 70
     0
  9
$DIMUNIT
 70
     2
  9
$DIMDEC
 70
     2
  9
$DIMTDEC
 70
     2
  9
$DIMALTU
 70
     2
  9
$DIMALTTD
 70
     2
  9
$DIMTXSTY
  7
STANDARD
  9
$DIMAUNIT
 70
     0
  9
$LUNITS
 70
     2
  9
$LUPREC
 70
     4
  9
$SKETCHINC
 40
0.1
  9
$FILLETRAD
 40
0.0
  9
$AUNITS
 70
     0
  9
$AUPREC
 70
     0
  9
$MENU
  1
acad
  9
$ELEVATION
 40
0.0
  9
$PELEVATION
 40
0.0
  9
$THICKNESS
 40
0.0
  9
$LIMCHECK
 70
     0
  9
$BLIPMODE
 70
     0
  9
$CHAMFERA
 40
0.0
  9
$CHAMFERB
 40
0.0
  9
$CHAMFERC
 40
0.0
  9
$CHAMFERD
 40
0.0
  9
$SKPOLY
 70
     0
  9
$TDCREATE
 40
2448315.373408102
  9
$TDUPDATE
 40
2452779.501038680
  9
$TDINDWG
 40
0.0095466782
  9
$TDUSRTIMER
 40
0.0095463194
  9
$USRTIMER
 70
     1
  9
$ANGBASE
 50
0.0
  9
$ANGDIR
 70
     0
  9
$PDMODE
 70
     0
  9
$PDSIZE
 40
0.0
  9
$PLINEWID
 40
0.0
  9
$COORDS
 70
     2
  9
$SPLFRAME
 70
     0
  9
$SPLINETYPE
 70
     6
  9
$SPLINESEGS
 70
     8
  9
$ATTDIA
 70
     0
  9
$ATTREQ
 70
     1
  9
$HANDLING
 70
 22529
  9
$HANDSEED
  5
233
  9
$SURFTAB1
 70
     6
  9
$SURFTAB2
 70
     6
  9
$SURFTYPE
 70
     6
  9
$SURFU
 70
     6
  9
$SURFV
 70
     6
  9
$UCSNAME
  2

  9
$UCSORG
 10
0.0
 20
0.0
 30
0.0
  9
$UCSXDIR
 10
1.0
 20
0.0
 30
0.0
  9
$UCSYDIR
 10
0.0
 20
1.0
 30
0.0
  9
$PUCSNAME
  2

  9
$PUCSORG
 10
0.0
 20
0.0
 30
0.0
  9
$PUCSXDIR
 10
1.0
 20
0.0
 30
0.0
  9
$PUCSYDIR
 10
0.0
 20
1.0
 30
0.0
  9
$USERI1
 70
     0
  9
$USERI2
 70
     0
  9
$USERI3
 70
     0
  9
$USERI4
 70
     0
  9
$USERI5
 70
     0
  9
$USERR1
 40
0.0
  9
$USERR2
 40
0.0
  9
$USERR3
 40
0.0
  9
$USERR4
 40
0.0
  9
$USERR5
 40
0.0
  9
$WORLDVIEW
 70
     1
  9
$SHADEDGE
 70
     3
  9
$SHADEDIF
 70
    70
  9
$TILEMODE
 70
     1
  9
$MAXACTVP
 70
    16
  9
$PINSBASE
 10
0.0
 20
0.0
 30
0.0
  9
$PLIMCHECK
 70
     0
  9
$PEXTMIN
 10
1.000000000000000E+20
 20
1.000000000000000E+20
 30
1.000000000000000E+20
  9
$PEXTMAX
 10
-1.000000000000000E+20
 20
-1.000000000000000E+20
 30
-1.000000000000000E+20
  9
$PLIMMIN
 10
0.0
 20
0.0
  9
$PLIMMAX
 10
12.0
 20
9.0
  9
$UNITMODE
 70
     0
  9
$VISRETAIN
 70
     0
  9
$PLINEGEN
 70
     0
  9
$PSLTSCALE
 70
     1
  9
$TREEDEPTH
 70
  3020
  9
$PICKSTYLE
 70
     1
  9
$CMLSTYLE
  2
STANDARD
  9
$CMLJUST
 70
     0
  9
$CMLSCALE
 40
1.0
  9
$PROXYGRAPHICS
 70
     1
  9
$MEASUREMENT
 70
     0
  0
ENDSEC
  0
SECTION
  2
CLASSES
  0
CLASS
  1
ACDBDICTIONARYWDFLT
  2
AcDbDictionaryWithDefault
  3
AutoCAD 2000
 90
        0
280
     0
281
     0
  0
CLASS
  1
ACDBPLACEHOLDER
  2
AcDbPlaceHolder
  3
AutoCAD 2000
 90
        0
280
     0
281
     0
  0
CLASS
  1
LAYOUT
  2
AcDbLayout
  3
AutoCAD 2000
 90
        0
280
     0
281
     0
  0
CLASS
  1
DICTIONARYVAR
  2
AcDbDictionaryVar
  3
AutoCAD 2000
 90
        0
280
     0
281
     0
  0
CLASS
  1
LONG_TRANSACTION
  2
AcDbLongTransaction
  3
AutoCAD 2000
 90
        0
280
     0
281
     0
  0
CLASS
  1
LWPOLYLINE
  2
AcDbPolyline
  3
AutoCAD 2000
 90
        0
280
     0
281
     1
  0
CLASS
  1
HATCH
  2
AcDbHatch
  3
AutoCAD 2000
 90
        0
280
     0
281
     1
  0
CLASS
  1
XRECORD
  2
AcDbXrecord
  3
AutoCAD 2000
 90
        0
280
     0
281
     0
  0
ENDSEC
  0
SECTION
  2
TABLES
  0
TABLE
  2
VPORT
  5
8
330
0
100
AcDbSymbolTable
 70
     5
  0
VPORT
  5
20E
330
8
100
AcDbSymbolTableRecord
100
AcDbViewportTableRecord
  2
*ACTIVE
 70
     0
 10
0.0
 20
0.0
 11
1.0
 21
1.0
 12
286.5391099106549
 22
34.94988011774529
 13
0.0
 23
0.0
 14
1.0
 24
1.0
 15
0.0
 25
0.0
 16
0.0
 26
0.0
 36
1.0
 17
0.0
 27
0.0
 37
0.0
 40
31.62577262210685
 41
1.712826333711691
 42
50.0
 43
0.0
 44
0.0
 50
0.0
 51
0.0
 71
     0
 72
   100
 73
     1
 74
     1
 75
     0
 76
     0
 77
     0
 78
     0
  0
ENDTAB
  0
TABLE
  2
LTYPE
  5
5
330
0
100
AcDbSymbolTable
 70
     1
  0
LTYPE
  5
13
330
5
100
AcDbSymbolTableRecord
100
AcDbLinetypeTableRecord
  2
BYBLOCK
 70
     0
  3

 72
    65
 73
     0
 40
0.0
  0
LTYPE
  5
14
330
5
100
AcDbSymbolTableRecord
100
AcDbLinetypeTableRecord
  2
BYLAYER
 70
     0
  3

 72
    65
 73
     0
 40
0.0
  0
LTYPE
  5
15
330
5
100
AcDbSymbolTableRecord
100
AcDbLinetypeTableRecord
  2
CONTINUOUS
 70
     0
  3
Solid line
 72
    65
 73
     0
 40
0.0
  0
ENDTAB
  0
TABLE
  2
LAYER
  5
2
330
0
100
AcDbSymbolTable
 70
     9
  0
LAYER
  5
10
330
2
100
AcDbSymbolTableRecord
100
AcDbLayerTableRecord
  2
0
 70
     0
 62
     7
  6
CONTINUOUS
  0
LAYER
  5
22
330
2
100
AcDbSymbolTableRecord
100
AcDbLayerTableRecord
  2
1
 70
     0
 62
     7
  6
CONTINUOUS
  0
LAYER
  5
23
330
2
100
AcDbSymbolTableRecord
100
AcDbLayerTableRecord
  2
7
 70
     0
 62
     7
  6
CONTINUOUS
  0
LAYER
  5
24
330
2
100
AcDbSymbolTableRecord
100
AcDbLayerTableRecord
  2
8
 70
     0
 62
     7
  6
CONTINUOUS
  0
LAYER
  5
25
330
2
100
AcDbSymbolTableRecord
100
AcDbLayerTableRecord
  2
9
 70
     0
 62
     7
  6
CONTINUOUS
  0
LAYER
  5
26
330
2
100
AcDbSymbolTableRecord
100
AcDbLayerTableRecord
  2
22
 70
     0
 62
     7
  6
CONTINUOUS
  0
LAYER
  5
27
330
2
100
AcDbSymbolTableRecord
100
AcDbLayerTableRecord
  2
25
 70
     0
 62
     7
  6
CONTINUOUS
  0
LAYER
  5
78
330
2
100
AcDbSymbolTableRecord
100
AcDbLayerTableRecord
  2
DEFPOINTS
 70
     0
 62
     7
  6
CONTINUOUS
  0
LAYER
  5
1E7
330
2
100
AcDbSymbolTableRecord
100
AcDbLayerTableRecord
  2
NO_PRINT
 70
     0
 62
     7
  6
CONTINUOUS
  0
ENDTAB
  0
TABLE
  2
STYLE
  5
3
330
0
100
AcDbSymbolTable
 70
     2
  0
STYLE
  5
11
330
3
100
AcDbSymbolTableRecord
100
AcDbTextStyleTableRecord
  2
STANDARD
 70
     0
 40
0.0
 41
1.0
 50
0.0
 71
     0
 42
0.2
  3
txt
  4

  0
STYLE
  5
28
330
3
100
AcDbSymbolTableRecord
100
AcDbTextStyleTableRecord
  2
ROMANC
 70
     0
 40
0.0
 41
1.0
 50
0.0
 71
     0
 42
0.2
  3
ROMANC
  4

  0
ENDTAB
  0
TABLE
  2
VIEW
  5
6
330
0
100
AcDbSymbolTable
 70
     0
  0
ENDTAB
  0
TABLE
  2
UCS
  5
7
330
0
100
AcDbSymbolTable
 70
     0
  0
ENDTAB
  0
TABLE
  2
APPID
  5
9
330
0
100
AcDbSymbolTable
 70
     1
  0
APPID
  5
12
330
9
100
AcDbSymbolTableRecord
100
AcDbRegAppTableRecord
  2
ACAD
 70
     0
  0
ENDTAB
  0
TABLE
  2
DIMSTYLE
  5
A
330
0
100
AcDbSymbolTable
 70
     1
  0
DIMSTYLE
105
6B
102
{ACAD_REACTORS
330
14F
330
167
330
175
330
183
102
}
330
A
100
AcDbSymbolTableRecord
100
AcDbDimStyleTableRecord
  2
STANDARD
 70
     0
  3

  4

  5

  6

  7

 40
1.0
 41
0.18
 42
0.0625
 43
0.38
 44
0.18
 45
0.0
 46
0.0
 47
0.0
 48
0.0
140
0.15
141
0.09
142
0.0
143
25.4
144
1.0
145
0.0
146
1.0
147
0.09
 71
     0
 72
     0
 73
     1
 74
     1
 75
     0
 76
     0
 77
     0
 78
     0
170
     0
171
     2
172
     0
173
     0
174
     0
175
     0
176
     0
177
     0
178
     0
270
     2
271
     2
272
     2
273
     2
274
     2
340
11
275
     0
280
     0
281
     0
282
     0
283
     1
284
     0
285
     0
286
     0
287
     3
288
     0
  0
ENDTAB
  0
TABLE
  2
BLOCK_RECORD
  5
1
330
0
100
AcDbSymbolTable
 70
     9
  0
BLOCK_RECORD
  5
1E
102
{ACAD_XDICTIONARY
360
231
102
}
330
1
100
AcDbSymbolTableRecord
100
AcDbBlockTableRecord
  2
*MODEL_SPACE
  0
BLOCK_RECORD
  5
1A
102
{ACAD_XDICTIONARY
360
22F
102
}
330
1
100
AcDbSymbolTableRecord
100
AcDbBlockTableRecord
  2
*PAPER_SPACE
  0
BLOCK_RECORD
  5
79
330
1
100
AcDbSymbolTableRecord
100
AcDbBlockTableRecord
  2
*D0
  0
BLOCK_RECORD
  5
87
330
1
100
AcDbSymbolTableRecord
100
AcDbBlockTableRecord
  2
*D1
  0
BLOCK_RECORD
  5
95
330
1
100
AcDbSymbolTableRecord
100
AcDbBlockTableRecord
  2
*D2
  0
BLOCK_RECORD
  5
A3
330
1
100
AcDbSymbolTableRecord
100
AcDbBlockTableRecord
  2
*D3
  0
BLOCK_RECORD
  5
142
330
1
100
AcDbSymbolTableRecord
100
AcDbBlockTableRecord
  2
*D4
  0
BLOCK_RECORD
  5
150
330
1
100
AcDbSymbolTableRecord
100
AcDbBlockTableRecord
  2
*D5
  0
BLOCK_RECORD
  5
168
330
1
100
AcDbSymbolTableRecord
100
AcDbBlockTableRecord
  2
*D6
  0
BLOCK_RECORD
  5
176
330
1
100
AcDbSymbolTableRecord
100
AcDbBlockTableRecord
  2
*D7
  0
BLOCK_RECORD
  5
184
330
1
100
AcDbSymbolTableRecord
100
AcDbBlockTableRecord
  2
*D8
  0
ENDTAB
  0
ENDSEC
  0
SECTION
  2
BLOCKS
  0
BLOCK
  5
1F
330
1E
100
AcDbEntity
  8
0
100
AcDbBlockBegin
  2
*MODEL_SPACE
 70
     0
 10
0.0
 20
0.0
 30
0.0
  3
*MODEL_SPACE
  1

  0
ENDBLK
  5
20
330
1E
100
AcDbEntity
  8
0
100
AcDbBlockEnd
  0
BLOCK
  5
1B
330
1A
100
AcDbEntity
 67
     1
  8
0
100
AcDbBlockBegin
  2
*PAPER_SPACE
 70
     0
 10
0.0
 20
0.0
 30
0.0
  3
*PAPER_SPACE
  1

  0
ENDBLK
  5
1C
330
1A
100
AcDbEntity
 67
     1
  8
0
100
AcDbBlockEnd
  0
BLOCK
  5
84
330
79
100
AcDbEntity
  8
0
100
AcDbBlockBegin
  2
*D0
 70
     1
 10
0.0
 20
0.0
 30
0.0
  3
*D0
  1

  0
LINE
  5
E3
330
79
100
AcDbEntity
  8
0
 62
     0
100
AcDbLine
 10
284.1076286747693
 20
33.78920149363849
 30
0.0
 11
284.1076286747693
 21
32.68577526140581
 31
0.0
  0
LINE
  5
E4
330
79
100
AcDbEntity
  8
0
 62
     0
100
AcDbLine
 10
285.9076286747693
 20
33.63920149363849
 30
0.0
 11
285.9076286747693
 21
32.68577526140581
 31
0.0
  0
LINE
  5
E5
330
79
100
AcDbEntity
  8
0
 62
     0
100
AcDbLine
 10
284.2876286747694
 20
32.86577526140581
 30
0.0
 11
284.7676286747694
 21
32.86577526140581
 31
0.0
  0
LINE
  5
E6
330
79
100
AcDbEntity
  8
0
 62
     0
100
AcDbLine
 10
285.7276286747694
 20
32.86577526140581
 30
0.0
 11
285.2476286747694
 21
32.86577526140581
 31
0.0
  0
SOLID
  5
E7
330
79
100
AcDbEntity
  8
0
 62
     0
100
AcDbTrace
 10
284.2876286747694
 20
32.89577526140581
 30
0.0
 11
284.2876286747694
 21
32.83577526140581
 31
0.0
 12
284.1076286747693
 22
32.86577526140581
 32
0.0
 13
284.1076286747693
 23
32.86577526140581
 33
0.0
  0
SOLID
  5
E8
330
79
100
AcDbEntity
  8
0
 62
     0
100
AcDbTrace
 10
285.7276286747694
 20
32.89577526140581
 30
0.0
 11
285.7276286747694
 21
32.83577526140581
 31
0.0
 12
285.9076286747693
 22
32.86577526140581
 32
0.0
 13
285.9076286747693
 23
32.86577526140581
 33
0.0
  0
MTEXT
  5
E9
330
79
100
AcDbEntity
  8
0
 62
     0
100
AcDbMText
 10
285.0076286747693
 20
32.86577526140581
 30
0.0
 40
0.18
 41
0.0
 71
     5
 72
     1
  1
\A1;1.8
1001
ACAD
1000
MTEXTBEGIN
1070
    73
1070
     1
1070
    44
1040
1.0
1070
    74
1070
     0
1000
MTEXTEND
  0
POINT
  5
EA
330
79
100
AcDbEntity
  8
DEFPOINTS
 62
     0
100
AcDbPoint
 10
284.1076286747693
 20
33.85170149363849
 30
0.0
  0
POINT
  5
EB
330
79
100
AcDbEntity
  8
DEFPOINTS
 62
     0
100
AcDbPoint
 10
285.9076286747693
 20
33.70170149363849
 30
0.0
  0
POINT
  5
EC
330
79
100
AcDbEntity
  8
DEFPOINTS
 62
     0
100
AcDbPoint
 10
285.9076286747693
 20
32.86577526140581
 30
0.0
  0
ENDBLK
  5
85
330
79
100
AcDbEntity
  8
0
100
AcDbBlockEnd
  0
BLOCK
  5
92
330
87
100
AcDbEntity
  8
0
100
AcDbBlockBegin
  2
*D1
 70
     1
 10
0.0
 20
0.0
 30
0.0
  3
*D1
  1

  0
LINE
  5
D9
330
87
100
AcDbEntity
  8
0
 62
     0
100
AcDbLine
 10
285.0076286747693
 20
33.63920149363849
 30
0.0
 11
285.0076286747693
 21
33.09723944041156
 31
0.0
  0
LINE
  5
DA
330
87
100
AcDbEntity
  8
0
 62
     0
100
AcDbLine
 10
285.9076286747693
 20
33.63920149363849
 30
0.0
 11
285.9076286747693
 21
33.09723944041156
 31
0.0
  0
LINE
  5
DB
330
87
100
AcDbEntity
  8
0
 62
     0
100
AcDbLine
 10
285.1876286747694
 20
33.27723944041156
 30
0.0
 11
285.7276286747694
 21
33.27723944041156
 31
0.0
  0
LINE
  5
DC
330
87
100
AcDbEntity
  8
0
 62
     0
100
AcDbLine
 10
285.9076286747693
 20
33.27723944041156
 30
0.0
 11
286.0876286747694
 21
33.27723944041156
 31
0.0
  0
SOLID
  5
DD
330
87
100
AcDbEntity
  8
0
 62
     0
100
AcDbTrace
 10
285.1876286747694
 20
33.30723944041156
 30
0.0
 11
285.1876286747694
 21
33.24723944041156
 31
0.0
 12
285.0076286747693
 22
33.27723944041156
 32
0.0
 13
285.0076286747693
 23
33.27723944041156
 33
0.0
  0
SOLID
  5
DE
330
87
100
AcDbEntity
  8
0
 62
     0
100
AcDbTrace
 10
285.7276286747694
 20
33.30723944041156
 30
0.0
 11
285.7276286747694
 21
33.24723944041156
 31
0.0
 12
285.9076286747693
 22
33.27723944041156
 32
0.0
 13
285.9076286747693
 23
33.27723944041156
 33
0.0
  0
MTEXT
  5
DF
330
87
100
AcDbEntity
  8
0
 62
     0
100
AcDbMText
 10
286.3276286747694
 20
33.27723944041156
 30
0.0
 40
0.18
 41
0.0
 71
     5
 72
     1
  1
\A1;1.8
1001
ACAD
1000
MTEXTBEGIN
1070
    73
1070
     1
1070
    44
1040
1.0
1070
    74
1070
     0
1000
MTEXTEND
  0
POINT
  5
E0
330
87
100
AcDbEntity
  8
DEFPOINTS
 62
     0
100
AcDbPoint
 10
285.0076286747693
 20
33.70170149363849
 30
0.0
  0
POINT
  5
E1
330
87
100
AcDbEntity
  8
DEFPOINTS
 62
     0
100
AcDbPoint
 10
285.9076286747693
 20
33.70170149363849
 30
0.0
  0
POINT
  5
E2
330
87
100
AcDbEntity
  8
DEFPOINTS
 62
     0
100
AcDbPoint
 10
285.9076286747693
 20
33.27723944041156
 30
0.0
  0
ENDBLK
  5
93
330
87
100
AcDbEntity
  8
0
100
AcDbBlockEnd
  0
BLOCK
  5
A0
330
95
100
AcDbEntity
  8
0
100
AcDbBlockBegin
  2
*D2
 70
     1
 10
0.0
 20
0.0
 30
0.0
  3
*D2
  1

  0
LINE
  5
CF
330
95
100
AcDbEntity
  8
0
 62
     0
100
AcDbLine
 10
285.9701286747693
 20
33.70170149363849
 30
0.0
 11
287.1306466469956
 21
33.70170149363849
 31
0.0
  0
LINE
  5
D0
330
95
100
AcDbEntity
  8
0
 62
     0
100
AcDbLine
 10
285.9701286747693
 20
35.50170149363849
 30
0.0
 11
287.1306466469956
 21
35.50170149363849
 31
0.0
  0
LINE
  5
D1
330
95
100
AcDbEntity
  8
0
 62
     0
100
AcDbLine
 10
286.9506466469956
 20
33.88170149363849
 30
0.0
 11
286.9506466469956
 21
34.42170149363849
 31
0.0
  0
LINE
  5
D2
330
95
100
AcDbEntity
  8
0
 62
     0
100
AcDbLine
 10
286.9506466469956
 20
35.32170149363849
 30
0.0
 11
286.9506466469956
 21
34.78170149363849
 31
0.0
  0
SOLID
  5
D3
330
95
100
AcDbEntity
  8
0
 62
     0
100
AcDbTrace
 10
286.9206466469957
 20
33.88170149363849
 30
0.0
 11
286.9806466469956
 21
33.88170149363849
 31
0.0
 12
286.9506466469956
 22
33.70170149363849
 32
0.0
 13
286.9506466469956
 23
33.70170149363849
 33
0.0
  0
SOLID
  5
D4
330
95
100
AcDbEntity
  8
0
 62
     0
100
AcDbTrace
 10
286.9206466469957
 20
35.32170149363849
 30
0.0
 11
286.9806466469956
 21
35.32170149363849
 31
0.0
 12
286.9506466469956
 22
35.50170149363849
 32
0.0
 13
286.9506466469956
 23
35.50170149363849
 33
0.0
  0
MTEXT
  5
D5
330
95
100
AcDbEntity
  8
0
 62
     0
100
AcDbMText
 10
286.9506466469956
 20
34.60170149363854
 30
0.0
 40
0.18
 41
0.0
 71
     5
 72
     1
  1
\A1;1.8
1001
ACAD
1000
MTEXTBEGIN
1070
    73
1070
     1
1070
    44
1040
1.0
1070
    74
1070
     0
1000
MTEXTEND
  0
POINT
  5
D6
330
95
100
AcDbEntity
  8
DEFPOINTS
 62
     0
100
AcDbPoint
 10
285.9076286747693
 20
33.70170149363849
 30
0.0
  0
POINT
  5
D7
330
95
100
AcDbEntity
  8
DEFPOINTS
 62
     0
100
AcDbPoint
 10
285.9076286747693
 20
35.50170149363849
 30
0.0
  0
POINT
  5
D8
330
95
100
AcDbEntity
  8
DEFPOINTS
 62
     0
100
AcDbPoint
 10
286.9506466469956
 20
35.50170149363849
 30
0.0
  0
ENDBLK
  5
A1
330
95
100
AcDbEntity
  8
0
100
AcDbBlockEnd
  0
BLOCK
  5
AF
330
A3
100
AcDbEntity
  8
0
100
AcDbBlockBegin
  2
*D3
 70
     1
 10
0.0
 20
0.0
 30
0.0
  3
*D3
  1

  0
LINE
  5
121
330
A3
100
AcDbEntity
  8
0
 62
     0
100
AcDbLine
 10
284.0451286747693
 20
33.85170149363849
 30
0.0
 11
283.2383546490524
 21
33.85170149363849
 31
0.0
  0
LINE
  5
122
330
A3
100
AcDbEntity
  8
0
 62
     0
100
AcDbLine
 10
284.9451286747694
 20
33.70170149363849
 30
0.0
 11
283.2383546490524
 21
33.70170149363849
 31
0.0
  0
LINE
  5
123
330
A3
100
AcDbEntity
  8
0
 62
     0
100
AcDbLine
 10
283.4183546490523
 20
34.03170149363849
 30
0.0
 11
283.4183546490523
 21
34.21170149363849
 31
0.0
  0
LINE
  5
124
330
A3
100
AcDbEntity
  8
0
 62
     0
100
AcDbLine
 10
283.4183546490523
 20
33.52170149363849
 30
0.0
 11
283.4183546490523
 21
33.34170149363849
 31
0.0
  0
LINE
  5
125
330
A3
100
AcDbEntity
  8
0
 62
     0
100
AcDbLine
 10
283.4183546490523
 20
33.34170149363849
 30
0.0
 11
283.2383546490524
 21
33.34170149363849
 31
0.0
  0
SOLID
  5
126
330
A3
100
AcDbEntity
  8
0
 62
     0
100
AcDbTrace
 10
283.3883546490524
 20
34.03170149363849
 30
0.0
 11
283.4483546490523
 21
34.03170149363849
 31
0.0
 12
283.4183546490523
 22
33.85170149363849
 32
0.0
 13
283.4183546490523
 23
33.85170149363849
 33
0.0
  0
SOLID
  5
127
330
A3
100
AcDbEntity
  8
0
 62
     0
100
AcDbTrace
 10
283.3883546490524
 20
33.52170149363849
 30
0.0
 11
283.4483546490523
 21
33.52170149363849
 31
0.0
 12
283.4183546490523
 22
33.70170149363849
 32
0.0
 13
283.4183546490523
 23
33.70170149363849
 33
0.0
  0
MTEXT
  5
128
330
A3
100
AcDbEntity
  8
0
 62
     0
100
AcDbMText
 10
282.9233546490523
 20
33.34170149363854
 30
0.0
 40
0.18
 41
0.0
 71
     5
 72
     1
  1
\A1;0.15
1001
ACAD
1000
MTEXTBEGIN
1070
    73
1070
     1
1070
    44
1040
1.0
1070
    74
1070
     0
1000
MTEXTEND
  0
POINT
  5
129
330
A3
100
AcDbEntity
  8
DEFPOINTS
 62
     0
100
AcDbPoint
 10
284.1076286747693
 20
33.85170149363849
 30
0.0
  0
POINT
  5
12A
330
A3
100
AcDbEntity
  8
DEFPOINTS
 62
     0
100
AcDbPoint
 10
285.0076286747693
 20
33.70170149363849
 30
0.0
  0
POINT
  5
12B
330
A3
100
AcDbEntity
  8
DEFPOINTS
 62
     0
100
AcDbPoint
 10
283.4183546490523
 20
33.70170149363849
 30
0.0
  0
ENDBLK
  5
B0
330
A3
100
AcDbEntity
  8
0
100
AcDbBlockEnd
  0
BLOCK
  5
14D
330
142
100
AcDbEntity
  8
0
100
AcDbBlockBegin
  2
*D4
 70
     1
 10
0.0
 20
0.0
 30
0.0
  3
*D4
  1

  0
LINE
  5
143
330
142
100
AcDbEntity
  8
0
 62
     0
100
AcDbLine
 10
284.1076286747693
 20
35.56420149363849
 30
0.0
 11
284.1076286747693
 21
36.25987045792464
 31
0.0
  0
LINE
  5
144
330
142
100
AcDbEntity
  8
0
 62
     0
100
AcDbLine
 10
285.9076286747693
 20
35.56420149363849
 30
0.0
 11
285.9076286747693
 21
36.25987045792464
 31
0.0
  0
LINE
  5
145
330
142
100
AcDbEntity
  8
0
 62
     0
100
AcDbLine
 10
284.2876286747694
 20
36.07987045792464
 30
0.0
 11
284.7801286747694
 21
36.07987045792464
 31
0.0
  0
LINE
  5
146
330
142
100
AcDbEntity
  8
0
 62
     0
100
AcDbLine
 10
285.7276286747694
 20
36.07987045792464
 30
0.0
 11
285.2351286747694
 21
36.07987045792464
 31
0.0
  0
SOLID
  5
147
330
142
100
AcDbEntity
  8
0
 62
     0
100
AcDbTrace
 10
284.2876286747694
 20
36.10987045792464
 30
0.0
 11
284.2876286747694
 21
36.04987045792464
 31
0.0
 12
284.1076286747693
 22
36.07987045792464
 32
0.0
 13
284.1076286747693
 23
36.07987045792464
 33
0.0
  0
SOLID
  5
148
330
142
100
AcDbEntity
  8
0
 62
     0
100
AcDbTrace
 10
285.7276286747694
 20
36.10987045792464
 30
0.0
 11
285.7276286747694
 21
36.04987045792464
 31
0.0
 12
285.9076286747693
 22
36.07987045792464
 32
0.0
 13
285.9076286747693
 23
36.07987045792464
 33
0.0
  0
MTEXT
  5
149
330
142
100
AcDbEntity
  8
0
 62
     0
100
AcDbMText
 10
285.0076286747693
 20
36.07987045792464
 30
0.0
 40
0.165
 41
0.0
 71
     5
 72
     1
  1
\A1;1.8
1001
ACAD
1000
MTEXTBEGIN
1070
    73
1070
     1
1070
    44
1040
1.0
1070
    74
1070
     0
1000
MTEXTEND
  0
POINT
  5
14A
330
142
100
AcDbEntity
  8
DEFPOINTS
 62
     0
100
AcDbPoint
 10
284.1076286747693
 20
35.50170149363849
 30
0.0
  0
POINT
  5
14B
330
142
100
AcDbEntity
  8
DEFPOINTS
 62
     0
100
AcDbPoint
 10
285.9076286747693
 20
35.50170149363849
 30
0.0
  0
POINT
  5
14C
330
142
100
AcDbEntity
  8
DEFPOINTS
 62
     0
100
AcDbPoint
 10
285.9076286747693
 20
36.07987045792464
 30
0.0
  0
ENDBLK
  5
14E
330
142
100
AcDbEntity
  8
0
100
AcDbBlockEnd
  0
BLOCK
  5
15B
330
150
100
AcDbEntity
  8
0
100
AcDbBlockBegin
  2
*D5
 70
     1
 10
0.0
 20
0.0
 30
0.0
  3
*D5
  1

  0
LINE
  5
1BC
330
150
100
AcDbEntity
  8
0
 62
     0
100
AcDbLine
 10
287.1094070608735
 20
36.7390563803149
 30
0.0
 11
288.0561719402578
 21
36.7390563803149
 31
0.0
  0
LINE
  5
1BD
330
150
100
AcDbEntity
  8
0
 62
     0
100
AcDbLine
 10
287.1094070608735
 20
34.93905638031491
 30
0.0
 11
288.0561719402578
 21
34.93905638031491
 31
0.0
  0
LINE
  5
1BE
330
150
100
AcDbEntity
  8
0
 62
     0
100
AcDbLine
 10
287.8761719402579
 20
36.5590563803149
 30
0.0
 11
287.8761719402579
 21
36.00405638031491
 31
0.0
  0
LINE
  5
1BF
330
150
100
AcDbEntity
  8
0
 62
     0
100
AcDbLine
 10
287.8761719402579
 20
35.11905638031491
 30
0.0
 11
287.8761719402579
 21
35.67405638031491
 31
0.0
  0
SOLID
  5
1C0
330
150
100
AcDbEntity
  8
0
 62
     0
100
AcDbTrace
 10
287.8461719402579
 20
36.5590563803149
 30
0.0
 11
287.9061719402578
 21
36.5590563803149
 31
0.0
 12
287.8761719402579
 22
36.7390563803149
 32
0.0
 13
287.8761719402579
 23
36.7390563803149
 33
0.0
  0
SOLID
  5
1C1
330
150
100
AcDbEntity
  8
0
 62
     0
100
AcDbTrace
 10
287.8461719402579
 20
35.11905638031491
 30
0.0
 11
287.9061719402578
 21
35.11905638031491
 31
0.0
 12
287.8761719402579
 22
34.93905638031491
 32
0.0
 13
287.8761719402579
 23
34.93905638031491
 33
0.0
  0
MTEXT
  5
1C2
330
150
100
AcDbEntity
  8
0
 62
     0
100
AcDbMText
 10
287.8761719402579
 20
35.83905638031495
 30
0.0
 40
0.15
 41
0.0
 71
     5
 72
     1
  1
\A1;1.80
1001
ACAD
1000
MTEXTBEGIN
1070
    73
1070
     1
1070
    44
1040
1.0
1070
    74
1070
     0
1000
MTEXTEND
  0
POINT
  5
1C3
330
150
100
AcDbEntity
  8
DEFPOINTS
 62
     0
100
AcDbPoint
 10
287.0469070608735
 20
36.7390563803149
 30
0.0
  0
POINT
  5
1C4
330
150
100
AcDbEntity
  8
DEFPOINTS
 62
     0
100
AcDbPoint
 10
287.0469070608735
 20
34.93905638031491
 30
0.0
  0
POINT
  5
1C5
330
150
100
AcDbEntity
  8
DEFPOINTS
 62
     0
100
AcDbPoint
 10
287.8761719402579
 20
34.93905638031491
 30
0.0
  0
ENDBLK
  5
15C
330
150
100
AcDbEntity
  8
0
100
AcDbBlockEnd
  0
BLOCK
  5
173
330
168
100
AcDbEntity
  8
0
100
AcDbBlockBegin
  2
*D6
 70
     1
 10
0.0
 20
0.0
 30
0.0
  3
*D6
  1

  0
LINE
  5
1D1
330
168
100
AcDbEntity
  8
0
 62
     0
100
AcDbLine
 10
286.1469070608735
 20
34.8765563803149
 30
0.0
 11
286.1469070608735
 21
34.47289880331236
 31
0.0
  0
LINE
  5
1D2
330
168
100
AcDbEntity
  8
0
 62
     0
100
AcDbLine
 10
287.0469070608735
 20
34.8765563803149
 30
0.0
 11
287.0469070608735
 21
34.47289880331236
 31
0.0
  0
LINE
  5
1D3
330
168
100
AcDbEntity
  8
0
 62
     0
100
AcDbLine
 10
285.9669070608735
 20
34.65289880331237
 30
0.0
 11
285.7869070608735
 21
34.65289880331237
 31
0.0
  0
LINE
  5
1D4
330
168
100
AcDbEntity
  8
0
 62
     0
100
AcDbLine
 10
287.2269070608735
 20
34.65289880331237
 30
0.0
 11
287.4069070608735
 21
34.65289880331237
 31
0.0
  0
SOLID
  5
1D5
330
168
100
AcDbEntity
  8
0
 62
     0
100
AcDbTrace
 10
285.9669070608735
 20
34.68289880331237
 30
0.0
 11
285.9669070608735
 21
34.62289880331236
 31
0.0
 12
286.1469070608735
 22
34.65289880331237
 32
0.0
 13
286.1469070608735
 23
34.65289880331237
 33
0.0
  0
SOLID
  5
1D6
330
168
100
AcDbEntity
  8
0
 62
     0
100
AcDbTrace
 10
287.2269070608735
 20
34.68289880331237
 30
0.0
 11
287.2269070608735
 21
34.62289880331236
 31
0.0
 12
287.0469070608735
 22
34.65289880331237
 32
0.0
 13
287.0469070608735
 23
34.65289880331237
 33
0.0
  0
MTEXT
  5
1D7
330
168
100
AcDbEntity
  8
0
 62
     0
100
AcDbMText
 10
286.559931832509
 20
34.65289880331237
 30
0.0
 40
0.15
 41
0.0
 71
     5
 72
     1
  1
\A1;0.90
1001
ACAD
1000
MTEXTBEGIN
1070
    73
1070
     1
1070
    44
1040
1.0
1070
    74
1070
     0
1000
MTEXTEND
  0
POINT
  5
1D8
330
168
100
AcDbEntity
  8
DEFPOINTS
 62
     0
100
AcDbPoint
 10
286.1469070608735
 20
34.93905638031491
 30
0.0
  0
POINT
  5
1D9
330
168
100
AcDbEntity
  8
DEFPOINTS
 62
     0
100
AcDbPoint
 10
287.0469070608735
 20
34.93905638031491
 30
0.0
  0
POINT
  5
1DA
330
168
100
AcDbEntity
  8
DEFPOINTS
 62
     0
100
AcDbPoint
 10
287.0469070608735
 20
34.65289880331237
 30
0.0
  0
ENDBLK
  5
174
330
168
100
AcDbEntity
  8
0
100
AcDbBlockEnd
  0
BLOCK
  5
181
330
176
100
AcDbEntity
  8
0
100
AcDbBlockBegin
  2
*D7
 70
     1
 10
0.0
 20
0.0
 30
0.0
  3
*D7
  1

  0
LINE
  5
1DB
330
176
100
AcDbEntity
  8
0
 62
     0
100
AcDbLine
 10
285.2469070608735
 20
35.02655638031491
 30
0.0
 11
285.2469070608735
 21
33.8137119970662
 31
0.0
  0
LINE
  5
1DC
330
176
100
AcDbEntity
  8
0
 62
     0
100
AcDbLine
 10
287.0469070608735
 20
34.8765563803149
 30
0.0
 11
287.0469070608735
 21
33.8137119970662
 31
0.0
  0
LINE
  5
1DD
330
176
100
AcDbEntity
  8
0
 62
     0
100
AcDbLine
 10
285.4269070608735
 20
33.9937119970662
 30
0.0
 11
285.8694070608736
 21
33.9937119970662
 31
0.0
  0
LINE
  5
1DE
330
176
100
AcDbEntity
  8
0
 62
     0
100
AcDbLine
 10
286.8669070608735
 20
33.9937119970662
 30
0.0
 11
286.4244070608735
 21
33.9937119970662
 31
0.0
  0
SOLID
  5
1DF
330
176
100
AcDbEntity
  8
0
 62
     0
100
AcDbTrace
 10
285.4269070608735
 20
34.0237119970662
 30
0.0
 11
285.4269070608735
 21
33.96371199706619
 31
0.0
 12
285.2469070608735
 22
33.9937119970662
 32
0.0
 13
285.2469070608735
 23
33.9937119970662
 33
0.0
  0
SOLID
  5
1E0
330
176
100
AcDbEntity
  8
0
 62
     0
100
AcDbTrace
 10
286.8669070608735
 20
34.0237119970662
 30
0.0
 11
286.8669070608735
 21
33.96371199706619
 31
0.0
 12
287.0469070608735
 22
33.9937119970662
 32
0.0
 13
287.0469070608735
 23
33.9937119970662
 33
0.0
  0
MTEXT
  5
1E1
330
176
100
AcDbEntity
  8
0
 62
     0
100
AcDbMText
 10
286.1469070608735
 20
33.9937119970662
 30
0.0
 40
0.15
 41
0.0
 71
     5
 72
     1
  1
\A1;1.80
1001
ACAD
1000
MTEXTBEGIN
1070
    73
1070
     1
1070
    44
1040
1.0
1070
    74
1070
     0
1000
MTEXTEND
  0
POINT
  5
1E2
330
176
100
AcDbEntity
  8
DEFPOINTS
 62
     0
100
AcDbPoint
 10
285.2469070608735
 20
35.08905638031491
 30
0.0
  0
POINT
  5
1E3
330
176
100
AcDbEntity
  8
DEFPOINTS
 62
     0
100
AcDbPoint
 10
287.0469070608735
 20
34.93905638031491
 30
0.0
  0
POINT
  5
1E4
330
176
100
AcDbEntity
  8
DEFPOINTS
 62
     0
100
AcDbPoint
 10
287.0469070608735
 20
33.9937119970662
 30
0.0
  0
ENDBLK
  5
182
330
176
100
AcDbEntity
  8
0
100
AcDbBlockEnd
  0
BLOCK
  5
190
330
184
100
AcDbEntity
  8
0
100
AcDbBlockBegin
  2
*D8
 70
     1
 10
0.0
 20
0.0
 30
0.0
  3
*D8
  1

  0
LINE
  5
1C6
330
184
100
AcDbEntity
  8
0
 62
     0
100
AcDbLine
 10
286.0844070608735
 20
34.93905638031491
 30
0.0
 11
284.8106937799855
 21
34.93905638031491
 31
0.0
  0
LINE
  5
1C7
330
184
100
AcDbEntity
  8
0
 62
     0
100
AcDbLine
 10
286.0844070608735
 20
35.08905638031491
 30
0.0
 11
284.8106937799855
 21
35.08905638031491
 31
0.0
  0
LINE
  5
1C8
330
184
100
AcDbEntity
  8
0
 62
     0
100
AcDbLine
 10
284.9906937799855
 20
35.2690563803149
 30
0.0
 11
284.9906937799855
 21
35.4490563803149
 31
0.0
  0
LINE
  5
1C9
330
184
100
AcDbEntity
  8
0
 62
     0
100
AcDbLine
 10
284.9906937799855
 20
34.75905638031491
 30
0.0
 11
284.9906937799855
 21
34.5790563803149
 31
0.0
  0
LINE
  5
1CA
330
184
100
AcDbEntity
  8
0
 62
     0
100
AcDbLine
 10
284.9906937799855
 20
34.5790563803149
 30
0.0
 11
284.8106937799855
 21
34.5790563803149
 31
0.0
  0
SOLID
  5
1CB
330
184
100
AcDbEntity
  8
0
 62
     0
100
AcDbTrace
 10
284.9606937799856
 20
35.2690563803149
 30
0.0
 11
285.0206937799855
 21
35.2690563803149
 31
0.0
 12
284.9906937799855
 22
35.08905638031491
 32
0.0
 13
284.9906937799855
 23
35.08905638031491
 33
0.0
  0
SOLID
  5
1CC
330
184
100
AcDbEntity
  8
0
 62
     0
100
AcDbTrace
 10
284.9606937799856
 20
34.75905638031491
 30
0.0
 11
285.0206937799855
 21
34.75905638031491
 31
0.0
 12
284.9906937799855
 22
34.93905638031491
 32
0.0
 13
284.9906937799855
 23
34.93905638031491
 33
0.0
  0
MTEXT
  5
1CD
330
184
100
AcDbEntity
  8
0
 62
     0
100
AcDbMText
 10
284.5331937799855
 20
34.57905638031496
 30
0.0
 40
0.15
 41
0.0
 71
     5
 72
     1
  1
\A1;0.15
1001
ACAD
1000
MTEXTBEGIN
1070
    73
1070
     1
1070
    44
1040
1.0
1070
    74
1070
     0
1000
MTEXTEND
  0
POINT
  5
1CE
330
184
100
AcDbEntity
  8
DEFPOINTS
 62
     0
100
AcDbPoint
 10
286.1469070608735
 20
34.93905638031491
 30
0.0
  0
POINT
  5
1CF
330
184
100
AcDbEntity
  8
DEFPOINTS
 62
     0
100
AcDbPoint
 10
286.1469070608734
 20
35.08905638031491
 30
0.0
  0
POINT
  5
1D0
330
184
100
AcDbEntity
  8
DEFPOINTS
 62
     0
100
AcDbPoint
 10
284.9906937799855
 20
35.08905638031491
 30
0.0
  0
ENDBLK
  5
191
330
184
100
AcDbEntity
  8
0
100
AcDbBlockEnd
  0
ENDSEC
  0
SECTION
  2
ENTITIES
  0
TEXT
  5
2C
330
1E
100
AcDbEntity
  8
0
  6
CONTINUOUS
100
AcDbText
 10
286.9089999999999
 20
41.32399999999999
 30
0.0
 40
0.1
  1
2
  7
ROMANC
100
AcDbText
  0
TEXT
  5
2D
330
1E
100
AcDbEntity
  8
0
  6
CONTINUOUS
100
AcDbText
 10
283.9259999999999
 20
41.768
 30
0.0
 40
0.3
  1
ESCALA  1:50
  7
ROMANC
100
AcDbText
  0
LWPOLYLINE
  5
2E
330
1E
100
AcDbEntity
  8
NO_PRINT
  6
CONTINUOUS
100
AcDbPolyline
 90
        4
 70
     1
 43
0.0
 10
281.396
 20
44.747
 10
291.896
 20
44.747
 10
291.896
 20
29.897
 10
281.396
 20
29.897
  0
TEXT
  5
34
330
1E
100
AcDbEntity
  8
0
  6
CONTINUOUS
100
AcDbText
 10
283.9259999999999
 20
42.381
 30
0.0
 40
0.3
  1
TIPUS   NT310
  7
ROMANC
100
AcDbText
  0
TEXT
  5
36
330
1E
100
AcDbEntity
  8
0
  6
CONTINUOUS
100
AcDbText
 10
283.922
 20
40.529
 30
0.0
 40
0.3
  1
P = 72 dm
  7
ROMANC
100
AcDbText
  0
TEXT
  5
37
330
1E
100
AcDbEntity
  8
0
  6
CONTINUOUS
100
AcDbText
 10
283.9449999999999
 20
41.09899999999999
 30
0.0
 40
0.3
  1
S = 310 dm
  7
ROMANC
100
AcDbText
  0
LWPOLYLINE
  5
76
330
1E
100
AcDbEntity
  8
0
100
AcDbPolyline
 90
        6
 70
     1
 43
0.0
 10
286.1469070608735
 20
34.93905638031491
 10
287.0469070608735
 20
34.93905638031491
 10
287.0469070608735
 20
36.7390563803149
 10
285.2469070608735
 20
36.7390563803149
 10
285.2469070608735
 20
35.08905638031491
 10
286.1469070608734
 20
35.08905638031491
  0
DIMENSION
  5
14F
330
1E
100
AcDbEntity
  8
0
100
AcDbDimension
  2
*D5
 10
287.8761719402579
 20
34.93905638031491
 30
0.0
 11
287.8761719402579
 21
35.83905638031495
 31
0.0
 70
    32
  3
STANDARD
100
AcDbAlignedDimension
 13
287.0469070608735
 23
36.7390563803149
 33
0.0
 14
287.0469070608735
 24
34.93905638031491
 34
0.0
 50
90.0
100
AcDbRotatedDimension
  0
DIMENSION
  5
167
330
1E
100
AcDbEntity
  8
0
100
AcDbDimension
  2
*D6
 10
287.0469070608735
 20
34.65289880331237
 30
0.0
 11
286.559931832509
 21
34.65289880331237
 31
0.0
 70
   160
  3
STANDARD
100
AcDbAlignedDimension
 13
286.1469070608735
 23
34.93905638031491
 33
0.0
 14
287.0469070608735
 24
34.93905638031491
 34
0.0
100
AcDbRotatedDimension
  0
DIMENSION
  5
175
330
1E
100
AcDbEntity
  8
0
100
AcDbDimension
  2
*D7
 10
287.0469070608735
 20
33.9937119970662
 30
0.0
 11
286.1469070608735
 21
33.9937119970662
 31
0.0
 70
    32
  3
STANDARD
100
AcDbAlignedDimension
 13
285.2469070608735
 23
35.08905638031491
 33
0.0
 14
287.0469070608735
 24
34.93905638031491
 34
0.0
100
AcDbRotatedDimension
  0
DIMENSION
  5
183
330
1E
100
AcDbEntity
  8
0
100
AcDbDimension
  2
*D8
 10
284.9906937799855
 20
35.08905638031491
 30
0.0
 11
284.5331937799855
 21
34.57905638031496
 31
0.0
 70
   160
  3
STANDARD
100
AcDbAlignedDimension
 13
286.1469070608735
 23
34.93905638031491
 33
0.0
 14
286.1469070608734
 24
35.08905638031491
 34
0.0
 50
90.0
100
AcDbRotatedDimension
  0
LWPOLYLINE
  5
1E5
330
1E
100
AcDbEntity
  8
0
100
AcDbPolyline
 90
        6
 70
     1
 43
0.0
 10
286.1369070608735
 20
34.92905638031491
 10
287.0569070608735
 20
34.92905638031491
 10
287.0569070608735
 20
36.7490563803149
 10
285.2369070608735
 20
36.7490563803149
 10
285.2369070608735
 20
35.07905638031491
 10
286.1369070608735
 20
35.07905638031491
  0
LWPOLYLINE
  5
1E6
330
1E
100
AcDbEntity
  8
0
100
AcDbPolyline
 90
        6
 70
     1
 43
0.0
 10
286.1569070608735
 20
34.9490563803149
 10
287.0369070608735
 20
34.9490563803149
 10
287.0369070608735
 20
36.7290563803149
 10
285.2569070608735
 20
36.7290563803149
 10
285.2569070608735
 20
35.0990563803149
 10
286.1569070608735
 20
35.0990563803149
  0
ENDSEC
  0
SECTION
  2
OBJECTS
  0
DICTIONARY
  5
C
330
0
100
AcDbDictionary
  3
ACAD_GROUP
350
D
  3
ACAD_LAYOUT
350
19
  3
ACAD_MLINESTYLE
350
16
  3
ACAD_PLOTSETTINGS
350
18
  3
ACAD_PLOTSTYLENAME
350
E
  3
ACDBHEADERROUNDTRIPXREC
350
20F
  3
ACDBVARIABLEDICTIONARY
350
6E
  0
DICTIONARY
  5
231
330
1E
100
AcDbDictionary
280
     1
  3
ACAD_LAYOUTSELFREF
360
232
  0
DICTIONARY
  5
22F
330
1A
100
AcDbDictionary
280
     1
  3
ACAD_LAYOUTSELFREF
360
230
  0
DICTIONARY
  5
D
102
{ACAD_REACTORS
330
C
102
}
330
C
100
AcDbDictionary
  0
DICTIONARY
  5
19
102
{ACAD_REACTORS
330
C
102
}
330
C
100
AcDbDictionary
  0
DICTIONARY
  5
16
102
{ACAD_REACTORS
330
C
102
}
330
C
100
AcDbDictionary
  3
STANDARD
350
17
  0
DICTIONARY
  5
18
102
{ACAD_REACTORS
330
C
102
}
330
C
100
AcDbDictionary
  0
ACDBDICTIONARYWDFLT
  5
E
102
{ACAD_REACTORS
330
C
102
}
330
C
100
AcDbDictionary
281
     1
  3
Normal
350
F
100
AcDbDictionaryWithDefault
340
F
  0
DICTIONARY
  5
20F
102
{ACAD_REACTORS
330
C
102
}
330
C
100
AcDbDictionary
  3
CEPSNTYPE
350
219
  3
FINGERPRINTGUID
350
21A
  3
HYPERLINKBASE
350
212
  3
INSUNITS
350
218
  3
LAYOUTDICT
350
214
  3
LWETCUNION
350
217
  3
PLOTSETDICT
350
215
  3
PLOTSTYLNAMDICT
350
216
  3
PSVPSCALE
350
21C
  3
PUCSBASE
350
21F
  3
PUCSORGBACK
350
225
  3
PUCSORGBOTTOM
350
221
  3
PUCSORGFRONT
350
224
  3
PUCSORGLEFT
350
222
  3
PUCSORGRIGHT
350
223
  3
PUCSORGTOP
350
220
  3
PUCSORTHOREF
350
21D
  3
PUCSORTHOVIEW
350
21E
  3
STYLESHEET
350
213
  3
TSTACKALIGN
350
210
  3
TSTACKSIZE
350
211
  3
UCSBASE
350
228
  3
UCSORGBACK
350
22E
  3
UCSORGBOTTOM
350
22A
  3
UCSORGFRONT
350
22D
  3
UCSORGLEFT
350
22B
  3
UCSORGRIGHT
350
22C
  3
UCSORGTOP
350
229
  3
UCSORTHOREF
350
226
  3
UCSORTHOVIEW
350
227
  3
VERSIONGUID
350
21B
  0
DICTIONARY
  5
6E
102
{ACAD_REACTORS
330
C
102
}
330
C
100
AcDbDictionary
  3
DIMASSOC
350
6F
  0
XRECORD
  5
232
102
{ACAD_REACTORS
330
231
102
}
330
231
100
AcDbXrecord
340
1E
  0
XRECORD
  5
230
102
{ACAD_REACTORS
330
22F
102
}
330
22F
100
AcDbXrecord
340
1A
  0
MLINESTYLE
  5
17
102
{ACAD_REACTORS
330
16
102
}
330
16
100
AcDbMlineStyle
  2
STANDARD
 70
     0
  3

 62
   256
 51
90.0
 52
90.0
 71
     2
 49
0.5
 62
   256
  6
BYLAYER
 49
-0.5
 62
   256
  6
BYLAYER
  0
ACDBPLACEHOLDER
  5
F
102
{ACAD_REACTORS
330
E
102
}
330
E
100
AcDbPlaceHolder
280
     0
  0
XRECORD
  5
219
102
{ACAD_REACTORS
330
20F
102
}
330
20F
100
AcDbXrecord
 90
        0
  0
XRECORD
  5
21A
102
{ACAD_REACTORS
330
20F
102
}
330
20F
100
AcDbXrecord
  1
{A6FCFFB5-5CE9-42DC-A06F-C5476E26D97B}
  0
XRECORD
  5
212
102
{ACAD_REACTORS
330
20F
102
}
330
20F
100
AcDbXrecord
  1

  0
XRECORD
  5
218
102
{ACAD_REACTORS
330
20F
102
}
330
20F
100
AcDbXrecord
 90
        0
  0
XRECORD
  5
214
102
{ACAD_REACTORS
330
20F
102
}
330
20F
100
AcDbXrecord
340
19
  0
XRECORD
  5
217
102
{ACAD_REACTORS
330
20F
102
}
330
20F
100
AcDbXrecord
 90
    10781
  0
XRECORD
  5
215
102
{ACAD_REACTORS
330
20F
102
}
330
20F
100
AcDbXrecord
340
18
  0
XRECORD
  5
216
102
{ACAD_REACTORS
330
20F
102
}
330
20F
100
AcDbXrecord
340
E
  0
XRECORD
  5
21C
102
{ACAD_REACTORS
330
20F
102
}
330
20F
100
AcDbXrecord
 40
0.0
  0
XRECORD
  5
21F
102
{ACAD_REACTORS
330
20F
102
}
330
20F
100
AcDbXrecord
340
0
  0
XRECORD
  5
225
102
{ACAD_REACTORS
330
20F
102
}
330
20F
100
AcDbXrecord
 10
0.0
 20
0.0
 30
0.0
  0
XRECORD
  5
221
102
{ACAD_REACTORS
330
20F
102
}
330
20F
100
AcDbXrecord
 10
0.0
 20
0.0
 30
0.0
  0
XRECORD
  5
224
102
{ACAD_REACTORS
330
20F
102
}
330
20F
100
AcDbXrecord
 10
0.0
 20
0.0
 30
0.0
  0
XRECORD
  5
222
102
{ACAD_REACTORS
330
20F
102
}
330
20F
100
AcDbXrecord
 10
0.0
 20
0.0
 30
0.0
  0
XRECORD
  5
223
102
{ACAD_REACTORS
330
20F
102
}
330
20F
100
AcDbXrecord
 10
0.0
 20
0.0
 30
0.0
  0
XRECORD
  5
220
102
{ACAD_REACTORS
330
20F
102
}
330
20F
100
AcDbXrecord
 10
0.0
 20
0.0
 30
0.0
  0
XRECORD
  5
21D
102
{ACAD_REACTORS
330
20F
102
}
330
20F
100
AcDbXrecord
340
0
  0
XRECORD
  5
21E
102
{ACAD_REACTORS
330
20F
102
}
330
20F
100
AcDbXrecord
 70
     0
  0
XRECORD
  5
213
102
{ACAD_REACTORS
330
20F
102
}
330
20F
100
AcDbXrecord
  1

  0
XRECORD
  5
210
102
{ACAD_REACTORS
330
20F
102
}
330
20F
100
AcDbXrecord
 90
        1
  0
XRECORD
  5
211
102
{ACAD_REACTORS
330
20F
102
}
330
20F
100
AcDbXrecord
 90
       70
  0
XRECORD
  5
228
102
{ACAD_REACTORS
330
20F
102
}
330
20F
100
AcDbXrecord
340
0
  0
XRECORD
  5
22E
102
{ACAD_REACTORS
330
20F
102
}
330
20F
100
AcDbXrecord
 10
0.0
 20
0.0
 30
0.0
  0
XRECORD
  5
22A
102
{ACAD_REACTORS
330
20F
102
}
330
20F
100
AcDbXrecord
 10
0.0
 20
0.0
 30
0.0
  0
XRECORD
  5
22D
102
{ACAD_REACTORS
330
20F
102
}
330
20F
100
AcDbXrecord
 10
0.0
 20
0.0
 30
0.0
  0
XRECORD
  5
22B
102
{ACAD_REACTORS
330
20F
102
}
330
20F
100
AcDbXrecord
 10
0.0
 20
0.0
 30
0.0
  0
XRECORD
  5
22C
102
{ACAD_REACTORS
330
20F
102
}
330
20F
100
AcDbXrecord
 10
0.0
 20
0.0
 30
0.0
  0
XRECORD
  5
229
102
{ACAD_REACTORS
330
20F
102
}
330
20F
100
AcDbXrecord
 10
0.0
 20
0.0
 30
0.0
  0
XRECORD
  5
226
102
{ACAD_REACTORS
330
20F
102
}
330
20F
100
AcDbXrecord
340
0
  0
XRECORD
  5
227
102
{ACAD_REACTORS
330
20F
102
}
330
20F
100
AcDbXrecord
 70
     0
  0
XRECORD
  5
21B
102
{ACAD_REACTORS
330
20F
102
}
330
20F
100
AcDbXrecord
  1
{89CFF16F-0F23-42A9-821F-B9908EB1D499}
  0
DICTIONARYVAR
  5
6F
102
{ACAD_REACTORS
330
6E
102
}
330
6E
100
DictionaryVariables
280
     0
  1
1
  0
ENDSEC
  0
EOF
