  0
SECTION
  2
HEADER
  9
$ACADVER
  1
AC1009
  9
$INSBASE
 10
286.17465146174112
 20
42.376959963002058
 30
0.0
  9
$EXTMIN
 10
-1714.5106433403039
 20
-1963.197109211364
 30
0.0
  9
$EXTMAX
 10
2285.4893566597161
 20
2036.8028907886489
 30
0.0
  9
$LIMMIN
 10
280.3959999999999
 20
28.896999999999991
  9
$LIMMAX
 10
292.8959999999999
 20
43.746999999999993
  9
$ORTHOMODE
 70
     0
  9
$REGENMODE
 70
     1
  9
$FILLMODE
 70
     1
  9
$QTEXTMODE
 70
     0
  9
$MIRRTEXT
 70
     1
  9
$DRAGMODE
 70
     2
  9
$LTSCALE
 40
1.0
  9
$OSMODE
 70
    33
  9
$ATTMODE
 70
     1
  9
$TEXTSIZE
 40
0.3
  9
$TRACEWID
 40
0.05
  9
$TEXTSTYLE
  7
ROMANC
  9
$CLAYER
  8
0
  9
$CELTYPE
  6
BYLAYER
  9
$CECOLOR
 62
   256
  9
$DIMSCALE
 40
1.0
  9
$DIMASZ
 40
0.18
  9
$DIMEXO
 40
0.0625
  9
$DIMDLI
 40
0.38
  9
$DIMRND
 40
0.0
  9
$DIMDLE
 40
0.0
  9
$DIMEXE
 40
0.18
  9
$DIMTP
 40
0.0
  9
$DIMTM
 40
0.0
  9
$DIMTXT
 40
0.18
  9
$DIMCEN
 40
0.09
  9
$DIMTSZ
 40
0.0
  9
$DIMTOL
 70
     0
  9
$DIMLIM
 70
     0
  9
$DIMTIH
 70
     1
  9
$DIMTOH
 70
     1
  9
$DIMSE1
 70
     0
  9
$DIMSE2
 70
     0
  9
$DIMTAD
 70
     0
  9
$DIMZIN
 70
     0
  9
$DIMBLK
  1

  9
$DIMASO
 70
     1
  9
$DIMSHO
 70
     1
  9
$DIMPOST
  1

  9
$DIMAPOST
  1

  9
$DIMALT
 70
     0
  9
$DIMALTD
 70
     2
  9
$DIMALTF
 40
25.399999999999999
  9
$DIMLFAC
 40
1.0
  9
$DIMTOFL
 70
     0
  9
$DIMTVP
 40
0.0
  9
$DIMTIX
 70
     0
  9
$DIMSOXD
 70
     0
  9
$DIMSAH
 70
     0
  9
$DIMBLK1
  1

  9
$DIMBLK2
  1

  9
$DIMSTYLE
  2
STANDARD
  9
$DIMCLRD
 70
     0
  9
$DIMCLRE
 70
     0
  9
$DIMCLRT
 70
     0
  9
$DIMTFAC
 40
1.0
  9
$DIMGAP
 40
0.09
  9
$LUNITS
 70
     2
  9
$LUPREC
 70
     4
  9
$SKETCHINC
 40
0.1
  9
$FILLETRAD
 40
0.0
  9
$AUNITS
 70
     0
  9
$AUPREC
 70
     0
  9
$MENU
  1
acad
  9
$ELEVATION
 40
0.0
  9
$PELEVATION
 40
0.0
  9
$THICKNESS
 40
0.0
  9
$LIMCHECK
 70
     0
  9
$BLIPMODE
 70
     0
  9
$CHAMFERA
 40
0.0
  9
$CHAMFERB
 40
0.0
  9
$SKPOLY
 70
     0
  9
$TDCREATE
 40
2448315.331741435
  9
$TDUPDATE
 40
2452530.3763998952
  9
$TDINDWG
 40
0.0809573264
  9
$TDUSRTIMER
 40
0.0808714468
  9
$USRTIMER
 70
     1
  9
$ANGBASE
 50
0.0
  9
$ANGDIR
 70
     0
  9
$PDMODE
 70
     0
  9
$PDSIZE
 40
0.0
  9
$PLINEWID
 40
0.0
  9
$COORDS
 70
     1
  9
$SPLFRAME
 70
     0
  9
$SPLINETYPE
 70
     6
  9
$SPLINESEGS
 70
     8
  9
$ATTDIA
 70
     0
  9
$ATTREQ
 70
     1
  9
$HANDLING
 70
 10241
  9
$HANDSEED
  5
512
  9
$SURFTAB1
 70
     6
  9
$SURFTAB2
 70
     6
  9
$SURFTYPE
 70
     6
  9
$SURFU
 70
     6
  9
$SURFV
 70
     6
  9
$UCSNAME
  2

  9
$UCSORG
 10
0.0
 20
0.0
 30
0.0
  9
$UCSXDIR
 10
1.0
 20
0.0
 30
0.0
  9
$UCSYDIR
 10
0.0
 20
1.0
 30
0.0
  9
$PUCSNAME
  2

  9
$PUCSORG
 10
0.0
 20
0.0
 30
0.0
  9
$PUCSXDIR
 10
1.0
 20
0.0
 30
0.0
  9
$PUCSYDIR
 10
0.0
 20
1.0
 30
0.0
  9
$USERI1
 70
     0
  9
$USERI2
 70
     0
  9
$USERI3
 70
     0
  9
$USERI4
 70
     0
  9
$USERI5
 70
     0
  9
$USERR1
 40
0.0
  9
$USERR2
 40
0.0
  9
$USERR3
 40
0.0
  9
$USERR4
 40
0.0
  9
$USERR5
 40
0.0
  9
$WORLDVIEW
 70
     1
  9
$SHADEDGE
 70
     3
  9
$SHADEDIF
 70
    70
  9
$TILEMODE
 70
     1
  9
$MAXACTVP
 70
    16
  9
$PLIMCHECK
 70
     0
  9
$PEXTMIN
 10
0.3341875024984802
 20
0.4535837131396649
 30
-0.0015258207003583
  9
$PEXTMAX
 10
199.6273174580067
 20
286.33358617273132
 30
0.0000000349246037
  9
$PLIMMIN
 10
-2.801048903799753
 20
-1.8221198930844431
  9
$PLIMMAX
 10
202.4504644270626
 20
288.46807240231129
  9
$UNITMODE
 70
     0
  9
$VISRETAIN
 70
     0
  9
$PLINEGEN
 70
     0
  9
$PSLTSCALE
 70
     1
  0
ENDSEC
  0
SECTION
  2
TABLES
  0
TABLE
  2
VPORT
 70
     3
  0
VPORT
  2
*ACTIVE
 70
     0
 10
0.0
 20
0.0
 11
1.0
 21
1.0
 12
287.3553259094931
 22
36.832039420247611
 13
0.0
 23
0.0
 14
1.0
 24
1.0
 15
0.0
 25
0.0
 16
0.0
 26
0.0
 36
1.0
 17
0.0
 27
0.0
 37
0.0
 40
17.656436565934651
 41
1.4213135068153651
 42
50.0
 43
0.0
 44
0.0
 50
0.0
 51
0.0
 71
     0
 72
   100
 73
     1
 74
     1
 75
     0
 76
     0
 77
     0
 78
     0
  0
ENDTAB
  0
TABLE
  2
LTYPE
 70
     1
  0
LTYPE
  2
CONTINUOUS
 70
     0
  3
Solid line
 72
    65
 73
     0
 40
0.0
  0
ENDTAB
  0
TABLE
  2
LAYER
 70
     3
  0
LAYER
  2
0
 70
     0
 62
     7
  6
CONTINUOUS
  0
LAYER
  2
DEFPOINTS
 70
     0
 62
     7
  6
CONTINUOUS
  0
LAYER
  2
NO_PRINT
 70
     0
 62
     7
  6
CONTINUOUS
  0
ENDTAB
  0
TABLE
  2
STYLE
 70
     2
  0
STYLE
  2
STANDARD
 70
     0
 40
0.0
 41
1.0
 50
0.0
 71
     0
 42
0.2
  3
txt
  4

  0
STYLE
  2
ROMANC
 70
     0
 40
0.0
 41
1.0
 50
0.0
 71
     0
 42
0.3
  3
ROMANC
  4

  0
ENDTAB
  0
TABLE
  2
VIEW
 70
     0
  0
ENDTAB
  0
TABLE
  2
UCS
 70
     0
  0
ENDTAB
  0
TABLE
  2
APPID
 70
     3
  0
APPID
  2
ACAD
 70
     0
  0
APPID
  2
CONTENTBLOCKDESCRIPTION
 70
     0
  0
APPID
  2
CONTENTBLOCKICON
 70
     0
  0
ENDTAB
  0
TABLE
  2
DIMSTYLE
 70
     1
  0
DIMSTYLE
  2
STANDARD
 70
     0
  3

  4

  5

  6

  7

 40
1.0
 41
0.18
 42
0.0625
 43
0.38
 44
0.18
 45
0.0
 46
0.0
 47
0.0
 48
0.0
140
0.18
141
0.09
142
0.0
143
25.399999999999999
144
1.0
145
0.0
146
1.0
147
0.09
 71
     0
 72
     0
 73
     1
 74
     1
 75
     0
 76
     0
 77
     0
 78
     0
170
     0
171
     2
172
     0
173
     0
174
     0
175
     0
176
     0
177
     0
178
     0
  0
ENDTAB
  0
ENDSEC
  0
SECTION
  2
BLOCKS
  0
BLOCK
  8
0
  2
$MODEL_SPACE
 70
     0
 10
0.0
 20
0.0
 30
0.0
  3
$MODEL_SPACE
  1

  0
ENDBLK
  5
20
  8
0
  0
BLOCK
 67
     1
  8
0
  2
$PAPER_SPACE
 70
     0
 10
0.0
 20
0.0
 30
0.0
  3
$PAPER_SPACE
  1

  0
ENDBLK
  5
1C
 67
     1
  8
0
  0
BLOCK
  8
0
  2
TIPUS
 70
     0
 10
0.0
 20
0.0
 30
0.0
  3
TIPUS
  1

  0
TEXT
  5
293
  8
0
  6
CONTINUOUS
 10
286.11771802494133
 20
42.37875471737599
 30
0.0
 40
0.3
  1
NTXXXY
  7
ROMANC
  0
ENDBLK
  5
23D
  8
0
  0
BLOCK
  8
0
  2
SUPERFICIE
 70
     0
 10
0.0
 20
0.0
 30
0.0
  3
SUPERFICIE
  1

  0
TEXT
  5
291
  8
0
  6
CONTINUOUS
 10
285.15769743119989
 20
41.09913197584499
 30
0.0
 40
0.3
  1
XXX
  7
ROMANC
  0
ENDBLK
  5
242
  8
0
  0
BLOCK
  8
0
  2
PERIMETRE
 70
     0
 10
0.0
 20
0.0
 30
0.0
  3
PERIMETRE
  1

  0
TEXT
  5
248
  8
0
  6
CONTINUOUS
 10
-0.0273031851410224
 20
0.0018352306916185
 30
0.0
 40
0.3
  1
XXX
  7
ROMANC
  0
ENDBLK
  5
247
  8
0
  0
BLOCK
  8
0
  2
1
 70
     2
 10
0.0
 20
0.0
 30
0.0
  3
1
  1

  0
TEXT
  5
252
  8
0
  6
CONTINUOUS
 10
0.1822521001187169
 20
0.7599981843347125
 30
0.0
 40
0.3
  1
S =    dm
  7
ROMANC
  0
INSERT
  5
253
  8
0
  2
TIPUS
 10
2.3822733102012399
 20
2.0260693203854081
 30
0.0
  0
TEXT
  5
254
  8
0
  6
CONTINUOUS
 10
0.1592521001188629
 20
0.1899981843347476
 30
0.0
 40
0.3
  1
P =    dm
  7
ROMANC
  0
TEXT
  5
255
  8
0
  6
CONTINUOUS
 10
0.1632521001187115
 20
1.428998184334743
 30
0.0
 40
0.3
  1
ESCALA  1:50
  7
ROMANC
  0
INSERT
  5
256
  8
0
  2
PERIMETRE
 10
1.422252716459752
 20
0.2014221004675178
 30
0.0
  0
INSERT
  5
257
  8
0
  2
SUPERFICIE
 10
1.4341047939664651
 20
0.7582949294881374
 30
0.0
  0
TEXT
  5
258
  8
0
  6
CONTINUOUS
 10
0.1632521001187115
 20
2.041998184334743
 30
0.0
 40
0.3
  1
TIPUS   
  7
ROMANC
  0
ATTDEF
  5
259
  8
0
 10
3.579335975109017
 20
0.1777253642765615
 30
0.0
 40
0.2
  1
x
  3
tipus
  2
TIPUS
 70
     0
  0
ATTDEF
  5
25A
  8
0
 10
3.7334133879433571
 20
0.734598228220662
 30
0.0
 40
0.2
  1
x
  3
tipus
  2
TIPUS
 70
     0
  0
TEXT
  5
25B
  8
0
  6
CONTINUOUS
 10
3.1029771218841802
 20
1.0190943722210331
 30
0.0
 40
0.1
  1
2
  7
ROMANC
  0
ATTDEF
  5
25C
  8
0
 10
4.480096065531991
 20
2.049766056576372
 30
0.0
 40
0.2
  1
x
  3
tipus
  2
TIPUS
 70
     0
  0
ENDBLK
  5
251
  8
0
  0
BLOCK
  8
0
  2
CARACTERISTIQUES
 70
     2
 10
0.0
 20
0.0
 30
0.0
  3
CARACTERISTIQUES
  1

  0
ATTDEF
  5
309
  8
0
 10
286.27226134026512
 20
41.752735508001273
 30
0.0
 40
0.3
  1
1:50
  7
ROMANC
  3
Escala
  2
1:50
 70
     0
  0
ATTDEF
  5
30A
  8
0
 10
286.2281292928555
 20
42.385577414881823
 30
0.0
 40
0.3
  1
NTXXXY
  7
ROMANC
  3
Tipus de Seccio
  2
NTXXY
 70
     0
  0
ATTDEF
  5
30B
  8
0
 10
285.02615359100997
 20
41.100702622361482
 30
0.0
 40
0.3
  1
XXX
  7
ROMANC
  3
Superficie de la seccio
  2
XXX
 70
     0
  0
ATTDEF
  5
30C
  8
0
 10
285.049954865421
 20
40.529647098496852
 30
0.0
 40
0.3
  1
XX
  7
ROMANC
  3
Perimetre de la Seccio
  2
XX
 70
     0
  0
ATTDEF
  5
30D
  8
0
 10
287.76752842717627
 20
30.623351521911921
 30
0.0
 40
0.3
  1
Xxxxxxxxxxxx
  7
ROMANC
 72
     2
 11
291.16752842717631
 21
30.623351521911921
 31
0.0
  3
Ubicaciò
  2
Xxxxxxxxxxxx
 70
     0
  0
ENDBLK
  5
26F
  8
0
  0
BLOCK
  8
0
  2
PERIMETRO
 70
     0
 10
0.0
 20
0.0
 30
0.0
  3
PERIMETRO
  1

  0
TEXT
  5
28F
  8
0
  6
CONTINUOUS
 10
285.15769743119989
 20
40.542259146824371
 30
0.0
 40
0.3
  1
XXX
  7
ROMANC
  0
ENDBLK
  5
28E
  8
0
  0
BLOCK
  8
0
  2
PERSONA
 70
     2
 10
0.0
 20
0.0
 30
0.0
  3
PERSONA
  1

  0
ATTDEF
  5
2AE
  8
0
 10
0.3477492763984173
 20
1.891334330655126
 30
0.0
 40
0.2
  1
val:nombre
  7
ROMANC
  3
sol_nombre
  2
IDEN_NOMBRE
 70
     0
  0
ATTDEF
  5
2AF
  8
0
 10
0.2447312480355777
 20
1.2085991863971861
 30
0.0
 40
0.2
  1
val_apellido
  7
ROMANC
  3
sol_apellido
  2
IDEN_APELLIDO
 70
     0
  0
ATTDEF
  5
2B0
  8
0
 10
0.3651607346860146
 20
0.342229907808246
 30
0.0
 40
0.2
  1
val_2apellido
  7
ROMANC
  3
sol_2apellido
  2
IDEN_2APELLIDO
 70
     0
  0
ENDBLK
  5
2AD
  8
0
  0
BLOCK
  8
0
  2
PRUEVA
 70
     2
 10
0.0
 20
0.0
 30
0.0
  3
PRUEVA
  1

  0
ATTDEF
  5
2BB
  8
0
 10
-0.0238012744110847
 20
0.107073217119698
 30
0.0
 40
0.2
  1
val1
  7
ROMANC
  3
sol1
  2
IDEN1
 70
     0
  0
ATTDEF
  5
2BC
  8
0
 10
-0.0000000000000568
 20
-0.3093217193975377
 30
0.0
 40
0.2
  1
val2
  7
ROMANC
  3
sol2
  2
IDEN2
 70
     0
  0
ENDBLK
  5
2BA
  8
0
  0
BLOCK
  8
0
  2
*D8
 70
     1
 10
0.0
 20
0.0
 30
0.0
  3
*D8
  1

  0
LINE
  5
43F
  8
0
 62
     0
 10
289.97417323092571
 20
33.133020826244831
 30
0.0
 11
289.79417323092571
 21
33.133020826244831
 31
0.0
  0
LINE
  5
440
  8
0
 62
     0
 10
289.79417323092571
 20
33.133020826244831
 30
0.0
 11
287.93897795200547
 21
34.560007421864618
 31
0.0
  0
TEXT
  5
441
  8
0
 62
     0
 10
290.06417323092569
 20
33.043020826244828
 30
0.0
 40
0.18
  1
R2.00
  0
SOLID
  5
442
  8
0
 62
     0
 10
287.9572685766849
 20
34.583786678556898
 30
0.0
 11
287.92068732732611
 21
34.536228165172339
 31
0.0
 12
287.7963024118518
 22
34.669751169940952
 32
0.0
 13
287.7963024118518
 23
34.669751169940952
 33
0.0
  0
LINE
  5
443
  8
0
 62
     0
 10
286.1210186323658
 20
35.889126148566703
 30
0.0
 11
286.30101863236581
 21
35.88912614856671
 31
0.0
  0
LINE
  5
444
  8
0
 62
     0
 10
286.21101863236589
 20
35.799126148566721
 30
0.0
 11
286.21101863236578
 21
35.979126148566721
 31
0.0
  0
POINT
  5
445
  8
DEFPOINTS
 62
     0
 10
287.7963024118518
 20
34.669751169940952
 30
0.0
  0
POINT
  5
446
  8
DEFPOINTS
 62
     0
 10
286.21101863236578
 20
35.88912614856671
 30
0.0
  0
ENDBLK
  5
448
  8
0
  0
BLOCK
  8
0
  2
*D9
 70
     1
 10
0.0
 20
0.0
 30
0.0
  3
*D9
  1

  0
LINE
  5
4C2
  8
0
 62
     0
 10
286.45340344065369
 20
37.500731362375511
 30
0.0
 11
286.63340344065381
 21
37.50073136237549
 31
0.0
  0
LINE
  5
4C3
  8
0
 62
     0
 10
286.63340344065381
 20
37.50073136237549
 30
0.0
 11
286.98684980962031
 21
37.756143775212927
 31
0.0
  0
TEXT
  5
4C4
  8
0
 62
     0
 10
285.7034034406538
 20
37.4107313623755
 30
0.0
 40
0.18
  1
\U+22052.00
  0
SOLID
  5
4C5
  8
0
 62
     0
 10
286.96927851110229
 20
37.780459397113162
 30
0.0
 11
287.00442110813822
 21
37.731828153312719
 31
0.0
 12
287.13274354102163
 22
37.86157156632035
 32
0.0
 13
287.13274354102163
 23
37.86157156632035
 33
0.0
  0
POINT
  5
4C6
  8
DEFPOINTS
 62
     0
 10
287.13274354102163
 20
37.86157156632035
 30
0.0
  0
POINT
  5
4C7
  8
DEFPOINTS
 62
     0
 10
285.5117020810066
 20
36.690151665126841
 30
0.0
  0
ENDBLK
  5
45C
  8
0
  0
BLOCK
  8
0
  2
*D10
 70
     1
 10
0.0
 20
0.0
 30
0.0
  3
*D10
  1

  0
LINE
  5
4B8
  8
0
 62
     0
 10
286.6193787887139
 20
36.735777712535921
 30
0.0
 11
286.6193787887139
 21
36.971968310705719
 31
0.0
  0
LINE
  5
4B9
  8
0
 62
     0
 10
287.12027834769009
 20
36.735777712535921
 30
0.0
 11
287.12027834769009
 21
36.971968310705719
 31
0.0
  0
LINE
  5
4BA
  8
0
 62
     0
 10
287.3002783476901
 20
36.79196831070572
 30
0.0
 11
287.4802783476901
 21
36.79196831070572
 31
0.0
  0
LINE
  5
4BB
  8
0
 62
     0
 10
286.43937878871378
 20
36.79196831070572
 30
0.0
 11
286.25937878871389
 21
36.79196831070572
 31
0.0
  0
SOLID
  5
4BC
  8
0
 62
     0
 10
287.3002783476901
 20
36.821968310705728
 30
0.0
 11
287.3002783476901
 21
36.761968310705718
 31
0.0
 12
287.12027834769009
 22
36.79196831070572
 32
0.0
 13
287.12027834769009
 23
36.79196831070572
 33
0.0
  0
SOLID
  5
4BD
  8
0
 62
     0
 10
286.43937878871378
 20
36.821968310705728
 30
0.0
 11
286.43937878871378
 21
36.761968310705718
 31
0.0
 12
286.6193787887139
 22
36.79196831070572
 32
0.0
 13
286.6193787887139
 23
36.79196831070572
 33
0.0
  0
TEXT
  5
4BE
  8
0
 62
     0
 10
285.68937878871378
 20
36.701968310705723
 30
0.0
 40
0.18
  1
0.50
  0
POINT
  5
4BF
  8
DEFPOINTS
 62
     0
 10
286.6193787887139
 20
36.673277712535921
 30
0.0
  0
POINT
  5
4C0
  8
DEFPOINTS
 62
     0
 10
287.12027834769009
 20
36.673277712535921
 30
0.0
  0
POINT
  5
4C1
  8
DEFPOINTS
 62
     0
 10
287.12027834769009
 20
36.79196831070572
 30
0.0
  0
ENDBLK
  5
46A
  8
0
  0
BLOCK
  8
0
  2
*D11
 70
     1
 10
0.0
 20
0.0
 30
0.0
  3
*D11
  1

  0
LINE
  5
4C8
  8
0
 62
     0
 10
286.68187878871379
 20
36.673277712535921
 30
0.0
 11
287.3002783476901
 21
36.673277712535921
 31
0.0
  0
LINE
  5
4C9
  8
0
 62
     0
 10
286.68187878871379
 20
36.321032665116562
 30
0.0
 11
287.3002783476901
 21
36.321032665116562
 31
0.0
  0
LINE
  5
4CA
  8
0
 62
     0
 10
287.12027834769009
 20
36.85327771253592
 30
0.0
 11
287.12027834769009
 21
37.03327771253592
 31
0.0
  0
LINE
  5
4CB
  8
0
 62
     0
 10
287.12027834769009
 20
36.141032665116562
 30
0.0
 11
287.12027834769009
 21
35.961032665116562
 31
0.0
  0
SOLID
  5
4CC
  8
0
 62
     0
 10
287.09027834769012
 20
36.85327771253592
 30
0.0
 11
287.15027834769012
 21
36.85327771253592
 31
0.0
 12
287.12027834769009
 22
36.673277712535921
 32
0.0
 13
287.12027834769009
 23
36.673277712535921
 33
0.0
  0
SOLID
  5
4CD
  8
0
 62
     0
 10
287.09027834769012
 20
36.141032665116562
 30
0.0
 11
287.15027834769012
 21
36.141032665116562
 31
0.0
 12
287.12027834769009
 22
36.321032665116562
 32
0.0
 13
287.12027834769009
 23
36.321032665116562
 33
0.0
  0
TEXT
  5
4CE
  8
0
 62
     0
 10
286.86527834769009
 20
36.407155188826287
 30
0.0
 40
0.18
  1
0.35
  0
POINT
  5
4CF
  8
DEFPOINTS
 62
     0
 10
286.6193787887139
 20
36.673277712535921
 30
0.0
  0
POINT
  5
4D0
  8
DEFPOINTS
 62
     0
 10
286.6193787887139
 20
36.321032665116562
 30
0.0
  0
POINT
  5
4D1
  8
DEFPOINTS
 62
     0
 10
287.12027834769009
 20
36.321032665116562
 30
0.0
  0
ENDBLK
  5
479
  8
0
  0
ENDSEC
  0
SECTION
  2
ENTITIES
  0
TEXT
  5
2C
  8
0
  6
CONTINUOUS
 10
287.60896688555658
 20
41.314391434317471
 30
0.0
 40
0.1
  1
2
  7
ROMANC
  0
TEXT
  5
2D
  8
0
  6
CONTINUOUS
 10
284.66924186379123
 20
41.724295246431183
 30
0.0
 40
0.3
  1
ESCALA  
  7
ROMANC
  0
POLYLINE
  5
2E
  8
NO_PRINT
  6
CONTINUOUS
 66
     1
 10
0.0
 20
0.0
 30
0.0
 70
     1
  0
VERTEX
  5
4F5
  8
NO_PRINT
  6
CONTINUOUS
 10
281.39599999999979
 20
44.747
 30
0.0
  0
VERTEX
  5
4F6
  8
NO_PRINT
  6
CONTINUOUS
 10
291.89599999999979
 20
44.747
 30
0.0
  0
VERTEX
  5
4F7
  8
NO_PRINT
  6
CONTINUOUS
 10
291.89599999999979
 20
29.896999999999998
 30
0.0
  0
VERTEX
  5
4F8
  8
NO_PRINT
  6
CONTINUOUS
 10
281.39599999999979
 20
29.896999999999998
 30
0.0
  0
SEQEND
  5
4F9
  8
NO_PRINT
  6
CONTINUOUS
  0
TEXT
  5
34
  8
0
  6
CONTINUOUS
 10
284.66924186379123
 20
42.337295246431182
 30
0.0
 40
0.3
  1
TIPUS   
  7
ROMANC
  0
TEXT
  5
3C
  8
0
  6
CONTINUOUS
 10
284.68824186379112
 20
41.05529524643115
 30
0.0
 40
0.3
  1
S =    dm
  7
ROMANC
  0
TEXT
  5
3D
  8
0
  6
CONTINUOUS
 10
284.66524186379132
 20
40.485295246431178
 30
0.0
 40
0.3
  1
P =    dm
  7
ROMANC
  0
INSERT
  5
30E
  8
0
 66
     1
  2
CARACTERISTIQUES
 10
0.7432418637913543
 20
-0.043704753568818
 30
0.0
  0
ATTRIB
  5
310
  8
0
 10
287.01550320405642
 20
41.709030754432447
 30
0.0
 40
0.3
  1
1:50
  7
ROMANC
  2
1:50
 70
     0
  0
ATTRIB
  5
311
  8
0
 10
286.9713711566468
 20
42.341872661312998
 30
0.0
 40
0.3
  1
NT303B
  7
ROMANC
  2
NTXXY
 70
     0
  0
ATTRIB
  5
312
  8
0
 10
285.76939545480133
 20
41.056997868792656
 30
0.0
 40
0.3
  1
303
  7
ROMANC
  2
XXX
 70
     0
  0
ATTRIB
  5
313
  8
0
 10
285.7931967292123
 20
40.485942344928027
 30
0.0
 40
0.3
  1
65
  7
ROMANC
  2
XX
 70
     0
  0
ATTRIB
  5
314
  8
0
 10
291.9107702909676
 20
30.5796467683431
 30
0.0
 40
0.3
  1

  7
ROMANC
 72
     2
 11
291.9107702909676
 21
30.5796467683431
 31
0.0
  2
Xxxxxxxxxxxx
 70
     0
  0
SEQEND
  5
30F
  8
0
  0
CIRCLE
  5
42A
  8
0
 10
285.48935665970248
 20
36.802890788646337
 30
0.0
 40
2000.0
  0
POLYLINE
  5
452
  8
0
 66
     1
 10
0.0
 20
0.0
 30
0.0
 70
     1
  0
VERTEX
  5
506
  8
0
 10
286.6193787887139
 20
36.673277712535921
 30
0.0
  0
VERTEX
  5
507
  8
0
 10
287.12027834769009
 20
36.673277712535921
 30
0.0
 42
6.3753185722866483
  0
VERTEX
  5
508
  8
0
 10
286.6193787887139
 20
36.321032665116569
 30
0.0
  0
SEQEND
  5
509
  8
0
  0
DIMENSION
  5
453
  8
0
  2
*D9
 10
285.5117020810066
 20
36.690151665126841
 30
0.0
 11
286.03340344065367
 21
37.500731362375497
 31
0.0
 70
   131
 15
287.13274354102163
 25
37.86157156632035
 35
0.0
 40
0.0
1001
ACAD
1000
DSTYLE
1002
{
1070
   288
1070
     1
1002
}
  0
DIMENSION
  5
45D
  8
0
  2
*D10
 10
287.12027834769009
 20
36.79196831070572
 30
0.0
 11
285.9293787887139
 21
36.79196831070572
 31
0.0
 70
   128
 13
286.6193787887139
 23
36.673277712535921
 33
0.0
 14
287.12027834769009
 24
36.673277712535921
 34
0.0
  0
DIMENSION
  5
46B
  8
0
  2
*D11
 10
287.12027834769009
 20
36.321032665116562
 30
0.0
 11
287.12027834769009
 21
36.497155188826291
 31
0.0
 70
   128
 13
286.6193787887139
 23
36.673277712535921
 33
0.0
 14
286.6193787887139
 24
36.321032665116562
 34
0.0
 50
90.0
  0
POLYLINE
  5
4B6
  8
0
 66
     1
 10
0.0
 20
0.0
 30
0.0
 70
     1
  0
VERTEX
  5
50A
  8
0
 10
286.62937878871378
 20
36.663277712535923
 30
0.0
  0
VERTEX
  5
50B
  8
0
 10
287.12524271210958
 20
36.663277712535923
 30
0.0
 42
6.5052454307961094
  0
VERTEX
  5
50C
  8
0
 10
286.62937878871378
 20
36.313699880170091
 30
0.0
  0
SEQEND
  5
50D
  8
0
  0
POLYLINE
  5
4B7
  8
0
 66
     1
 10
0.0
 20
0.0
 30
0.0
 70
     1
  0
VERTEX
  5
50E
  8
0
 10
286.60937878871391
 20
36.683277712535919
 30
0.0
  0
VERTEX
  5
50F
  8
0
 10
287.11528290815858
 20
36.683277712535919
 30
0.0
 42
6.2482472080452274
  0
VERTEX
  5
510
  8
0
 10
286.60937878871391
 20
36.328422201053023
 30
0.0
  0
SEQEND
  5
511
  8
0
  0
VIEWPORT
  5
1D9
 67
     1
  8
0
 10
99.824707761631487
 20
143.32297625461351
 30
0.0
 40
488.1619999471468
 41
307.1270234485288
 68
     1
 69
     1
1001
ACAD
1000
MVIEW
1002
{
1070
    16
1010
0.0
1020
0.0
1030
0.0
1010
0.0
1020
0.0
1030
1.0
1040
0.0
1040
307.1270234485288
1040
99.824707761631487
1040
143.32297625461351
1040
50.0
1040
0.0
1040
0.0
1070
     0
1070
   100
1070
     1
1070
     1
1070
     0
1070
     0
1070
     0
1070
     0
1040
0.0
1040
0.0
1040
0.0
1040
10.0
1040
10.0
1040
10.0
1040
10.0
1070
     0
1002
{
1002
}
1002
}
  0
VIEWPORT
  5
1DB
 67
     1
  8
0
 10
99.980751991272001
 20
143.39358425140361
 30
0.0
 40
199.2902839821538
 41
285.85133454766481
 68
     2
 69
     2
1001
ACAD
1000
MVIEW
1002
{
1070
    16
1010
0.0
1020
0.0
1030
0.0
1010
0.0
1020
0.0
1030
1.0
1040
0.0
1040
15.3945017187523
1040
286.64883227800061
1040
37.319167690011341
1040
50.0
1040
0.0
1040
0.0
1070
     0
1070
   100
1070
     1
1070
     1
1070
     0
1070
     0
1070
     0
1070
     0
1040
0.0
1040
0.0
1040
0.0
1040
1.0
1040
1.0
1040
0.0
1040
0.0
1070
     0
1002
{
1002
}
1002
}
  0
ENDSEC
  0
EOF
