  0
SECTION
  2
HEADER
  9
$ACADVER
  1
AC1009
  9
$INSBASE
 10
0.0
 20
0.0
 30
0.0
  9
$EXTMIN
 10
318.829805
 20
29.85788
 30
0.0
  9
$EXTMAX
 10
329.371339
 20
44.72551
 30
0.0
  9
$LIMMIN
 10
0.0
 20
0.0
  9
$LIMMAX
 10
410.0
 20
287.0
  9
$ORTHOMODE
 70
     1
  9
$REGENMODE
 70
     1
  9
$FILLMODE
 70
     1
  9
$QTEXTMODE
 70
     0
  9
$MIRRTEXT
 70
     1
  9
$DRAGMODE
 70
     2
  9
$LTSCALE
 40
25.0
  9
$OSMODE
 70
     0
  9
$ATTMODE
 70
     1
  9
$TEXTSIZE
 40
0.1
  9
$TRACEWID
 40
1.0
  9
$TEXTSTYLE
  7
ROMANC
  9
$CLAYER
  8
0
  9
$CELTYPE
  6
BYLAYER
  9
$CECOLOR
 62
   256
  9
$DIMSCALE
 40
1.5
  9
$DIMASZ
 40
0.1
  9
$DIMEXO
 40
0.01
  9
$DIMDLI
 40
7.0
  9
$DIMRND
 40
0.0
  9
$DIMDLE
 40
0.0
  9
$DIMEXE
 40
0.01
  9
$DIMTP
 40
0.0
  9
$DIMTM
 40
0.0
  9
$DIMTXT
 40
0.05
  9
$DIMCEN
 40
0.0
  9
$DIMTSZ
 40
0.0
  9
$DIMTOL
 70
     0
  9
$DIMLIM
 70
     0
  9
$DIMTIH
 70
     0
  9
$DIMTOH
 70
     0
  9
$DIMSE1
 70
     0
  9
$DIMSE2
 70
     0
  9
$DIMTAD
 70
     1
  9
$DIMZIN
 70
     0
  9
$DIMBLK
  1

  9
$DIMASO
 70
     1
  9
$DIMSHO
 70
     0
  9
$DIMPOST
  1

  9
$DIMAPOST
  1

  9
$DIMALT
 70
     0
  9
$DIMALTD
 70
     2
  9
$DIMALTF
 40
25.4
  9
$DIMLFAC
 40
1.0
  9
$DIMTOFL
 70
     1
  9
$DIMTVP
 40
0.0
  9
$DIMTIX
 70
     1
  9
$DIMSOXD
 70
     0
  9
$DIMSAH
 70
     0
  9
$DIMBLK1
  1

  9
$DIMBLK2
  1

  9
$DIMSTYLE
  2
MERITXELL
  9
$DIMCLRD
 70
     0
  9
$DIMCLRE
 70
     0
  9
$DIMCLRT
 70
     0
  9
$DIMTFAC
 40
70.0
  9
$DIMGAP
 40
0.025
  9
$LUNITS
 70
     2
  9
$LUPREC
 70
     2
  9
$SKETCHINC
 40
1.0
  9
$FILLETRAD
 40
0.0
  9
$AUNITS
 70
     0
  9
$AUPREC
 70
     0
  9
$MENU
  1
acad
  9
$ELEVATION
 40
0.0
  9
$PELEVATION
 40
0.0
  9
$THICKNESS
 40
0.0
  9
$LIMCHECK
 70
     0
  9
$BLIPMODE
 70
     0
  9
$CHAMFERA
 40
0.0
  9
$CHAMFERB
 40
0.0
  9
$SKPOLY
 70
     0
  9
$TDCREATE
 40
2450927.46195
  9
$TDUPDATE
 40
2451236.499732
  9
$TDINDWG
 40
0.176348
  9
$TDUSRTIMER
 40
0.176348
  9
$USRTIMER
 70
     1
  9
$ANGBASE
 50
0.0
  9
$ANGDIR
 70
     0
  9
$PDMODE
 70
     0
  9
$PDSIZE
 40
0.0
  9
$PLINEWID
 40
0.0
  9
$COORDS
 70
     2
  9
$SPLFRAME
 70
     0
  9
$SPLINETYPE
 70
     6
  9
$SPLINESEGS
 70
     8
  9
$ATTDIA
 70
     0
  9
$ATTREQ
 70
     1
  9
$HANDLING
 70
     1
  9
$HANDSEED
  5
EFE
  9
$SURFTAB1
 70
     6
  9
$SURFTAB2
 70
     6
  9
$SURFTYPE
 70
     6
  9
$SURFU
 70
     6
  9
$SURFV
 70
     6
  9
$UCSNAME
  2

  9
$UCSORG
 10
0.0
 20
0.0
 30
0.0
  9
$UCSXDIR
 10
1.0
 20
0.0
 30
0.0
  9
$UCSYDIR
 10
0.0
 20
1.0
 30
0.0
  9
$PUCSNAME
  2

  9
$PUCSORG
 10
0.0
 20
0.0
 30
0.0
  9
$PUCSXDIR
 10
1.0
 20
0.0
 30
0.0
  9
$PUCSYDIR
 10
0.0
 20
1.0
 30
0.0
  9
$USERI1
 70
     0
  9
$USERI2
 70
     0
  9
$USERI3
 70
     0
  9
$USERI4
 70
     0
  9
$USERI5
 70
     0
  9
$USERR1
 40
0.0
  9
$USERR2
 40
0.0
  9
$USERR3
 40
0.0
  9
$USERR4
 40
0.0
  9
$USERR5
 40
0.0
  9
$WORLDVIEW
 70
     1
  9
$SHADEDGE
 70
     3
  9
$SHADEDIF
 70
    70
  9
$TILEMODE
 70
     1
  9
$MAXACTVP
 70
    16
  9
$PLIMCHECK
 70
     0
  9
$PEXTMIN
 10
1.000000E+020
 20
1.000000E+020
 30
1.000000E+020
  9
$PEXTMAX
 10
-1.000000E+020
 20
-1.000000E+020
 30
-1.000000E+020
  9
$PLIMMIN
 10
0.0
 20
0.0
  9
$PLIMMAX
 10
12.0
 20
9.0
  9
$UNITMODE
 70
     0
  9
$VISRETAIN
 70
     0
  9
$PLINEGEN
 70
     0
  9
$PSLTSCALE
 70
     0
  0
ENDSEC
  0
SECTION
  2
TABLES
  0
TABLE
  2
VPORT
 70
     4
  0
VPORT
  2
*ACTIVE
 70
     0
 10
0.0
 20
0.0
 11
1.0
 21
1.0
 12
324.100572
 22
37.291695
 13
0.0
 23
0.0
 14
1.0
 24
1.0
 15
10.0
 25
10.0
 16
0.0
 26
0.0
 36
1.0
 17
0.0
 27
0.0
 37
0.0
 40
15.002178
 41
1.732628
 42
50.0
 43
0.0
 44
0.0
 50
0.0
 51
0.0
 71
     0
 72
   100
 73
     1
 74
     0
 75
     0
 76
     0
 77
     0
 78
     1
  0
ENDTAB
  0
TABLE
  2
LTYPE
 70
     1
  0
LTYPE
  2
CONTINUOUS
 70
     0
  3
Solid line
 72
    65
 73
     0
 40
0.0
  0
ENDTAB
  0
TABLE
  2
LAYER
 70
     4
  0
LAYER
  2
0
 70
     0
 62
     7
  6
CONTINUOUS
  0
LAYER
  2
DEFPOINTS
 70
     0
 62
     7
  6
CONTINUOUS
  0
LAYER
  2
COTES
 70
     0
 62
     4
  6
CONTINUOUS
  0
LAYER
  2
SECCIO
 70
     0
 62
    30
  6
CONTINUOUS
  0
ENDTAB
  0
TABLE
  2
STYLE
 70
     2
  0
STYLE
  2
STANDARD
 70
     0
 40
0.0
 41
1.0
 50
0.0
 71
     0
 42
0.1
  3
txt
  4

  0
STYLE
  2
ROMANC
 70
     0
 40
0.0
 41
1.0
 50
0.0
 71
     0
 42
0.1
  3
romanc
  4

  0
ENDTAB
  0
TABLE
  2
VIEW
 70
     0
  0
ENDTAB
  0
TABLE
  2
UCS
 70
     0
  0
ENDTAB
  0
TABLE
  2
APPID
 70
     1
  0
APPID
  2
ACAD
 70
     0
  0
ENDTAB
  0
TABLE
  2
DIMSTYLE
 70
     2
  0
DIMSTYLE
  2
MERITXELL
 70
     0
  3

  4

  5

  6

  7

 40
1.5
 41
0.1
 42
0.01
 43
7.0
 44
0.01
 45
0.0
 46
0.0
 47
0.0
 48
0.0
140
0.05
141
0.1
142
0.0
143
25.4
144
1.0
145
0.0
146
70.0
147
0.09
 71
     0
 72
     0
 73
     0
 74
     0
 75
     0
 76
     0
 77
     1
 78
     0
170
     0
171
     2
172
     1
173
     0
174
     1
175
     0
176
     0
177
     0
178
     0
  0
DIMSTYLE
  2
STANDARD
 70
     0
  3

  4

  5
TICK
  6

  7

 40
1.0
 41
0.05
 42
0.08
 43
0.08
 44
0.08
 45
0.0
 46
1.25
 47
0.0
 48
0.0
140
0.08
141
-0.08
142
0.0
143
0.039
144
1.0
145
1.0
146
1.0
147
0.08
 71
     0
 72
     0
 73
     0
 74
     0
 75
     0
 76
     0
 77
     0
 78
     0
170
     0
171
     2
172
     0
173
     0
174
     0
175
     0
176
    71
177
    71
178
     7
  0
ENDTAB
  0
ENDSEC
  0
SECTION
  2
BLOCKS
  0
BLOCK
  8
0
  2
$MODEL_SPACE
 70
     0
 10
0.0
 20
0.0
 30
0.0
  3
$MODEL_SPACE
  1

  0
ENDBLK
  5
24
  8
0
  0
BLOCK
 67
     1
  8
0
  2
$PAPER_SPACE
 70
     0
 10
0.0
 20
0.0
 30
0.0
  3
$PAPER_SPACE
  1

  0
ENDBLK
  5
22
 67
     1
  8
0
  0
BLOCK
  8
0
  2
TICK
 70
     0
 10
0.0
 20
0.0
 30
0.0
  3
TICK
  1

  0
LINE
  5
387
  8
0
  6
BYBLOCK
 62
     6
 10
-1.0
 20
-1.0
 30
0.0
 11
1.0
 21
1.0
 31
0.0
  0
LINE
  5
388
  8
0
  6
BYBLOCK
 62
    71
 10
0.0
 20
0.0
 30
0.0
 11
-1.0
 21
0.0
 31
0.0
  0
ENDBLK
  5
38A
  8
0
  0
BLOCK
  8
0
  2
*D1
 70
     1
 10
0.0
 20
0.0
 30
0.0
  3
*D1
  1

  0
LINE
  5
800
  8
0
  6
BYBLOCK
 62
    71
 10
142.056455
 20
122.778217
 30
0.0
 11
142.056455
 21
123.002231
 31
0.0
  0
LINE
  5
801
  8
0
  6
BYBLOCK
 62
    71
 10
143.056455
 20
122.778217
 30
0.0
 11
143.056455
 21
123.002231
 31
0.0
  0
LINE
  5
802
  8
0
  6
BYBLOCK
 62
    71
 10
142.106455
 20
122.922231
 30
0.0
 11
143.006455
 21
122.922231
 31
0.0
  0
INSERT
  5
803
  8
0
  6
BYBLOCK
 62
    71
  2
TICK
 10
142.056455
 20
122.922231
 30
0.0
 41
0.05
 42
0.05
 43
0.05
 50
180.0
  0
INSERT
  5
804
  8
0
  6
BYBLOCK
 62
    71
  2
TICK
 10
143.056455
 20
122.922231
 30
0.0
 41
0.05
 42
0.05
 43
0.05
  0
TEXT
  5
805
  8
0
  6
BYBLOCK
 62
     7
 10
142.463121
 20
122.962231
 30
0.0
 40
0.08
  1
1.00
 72
     1
 11
142.556455
 21
123.002231
 31
0.0
 73
     2
  0
POINT
  5
806
  8
DEFPOINTS
  6
BYBLOCK
 62
     0
 10
142.056455
 20
122.698217
 30
0.0
  0
POINT
  5
807
  8
DEFPOINTS
  6
BYBLOCK
 62
     0
 10
143.056455
 20
122.698217
 30
0.0
  0
POINT
  5
808
  8
DEFPOINTS
  6
BYBLOCK
 62
     0
 10
143.056455
 20
122.922231
 30
0.0
  0
ENDBLK
  5
80A
  8
0
  0
BLOCK
  8
0
  2
*D2
 70
     1
 10
0.0
 20
0.0
 30
0.0
  3
*D2
  1

  0
LINE
  5
80C
  8
0
  6
BYBLOCK
 62
    71
 10
143.056455
 20
122.778217
 30
0.0
 11
143.056455
 21
123.002231
 31
0.0
  0
LINE
  5
80D
  8
0
  6
BYBLOCK
 62
    71
 10
144.056455
 20
122.478217
 30
0.0
 11
144.056455
 21
123.002231
 31
0.0
  0
LINE
  5
80E
  8
0
  6
BYBLOCK
 62
    71
 10
143.106455
 20
122.922231
 30
0.0
 11
144.006455
 21
122.922231
 31
0.0
  0
INSERT
  5
80F
  8
0
  6
BYBLOCK
 62
    71
  2
TICK
 10
143.056455
 20
122.922231
 30
0.0
 41
0.05
 42
0.05
 43
0.05
 50
180.0
  0
INSERT
  5
810
  8
0
  6
BYBLOCK
 62
    71
  2
TICK
 10
144.056455
 20
122.922231
 30
0.0
 41
0.05
 42
0.05
 43
0.05
  0
TEXT
  5
811
  8
0
  6
BYBLOCK
 62
     7
 10
143.463121
 20
122.962231
 30
0.0
 40
0.08
  1
1.00
 72
     1
 11
143.556455
 21
123.002231
 31
0.0
 73
     2
  0
POINT
  5
812
  8
DEFPOINTS
  6
BYBLOCK
 62
     0
 10
143.056455
 20
122.698217
 30
0.0
  0
POINT
  5
813
  8
DEFPOINTS
  6
BYBLOCK
 62
     0
 10
144.056455
 20
122.398217
 30
0.0
  0
POINT
  5
814
  8
DEFPOINTS
  6
BYBLOCK
 62
     0
 10
144.056455
 20
122.922231
 30
0.0
  0
ENDBLK
  5
816
  8
0
  0
BLOCK
  8
0
  2
*D3
 70
     1
 10
0.0
 20
0.0
 30
0.0
  3
*D3
  1

  0
LINE
  5
818
  8
0
  6
BYBLOCK
 62
    71
 10
143.056455
 20
124.948217
 30
0.0
 11
143.056455
 21
124.513095
 31
0.0
  0
LINE
  5
819
  8
0
  6
BYBLOCK
 62
    71
 10
143.056455
 20
124.513095
 30
0.0
 11
143.056455
 21
124.113095
 31
0.0
  0
INSERT
  5
81A
  8
0
  6
BYBLOCK
 62
    71
  2
TICK
 10
143.056455
 20
124.998217
 30
0.0
 41
0.05
 42
0.05
 43
0.05
 50
90.0
  0
TEXT
  5
81B
  8
0
  6
BYBLOCK
 62
     7
 10
143.016455
 20
124.139762
 30
0.0
 40
0.08
  1
R1.00
 50
90.0
 72
     1
 11
142.976455
 21
124.273095
 31
0.0
 73
     2
  0
POINT
  5
81C
  8
DEFPOINTS
  6
BYBLOCK
 62
     0
 10
143.056455
 20
124.998217
 30
0.0
  0
POINT
  5
81D
  8
DEFPOINTS
  6
BYBLOCK
 62
     0
 10
143.056455
 20
123.998217
 30
0.0
  0
ENDBLK
  5
81F
  8
0
  0
BLOCK
  8
0
  2
*D4
 70
     1
 10
0.0
 20
0.0
 30
0.0
  3
*D4
  1

  0
LINE
  5
821
  8
0
  6
BYBLOCK
 62
    71
 10
141.806455
 20
122.018217
 30
0.0
 11
141.806455
 21
121.65475
 31
0.0
  0
LINE
  5
822
  8
0
  6
BYBLOCK
 62
    71
 10
142.056455
 20
122.016422
 30
0.0
 11
142.056455
 21
121.65475
 31
0.0
  0
LINE
  5
823
  8
0
  6
BYBLOCK
 62
    71
 10
141.756455
 20
121.73475
 30
0.0
 11
141.706455
 21
121.73475
 31
0.0
  0
LINE
  5
824
  8
0
  6
BYBLOCK
 62
    71
 10
142.106455
 20
121.73475
 30
0.0
 11
142.156455
 21
121.73475
 31
0.0
  0
INSERT
  5
825
  8
0
  6
BYBLOCK
 62
    71
  2
TICK
 10
141.806455
 20
121.73475
 30
0.0
 41
0.05
 42
0.05
 43
0.05
  0
INSERT
  5
826
  8
0
  6
BYBLOCK
 62
    71
  2
TICK
 10
142.056455
 20
121.73475
 30
0.0
 41
0.05
 42
0.05
 43
0.05
 50
180.0
  0
TEXT
  5
827
  8
0
  6
BYBLOCK
 62
     7
 10
141.812907
 20
121.515081
 30
0.0
 40
0.08
  1
0.25
 72
     1
 11
141.926241
 21
121.555081
 31
0.0
 73
     2
  0
POINT
  5
828
  8
DEFPOINTS
  6
BYBLOCK
 62
     0
 10
141.806455
 20
122.098217
 30
0.0
  0
POINT
  5
829
  8
DEFPOINTS
  6
BYBLOCK
 62
     0
 10
142.056455
 20
122.096422
 30
0.0
  0
POINT
  5
82A
  8
DEFPOINTS
  6
BYBLOCK
 62
     0
 10
142.056455
 20
121.73475
 30
0.0
  0
ENDBLK
  5
82C
  8
0
  0
BLOCK
  8
0
  2
*D5
 70
     1
 10
0.0
 20
0.0
 30
0.0
  3
*D5
  1

  0
LINE
  5
82E
  8
0
  6
BYBLOCK
 62
    71
 10
144.056455
 20
122.01894
 30
0.0
 11
144.056455
 21
121.655685
 31
0.0
  0
LINE
  5
82F
  8
0
  6
BYBLOCK
 62
    71
 10
144.306455
 20
122.018217
 30
0.0
 11
144.306455
 21
121.655685
 31
0.0
  0
LINE
  5
830
  8
0
  6
BYBLOCK
 62
    71
 10
144.006455
 20
121.735685
 30
0.0
 11
143.956455
 21
121.735685
 31
0.0
  0
LINE
  5
831
  8
0
  6
BYBLOCK
 62
    71
 10
144.356455
 20
121.735685
 30
0.0
 11
144.406455
 21
121.735685
 31
0.0
  0
INSERT
  5
832
  8
0
  6
BYBLOCK
 62
    71
  2
TICK
 10
144.056455
 20
121.735685
 30
0.0
 41
0.05
 42
0.05
 43
0.05
  0
INSERT
  5
833
  8
0
  6
BYBLOCK
 62
    71
  2
TICK
 10
144.306455
 20
121.735685
 30
0.0
 41
0.05
 42
0.05
 43
0.05
 50
180.0
  0
TEXT
  5
834
  8
0
  6
BYBLOCK
 62
     7
 10
144.084034
 20
121.515081
 30
0.0
 40
0.08
  1
0.25
 72
     1
 11
144.197367
 21
121.555081
 31
0.0
 73
     2
  0
POINT
  5
835
  8
DEFPOINTS
  6
BYBLOCK
 62
     0
 10
144.056455
 20
122.09894
 30
0.0
  0
POINT
  5
836
  8
DEFPOINTS
  6
BYBLOCK
 62
     0
 10
144.306455
 20
122.098217
 30
0.0
  0
POINT
  5
837
  8
DEFPOINTS
  6
BYBLOCK
 62
     0
 10
144.306455
 20
121.735685
 30
0.0
  0
ENDBLK
  5
839
  8
0
  0
BLOCK
  8
0
  2
*D6
 70
     1
 10
0.0
 20
0.0
 30
0.0
  3
*D6
  1

  0
LINE
  5
83B
  8
0
  6
BYBLOCK
 62
    71
 10
144.386455
 20
122.098217
 30
0.0
 11
144.973154
 21
122.098217
 31
0.0
  0
LINE
  5
83C
  8
0
  6
BYBLOCK
 62
    71
 10
144.385022
 20
122.398217
 30
0.0
 11
144.973154
 21
122.398217
 31
0.0
  0
LINE
  5
83D
  8
0
  6
BYBLOCK
 62
    71
 10
144.893154
 20
122.148217
 30
0.0
 11
144.893154
 21
122.348217
 31
0.0
  0
INSERT
  5
83E
  8
0
  6
BYBLOCK
 62
    71
  2
TICK
 10
144.893154
 20
122.098217
 30
0.0
 41
0.05
 42
0.05
 43
0.05
 50
270.0
  0
INSERT
  5
83F
  8
0
  6
BYBLOCK
 62
    71
  2
TICK
 10
144.893154
 20
122.398217
 30
0.0
 41
0.05
 42
0.05
 43
0.05
 50
90.0
  0
TEXT
  5
840
  8
0
  6
BYBLOCK
 62
     7
 10
145.08328
 20
122.15045
 30
0.0
 40
0.08
  1
0.30
 50
90.0
 72
     1
 11
145.04328
 21
122.257116
 31
0.0
 73
     2
  0
POINT
  5
841
  8
DEFPOINTS
  6
BYBLOCK
 62
     0
 10
144.306455
 20
122.098217
 30
0.0
  0
POINT
  5
842
  8
DEFPOINTS
  6
BYBLOCK
 62
     0
 10
144.305022
 20
122.398217
 30
0.0
  0
POINT
  5
843
  8
DEFPOINTS
  6
BYBLOCK
 62
     0
 10
144.893154
 20
122.398217
 30
0.0
  0
ENDBLK
  5
845
  8
0
  0
BLOCK
  8
0
  2
*D7
 70
     1
 10
0.0
 20
0.0
 30
0.0
  3
*D7
  1

  0
LINE
  5
847
  8
0
  6
BYBLOCK
 62
    71
 10
144.385022
 20
122.398217
 30
0.0
 11
144.973154
 21
122.398217
 31
0.0
  0
LINE
  5
848
  8
0
  6
BYBLOCK
 62
    71
 10
144.387149
 20
124.00198
 30
0.0
 11
144.973154
 21
124.00198
 31
0.0
  0
LINE
  5
849
  8
0
  6
BYBLOCK
 62
    71
 10
144.893154
 20
122.448217
 30
0.0
 11
144.893154
 21
123.95198
 31
0.0
  0
INSERT
  5
84A
  8
0
  6
BYBLOCK
 62
    71
  2
TICK
 10
144.893154
 20
122.398217
 30
0.0
 41
0.05
 42
0.05
 43
0.05
 50
270.0
  0
INSERT
  5
84B
  8
0
  6
BYBLOCK
 62
    71
  2
TICK
 10
144.893154
 20
124.00198
 30
0.0
 41
0.05
 42
0.05
 43
0.05
 50
90.0
  0
TEXT
  5
84C
  8
0
  6
BYBLOCK
 62
     7
 10
144.853154
 20
123.100098
 30
0.0
 40
0.08
  1
1.60
 50
90.0
 72
     1
 11
144.813154
 21
123.200098
 31
0.0
 73
     2
  0
POINT
  5
84D
  8
DEFPOINTS
  6
BYBLOCK
 62
     0
 10
144.305022
 20
122.398217
 30
0.0
  0
POINT
  5
84E
  8
DEFPOINTS
  6
BYBLOCK
 62
     0
 10
144.307149
 20
124.00198
 30
0.0
  0
POINT
  5
84F
  8
DEFPOINTS
  6
BYBLOCK
 62
     0
 10
144.893154
 20
124.00198
 30
0.0
  0
ENDBLK
  5
851
  8
0
  0
BLOCK
  8
0
  2
*D8
 70
     1
 10
0.0
 20
0.0
 30
0.0
  3
*D8
  1

  0
LINE
  5
853
  8
0
  6
BYBLOCK
 62
    71
 10
144.385022
 20
124.00198
 30
0.0
 11
144.973154
 21
124.00198
 31
0.0
  0
LINE
  5
854
  8
0
  6
BYBLOCK
 62
    71
 10
143.971522
 20
124.998217
 30
0.0
 11
144.973154
 21
124.998217
 31
0.0
  0
LINE
  5
855
  8
0
  6
BYBLOCK
 62
    71
 10
144.893154
 20
124.05198
 30
0.0
 11
144.893154
 21
124.948217
 31
0.0
  0
INSERT
  5
856
  8
0
  6
BYBLOCK
 62
    71
  2
TICK
 10
144.893154
 20
124.00198
 30
0.0
 41
0.05
 42
0.05
 43
0.05
 50
270.0
  0
INSERT
  5
857
  8
0
  6
BYBLOCK
 62
    71
  2
TICK
 10
144.893154
 20
124.998217
 30
0.0
 41
0.05
 42
0.05
 43
0.05
 50
90.0
  0
TEXT
  5
858
  8
0
  6
BYBLOCK
 62
     7
 10
144.853154
 20
124.406765
 30
0.0
 40
0.08
  1
1.00
 50
90.0
 72
     1
 11
144.813154
 21
124.500098
 31
0.0
 73
     2
  0
POINT
  5
859
  8
DEFPOINTS
  6
BYBLOCK
 62
     0
 10
144.305022
 20
124.00198
 30
0.0
  0
POINT
  5
85A
  8
DEFPOINTS
  6
BYBLOCK
 62
     0
 10
143.891522
 20
124.998217
 30
0.0
  0
POINT
  5
85B
  8
DEFPOINTS
  6
BYBLOCK
 62
     0
 10
144.893154
 20
124.998217
 30
0.0
  0
ENDBLK
  5
85D
  8
0
  0
BLOCK
  8
0
  2
*D9
 70
     1
 10
0.0
 20
0.0
 30
0.0
  3
*D9
  1

  0
LINE
  5
85F
  8
0
  6
BYBLOCK
 62
    71
 10
143.884655
 20
124.998217
 30
0.0
 11
144.973154
 21
124.998217
 31
0.0
  0
LINE
  5
860
  8
0
  6
BYBLOCK
 62
    71
 10
143.392253
 20
125.248217
 30
0.0
 11
144.973154
 21
125.248217
 31
0.0
  0
LINE
  5
861
  8
0
  6
BYBLOCK
 62
    71
 10
144.893154
 20
124.948217
 30
0.0
 11
144.893154
 21
124.898217
 31
0.0
  0
LINE
  5
862
  8
0
  6
BYBLOCK
 62
    71
 10
144.893154
 20
125.298217
 30
0.0
 11
144.893154
 21
125.348217
 31
0.0
  0
INSERT
  5
863
  8
0
  6
BYBLOCK
 62
    71
  2
TICK
 10
144.893154
 20
124.998217
 30
0.0
 41
0.05
 42
0.05
 43
0.05
 50
90.0
  0
INSERT
  5
864
  8
0
  6
BYBLOCK
 62
    71
  2
TICK
 10
144.893154
 20
125.248217
 30
0.0
 41
0.05
 42
0.05
 43
0.05
 50
270.0
  0
TEXT
  5
865
  8
0
  6
BYBLOCK
 62
     7
 10
145.076459
 20
125.026897
 30
0.0
 40
0.08
  1
0.25
 50
90.0
 72
     1
 11
145.036459
 21
125.140231
 31
0.0
 73
     2
  0
POINT
  5
866
  8
DEFPOINTS
  6
BYBLOCK
 62
     0
 10
143.804655
 20
124.998217
 30
0.0
  0
POINT
  5
867
  8
DEFPOINTS
  6
BYBLOCK
 62
     0
 10
143.312253
 20
125.248217
 30
0.0
  0
POINT
  5
868
  8
DEFPOINTS
  6
BYBLOCK
 62
     0
 10
144.893154
 20
125.248217
 30
0.0
  0
ENDBLK
  5
86A
  8
0
  0
BLOCK
  8
0
  2
*D10
 70
     1
 10
0.0
 20
0.0
 30
0.0
  3
*D10
  1

  0
LINE
  5
86C
  8
0
  6
BYBLOCK
 62
    71
 10
143.136455
 20
122.398217
 30
0.0
 11
143.356559
 21
122.398217
 31
0.0
  0
LINE
  5
86D
  8
0
  6
BYBLOCK
 62
    71
 10
143.136455
 20
122.698217
 30
0.0
 11
143.356559
 21
122.698217
 31
0.0
  0
LINE
  5
86E
  8
0
  6
BYBLOCK
 62
    71
 10
143.276559
 20
122.448217
 30
0.0
 11
143.276559
 21
122.648217
 31
0.0
  0
INSERT
  5
86F
  8
0
  6
BYBLOCK
 62
    71
  2
TICK
 10
143.276559
 20
122.398217
 30
0.0
 41
0.05
 42
0.05
 43
0.05
 50
270.0
  0
INSERT
  5
870
  8
0
  6
BYBLOCK
 62
    71
  2
TICK
 10
143.276559
 20
122.698217
 30
0.0
 41
0.05
 42
0.05
 43
0.05
 50
90.0
  0
TEXT
  5
871
  8
0
  6
BYBLOCK
 62
     7
 10
143.218673
 20
122.446849
 30
0.0
 40
0.08
  1
0.30
 50
90.0
 72
     1
 11
143.178673
 21
122.553516
 31
0.0
 73
     2
  0
POINT
  5
872
  8
DEFPOINTS
  6
BYBLOCK
 62
     0
 10
143.056455
 20
122.398217
 30
0.0
  0
POINT
  5
873
  8
DEFPOINTS
  6
BYBLOCK
 62
     0
 10
143.056455
 20
122.698217
 30
0.0
  0
POINT
  5
874
  8
DEFPOINTS
  6
BYBLOCK
 62
     0
 10
143.276559
 20
122.698217
 30
0.0
  0
ENDBLK
  5
876
  8
0
  0
BLOCK
  8
0
  2
*D11
 70
     1
 10
0.0
 20
0.0
 30
0.0
  3
*D11
  1

  0
LINE
  5
878
  8
0
  6
BYBLOCK
 62
    71
 10
142.056455
 20
122.016422
 30
0.0
 11
142.056455
 21
121.655685
 31
0.0
  0
LINE
  5
879
  8
0
  6
BYBLOCK
 62
    71
 10
144.056455
 20
122.01894
 30
0.0
 11
144.056455
 21
121.655685
 31
0.0
  0
LINE
  5
87A
  8
0
  6
BYBLOCK
 62
    71
 10
142.106455
 20
121.735685
 30
0.0
 11
142.88377
 21
121.735685
 31
0.0
  0
LINE
  5
87B
  8
0
  6
BYBLOCK
 62
    71
 10
144.006455
 20
121.735685
 30
0.0
 11
143.28758
 21
121.735685
 31
0.0
  0
INSERT
  5
87C
  8
0
  6
BYBLOCK
 62
    71
  2
TICK
 10
142.056455
 20
121.735685
 30
0.0
 41
0.05
 42
0.05
 43
0.05
 50
180.0
  0
INSERT
  5
87D
  8
0
  6
BYBLOCK
 62
    71
  2
TICK
 10
144.056455
 20
121.735685
 30
0.0
 41
0.05
 42
0.05
 43
0.05
  0
TEXT
  5
87E
  8
0
  6
BYBLOCK
 62
     7
 10
142.979008
 20
121.692294
 30
0.0
 40
0.08
  1
2.00
 72
     1
 11
143.085675
 21
121.732294
 31
0.0
 73
     2
  0
POINT
  5
87F
  8
DEFPOINTS
  6
BYBLOCK
 62
     0
 10
142.056455
 20
122.096422
 30
0.0
  0
POINT
  5
880
  8
DEFPOINTS
  6
BYBLOCK
 62
     0
 10
144.056455
 20
122.09894
 30
0.0
  0
POINT
  5
881
  8
DEFPOINTS
  6
BYBLOCK
 62
     0
 10
144.056455
 20
121.735685
 30
0.0
  0
ENDBLK
  5
883
  8
0
  0
BLOCK
  8
0
  2
*D12
 70
     1
 10
0.0
 20
0.0
 30
0.0
  3
*D12
  1

  0
LINE
  5
885
  8
0
  6
BYBLOCK
 62
    71
 10
153.702968
 20
123.059563
 30
0.0
 11
153.702968
 21
123.328779
 31
0.0
  0
LINE
  5
886
  8
0
  6
BYBLOCK
 62
    71
 10
154.702968
 20
123.059563
 30
0.0
 11
154.702968
 21
123.328779
 31
0.0
  0
LINE
  5
887
  8
0
  6
BYBLOCK
 62
    71
 10
153.752968
 20
123.248779
 30
0.0
 11
154.652968
 21
123.248779
 31
0.0
  0
INSERT
  5
888
  8
0
  6
BYBLOCK
 62
    71
  2
TICK
 10
153.702968
 20
123.248779
 30
0.0
 41
0.05
 42
0.05
 43
0.05
 50
180.0
  0
INSERT
  5
889
  8
0
  6
BYBLOCK
 62
    71
  2
TICK
 10
154.702968
 20
123.248779
 30
0.0
 41
0.05
 42
0.05
 43
0.05
  0
TEXT
  5
88A
  8
0
  6
BYBLOCK
 62
     7
 10
154.109635
 20
123.288779
 30
0.0
 40
0.08
  1
1.00
 72
     1
 11
154.202968
 21
123.328779
 31
0.0
 73
     2
  0
POINT
  5
88B
  8
DEFPOINTS
  6
BYBLOCK
 62
     0
 10
153.702968
 20
122.979563
 30
0.0
  0
POINT
  5
88C
  8
DEFPOINTS
  6
BYBLOCK
 62
     0
 10
154.702968
 20
122.979563
 30
0.0
  0
POINT
  5
88D
  8
DEFPOINTS
  6
BYBLOCK
 62
     0
 10
154.702968
 20
123.248779
 30
0.0
  0
ENDBLK
  5
88F
  8
0
  0
BLOCK
  8
0
  2
*D13
 70
     1
 10
0.0
 20
0.0
 30
0.0
  3
*D13
  1

  0
LINE
  5
891
  8
0
  6
BYBLOCK
 62
    71
 10
154.702968
 20
123.059563
 30
0.0
 11
154.702968
 21
123.328779
 31
0.0
  0
LINE
  5
892
  8
0
  6
BYBLOCK
 62
    71
 10
155.502968
 20
122.759563
 30
0.0
 11
155.502968
 21
123.328779
 31
0.0
  0
LINE
  5
893
  8
0
  6
BYBLOCK
 62
    71
 10
154.752968
 20
123.248779
 30
0.0
 11
155.452968
 21
123.248779
 31
0.0
  0
INSERT
  5
894
  8
0
  6
BYBLOCK
 62
    71
  2
TICK
 10
154.702968
 20
123.248779
 30
0.0
 41
0.05
 42
0.05
 43
0.05
 50
180.0
  0
INSERT
  5
895
  8
0
  6
BYBLOCK
 62
    71
  2
TICK
 10
155.502968
 20
123.248779
 30
0.0
 41
0.05
 42
0.05
 43
0.05
  0
TEXT
  5
896
  8
0
  6
BYBLOCK
 62
     7
 10
154.996301
 20
123.288779
 30
0.0
 40
0.08
  1
0.80
 72
     1
 11
155.102968
 21
123.328779
 31
0.0
 73
     2
  0
POINT
  5
897
  8
DEFPOINTS
  6
BYBLOCK
 62
     0
 10
154.702968
 20
122.979563
 30
0.0
  0
POINT
  5
898
  8
DEFPOINTS
  6
BYBLOCK
 62
     0
 10
155.502968
 20
122.679563
 30
0.0
  0
POINT
  5
899
  8
DEFPOINTS
  6
BYBLOCK
 62
     0
 10
155.502968
 20
123.248779
 30
0.0
  0
ENDBLK
  5
89B
  8
0
  0
BLOCK
  8
0
  2
*D14
 70
     1
 10
0.0
 20
0.0
 30
0.0
  3
*D14
  1

  0
LINE
  5
89D
  8
0
  6
BYBLOCK
 62
    71
 10
154.782968
 20
122.679563
 30
0.0
 11
155.079849
 21
122.679563
 31
0.0
  0
LINE
  5
89E
  8
0
  6
BYBLOCK
 62
    71
 10
154.782968
 20
122.979563
 30
0.0
 11
155.079849
 21
122.979563
 31
0.0
  0
LINE
  5
89F
  8
0
  6
BYBLOCK
 62
    71
 10
154.999849
 20
122.729563
 30
0.0
 11
154.999849
 21
122.929563
 31
0.0
  0
INSERT
  5
8A0
  8
0
  6
BYBLOCK
 62
    71
  2
TICK
 10
154.999849
 20
122.679563
 30
0.0
 41
0.05
 42
0.05
 43
0.05
 50
270.0
  0
INSERT
  5
8A1
  8
0
  6
BYBLOCK
 62
    71
  2
TICK
 10
154.999849
 20
122.979563
 30
0.0
 41
0.05
 42
0.05
 43
0.05
 50
90.0
  0
TEXT
  5
8A2
  8
0
  6
BYBLOCK
 62
     7
 10
154.959849
 20
122.731909
 30
0.0
 40
0.08
  1
0.30
 50
90.0
 72
     1
 11
154.919849
 21
122.838576
 31
0.0
 73
     2
  0
POINT
  5
8A3
  8
DEFPOINTS
  6
BYBLOCK
 62
     0
 10
154.702968
 20
122.679563
 30
0.0
  0
POINT
  5
8A4
  8
DEFPOINTS
  6
BYBLOCK
 62
     0
 10
154.702968
 20
122.979563
 30
0.0
  0
POINT
  5
8A5
  8
DEFPOINTS
  6
BYBLOCK
 62
     0
 10
154.999849
 20
122.979563
 30
0.0
  0
ENDBLK
  5
8A7
  8
0
  0
BLOCK
  8
0
  2
*D15
 70
     1
 10
0.0
 20
0.0
 30
0.0
  3
*D15
  1

  0
LINE
  5
8A9
  8
0
  6
BYBLOCK
 62
    71
 10
153.452968
 20
122.299563
 30
0.0
 11
153.452968
 21
121.963135
 31
0.0
  0
LINE
  5
8AA
  8
0
  6
BYBLOCK
 62
    71
 10
153.702968
 20
122.296741
 30
0.0
 11
153.702968
 21
121.963135
 31
0.0
  0
LINE
  5
8AB
  8
0
  6
BYBLOCK
 62
    71
 10
153.402968
 20
122.043135
 30
0.0
 11
153.352968
 21
122.043135
 31
0.0
  0
LINE
  5
8AC
  8
0
  6
BYBLOCK
 62
    71
 10
153.752968
 20
122.043135
 30
0.0
 11
153.802968
 21
122.043135
 31
0.0
  0
INSERT
  5
8AD
  8
0
  6
BYBLOCK
 62
    71
  2
TICK
 10
153.452968
 20
122.043135
 30
0.0
 41
0.05
 42
0.05
 43
0.05
  0
INSERT
  5
8AE
  8
0
  6
BYBLOCK
 62
    71
  2
TICK
 10
153.702968
 20
122.043135
 30
0.0
 41
0.05
 42
0.05
 43
0.05
 50
180.0
  0
TEXT
  5
8AF
  8
0
  6
BYBLOCK
 62
     7
 10
153.147767
 20
122.083135
 30
0.0
 40
0.08
  1
0.25
 72
     1
 11
153.2611
 21
122.123135
 31
0.0
 73
     2
  0
POINT
  5
8B0
  8
DEFPOINTS
  6
BYBLOCK
 62
     0
 10
153.452968
 20
122.379563
 30
0.0
  0
POINT
  5
8B1
  8
DEFPOINTS
  6
BYBLOCK
 62
     0
 10
153.702968
 20
122.376741
 30
0.0
  0
POINT
  5
8B2
  8
DEFPOINTS
  6
BYBLOCK
 62
     0
 10
153.702968
 20
122.043135
 30
0.0
  0
ENDBLK
  5
8B4
  8
0
  0
BLOCK
  8
0
  2
*D16
 70
     1
 10
0.0
 20
0.0
 30
0.0
  3
*D16
  1

  0
LINE
  5
8B6
  8
0
  6
BYBLOCK
 62
    71
 10
153.702968
 20
122.296741
 30
0.0
 11
153.702968
 21
121.963135
 31
0.0
  0
LINE
  5
8B7
  8
0
  6
BYBLOCK
 62
    71
 10
155.502968
 20
122.300209
 30
0.0
 11
155.502968
 21
121.963135
 31
0.0
  0
LINE
  5
8B8
  8
0
  6
BYBLOCK
 62
    71
 10
153.752968
 20
122.043135
 30
0.0
 11
155.452968
 21
122.043135
 31
0.0
  0
INSERT
  5
8B9
  8
0
  6
BYBLOCK
 62
    71
  2
TICK
 10
153.702968
 20
122.043135
 30
0.0
 41
0.05
 42
0.05
 43
0.05
 50
180.0
  0
INSERT
  5
8BA
  8
0
  6
BYBLOCK
 62
    71
  2
TICK
 10
155.502968
 20
122.043135
 30
0.0
 41
0.05
 42
0.05
 43
0.05
  0
TEXT
  5
8BB
  8
0
  6
BYBLOCK
 62
     7
 10
154.502968
 20
122.083135
 30
0.0
 40
0.08
  1
1.80
 72
     1
 11
154.602968
 21
122.123135
 31
0.0
 73
     2
  0
POINT
  5
8BC
  8
DEFPOINTS
  6
BYBLOCK
 62
     0
 10
153.702968
 20
122.376741
 30
0.0
  0
POINT
  5
8BD
  8
DEFPOINTS
  6
BYBLOCK
 62
     0
 10
155.502968
 20
122.380209
 30
0.0
  0
POINT
  5
8BE
  8
DEFPOINTS
  6
BYBLOCK
 62
     0
 10
155.502968
 20
122.043135
 30
0.0
  0
ENDBLK
  5
8C0
  8
0
  0
BLOCK
  8
0
  2
*D17
 70
     1
 10
0.0
 20
0.0
 30
0.0
  3
*D17
  1

  0
LINE
  5
8C2
  8
0
  6
BYBLOCK
 62
    71
 10
155.502968
 20
122.300209
 30
0.0
 11
155.502968
 21
121.963135
 31
0.0
  0
LINE
  5
8C3
  8
0
  6
BYBLOCK
 62
    71
 10
155.752968
 20
122.299563
 30
0.0
 11
155.752968
 21
121.963135
 31
0.0
  0
LINE
  5
8C4
  8
0
  6
BYBLOCK
 62
    71
 10
155.452968
 20
122.043135
 30
0.0
 11
155.402968
 21
122.043135
 31
0.0
  0
LINE
  5
8C5
  8
0
  6
BYBLOCK
 62
    71
 10
155.802968
 20
122.043135
 30
0.0
 11
155.852968
 21
122.043135
 31
0.0
  0
INSERT
  5
8C6
  8
0
  6
BYBLOCK
 62
    71
  2
TICK
 10
155.502968
 20
122.043135
 30
0.0
 41
0.05
 42
0.05
 43
0.05
  0
INSERT
  5
8C7
  8
0
  6
BYBLOCK
 62
    71
  2
TICK
 10
155.752968
 20
122.043135
 30
0.0
 41
0.05
 42
0.05
 43
0.05
 50
180.0
  0
TEXT
  5
8C8
  8
0
  6
BYBLOCK
 62
     7
 10
155.846548
 20
122.083135
 30
0.0
 40
0.08
  1
0.25
 72
     1
 11
155.959882
 21
122.123135
 31
0.0
 73
     2
  0
POINT
  5
8C9
  8
DEFPOINTS
  6
BYBLOCK
 62
     0
 10
155.502968
 20
122.380209
 30
0.0
  0
POINT
  5
8CA
  8
DEFPOINTS
  6
BYBLOCK
 62
     0
 10
155.752968
 20
122.379563
 30
0.0
  0
POINT
  5
8CB
  8
DEFPOINTS
  6
BYBLOCK
 62
     0
 10
155.752968
 20
122.043135
 30
0.0
  0
ENDBLK
  5
8CD
  8
0
  0
BLOCK
  8
0
  2
*D18
 70
     1
 10
0.0
 20
0.0
 30
0.0
  3
*D18
  1

  0
LINE
  5
8CF
  8
0
  6
BYBLOCK
 62
    71
 10
155.832968
 20
122.379563
 30
0.0
 11
156.231073
 21
122.379563
 31
0.0
  0
LINE
  5
8D0
  8
0
  6
BYBLOCK
 62
    71
 10
155.833831
 20
122.679563
 30
0.0
 11
156.231073
 21
122.679563
 31
0.0
  0
LINE
  5
8D1
  8
0
  6
BYBLOCK
 62
    71
 10
156.151073
 20
122.429563
 30
0.0
 11
156.151073
 21
122.629563
 31
0.0
  0
INSERT
  5
8D2
  8
0
  6
BYBLOCK
 62
    71
  2
TICK
 10
156.151073
 20
122.379563
 30
0.0
 41
0.05
 42
0.05
 43
0.05
 50
270.0
  0
INSERT
  5
8D3
  8
0
  6
BYBLOCK
 62
    71
  2
TICK
 10
156.151073
 20
122.679563
 30
0.0
 41
0.05
 42
0.05
 43
0.05
 50
90.0
  0
TEXT
  5
8D4
  8
0
  6
BYBLOCK
 62
     7
 10
156.111073
 20
122.426864
 30
0.0
 40
0.08
  1
0.30
 50
90.0
 72
     1
 11
156.071073
 21
122.53353
 31
0.0
 73
     2
  0
POINT
  5
8D5
  8
DEFPOINTS
  6
BYBLOCK
 62
     0
 10
155.752968
 20
122.379563
 30
0.0
  0
POINT
  5
8D6
  8
DEFPOINTS
  6
BYBLOCK
 62
     0
 10
155.753831
 20
122.679563
 30
0.0
  0
POINT
  5
8D7
  8
DEFPOINTS
  6
BYBLOCK
 62
     0
 10
156.151073
 20
122.679563
 30
0.0
  0
ENDBLK
  5
8D9
  8
0
  0
BLOCK
  8
0
  2
*D19
 70
     1
 10
0.0
 20
0.0
 30
0.0
  3
*D19
  1

  0
LINE
  5
8DB
  8
0
  6
BYBLOCK
 62
    71
 10
155.833831
 20
122.679563
 30
0.0
 11
156.231073
 21
122.679563
 31
0.0
  0
LINE
  5
8DC
  8
0
  6
BYBLOCK
 62
    71
 10
155.833831
 20
123.579563
 30
0.0
 11
156.231073
 21
123.579563
 31
0.0
  0
LINE
  5
8DD
  8
0
  6
BYBLOCK
 62
    71
 10
156.151073
 20
122.729563
 30
0.0
 11
156.151073
 21
123.529563
 31
0.0
  0
INSERT
  5
8DE
  8
0
  6
BYBLOCK
 62
    71
  2
TICK
 10
156.151073
 20
122.679563
 30
0.0
 41
0.05
 42
0.05
 43
0.05
 50
270.0
  0
INSERT
  5
8DF
  8
0
  6
BYBLOCK
 62
    71
  2
TICK
 10
156.151073
 20
123.579563
 30
0.0
 41
0.05
 42
0.05
 43
0.05
 50
90.0
  0
TEXT
  5
8E0
  8
0
  6
BYBLOCK
 62
     7
 10
156.111073
 20
123.022896
 30
0.0
 40
0.08
  1
0.90
 50
90.0
 72
     1
 11
156.071073
 21
123.129563
 31
0.0
 73
     2
  0
POINT
  5
8E1
  8
DEFPOINTS
  6
BYBLOCK
 62
     0
 10
155.753831
 20
122.679563
 30
0.0
  0
POINT
  5
8E2
  8
DEFPOINTS
  6
BYBLOCK
 62
     0
 10
155.753831
 20
123.579563
 30
0.0
  0
POINT
  5
8E3
  8
DEFPOINTS
  6
BYBLOCK
 62
     0
 10
156.151073
 20
123.579563
 30
0.0
  0
ENDBLK
  5
8E5
  8
0
  0
BLOCK
  8
0
  2
*D20
 70
     1
 10
0.0
 20
0.0
 30
0.0
  3
*D20
  1

  0
LINE
  5
8E7
  8
0
  6
BYBLOCK
 62
    71
 10
155.833831
 20
123.579563
 30
0.0
 11
156.231073
 21
123.579563
 31
0.0
  0
LINE
  5
8E8
  8
0
  6
BYBLOCK
 62
    71
 10
155.398257
 20
124.479563
 30
0.0
 11
156.231073
 21
124.479563
 31
0.0
  0
LINE
  5
8E9
  8
0
  6
BYBLOCK
 62
    71
 10
156.151073
 20
123.629563
 30
0.0
 11
156.151073
 21
124.429563
 31
0.0
  0
INSERT
  5
8EA
  8
0
  6
BYBLOCK
 62
    71
  2
TICK
 10
156.151073
 20
123.579563
 30
0.0
 41
0.05
 42
0.05
 43
0.05
 50
270.0
  0
INSERT
  5
8EB
  8
0
  6
BYBLOCK
 62
    71
  2
TICK
 10
156.151073
 20
124.479563
 30
0.0
 41
0.05
 42
0.05
 43
0.05
 50
90.0
  0
TEXT
  5
8EC
  8
0
  6
BYBLOCK
 62
     7
 10
156.111073
 20
123.922896
 30
0.0
 40
0.08
  1
0.90
 50
90.0
 72
     1
 11
156.071073
 21
124.029563
 31
0.0
 73
     2
  0
POINT
  5
8ED
  8
DEFPOINTS
  6
BYBLOCK
 62
     0
 10
155.753831
 20
123.579563
 30
0.0
  0
POINT
  5
8EE
  8
DEFPOINTS
  6
BYBLOCK
 62
     0
 10
155.318257
 20
124.479563
 30
0.0
  0
POINT
  5
8EF
  8
DEFPOINTS
  6
BYBLOCK
 62
     0
 10
156.151073
 20
124.479563
 30
0.0
  0
ENDBLK
  5
8F1
  8
0
  0
BLOCK
  8
0
  2
*D21
 70
     1
 10
0.0
 20
0.0
 30
0.0
  3
*D21
  1

  0
LINE
  5
8F3
  8
0
  6
BYBLOCK
 62
    71
 10
155.398257
 20
124.479563
 30
0.0
 11
156.231073
 21
124.479563
 31
0.0
  0
LINE
  5
8F4
  8
0
  6
BYBLOCK
 62
    71
 10
154.851857
 20
124.729563
 30
0.0
 11
156.231073
 21
124.729563
 31
0.0
  0
LINE
  5
8F5
  8
0
  6
BYBLOCK
 62
    71
 10
156.151073
 20
124.429563
 30
0.0
 11
156.151073
 21
124.379563
 31
0.0
  0
LINE
  5
8F6
  8
0
  6
BYBLOCK
 62
    71
 10
156.151073
 20
124.779563
 30
0.0
 11
156.151073
 21
124.829563
 31
0.0
  0
INSERT
  5
8F7
  8
0
  6
BYBLOCK
 62
    71
  2
TICK
 10
156.151073
 20
124.479563
 30
0.0
 41
0.05
 42
0.05
 43
0.05
 50
90.0
  0
INSERT
  5
8F8
  8
0
  6
BYBLOCK
 62
    71
  2
TICK
 10
156.151073
 20
124.729563
 30
0.0
 41
0.05
 42
0.05
 43
0.05
 50
270.0
  0
TEXT
  5
8F9
  8
0
  6
BYBLOCK
 62
     7
 10
156.111073
 20
124.831595
 30
0.0
 40
0.08
  1
0.25
 50
90.0
 72
     1
 11
156.071073
 21
124.944928
 31
0.0
 73
     2
  0
POINT
  5
8FA
  8
DEFPOINTS
  6
BYBLOCK
 62
     0
 10
155.318257
 20
124.479563
 30
0.0
  0
POINT
  5
8FB
  8
DEFPOINTS
  6
BYBLOCK
 62
     0
 10
154.771857
 20
124.729563
 30
0.0
  0
POINT
  5
8FC
  8
DEFPOINTS
  6
BYBLOCK
 62
     0
 10
156.151073
 20
124.729563
 30
0.0
  0
ENDBLK
  5
8FE
  8
0
  0
BLOCK
  8
0
  2
*D22
 70
     1
 10
0.0
 20
0.0
 30
0.0
  3
*D22
  1

  0
LINE
  5
900
  8
0
  6
BYBLOCK
 62
    71
 10
154.399015
 20
124.404732
 30
0.0
 11
154.50153
 21
123.989971
 31
0.0
  0
LINE
  5
901
  8
0
  6
BYBLOCK
 62
    71
 10
154.50153
 20
123.989971
 30
0.0
 11
154.597507
 21
123.601656
 31
0.0
  0
INSERT
  5
902
  8
0
  6
BYBLOCK
 62
    71
  2
TICK
 10
154.387018
 20
124.453271
 30
0.0
 41
0.05
 42
0.05
 43
0.05
 50
103.883238
  0
TEXT
  5
903
  8
0
  6
BYBLOCK
 62
     7
 10
154.562756
 20
123.908962
 30
0.0
 40
0.08
  1
R0.90
 50
283.883238
 72
     1
 11
154.636779
 21
123.776177
 31
0.0
 73
     2
  0
POINT
  5
904
  8
DEFPOINTS
  6
BYBLOCK
 62
     0
 10
154.387018
 20
124.453271
 30
0.0
  0
POINT
  5
905
  8
DEFPOINTS
  6
BYBLOCK
 62
     0
 10
154.602968
 20
123.579563
 30
0.0
  0
ENDBLK
  5
907
  8
0
  0
BLOCK
  8
0
  2
VILADOMAT
 70
     0
 10
0.0
 20
0.0
 30
0.0
  3
VILADOMAT
  1

  0
DIMENSION
  5
90C
  8
COTES
  2
*D9
 10
-5.873182
 20
3.756356
 30
0.0
 11
-5.729876
 21
3.648369
 31
0.0
 12
-150.766336
 22
-121.491862
 32
0.0
 70
   128
  3
STANDARD
 13
-6.961681
 23
3.506356
 33
0.0
 14
-7.454083
 24
3.756356
 34
0.0
 50
90.0
  0
DIMENSION
  5
90D
  8
COTES
  2
*D8
 10
-5.873182
 20
3.506356
 30
0.0
 11
-5.953182
 21
3.008237
 31
0.0
 12
-150.766336
 22
-121.491862
 32
0.0
  3
STANDARD
 13
-6.461314
 23
2.510118
 33
0.0
 14
-6.874814
 24
3.506356
 34
0.0
 50
90.0
  0
DIMENSION
  5
90E
  8
COTES
  2
*D7
 10
-5.873182
 20
2.510118
 30
0.0
 11
-5.953182
 21
1.708237
 31
0.0
 12
-150.766336
 22
-121.491862
 32
0.0
  3
STANDARD
 13
-6.461314
 23
0.906356
 33
0.0
 14
-6.459187
 24
2.510118
 34
0.0
 50
90.0
  0
DIMENSION
  5
90F
  8
COTES
  2
*D6
 10
-5.873182
 20
0.906356
 30
0.0
 11
-5.723056
 21
0.765255
 31
0.0
 12
-150.766336
 22
-121.491862
 32
0.0
 70
   128
  3
STANDARD
 13
-6.459881
 23
0.606356
 33
0.0
 14
-6.461314
 24
0.906356
 34
0.0
 50
90.0
  0
DIMENSION
  5
910
  8
COTES
  2
*D5
 10
-6.459881
 20
0.243823
 30
0.0
 11
-6.568968
 21
0.06322
 31
0.0
 12
-150.766336
 22
-121.491862
 32
0.0
 70
   128
  3
STANDARD
 13
-6.709881
 23
0.607079
 33
0.0
 14
-6.459881
 24
0.606356
 34
0.0
  0
ARC
  5
911
  8
SECCIO
 10
-7.709881
 20
2.506356
 30
0.0
 40
1.25
 50
0.0
 51
180.0
  0
ARC
  5
912
  8
SECCIO
 10
-7.709881
 20
2.506356
 30
0.0
 40
1.0
 50
0.0
 51
180.0
  0
LINE
  5
913
  8
SECCIO
 10
-6.459881
 20
0.606356
 30
0.0
 11
-6.459881
 21
2.506356
 31
0.0
  0
LINE
  5
914
  8
SECCIO
 10
-8.709881
 20
2.506356
 30
0.0
 11
-8.709881
 21
1.206356
 31
0.0
  0
LINE
  5
915
  8
SECCIO
 10
-6.709881
 20
0.906356
 30
0.0
 11
-6.709881
 21
2.506356
 31
0.0
  0
LINE
  5
916
  8
SECCIO
 10
-8.959881
 20
2.506356
 30
0.0
 11
-8.959881
 21
0.606356
 31
0.0
  0
LINE
  5
917
  8
SECCIO
 10
-8.959881
 20
0.606356
 30
0.0
 11
-6.459881
 21
0.606356
 31
0.0
  0
DIMENSION
  5
918
  8
COTES
  2
*D11
 10
-6.709881
 20
0.243823
 30
0.0
 11
-7.680661
 21
0.240433
 31
0.0
 12
-150.766336
 22
-121.491862
 32
0.0
 70
   128
  3
STANDARD
 13
-8.709881
 23
0.60456
 33
0.0
 14
-6.709881
 24
0.607079
 34
0.0
  0
DIMENSION
  5
919
  8
COTES
  2
*D10
 10
-7.489777
 20
1.206356
 30
0.0
 11
-7.587663
 21
1.061654
 31
0.0
 12
-150.766336
 22
-121.491862
 32
0.0
 70
   128
  3
STANDARD
 13
-7.709881
 23
0.906356
 33
0.0
 14
-7.709881
 24
1.206356
 34
0.0
 50
90.0
  0
DIMENSION
  5
91A
  8
COTES
  2
*D4
 10
-8.709881
 20
0.242889
 30
0.0
 11
-8.840095
 21
0.06322
 31
0.0
 12
-150.766336
 22
-121.491862
 32
0.0
 70
   128
  3
STANDARD
 13
-8.959881
 23
0.606356
 33
0.0
 14
-8.709881
 24
0.60456
 34
0.0
  0
DIMENSION
  5
91B
  8
COTES
  2
*D3
 10
-7.709881
 20
2.506356
 30
0.0
 11
-7.789881
 21
2.781234
 31
0.0
 12
-150.766336
 22
-121.491862
 32
0.0
 70
     4
  3
STANDARD
 15
-7.709881
 25
3.506356
 35
0.0
 40
-0.485122
  0
DIMENSION
  5
91C
  8
COTES
  2
*D2
 10
-6.709881
 20
1.430369
 30
0.0
 11
-7.209881
 21
1.510369
 31
0.0
 12
-150.766336
 22
-121.491862
 32
0.0
  3
STANDARD
 13
-7.709881
 23
1.206356
 33
0.0
 14
-6.709881
 24
0.906356
 34
0.0
  0
DIMENSION
  5
91D
  8
COTES
  2
*D1
 10
-7.709881
 20
1.430369
 30
0.0
 11
-8.209881
 21
1.510369
 31
0.0
 12
-150.766336
 22
-121.491862
 32
0.0
  3
STANDARD
 13
-8.709881
 23
1.206356
 33
0.0
 14
-7.709881
 24
1.206356
 34
0.0
  0
LINE
  5
91E
  8
SECCIO
 10
-7.709881
 20
0.906356
 30
0.0
 11
-6.709881
 21
0.906356
 31
0.0
  0
LINE
  5
91F
  8
SECCIO
 10
-7.709881
 20
1.206356
 30
0.0
 11
-8.709881
 21
1.206356
 31
0.0
  0
LINE
  5
920
  8
SECCIO
 10
-7.709881
 20
0.906356
 30
0.0
 11
-7.709881
 21
1.206356
 31
0.0
  0
DIMENSION
  5
921
  8
COTES
  2
*D22
 10
-3.301087
 20
2.087702
 30
0.0
 11
-3.267276
 21
2.284316
 31
0.0
 12
-157.904055
 22
-121.491862
 32
0.0
 70
     4
  3
STANDARD
 15
-3.517037
 25
2.96141
 35
0.0
 40
-0.477242
  0
DIMENSION
  5
922
  8
COTES
  2
*D21
 10
-1.752982
 20
3.237702
 30
0.0
 11
-1.832982
 21
3.453066
 31
0.0
 12
-157.904055
 22
-121.491862
 32
0.0
 70
   128
  3
STANDARD
 13
-2.585798
 23
2.987702
 33
0.0
 14
-3.132198
 24
3.237702
 34
0.0
 50
90.0
  0
DIMENSION
  5
923
  8
COTES
  2
*D20
 10
-1.752982
 20
2.987702
 30
0.0
 11
-1.832982
 21
2.537702
 31
0.0
 12
-157.904055
 22
-121.491862
 32
0.0
  3
STANDARD
 13
-2.150224
 23
2.087702
 33
0.0
 14
-2.585798
 24
2.987702
 34
0.0
 50
90.0
  0
DIMENSION
  5
924
  8
COTES
  2
*D19
 10
-1.752982
 20
2.087702
 30
0.0
 11
-1.832982
 21
1.637702
 31
0.0
 12
-157.904055
 22
-121.491862
 32
0.0
  3
STANDARD
 13
-2.150224
 23
1.187702
 33
0.0
 14
-2.150224
 24
2.087702
 34
0.0
 50
90.0
  0
DIMENSION
  5
925
  8
COTES
  2
*D18
 10
-1.752982
 20
1.187702
 30
0.0
 11
-1.832982
 21
1.041669
 31
0.0
 12
-157.904055
 22
-121.491862
 32
0.0
 70
   128
  3
STANDARD
 13
-2.151087
 23
0.887702
 33
0.0
 14
-2.150224
 24
1.187702
 34
0.0
 50
90.0
  0
DIMENSION
  5
926
  8
COTES
  2
*D17
 10
-2.151087
 20
0.551273
 30
0.0
 11
-1.944173
 21
0.631273
 31
0.0
 12
-157.904055
 22
-121.491862
 32
0.0
 70
   128
  3
STANDARD
 13
-2.401087
 23
0.888348
 33
0.0
 14
-2.151087
 24
0.887702
 34
0.0
  0
DIMENSION
  5
927
  8
COTES
  2
*D16
 10
-2.401087
 20
0.551273
 30
0.0
 11
-3.301087
 21
0.631273
 31
0.0
 12
-157.904055
 22
-121.491862
 32
0.0
  3
STANDARD
 13
-4.201087
 23
0.88488
 33
0.0
 14
-2.401087
 24
0.888348
 34
0.0
  0
DIMENSION
  5
928
  8
COTES
  2
*D15
 10
-4.201087
 20
0.551273
 30
0.0
 11
-4.642955
 21
0.631273
 31
0.0
 12
-157.904055
 22
-121.491862
 32
0.0
 70
   128
  3
STANDARD
 13
-4.451087
 23
0.887702
 33
0.0
 14
-4.201087
 24
0.88488
 34
0.0
  0
DIMENSION
  5
929
  8
COTES
  2
*D14
 10
-2.904206
 20
1.487702
 30
0.0
 11
-2.984206
 21
1.346714
 31
0.0
 12
-157.904055
 22
-121.491862
 32
0.0
 70
   128
  3
STANDARD
 13
-3.201087
 23
1.187702
 33
0.0
 14
-3.201087
 24
1.487702
 34
0.0
 50
90.0
  0
DIMENSION
  5
92A
  8
COTES
  2
*D13
 10
-2.401087
 20
1.756918
 30
0.0
 11
-2.801087
 21
1.836918
 31
0.0
 12
-157.904055
 22
-121.491862
 32
0.0
  3
STANDARD
 13
-3.201087
 23
1.487702
 33
0.0
 14
-2.401087
 24
1.187702
 34
0.0
  0
DIMENSION
  5
92B
  8
COTES
  2
*D12
 10
-3.201087
 20
1.756918
 30
0.0
 11
-3.701087
 21
1.836918
 31
0.0
 12
-157.904055
 22
-121.491862
 32
0.0
  3
STANDARD
 13
-4.201087
 23
1.487702
 33
0.0
 14
-3.201087
 24
1.487702
 34
0.0
  0
LINE
  5
92C
  8
SECCIO
 10
-3.201087
 20
1.187702
 30
0.0
 11
-3.201087
 21
1.487702
 31
0.0
  0
LINE
  5
92D
  8
SECCIO
 10
-4.201087
 20
1.487702
 30
0.0
 11
-3.201087
 21
1.487702
 31
0.0
  0
LINE
  5
92E
  8
SECCIO
 10
-4.451087
 20
0.887702
 30
0.0
 11
-4.451087
 21
2.087702
 31
0.0
  0
ARC
  5
92F
  8
SECCIO
 10
-3.301087
 20
2.087702
 30
0.0
 40
1.15
 50
0.0
 51
180.0
  0
LINE
  5
930
  8
SECCIO
 10
-2.151087
 20
0.887702
 30
0.0
 11
-2.151087
 21
2.087702
 31
0.0
  0
LINE
  5
931
  8
SECCIO
 10
-3.201087
 20
1.187702
 30
0.0
 11
-2.401087
 21
1.187702
 31
0.0
  0
ARC
  5
932
  8
SECCIO
 10
-3.301087
 20
2.087702
 30
0.0
 40
0.9
 50
0.0
 51
180.0
  0
LINE
  5
933
  8
SECCIO
 10
-4.201087
 20
1.487702
 30
0.0
 11
-4.201087
 21
2.087702
 31
0.0
  0
LINE
  5
934
  8
SECCIO
 10
-2.401087
 20
1.187702
 30
0.0
 11
-2.401087
 21
2.087702
 31
0.0
  0
LINE
  5
935
  8
SECCIO
 10
-4.451087
 20
0.887702
 30
0.0
 11
-2.151087
 21
0.887702
 31
0.0
  0
ENDBLK
  5
937
  8
0
  0
BLOCK
  8
0
  2
*D31
 70
     1
 10
0.0
 20
0.0
 30
0.0
  3
*D31
  1

  0
LINE
  5
D8A
  8
0
  6
BYBLOCK
 62
     0
 10
325.551781
 20
33.143194
 30
0.0
 11
325.551781
 21
32.731476
 31
0.0
  0
LINE
  5
D8B
  8
0
  6
BYBLOCK
 62
     0
 10
321.551781
 20
33.143194
 30
0.0
 11
321.551781
 21
32.731476
 31
0.0
  0
LINE
  5
D8C
  8
0
  6
BYBLOCK
 62
     0
 10
325.401781
 20
32.746476
 30
0.0
 11
321.701781
 21
32.746476
 31
0.0
  0
SOLID
  5
D8D
  8
0
  6
BYBLOCK
 62
     0
 10
325.401781
 20
32.771476
 30
0.0
 11
325.401781
 21
32.721476
 31
0.0
 12
325.551781
 22
32.746476
 32
0.0
 13
325.551781
 23
32.746476
 33
0.0
  0
SOLID
  5
D8E
  8
0
  6
BYBLOCK
 62
     0
 10
321.701781
 20
32.771476
 30
0.0
 11
321.701781
 21
32.721476
 31
0.0
 12
321.551781
 22
32.746476
 32
0.0
 13
321.551781
 23
32.746476
 33
0.0
  0
TEXT
  8
0
  40
0.075
  5
EEA
  62
0
  72
0
  71
0
 10
323.402
 20
32.6887
 30
0.000000
  1
4.00
  7
ROMANC
  0
POINT
  5
D90
  8
DEFPOINTS
  6
BYBLOCK
 62
     0
 10
325.551781
 20
33.158194
 30
0.0
  0
POINT
  5
D91
  8
DEFPOINTS
  6
BYBLOCK
 62
     0
 10
321.551781
 20
33.158194
 30
0.0
  0
POINT
  5
D92
  8
DEFPOINTS
  6
BYBLOCK
 62
     0
 10
321.551781
 20
32.746476
 30
0.0
  0
ENDBLK
  5
D93
  8
0
  0
BLOCK
  8
0
  2
*D32
 70
     1
 10
0.0
 20
0.0
 30
0.0
  3
*D32
  1

  0
LINE
  5
DA3
  8
0
  6
BYBLOCK
 62
     0
 10
327.301781
 20
33.643194
 30
0.0
 11
327.301781
 21
32.731476
 31
0.0
  0
LINE
  5
DA4
  8
0
  6
BYBLOCK
 62
     0
 10
325.551781
 20
33.143194
 30
0.0
 11
325.551781
 21
32.731476
 31
0.0
  0
LINE
  5
DA5
  8
0
  6
BYBLOCK
 62
     0
 10
327.151781
 20
32.746476
 30
0.0
 11
325.701781
 21
32.746476
 31
0.0
  0
SOLID
  5
DA6
  8
0
  6
BYBLOCK
 62
     0
 10
327.151781
 20
32.771476
 30
0.0
 11
327.151781
 21
32.721476
 31
0.0
 12
327.301781
 22
32.746476
 32
0.0
 13
327.301781
 23
32.746476
 33
0.0
  0
SOLID
  5
DA7
  8
0
  6
BYBLOCK
 62
     0
 10
325.701781
 20
32.771476
 30
0.0
 11
325.701781
 21
32.721476
 31
0.0
 12
325.551781
 22
32.746476
 32
0.0
 13
325.551781
 23
32.746476
 33
0.0
  0
TEXT
  8
0
  40
0.075
  5
EEB
  62
0
  72
0
  71
0
 10
326.277
 20
32.6887
 30
0.000000
  1
1.75
  7
ROMANC
  0
POINT
  5
DA9
  8
DEFPOINTS
  6
BYBLOCK
 62
     0
 10
327.301781
 20
33.658194
 30
0.0
  0
POINT
  5
DAA
  8
DEFPOINTS
  6
BYBLOCK
 62
     0
 10
325.551781
 20
33.158194
 30
0.0
  0
POINT
  5
DAB
  8
DEFPOINTS
  6
BYBLOCK
 62
     0
 10
325.551781
 20
32.746476
 30
0.0
  0
ENDBLK
  5
DAC
  8
0
  0
BLOCK
  8
0
  2
*D33
 70
     1
 10
0.0
 20
0.0
 30
0.0
  3
*D33
  1

  0
LINE
  5
DBB
  8
0
  6
BYBLOCK
 62
     0
 10
321.551781
 20
33.143194
 30
0.0
 11
321.551781
 21
32.731476
 31
0.0
  0
LINE
  5
DBC
  8
0
  6
BYBLOCK
 62
     0
 10
321.021781
 20
33.643194
 30
0.0
 11
321.021781
 21
32.731476
 31
0.0
  0
LINE
  5
DBD
  8
0
  6
BYBLOCK
 62
     0
 10
321.401781
 20
32.746476
 30
0.0
 11
321.171781
 21
32.746476
 31
0.0
  0
SOLID
  5
DBE
  8
0
  6
BYBLOCK
 62
     0
 10
321.401781
 20
32.771476
 30
0.0
 11
321.401781
 21
32.721476
 31
0.0
 12
321.551781
 22
32.746476
 32
0.0
 13
321.551781
 23
32.746476
 33
0.0
  0
SOLID
  5
DBF
  8
0
  6
BYBLOCK
 62
     0
 10
321.171781
 20
32.771476
 30
0.0
 11
321.171781
 21
32.721476
 31
0.0
 12
321.021781
 22
32.746476
 32
0.0
 13
321.021781
 23
32.746476
 33
0.0
  0
TEXT
  8
0
  40
0.075
  5
EEC
  62
0
  72
0
  71
0
 10
321.137
 20
32.6887
 30
0.000000
  1
0.53
  7
ROMANC
  0
POINT
  5
DC1
  8
DEFPOINTS
  6
BYBLOCK
 62
     0
 10
321.551781
 20
33.158194
 30
0.0
  0
POINT
  5
DC2
  8
DEFPOINTS
  6
BYBLOCK
 62
     0
 10
321.021781
 20
33.658194
 30
0.0
  0
POINT
  5
DC3
  8
DEFPOINTS
  6
BYBLOCK
 62
     0
 10
321.021781
 20
32.746476
 30
0.0
  0
ENDBLK
  5
DC4
  8
0
  0
BLOCK
  8
0
  2
*D34
 70
     1
 10
0.0
 20
0.0
 30
0.0
  3
*D34
  1

  0
LINE
  5
DC7
  8
0
  6
BYBLOCK
 62
     0
 10
321.021781
 20
33.643194
 30
0.0
 11
321.021781
 21
32.371924
 31
0.0
  0
LINE
  5
DC8
  8
0
  6
BYBLOCK
 62
     0
 10
327.301781
 20
33.643194
 30
0.0
 11
327.301781
 21
32.371924
 31
0.0
  0
LINE
  5
DC9
  8
0
  6
BYBLOCK
 62
     0
 10
321.171781
 20
32.386924
 30
0.0
 11
327.151781
 21
32.386924
 31
0.0
  0
SOLID
  5
DCA
  8
0
  6
BYBLOCK
 62
     0
 10
321.171781
 20
32.411924
 30
0.0
 11
321.171781
 21
32.361924
 31
0.0
 12
321.021781
 22
32.386924
 32
0.0
 13
321.021781
 23
32.386924
 33
0.0
  0
SOLID
  5
DCB
  8
0
  6
BYBLOCK
 62
     0
 10
327.151781
 20
32.411924
 30
0.0
 11
327.151781
 21
32.361924
 31
0.0
 12
327.301781
 22
32.386924
 32
0.0
 13
327.301781
 23
32.386924
 33
0.0
  0
TEXT
  8
0
  40
0.075
  5
EED
  62
0
  72
0
  71
0
 10
324.012
 20
32.3292
 30
0.000000
  1
6.28
  7
ROMANC
  0
POINT
  5
DCD
  8
DEFPOINTS
  6
BYBLOCK
 62
     0
 10
321.021781
 20
33.658194
 30
0.0
  0
POINT
  5
DCE
  8
DEFPOINTS
  6
BYBLOCK
 62
     0
 10
327.301781
 20
33.658194
 30
0.0
  0
POINT
  5
DCF
  8
DEFPOINTS
  6
BYBLOCK
 62
     0
 10
327.301781
 20
32.386924
 30
0.0
  0
ENDBLK
  5
DD0
  8
0
  0
BLOCK
  8
0
  2
*D35
 70
     1
 10
0.0
 20
0.0
 30
0.0
  3
*D35
  1

  0
LINE
  5
DE0
  8
0
  6
BYBLOCK
 62
     0
 10
327.316781
 20
33.658194
 30
0.0
 11
327.79144
 21
33.658194
 31
0.0
  0
LINE
  5
DE1
  8
0
  6
BYBLOCK
 62
     0
 10
325.566781
 20
33.158194
 30
0.0
 11
327.79144
 21
33.158194
 31
0.0
  0
LINE
  5
DE2
  8
0
  6
BYBLOCK
 62
     0
 10
327.77644
 20
33.508194
 30
0.0
 11
327.77644
 21
33.308194
 31
0.0
  0
SOLID
  5
DE3
  8
0
  6
BYBLOCK
 62
     0
 10
327.75144
 20
33.508194
 30
0.0
 11
327.80144
 21
33.508194
 31
0.0
 12
327.77644
 22
33.658194
 32
0.0
 13
327.77644
 23
33.658194
 33
0.0
  0
SOLID
  5
DE4
  8
0
  6
BYBLOCK
 62
     0
 10
327.75144
 20
33.308194
 30
0.0
 11
327.80144
 21
33.308194
 31
0.0
 12
327.77644
 22
33.158194
 32
0.0
 13
327.77644
 23
33.158194
 33
0.0
  0
TEXT
  8
0
  40
0.075
  5
EEE
  62
0
  72
0
  71
0
 10
327.551
 20
33.2754
 30
0.000000
  1
0.50
  7
ROMANC
  0
POINT
  5
DE6
  8
DEFPOINTS
  6
BYBLOCK
 62
     0
 10
327.301781
 20
33.658194
 30
0.0
  0
POINT
  5
DE7
  8
DEFPOINTS
  6
BYBLOCK
 62
     0
 10
325.551781
 20
33.158194
 30
0.0
  0
POINT
  5
DE8
  8
DEFPOINTS
  6
BYBLOCK
 62
     0
 10
327.77644
 20
33.158194
 30
0.0
  0
ENDBLK
  5
DE9
  8
0
  0
BLOCK
  8
0
  2
*D36
 70
     1
 10
0.0
 20
0.0
 30
0.0
  3
*D36
  1

  0
LINE
  5
E05
  8
0
  6
BYBLOCK
 62
     0
 10
324.176781
 20
36.798194
 30
0.0
 11
328.151221
 21
36.798194
 31
0.0
  0
LINE
  5
E06
  8
0
  6
BYBLOCK
 62
     0
 10
324.176781
 20
33.158194
 30
0.0
 11
328.151221
 21
33.158194
 31
0.0
  0
LINE
  5
E07
  8
0
  6
BYBLOCK
 62
     0
 10
328.136221
 20
36.648194
 30
0.0
 11
328.136221
 21
33.308194
 31
0.0
  0
SOLID
  5
E08
  8
0
  6
BYBLOCK
 62
     0
 10
328.111221
 20
36.648194
 30
0.0
 11
328.161221
 21
36.648194
 31
0.0
 12
328.136221
 22
36.798194
 32
0.0
 13
328.136221
 23
36.798194
 33
0.0
  0
SOLID
  5
E09
  8
0
  6
BYBLOCK
 62
     0
 10
328.111221
 20
33.308194
 30
0.0
 11
328.161221
 21
33.308194
 31
0.0
 12
328.136221
 22
33.158194
 32
0.0
 13
328.136221
 23
33.158194
 33
0.0
  0
TEXT
  8
0
  40
0.075
  5
EEF
  62
0
  72
0
  71
0
 10
327.911
 20
34.8454
 30
0.000000
  1
3.64
  7
ROMANC
  0
POINT
  5
E0B
  8
DEFPOINTS
  6
BYBLOCK
 62
     0
 10
324.161781
 20
36.798194
 30
0.0
  0
POINT
  5
E0C
  8
DEFPOINTS
  6
BYBLOCK
 62
     0
 10
324.161781
 20
33.158194
 30
0.0
  0
POINT
  5
E0D
  8
DEFPOINTS
  6
BYBLOCK
 62
     0
 10
328.136221
 20
33.158194
 30
0.0
  0
ENDBLK
  5
E0E
  8
0
  0
BLOCK
  8
0
  2
*D37
 70
     1
 10
0.0
 20
0.0
 30
0.0
  3
*D37
  1

  0
LINE
  5
DF9
  8
0
  6
BYBLOCK
 62
     0
 10
324.176781
 20
36.798194
 30
0.0
 11
327.79144
 21
36.798194
 31
0.0
  0
LINE
  5
DFA
  8
0
  6
BYBLOCK
 62
     0
 10
327.316781
 20
33.658194
 30
0.0
 11
327.79144
 21
33.658194
 31
0.0
  0
LINE
  5
DFB
  8
0
  6
BYBLOCK
 62
     0
 10
327.77644
 20
36.648194
 30
0.0
 11
327.77644
 21
33.808194
 31
0.0
  0
SOLID
  5
DFC
  8
0
  6
BYBLOCK
 62
     0
 10
327.75144
 20
36.648194
 30
0.0
 11
327.80144
 21
36.648194
 31
0.0
 12
327.77644
 22
36.798194
 32
0.0
 13
327.77644
 23
36.798194
 33
0.0
  0
SOLID
  5
DFD
  8
0
  6
BYBLOCK
 62
     0
 10
327.75144
 20
33.808194
 30
0.0
 11
327.80144
 21
33.808194
 31
0.0
 12
327.77644
 22
33.658194
 32
0.0
 13
327.77644
 23
33.658194
 33
0.0
  0
TEXT
  8
0
  40
0.075
  5
EF0
  62
0
  72
0
  71
0
 10
327.551
 20
35.0954
 30
0.000000
  1
3.14
  7
ROMANC
  0
POINT
  5
DFF
  8
DEFPOINTS
  6
BYBLOCK
 62
     0
 10
324.161781
 20
36.798194
 30
0.0
  0
POINT
  5
E00
  8
DEFPOINTS
  6
BYBLOCK
 62
     0
 10
327.301781
 20
33.658194
 30
0.0
  0
POINT
  5
E01
  8
DEFPOINTS
  6
BYBLOCK
 62
     0
 10
327.77644
 20
33.658194
 30
0.0
  0
ENDBLK
  5
E02
  8
0
  0
BLOCK
  8
0
  2
*D38
 70
     1
 10
0.0
 20
0.0
 30
0.0
  3
*D38
  1

  0
LINE
  5
E43
  8
0
  6
BYBLOCK
 62
     0
 10
323.857321
 20
35.810392
 30
0.0
 11
325.184381
 21
35.810392
 31
0.0
  0
LINE
  5
E44
  8
0
  6
BYBLOCK
 62
     0
 10
323.857321
 20
33.510392
 30
0.0
 11
325.184381
 21
33.510392
 31
0.0
  0
LINE
  5
E45
  8
0
  6
BYBLOCK
 62
     0
 10
325.169381
 20
35.660392
 30
0.0
 11
325.169381
 21
33.660392
 31
0.0
  0
SOLID
  5
E46
  8
0
  6
BYBLOCK
 62
     0
 10
325.144381
 20
35.660392
 30
0.0
 11
325.194381
 21
35.660392
 31
0.0
 12
325.169381
 22
35.810392
 32
0.0
 13
325.169381
 23
35.810392
 33
0.0
  0
SOLID
  5
E47
  8
0
  6
BYBLOCK
 62
     0
 10
325.144381
 20
33.660392
 30
0.0
 11
325.194381
 21
33.660392
 31
0.0
 12
325.169381
 22
33.510392
 32
0.0
 13
325.169381
 23
33.510392
 33
0.0
  0
TEXT
  8
0
  40
0.075
  5
EF1
  62
0
  72
0
  71
0
 10
324.944
 20
34.5276
 30
0.000000
  1
2.30
  7
ROMANC
  0
POINT
  5
E49
  8
DEFPOINTS
  6
BYBLOCK
 62
     0
 10
323.842321
 20
35.810392
 30
0.0
  0
POINT
  5
E4A
  8
DEFPOINTS
  6
BYBLOCK
 62
     0
 10
323.842321
 20
33.510392
 30
0.0
  0
POINT
  5
E4B
  8
DEFPOINTS
  6
BYBLOCK
 62
     0
 10
325.169381
 20
33.510392
 30
0.0
  0
ENDBLK
  5
E4C
  8
0
  0
BLOCK
  8
0
  2
*D39
 70
     1
 10
0.0
 20
0.0
 30
0.0
  3
*D39
  1

  0
LINE
  5
E37
  8
0
  6
BYBLOCK
 62
     0
 10
324.582321
 20
34.910392
 30
0.0
 11
324.892731
 21
34.910392
 31
0.0
  0
LINE
  5
E38
  8
0
  6
BYBLOCK
 62
     0
 10
324.582321
 20
33.710392
 30
0.0
 11
324.892731
 21
33.710392
 31
0.0
  0
LINE
  5
E39
  8
0
  6
BYBLOCK
 62
     0
 10
324.877731
 20
34.760392
 30
0.0
 11
324.877731
 21
33.860392
 31
0.0
  0
SOLID
  5
E3A
  8
0
  6
BYBLOCK
 62
     0
 10
324.852731
 20
34.760392
 30
0.0
 11
324.902731
 21
34.760392
 31
0.0
 12
324.877731
 22
34.910392
 32
0.0
 13
324.877731
 23
34.910392
 33
0.0
  0
SOLID
  5
E3B
  8
0
  6
BYBLOCK
 62
     0
 10
324.852731
 20
33.860392
 30
0.0
 11
324.902731
 21
33.860392
 31
0.0
 12
324.877731
 22
33.710392
 32
0.0
 13
324.877731
 23
33.710392
 33
0.0
  0
TEXT
  8
0
  40
0.075
  5
EF2
  62
0
  72
0
  71
0
 10
324.653
 20
34.1776
 30
0.000000
  1
1.20
  7
ROMANC
  0
POINT
  5
E3D
  8
DEFPOINTS
  6
BYBLOCK
 62
     0
 10
324.567321
 20
34.910392
 30
0.0
  0
POINT
  5
E3E
  8
DEFPOINTS
  6
BYBLOCK
 62
     0
 10
324.567321
 20
33.710392
 30
0.0
  0
POINT
  5
E3F
  8
DEFPOINTS
  6
BYBLOCK
 62
     0
 10
324.877731
 20
33.710392
 30
0.0
  0
ENDBLK
  5
E40
  8
0
  0
BLOCK
  8
0
  2
*D40
 70
     1
 10
0.0
 20
0.0
 30
0.0
  3
*D40
  1

  0
LINE
  5
E5D
  8
0
  6
BYBLOCK
 62
     0
 10
324.582321
 20
33.710392
 30
0.0
 11
324.892731
 21
33.710392
 31
0.0
  0
LINE
  5
E5E
  8
0
  6
BYBLOCK
 62
     0
 10
323.857321
 20
33.510392
 30
0.0
 11
324.892731
 21
33.510392
 31
0.0
  0
LINE
  5
E5F
  8
0
  6
BYBLOCK
 62
     0
 10
324.877731
 20
33.860392
 30
0.0
 11
324.877731
 21
34.010392
 31
0.0
  0
LINE
  5
E60
  8
0
  6
BYBLOCK
 62
     0
 10
324.877731
 20
33.360392
 30
0.0
 11
324.877731
 21
33.210392
 31
0.0
  0
LINE
  5
E61
  8
0
  6
BYBLOCK
 62
     0
 10
324.877731
 20
33.710392
 30
0.0
 11
324.877731
 21
33.510392
 31
0.0
  0
SOLID
  5
E62
  8
0
  6
BYBLOCK
 62
     0
 10
324.852731
 20
33.860392
 30
0.0
 11
324.902731
 21
33.860392
 31
0.0
 12
324.877731
 22
33.710392
 32
0.0
 13
324.877731
 23
33.710392
 33
0.0
  0
SOLID
  5
E63
  8
0
  6
BYBLOCK
 62
     0
 10
324.852731
 20
33.360392
 30
0.0
 11
324.902731
 21
33.360392
 31
0.0
 12
324.877731
 22
33.510392
 32
0.0
 13
324.877731
 23
33.510392
 33
0.0
  0
TEXT
  8
0
  40
0.075
  5
EF3
  62
0
  72
0
  71
0
 10
324.653
 20
33.4776
 30
0.000000
  1
0.20
  7
ROMANC
  0
POINT
  5
E65
  8
DEFPOINTS
  6
BYBLOCK
 62
     0
 10
324.567321
 20
33.710392
 30
0.0
  0
POINT
  5
E66
  8
DEFPOINTS
  6
BYBLOCK
 62
     0
 10
323.842321
 20
33.510392
 30
0.0
  0
POINT
  5
E67
  8
DEFPOINTS
  6
BYBLOCK
 62
     0
 10
324.877731
 20
33.510392
 30
0.0
  0
ENDBLK
  5
E68
  8
0
  0
BLOCK
  8
0
  2
*D41
 70
     1
 10
0.0
 20
0.0
 30
0.0
  3
*D41
  1

  0
LINE
  5
E6B
  8
0
  6
BYBLOCK
 62
     0
 10
323.267321
 20
34.910392
 30
0.0
 11
324.417321
 21
34.910392
 31
0.0
  0
SOLID
  5
E6C
  8
0
  6
BYBLOCK
 62
     0
 10
323.267321
 20
34.935392
 30
0.0
 11
323.267321
 21
34.885392
 31
0.0
 12
323.117321
 22
34.910392
 32
0.0
 13
323.117321
 23
34.910392
 33
0.0
  0
SOLID
  5
E6D
  8
0
  6
BYBLOCK
 62
     0
 10
324.417321
 20
34.935392
 30
0.0
 11
324.417321
 21
34.885392
 31
0.0
 12
324.567321
 22
34.910392
 32
0.0
 13
324.567321
 23
34.910392
 33
0.0
  0
TEXT
  8
0
  40
0.075
  5
EF4
  62
0
  72
0
  71
0
 10
323.692
 20
34.8526
 30
0.000000
  1
1.45
  7
ROMANC
  0
POINT
  5
E6F
  8
DEFPOINTS
  6
BYBLOCK
 62
     0
 10
323.117321
 20
34.910392
 30
0.0
  0
POINT
  5
E70
  8
DEFPOINTS
  6
BYBLOCK
 62
     0
 10
324.567321
 20
34.910392
 30
0.0
  0
POINT
  5
E71
  8
DEFPOINTS
  6
BYBLOCK
 62
     0
 10
324.567321
 20
34.910392
 30
0.0
  0
ENDBLK
  5
E72
  8
0
  0
BLOCK
  8
0
  2
*D42
 70
     1
 10
0.0
 20
0.0
 30
0.0
  3
*D42
  1

  0
LINE
  5
E77
  8
0
  6
BYBLOCK
 62
     0
 10
324.582321
 20
33.710392
 30
0.0
 11
324.892731
 21
33.710392
 31
0.0
  0
LINE
  5
E78
  8
0
  6
BYBLOCK
 62
     0
 10
324.582321
 20
35.085392
 30
0.0
 11
324.892731
 21
35.085392
 31
0.0
  0
LINE
  5
E79
  8
0
  6
BYBLOCK
 62
     0
 10
324.877731
 20
33.860392
 30
0.0
 11
324.877731
 21
34.935392
 31
0.0
  0
SOLID
  5
E7A
  8
0
  6
BYBLOCK
 62
     0
 10
324.852731
 20
33.860392
 30
0.0
 11
324.902731
 21
33.860392
 31
0.0
 12
324.877731
 22
33.710392
 32
0.0
 13
324.877731
 23
33.710392
 33
0.0
  0
SOLID
  5
E7B
  8
0
  6
BYBLOCK
 62
     0
 10
324.852731
 20
34.935392
 30
0.0
 11
324.902731
 21
34.935392
 31
0.0
 12
324.877731
 22
35.085392
 32
0.0
 13
324.877731
 23
35.085392
 33
0.0
  0
TEXT
  8
0
  40
0.075
  5
EF5
  62
0
  72
0
  71
0
 10
324.653
 20
34.2651
 30
0.000000
  1
1.38
  7
ROMANC
  0
POINT
  5
E7D
  8
DEFPOINTS
  6
BYBLOCK
 62
     0
 10
324.567321
 20
33.710392
 30
0.0
  0
POINT
  5
E7E
  8
DEFPOINTS
  6
BYBLOCK
 62
     0
 10
324.567321
 20
35.085392
 30
0.0
  0
POINT
  5
E7F
  8
DEFPOINTS
  6
BYBLOCK
 62
     0
 10
324.877731
 20
35.085392
 30
0.0
  0
ENDBLK
  5
E80
  8
0
  0
BLOCK
  8
0
  2
*D43
 70
     1
 10
0.0
 20
0.0
 30
0.0
  3
*D43
  1

  0
LINE
  5
E84
  8
0
  6
BYBLOCK
 62
     0
 10
323.642321
 20
33.695392
 30
0.0
 11
323.642321
 21
33.298107
 31
0.0
  0
LINE
  5
E85
  8
0
  6
BYBLOCK
 62
     0
 10
324.042321
 20
33.695392
 30
0.0
 11
324.042321
 21
33.298107
 31
0.0
  0
LINE
  5
E86
  8
0
  6
BYBLOCK
 62
     0
 10
323.792321
 20
33.313107
 30
0.0
 11
323.892321
 21
33.313107
 31
0.0
  0
SOLID
  5
E87
  8
0
  6
BYBLOCK
 62
     0
 10
323.792321
 20
33.338107
 30
0.0
 11
323.792321
 21
33.288107
 31
0.0
 12
323.642321
 22
33.313107
 32
0.0
 13
323.642321
 23
33.313107
 33
0.0
  0
SOLID
  5
E88
  8
0
  6
BYBLOCK
 62
     0
 10
323.892321
 20
33.338107
 30
0.0
 11
323.892321
 21
33.288107
 31
0.0
 12
324.042321
 22
33.313107
 32
0.0
 13
324.042321
 23
33.313107
 33
0.0
  0
TEXT
  8
0
  40
0.075
  5
EF6
  62
0
  72
0
  71
0
 10
323.692
 20
33.2554
 30
0.000000
  1
0.40
  7
ROMANC
  0
POINT
  5
E8A
  8
DEFPOINTS
  6
BYBLOCK
 62
     0
 10
323.642321
 20
33.710392
 30
0.0
  0
POINT
  5
E8B
  8
DEFPOINTS
  6
BYBLOCK
 62
     0
 10
324.042321
 20
33.710392
 30
0.0
  0
POINT
  5
E8C
  8
DEFPOINTS
  6
BYBLOCK
 62
     0
 10
324.042321
 20
33.313107
 30
0.0
  0
ENDBLK
  5
E8D
  8
0
  0
BLOCK
  8
0
  2
*D44
 70
     1
 10
0.0
 20
0.0
 30
0.0
  3
*D44
  1

  0
LINE
  5
E91
  8
0
  6
BYBLOCK
 62
     0
 10
323.117321
 20
33.695392
 30
0.0
 11
323.117321
 21
33.057649
 31
0.0
  0
LINE
  5
E92
  8
0
  6
BYBLOCK
 62
     0
 10
324.567321
 20
33.695392
 30
0.0
 11
324.567321
 21
33.057649
 31
0.0
  0
LINE
  5
E93
  8
0
  6
BYBLOCK
 62
     0
 10
323.267321
 20
33.072649
 30
0.0
 11
324.417321
 21
33.072649
 31
0.0
  0
SOLID
  5
E94
  8
0
  6
BYBLOCK
 62
     0
 10
323.267321
 20
33.097649
 30
0.0
 11
323.267321
 21
33.047649
 31
0.0
 12
323.117321
 22
33.072649
 32
0.0
 13
323.117321
 23
33.072649
 33
0.0
  0
SOLID
  5
E95
  8
0
  6
BYBLOCK
 62
     0
 10
324.417321
 20
33.097649
 30
0.0
 11
324.417321
 21
33.047649
 31
0.0
 12
324.567321
 22
33.072649
 32
0.0
 13
324.567321
 23
33.072649
 33
0.0
  0
TEXT
  8
0
  40
0.075
  5
EF7
  62
0
  72
0
  71
0
 10
323.692
 20
33.0149
 30
0.000000
  1
1.45
  7
ROMANC
  0
POINT
  5
E97
  8
DEFPOINTS
  6
BYBLOCK
 62
     0
 10
323.117321
 20
33.710392
 30
0.0
  0
POINT
  5
E98
  8
DEFPOINTS
  6
BYBLOCK
 62
     0
 10
324.567321
 20
33.710392
 30
0.0
  0
POINT
  5
E99
  8
DEFPOINTS
  6
BYBLOCK
 62
     0
 10
324.567321
 20
33.072649
 30
0.0
  0
ENDBLK
  5
E9A
  8
0
  0
ENDSEC
  0
SECTION
  2
ENTITIES
  0
LINE
  5
27
  8
0
 10
329.348696
 20
29.863623
 30
0.0
 11
329.348696
 21
44.713623
 31
0.0
  0
LINE
  5
28
  8
0
 10
318.848696
 20
44.713623
 30
0.0
 11
318.848696
 21
29.863623
 31
0.0
  0
LINE
  5
29
  8
0
 10
318.848696
 20
29.863623
 30
0.0
 11
329.348696
 21
29.863623
 31
0.0
  0
TEXT
  5
2A
  8
0
 10
321.773149
 20
42.309482
 30
0.0
 40
0.3
  1
TIPUS   NT288B
  7
ROMANC
  0
TEXT
  5
2D
  8
0
 10
321.735227
 20
40.527599
 30
0.0
 40
0.3
  1
P = 67,1 dm
  7
ROMANC
  0
TEXT
  5
2E
  8
0
 10
321.786243
 20
41.225178
 30
0.0
 40
0.3
  1
S = 288 dm
  7
ROMANC
  0
TEXT
  5
2F
  8
0
 10
321.773149
 20
41.823768
 30
0.0
 40
0.3
  1
ESCALA  1:50
  7
ROMANC
  0
TEXT
  5
30
  8
0
 10
324.963001
 20
41.531094
 30
0.0
 40
0.1
  1
2
  7
ROMANC
  0
LINE
  5
31
  8
0
 10
329.348696
 20
44.713623
 30
0.0
 11
318.848696
 21
44.713623
 31
0.0
  0
LINE
  5
EA1
  8
0
 10
324.173762
 20
33.696392
 30
0.0
 11
324.173762
 21
35.085392
 31
0.0
  0
ARC
  5
EA2
  8
0
 10
323.434762
 20
35.085392
 30
0.0
 40
0.739
 50
0.0
 51
180.0
  0
LINE
  5
EA3
  8
0
 10
322.695762
 20
35.085392
 30
0.0
 11
322.695762
 21
33.696392
 31
0.0
  0
LINE
  5
EA4
  8
0
 10
322.695762
 20
33.696392
 30
0.0
 11
323.221221
 21
33.696392
 31
0.0
  0
ARC
  5
EA5
  8
0
 10
323.434762
 20
33.710392
 30
0.0
 40
0.214
 50
183.751001
 51
356.248999
  0
LINE
  5
EA6
  8
0
 10
323.648304
 20
33.696392
 30
0.0
 11
324.173762
 21
33.696392
 31
0.0
  0
LINE
  5
EA7
  8
0
 10
324.166762
 20
33.703392
 30
0.0
 11
324.166762
 21
35.085392
 31
0.0
  0
ARC
  5
EA8
  8
0
 10
323.434762
 20
35.085392
 30
0.0
 40
0.732
 50
0.0
 51
180.0
  0
LINE
  5
EA9
  8
0
 10
322.702762
 20
35.085392
 30
0.0
 11
322.702762
 21
33.703392
 31
0.0
  0
LINE
  5
EAA
  8
0
 10
322.702762
 20
33.703392
 30
0.0
 11
323.227881
 21
33.703392
 31
0.0
  0
ARC
  5
EAB
  8
0
 10
323.434762
 20
33.710392
 30
0.0
 40
0.207
 50
181.937908
 51
358.062092
  0
LINE
  5
EAC
  8
0
 10
323.641644
 20
33.703392
 30
0.0
 11
324.166762
 21
33.703392
 31
0.0
  0
LINE
  5
EAD
  8
0
 10
324.159762
 20
33.710392
 30
0.0
 11
324.159762
 21
35.085392
 31
0.0
  0
ARC
  5
EAE
  8
0
 10
323.434762
 20
35.085392
 30
0.0
 40
0.725
 50
0.0
 51
180.0
  0
LINE
  5
EAF
  8
0
 10
322.709762
 20
35.085392
 30
0.0
 11
322.709762
 21
33.710392
 31
0.0
  0
LINE
  5
EB0
  8
0
 10
322.709762
 20
33.710392
 30
0.0
 11
323.234762
 21
33.710392
 31
0.0
  0
ARC
  5
EB1
  8
0
 10
323.434762
 20
33.710392
 30
0.0
 40
0.2
 50
180.0
 51
360.0
  0
LINE
  5
EB2
  8
0
 10
323.634762
 20
33.710392
 30
0.0
 11
324.159762
 21
33.710392
 31
0.0
  0
LINE
  5
EB3
  8
0
  6
BYBLOCK
 62
     0
 10
322.709762
 20
33.695392
 30
0.0
 11
322.709762
 21
33.057649
 31
0.0
  0
LINE
  5
EB4
  8
0
  6
BYBLOCK
 62
     0
 10
324.159762
 20
33.695392
 30
0.0
 11
324.159762
 21
33.057649
 31
0.0
  0
LINE
  5
EB5
  8
0
  6
BYBLOCK
 62
     0
 10
322.859762
 20
33.072649
 30
0.0
 11
324.009762
 21
33.072649
 31
0.0
  0
SOLID
  5
EB6
  8
0
  6
BYBLOCK
 62
     0
 10
322.859762
 20
33.097649
 30
0.0
 11
322.859762
 21
33.047649
 31
0.0
 12
322.709762
 22
33.072649
 32
0.0
 13
322.709762
 23
33.072649
 33
0.0
  0
SOLID
  5
EB7
  8
0
  6
BYBLOCK
 62
     0
 10
324.009762
 20
33.097649
 30
0.0
 11
324.009762
 21
33.047649
 31
0.0
 12
324.159762
 22
33.072649
 32
0.0
 13
324.159762
 23
33.072649
 33
0.0
  0
TEXT
  8
0
  40
0.075
  5
EF8
  62
0
  72
0
  71
0
 10
323.285
 20
33.0149
 30
0.000000
  1
1.45
  7
ROMANC
  0
POINT
  5
EB9
  8
DEFPOINTS
  6
BYBLOCK
 62
     0
 10
322.709762
 20
33.710392
 30
0.0
  0
POINT
  5
EBA
  8
DEFPOINTS
  6
BYBLOCK
 62
     0
 10
324.159762
 20
33.710392
 30
0.0
  0
POINT
  5
EBB
  8
DEFPOINTS
  6
BYBLOCK
 62
     0
 10
324.159762
 20
33.072649
 30
0.0
  0
LINE
  5
EBC
  8
0
  6
BYBLOCK
 62
     0
 10
323.234762
 20
33.695392
 30
0.0
 11
323.234762
 21
33.298107
 31
0.0
  0
LINE
  5
EBD
  8
0
  6
BYBLOCK
 62
     0
 10
323.634762
 20
33.695392
 30
0.0
 11
323.634762
 21
33.298107
 31
0.0
  0
LINE
  5
EBE
  8
0
  6
BYBLOCK
 62
     0
 10
323.384762
 20
33.313107
 30
0.0
 11
323.484762
 21
33.313107
 31
0.0
  0
SOLID
  5
EBF
  8
0
  6
BYBLOCK
 62
     0
 10
323.384762
 20
33.338107
 30
0.0
 11
323.384762
 21
33.288107
 31
0.0
 12
323.234762
 22
33.313107
 32
0.0
 13
323.234762
 23
33.313107
 33
0.0
  0
SOLID
  5
EC0
  8
0
  6
BYBLOCK
 62
     0
 10
323.484762
 20
33.338107
 30
0.0
 11
323.484762
 21
33.288107
 31
0.0
 12
323.634762
 22
33.313107
 32
0.0
 13
323.634762
 23
33.313107
 33
0.0
  0
TEXT
  8
0
  40
0.075
  5
EF9
  62
0
  72
0
  71
0
 10
323.285
 20
33.2554
 30
0.000000
  1
0.40
  7
ROMANC
  0
POINT
  5
EC2
  8
DEFPOINTS
  6
BYBLOCK
 62
     0
 10
323.234762
 20
33.710392
 30
0.0
  0
POINT
  5
EC3
  8
DEFPOINTS
  6
BYBLOCK
 62
     0
 10
323.634762
 20
33.710392
 30
0.0
  0
POINT
  5
EC4
  8
DEFPOINTS
  6
BYBLOCK
 62
     0
 10
323.634762
 20
33.313107
 30
0.0
  0
LINE
  5
EC5
  8
0
  6
BYBLOCK
 62
     0
 10
324.174762
 20
33.710392
 30
0.0
 11
324.485172
 21
33.710392
 31
0.0
  0
LINE
  5
EC6
  8
0
  6
BYBLOCK
 62
     0
 10
324.174762
 20
35.085392
 30
0.0
 11
324.485172
 21
35.085392
 31
0.0
  0
LINE
  5
EC7
  8
0
  6
BYBLOCK
 62
     0
 10
324.470172
 20
33.860392
 30
0.0
 11
324.470172
 21
34.935392
 31
0.0
  0
SOLID
  5
EC8
  8
0
  6
BYBLOCK
 62
     0
 10
324.445172
 20
33.860392
 30
0.0
 11
324.495172
 21
33.860392
 31
0.0
 12
324.470172
 22
33.710392
 32
0.0
 13
324.470172
 23
33.710392
 33
0.0
  0
SOLID
  5
EC9
  8
0
  6
BYBLOCK
 62
     0
 10
324.445172
 20
34.935392
 30
0.0
 11
324.495172
 21
34.935392
 31
0.0
 12
324.470172
 22
35.085392
 32
0.0
 13
324.470172
 23
35.085392
 33
0.0
  0
TEXT
  8
0
  40
0.075
  5
EFA
  62
0
  72
0
  71
0
 10
324.245
 20
34.2651
 30
0.000000
  1
1.38
  7
ROMANC
  0
POINT
  5
ECB
  8
DEFPOINTS
  6
BYBLOCK
 62
     0
 10
324.159762
 20
33.710392
 30
0.0
  0
POINT
  5
ECC
  8
DEFPOINTS
  6
BYBLOCK
 62
     0
 10
324.159762
 20
35.085392
 30
0.0
  0
POINT
  5
ECD
  8
DEFPOINTS
  6
BYBLOCK
 62
     0
 10
324.470172
 20
35.085392
 30
0.0
  0
LINE
  5
ECE
  8
0
  6
BYBLOCK
 62
     0
 10
322.859762
 20
35.085392
 30
0.0
 11
324.009762
 21
35.085392
 31
0.0
  0
SOLID
  5
ECF
  8
0
  6
BYBLOCK
 62
     0
 10
322.859762
 20
35.110392
 30
0.0
 11
322.859762
 21
35.060392
 31
0.0
 12
322.709762
 22
35.085392
 32
0.0
 13
322.709762
 23
35.085392
 33
0.0
  0
SOLID
  5
ED0
  8
0
  6
BYBLOCK
 62
     0
 10
324.009762
 20
35.110392
 30
0.0
 11
324.009762
 21
35.060392
 31
0.0
 12
324.159762
 22
35.085392
 32
0.0
 13
324.159762
 23
35.085392
 33
0.0
  0
TEXT
  8
0
  40
0.075
  5
EFB
  62
0
  72
0
  71
0
 10
323.285
 20
35.0276
 30
0.000000
  1
1.45
  7
ROMANC
  0
POINT
  5
ED2
  8
DEFPOINTS
  6
BYBLOCK
 62
     0
 10
322.709762
 20
35.085392
 30
0.0
  0
POINT
  5
ED3
  8
DEFPOINTS
  6
BYBLOCK
 62
     0
 10
324.159762
 20
35.085392
 30
0.0
  0
POINT
  5
ED4
  8
DEFPOINTS
  6
BYBLOCK
 62
     0
 10
324.159762
 20
35.085392
 30
0.0
  0
LINE
  5
ED5
  8
0
  6
BYBLOCK
 62
     0
 10
324.174762
 20
33.710392
 30
0.0
 11
324.485172
 21
33.710392
 31
0.0
  0
LINE
  5
ED6
  8
0
  6
BYBLOCK
 62
     0
 10
323.449762
 20
33.510392
 30
0.0
 11
324.485172
 21
33.510392
 31
0.0
  0
LINE
  5
ED7
  8
0
  6
BYBLOCK
 62
     0
 10
324.470172
 20
33.860392
 30
0.0
 11
324.470172
 21
34.010392
 31
0.0
  0
LINE
  5
ED8
  8
0
  6
BYBLOCK
 62
     0
 10
324.470172
 20
33.360392
 30
0.0
 11
324.470172
 21
33.210392
 31
0.0
  0
LINE
  5
ED9
  8
0
  6
BYBLOCK
 62
     0
 10
324.470172
 20
33.710392
 30
0.0
 11
324.470172
 21
33.510392
 31
0.0
  0
SOLID
  5
EDA
  8
0
  6
BYBLOCK
 62
     0
 10
324.445172
 20
33.860392
 30
0.0
 11
324.495172
 21
33.860392
 31
0.0
 12
324.470172
 22
33.710392
 32
0.0
 13
324.470172
 23
33.710392
 33
0.0
  0
SOLID
  5
EDB
  8
0
  6
BYBLOCK
 62
     0
 10
324.445172
 20
33.360392
 30
0.0
 11
324.495172
 21
33.360392
 31
0.0
 12
324.470172
 22
33.510392
 32
0.0
 13
324.470172
 23
33.510392
 33
0.0
  0
TEXT
  8
0
  40
0.075
  5
EFC
  62
0
  72
0
  71
0
 10
324.245
 20
33.4776
 30
0.000000
  1
0.20
  7
ROMANC
  0
POINT
  5
EDD
  8
DEFPOINTS
  6
BYBLOCK
 62
     0
 10
324.159762
 20
33.710392
 30
0.0
  0
POINT
  5
EDE
  8
DEFPOINTS
  6
BYBLOCK
 62
     0
 10
323.434762
 20
33.510392
 30
0.0
  0
POINT
  5
EDF
  8
DEFPOINTS
  6
BYBLOCK
 62
     0
 10
324.470172
 20
33.510392
 30
0.0
  0
LINE
  5
EE0
  8
0
  6
BYBLOCK
 62
     0
 10
323.449762
 20
35.810392
 30
0.0
 11
324.776822
 21
35.810392
 31
0.0
  0
LINE
  5
EE1
  8
0
  6
BYBLOCK
 62
     0
 10
323.449762
 20
33.510392
 30
0.0
 11
324.776822
 21
33.510392
 31
0.0
  0
LINE
  5
EE2
  8
0
  6
BYBLOCK
 62
     0
 10
324.761822
 20
35.660392
 30
0.0
 11
324.761822
 21
33.660392
 31
0.0
  0
SOLID
  5
EE3
  8
0
  6
BYBLOCK
 62
     0
 10
324.736822
 20
35.660392
 30
0.0
 11
324.786822
 21
35.660392
 31
0.0
 12
324.761822
 22
35.810392
 32
0.0
 13
324.761822
 23
35.810392
 33
0.0
  0
SOLID
  5
EE4
  8
0
  6
BYBLOCK
 62
     0
 10
324.736822
 20
33.660392
 30
0.0
 11
324.786822
 21
33.660392
 31
0.0
 12
324.761822
 22
33.510392
 32
0.0
 13
324.761822
 23
33.510392
 33
0.0
  0
TEXT
  8
0
  40
0.075
  5
EFD
  62
0
  72
0
  71
0
 10
324.537
 20
34.5276
 30
0.000000
  1
2.30
  7
ROMANC
  0
POINT
  5
EE6
  8
DEFPOINTS
  6
BYBLOCK
 62
     0
 10
323.434762
 20
35.810392
 30
0.0
  0
POINT
  5
EE7
  8
DEFPOINTS
  6
BYBLOCK
 62
     0
 10
323.434762
 20
33.510392
 30
0.0
  0
POINT
  5
EE8
  8
DEFPOINTS
  6
BYBLOCK
 62
     0
 10
324.761822
 20
33.510392
 30
0.0
  0
ENDSEC
  0
EOF
