  0
SECTION
  2
HEADER
  9
$ACADVER
  1
AC1015
  9
$ACADMAINTVER
 70
    20
  9
$DWGCODEPAGE
  3
ANSI_1252
  9
$INSBASE
 10
0.0
 20
0.0
 30
0.0
  9
$EXTMIN
 10
193.8180554027415
 20
128.8090676139214
 30
-0.0000000000000058
  9
$EXTMAX
 10
204.3603522893511
 20
143.6962285403816
 30
0.0000000000000104
  9
$LIMMIN
 10
0.0
 20
0.0
  9
$LIMMAX
 10
420.0
 20
297.0
  9
$ORTHOMODE
 70
     1
  9
$REGENMODE
 70
     1
  9
$FILLMODE
 70
     1
  9
$QTEXTMODE
 70
     0
  9
$MIRRTEXT
 70
     0
  9
$LTSCALE
 40
1.0
  9
$ATTMODE
 70
     1
  9
$TEXTSIZE
 40
0.1
  9
$TRACEWID
 40
1.0
  9
$TEXTSTYLE
  7
ROMANC
  9
$CLAYER
  8
Seccion
  9
$CELTYPE
  6
ByLayer
  9
$CECOLOR
 62
   256
  9
$CELTSCALE
 40
1.0
  9
$DISPSILH
 70
     0
  9
$DIMSCALE
 40
1.0
  9
$DIMASZ
 40
0.1
  9
$DIMEXO
 40
0.5
  9
$DIMDLI
 40
0.5
  9
$DIMRND
 40
0.0
  9
$DIMDLE
 40
0.0
  9
$DIMEXE
 40
0.05
  9
$DIMTP
 40
0.0
  9
$DIMTM
 40
0.0
  9
$DIMTXT
 40
0.08
  9
$DIMCEN
 40
2.5
  9
$DIMTSZ
 40
0.0
  9
$DIMTOL
 70
     0
  9
$DIMLIM
 70
     0
  9
$DIMTIH
 70
     0
  9
$DIMTOH
 70
     0
  9
$DIMSE1
 70
     0
  9
$DIMSE2
 70
     0
  9
$DIMTAD
 70
     1
  9
$DIMZIN
 70
     1
  9
$DIMBLK
  1

  9
$DIMASO
 70
     1
  9
$DIMSHO
 70
     1
  9
$DIMPOST
  1

  9
$DIMAPOST
  1

  9
$DIMALT
 70
     0
  9
$DIMALTD
 70
     3
  9
$DIMALTF
 40
0.03937007874016
  9
$DIMLFAC
 40
1.0
  9
$DIMTOFL
 70
     1
  9
$DIMTVP
 40
0.0
  9
$DIMTIX
 70
     0
  9
$DIMSOXD
 70
     0
  9
$DIMSAH
 70
     0
  9
$DIMBLK1
  1

  9
$DIMBLK2
  1

  9
$DIMSTYLE
  2
ROMANCS
  9
$DIMCLRD
 70
     0
  9
$DIMCLRE
 70
     0
  9
$DIMCLRT
 70
     0
  9
$DIMTFAC
 40
1.0
  9
$DIMGAP
 40
0.0
  9
$DIMJUST
 70
     0
  9
$DIMSD1
 70
     0
  9
$DIMSD2
 70
     0
  9
$DIMTOLJ
 70
     0
  9
$DIMTZIN
 70
     8
  9
$DIMALTZ
 70
     0
  9
$DIMALTTZ
 70
     0
  9
$DIMUPT
 70
     1
  9
$DIMDEC
 70
     2
  9
$DIMTDEC
 70
     2
  9
$DIMALTU
 70
     2
  9
$DIMALTTD
 70
     3
  9
$DIMTXSTY
  7
ROMANC
  9
$DIMAUNIT
 70
     0
  9
$DIMADEC
 70
     0
  9
$DIMALTRND
 40
0.0
  9
$DIMAZIN
 70
     0
  9
$DIMDSEP
 70
    44
  9
$DIMATFIT
 70
     3
  9
$DIMFRAC
 70
     0
  9
$DIMLDRBLK
  1

  9
$DIMLUNIT
 70
     2
  9
$DIMLWD
 70
    -2
  9
$DIMLWE
 70
    -2
  9
$DIMTMOVE
 70
     0
  9
$LUNITS
 70
     2
  9
$LUPREC
 70
     4
  9
$SKETCHINC
 40
1.0
  9
$FILLETRAD
 40
0.0
  9
$AUNITS
 70
     0
  9
$AUPREC
 70
     0
  9
$MENU
  1
.
  9
$ELEVATION
 40
0.0
  9
$PELEVATION
 40
0.0
  9
$THICKNESS
 40
0.0
  9
$LIMCHECK
 70
     0
  9
$CHAMFERA
 40
0.0
  9
$CHAMFERB
 40
0.0
  9
$CHAMFERC
 40
0.0
  9
$CHAMFERD
 40
0.0
  9
$SKPOLY
 70
     0
  9
$TDCREATE
 40
2454578.702866111
  9
$TDUCREATE
 40
2454578.619532778
  9
$TDUPDATE
 40
2455838.518732500
  9
$TDUUPDATE
 40
2455838.435399167
  9
$TDINDWG
 40
0.0973277662
  9
$TDUSRTIMER
 40
0.0973250579
  9
$USRTIMER
 70
     1
  9
$ANGBASE
 50
0.0
  9
$ANGDIR
 70
     0
  9
$PDMODE
 70
     0
  9
$PDSIZE
 40
0.0
  9
$PLINEWID
 40
0.0
  9
$SPLFRAME
 70
     0
  9
$SPLINETYPE
 70
     6
  9
$SPLINESEGS
 70
     8
  9
$HANDSEED
  5
97D
  9
$SURFTAB1
 70
     6
  9
$SURFTAB2
 70
     6
  9
$SURFTYPE
 70
     6
  9
$SURFU
 70
     6
  9
$SURFV
 70
     6
  9
$UCSBASE
  2

  9
$UCSNAME
  2

  9
$UCSORG
 10
0.0
 20
0.0
 30
0.0
  9
$UCSXDIR
 10
1.0
 20
0.0
 30
0.0
  9
$UCSYDIR
 10
0.0
 20
1.0
 30
0.0
  9
$UCSORTHOREF
  2

  9
$UCSORTHOVIEW
 70
     0
  9
$UCSORGTOP
 10
0.0
 20
0.0
 30
0.0
  9
$UCSORGBOTTOM
 10
0.0
 20
0.0
 30
0.0
  9
$UCSORGLEFT
 10
0.0
 20
0.0
 30
0.0
  9
$UCSORGRIGHT
 10
0.0
 20
0.0
 30
0.0
  9
$UCSORGFRONT
 10
0.0
 20
0.0
 30
0.0
  9
$UCSORGBACK
 10
0.0
 20
0.0
 30
0.0
  9
$PUCSBASE
  2

  9
$PUCSNAME
  2

  9
$PUCSORG
 10
0.0
 20
0.0
 30
0.0
  9
$PUCSXDIR
 10
1.0
 20
0.0
 30
0.0
  9
$PUCSYDIR
 10
0.0
 20
1.0
 30
0.0
  9
$PUCSORTHOREF
  2

  9
$PUCSORTHOVIEW
 70
     0
  9
$PUCSORGTOP
 10
0.0
 20
0.0
 30
0.0
  9
$PUCSORGBOTTOM
 10
0.0
 20
0.0
 30
0.0
  9
$PUCSORGLEFT
 10
0.0
 20
0.0
 30
0.0
  9
$PUCSORGRIGHT
 10
0.0
 20
0.0
 30
0.0
  9
$PUCSORGFRONT
 10
0.0
 20
0.0
 30
0.0
  9
$PUCSORGBACK
 10
0.0
 20
0.0
 30
0.0
  9
$USERI1
 70
     0
  9
$USERI2
 70
     0
  9
$USERI3
 70
     0
  9
$USERI4
 70
     0
  9
$USERI5
 70
     0
  9
$USERR1
 40
0.0
  9
$USERR2
 40
0.0
  9
$USERR3
 40
0.0
  9
$USERR4
 40
0.0
  9
$USERR5
 40
0.0
  9
$WORLDVIEW
 70
     1
  9
$SHADEDGE
 70
     3
  9
$SHADEDIF
 70
    70
  9
$TILEMODE
 70
     1
  9
$MAXACTVP
 70
    64
  9
$PINSBASE
 10
0.0
 20
0.0
 30
0.0
  9
$PLIMCHECK
 70
     0
  9
$PEXTMIN
 10
1.000000000000000E+20
 20
1.000000000000000E+20
 30
1.000000000000000E+20
  9
$PEXTMAX
 10
-1.000000000000000E+20
 20
-1.000000000000000E+20
 30
-1.000000000000000E+20
  9
$PLIMMIN
 10
0.0
 20
0.0
  9
$PLIMMAX
 10
420.0
 20
297.0
  9
$UNITMODE
 70
     0
  9
$VISRETAIN
 70
     1
  9
$PLINEGEN
 70
     0
  9
$PSLTSCALE
 70
     1
  9
$TREEDEPTH
 70
  3020
  9
$CMLSTYLE
  2
Standard
  9
$CMLJUST
 70
     0
  9
$CMLSCALE
 40
20.0
  9
$PROXYGRAPHICS
 70
     1
  9
$MEASUREMENT
 70
     1
  9
$CELWEIGHT
370
    -1
  9
$ENDCAPS
280
     0
  9
$JOINSTYLE
280
     0
  9
$LWDISPLAY
290
     0
  9
$INSUNITS
 70
     4
  9
$HYPERLINKBASE
  1

  9
$STYLESHEET
  1
CLABSA.CTB
  9
$XEDIT
290
     1
  9
$CEPSNTYPE
380
     0
  9
$PSTYLEMODE
290
     1
  9
$FINGERPRINTGUID
  2
{3E986668-B72A-4A5A-AE7E-DE2071D6EA0A}
  9
$VERSIONGUID
  2
{27A990FB-AA7D-4878-985B-A8A2968FE733}
  9
$EXTNAMES
290
     1
  9
$PSVPSCALE
 40
0.0
  9
$OLESTARTUP
290
     0
  0
ENDSEC
  0
SECTION
  2
CLASSES
  0
CLASS
  1
ACDBDICTIONARYWDFLT
  2
AcDbDictionaryWithDefault
  3
ObjectDBX Classes
 90
        0
280
     0
281
     0
  0
CLASS
  1
MATERIAL
  2
AcDbMaterial
  3
ObjectDBX Classes
 90
     1153
280
     0
281
     0
  0
CLASS
  1
VISUALSTYLE
  2
AcDbVisualStyle
  3
ObjectDBX Classes
 90
     4095
280
     0
281
     0
  0
CLASS
  1
SCALE
  2
AcDbScale
  3
ObjectDBX Classes
 90
     1153
280
     0
281
     0
  0
CLASS
  1
TABLESTYLE
  2
AcDbTableStyle
  3
ObjectDBX Classes
 90
     4095
280
     0
281
     0
  0
CLASS
  1
MLEADERSTYLE
  2
AcDbMLeaderStyle
  3
ACDB_MLEADERSTYLE_CLASS
 90
     4095
280
     0
281
     0
  0
CLASS
  1
EXACXREFPANELOBJECT
  2
ExAcXREFPanelObject
  3
EXAC_ESW
 90
    33793
280
     0
281
     0
  0
CLASS
  1
NPOCOLLECTION
  2
AcDbImpNonPersistentObjectsCollection
  3
ObjectDBX Classes
 90
    33921
280
     0
281
     0
  0
CLASS
  1
SORTENTSTABLE
  2
AcDbSortentsTable
  3
ObjectDBX Classes
 90
        0
280
     0
281
     0
  0
CLASS
  1
DIMASSOC
  2
AcDbDimAssoc
  3
"AcDbDimAssoc|Product Desc:     AcDim ARX App For Dimension|Company:          Autodesk, Inc.|WEB Address:      www.autodesk.com"
 90
    32768
280
     0
281
     0
  0
CLASS
  1
CELLSTYLEMAP
  2
AcDbCellStyleMap
  3
ObjectDBX Classes
 90
     1152
280
     0
281
     0
  0
CLASS
  1
DICTIONARYVAR
  2
AcDbDictionaryVar
  3
ObjectDBX Classes
 90
        0
280
     0
281
     0
  0
CLASS
  1
ACDBPLACEHOLDER
  2
AcDbPlaceHolder
  3
ObjectDBX Classes
 90
        0
280
     0
281
     0
  0
CLASS
  1
LAYOUT
  2
AcDbLayout
  3
ObjectDBX Classes
 90
        0
280
     0
281
     0
  0
ENDSEC
  0
SECTION
  2
TABLES
  0
TABLE
  2
VPORT
  5
8
102
{ACAD_XDICTIONARY
360
393
102
}
330
0
100
AcDbSymbolTable
 70
     1
  0
VPORT
  5
5F
330
8
100
AcDbSymbolTableRecord
100
AcDbViewportTableRecord
  2
*Active
 70
     0
 10
0.0
 20
0.0
 11
1.0
 21
1.0
 12
199.0892038460463
 22
136.2526480771515
 13
0.0
 23
0.0
 14
10.0
 24
10.0
 15
10.0
 25
10.0
 16
0.0
 26
0.0
 36
1.0
 17
0.0
 27
0.0
 37
0.0
 40
14.97802864320357
 41
1.624236252545825
 42
50.0
 43
0.0
 44
0.0
 50
0.0
 51
0.0
 71
     0
 72
  1000
 73
     1
 74
     3
 75
     0
 76
     0
 77
     0
 78
     0
281
     0
 65
     1
110
0.0
120
0.0
130
0.0
111
1.0
121
0.0
131
0.0
112
0.0
122
1.0
132
0.0
 79
     0
146
0.0
  0
ENDTAB
  0
TABLE
  2
LTYPE
  5
5
330
0
100
AcDbSymbolTable
 70
     1
  0
LTYPE
  5
63
330
5
100
AcDbSymbolTableRecord
100
AcDbLinetypeTableRecord
  2
ByBlock
 70
     0
  3

 72
    65
 73
     0
 40
0.0
  0
LTYPE
  5
64
330
5
100
AcDbSymbolTableRecord
100
AcDbLinetypeTableRecord
  2
ByLayer
 70
     0
  3

 72
    65
 73
     0
 40
0.0
  0
LTYPE
  5
65
330
5
100
AcDbSymbolTableRecord
100
AcDbLinetypeTableRecord
  2
Continuous
 70
     0
  3
Solid line
 72
    65
 73
     0
 40
0.0
  0
ENDTAB
  0
TABLE
  2
LAYER
  5
2
102
{ACAD_XDICTIONARY
360
94F
102
}
330
0
100
AcDbSymbolTable
 70
     3
  0
LAYER
  5
5C
102
{ACAD_XDICTIONARY
360
343
102
}
330
2
100
AcDbSymbolTableRecord
100
AcDbLayerTableRecord
  2
0
 70
     0
 62
     7
  6
Continuous
370
    -3
390
F
  0
LAYER
  5
81
330
2
100
AcDbSymbolTableRecord
100
AcDbLayerTableRecord
  2
DEFPOINTS
 70
     0
 62
     7
  6
Continuous
290
     0
370
    -3
390
F
  0
LAYER
  5
FD
102
{ACAD_XDICTIONARY
360
FE
102
}
330
2
100
AcDbSymbolTableRecord
100
AcDbLayerTableRecord
  2
Seccion
 70
     0
 62
     7
  6
Continuous
370
    -3
390
F
1001
AcAecLayerStandard
1000

1000

  0
ENDTAB
  0
TABLE
  2
STYLE
  5
3
330
0
100
AcDbSymbolTable
 70
     3
  0
STYLE
  5
5D
330
3
100
AcDbSymbolTableRecord
100
AcDbTextStyleTableRecord
  2
Standard
 70
     0
 40
0.0
 41
1.0
 50
0.0
 71
     0
 42
2.5
  3
txt
  4

  0
STYLE
  5
62
330
3
100
AcDbSymbolTableRecord
100
AcDbTextStyleTableRecord
  2
Annotative
 70
     0
 40
0.0
 41
1.0
 50
0.0
 71
     0
 42
0.2
  3

  4

1001
AcadAnnotative
1000
AnnotativeData
1002
{
1070
     1
1070
     1
1002
}
  0
STYLE
  5
82
330
3
100
AcDbSymbolTableRecord
100
AcDbTextStyleTableRecord
  2
ROMANC
 70
     0
 40
0.0
 41
1.0
 50
0.0
 71
     0
 42
0.1
  3
romanc.shx
  4

  0
ENDTAB
  0
TABLE
  2
VIEW
  5
6
330
0
100
AcDbSymbolTable
 70
     3
  0
ENDTAB
  0
TABLE
  2
UCS
  5
7
330
0
100
AcDbSymbolTable
 70
     0
  0
ENDTAB
  0
TABLE
  2
APPID
  5
9
330
0
100
AcDbSymbolTable
 70
    14
  0
APPID
  5
5E
330
9
100
AcDbSymbolTableRecord
100
AcDbRegAppTableRecord
  2
ACAD
 70
     0
  0
APPID
  5
66
330
9
100
AcDbSymbolTableRecord
100
AcDbRegAppTableRecord
  2
AcadAnnotative
 70
     0
  0
APPID
  5
70
330
9
100
AcDbSymbolTableRecord
100
AcDbRegAppTableRecord
  2
ACAD_MLEADERVER
 70
     0
  0
APPID
  5
84
330
9
100
AcDbSymbolTableRecord
100
AcDbRegAppTableRecord
  2
DCO15
 70
     0
  0
APPID
  5
DE
330
9
100
AcDbSymbolTableRecord
100
AcDbRegAppTableRecord
  2
ACAD_DSTYLE_DIMJAG
 70
     0
  0
APPID
  5
DF
330
9
100
AcDbSymbolTableRecord
100
AcDbRegAppTableRecord
  2
ACAD_DSTYLE_DIMTALN
 70
     0
  0
APPID
  5
E0
330
9
100
AcDbSymbolTableRecord
100
AcDbRegAppTableRecord
  2
ACAD_DSTYLE_DIMBREAK
 70
     0
  0
APPID
  5
FF
330
9
100
AcDbSymbolTableRecord
100
AcDbRegAppTableRecord
  2
AcAecLayerStandard
 70
     0
  0
APPID
  5
123
330
9
100
AcDbSymbolTableRecord
100
AcDbRegAppTableRecord
  2
ACAD_EXEMPT_FROM_CAD_STANDARDS
 70
     0
  0
APPID
  5
175
330
9
100
AcDbSymbolTableRecord
100
AcDbRegAppTableRecord
  2
AcadAnnoPO
 70
     0
  0
APPID
  5
398
330
9
100
AcDbSymbolTableRecord
100
AcDbRegAppTableRecord
  2
ACAD_DSTYLE_DIMJOGGED_JOGANGLE_SYMBOL
 70
     0
  0
APPID
  5
3A0
330
9
100
AcDbSymbolTableRecord
100
AcDbRegAppTableRecord
  2
ACAD_DSTYLE_DIMEXT_ENABLED
 70
     0
  0
APPID
  5
3A1
330
9
100
AcDbSymbolTableRecord
100
AcDbRegAppTableRecord
  2
ACAD_DSTYLE_DIMEXT_LENGTH
 70
     0
  0
APPID
  5
611
330
9
100
AcDbSymbolTableRecord
100
AcDbRegAppTableRecord
  2
ACAD_PSEXT
 70
     0
  0
ENDTAB
  0
TABLE
  2
DIMSTYLE
  5
A
330
0
100
AcDbSymbolTable
 70
     4
100
AcDbDimStyleTable
 71
     3
340
DD
340
60
340
83
  0
DIMSTYLE
105
60
330
A
100
AcDbSymbolTableRecord
100
AcDbDimStyleTableRecord
  2
ISO-25
 70
     0
 41
2.5
 42
0.625
 43
3.75
 44
1.25
 73
     0
 74
     0
 77
     1
 78
     8
140
2.5
141
2.5
143
0.03937007874016
147
0.625
171
     3
172
     1
271
     2
272
     2
274
     3
278
    44
283
     0
284
     8
340
5D
1001
ACAD_DSTYLE_DIMJOGGED_JOGANGLE_SYMBOL
1070
   384
1040
1.570796326794896
  0
DIMSTYLE
105
61
330
A
100
AcDbSymbolTableRecord
100
AcDbDimStyleTableRecord
  2
Annotative
 70
     0
340
5D
1001
AcadAnnotative
1000
AnnotativeData
1002
{
1070
     1
1070
     1
1002
}
  0
DIMSTYLE
105
83
330
A
100
AcDbSymbolTableRecord
100
AcDbDimStyleTableRecord
  2
Standard
 70
     0
340
5D
  0
DIMSTYLE
105
DD
102
{ACAD_REACTORS
330
1E2
330
269
330
521
330
678
330
68E
330
6F6
330
6BE
330
8C0
102
}
330
A
100
AcDbSymbolTableRecord
100
AcDbDimStyleTableRecord
  2
ROMANCS
 70
     0
 41
0.1
 42
0.5
 43
0.5
 44
0.05
 73
     0
 74
     0
 77
     1
 78
     1
140
0.08
141
2.5
143
0.03937007874016
147
0.0
171
     3
172
     1
271
     2
272
     2
274
     3
278
    44
283
     0
284
     8
288
     1
340
82
1001
ACAD_DSTYLE_DIMBREAK
1070
   391
1040
0.0
1001
ACAD_DSTYLE_DIMJAG
1070
   388
1040
1.5
1001
ACAD_DSTYLE_DIMTALN
1070
   392
1070
     0
1001
ACAD_DSTYLE_DIMEXT_ENABLED
1070
   383
1070
     1
1001
ACAD_DSTYLE_DIMEXT_LENGTH
1070
   378
1040
2.0
1001
ACAD_DSTYLE_DIMJOGGED_JOGANGLE_SYMBOL
1070
   384
1040
1.570796326794896
  0
ENDTAB
  0
TABLE
  2
BLOCK_RECORD
  5
1
330
0
100
AcDbSymbolTable
 70
     9
  0
BLOCK_RECORD
  5
75
102
{ACAD_XDICTIONARY
360
2A7
102
}
330
1
100
AcDbSymbolTableRecord
100
AcDbBlockTableRecord
  2
*Model_Space
340
78
  0
BLOCK_RECORD
  5
71
330
1
100
AcDbSymbolTableRecord
100
AcDbBlockTableRecord
  2
*Paper_Space
340
74
  0
BLOCK_RECORD
  5
79
330
1
100
AcDbSymbolTableRecord
100
AcDbBlockTableRecord
  2
*Paper_Space0
340
7C
  0
BLOCK_RECORD
  5
1E3
330
1
100
AcDbSymbolTableRecord
100
AcDbBlockTableRecord
  2
*D1
340
0
  0
BLOCK_RECORD
  5
26C
330
1
100
AcDbSymbolTableRecord
100
AcDbBlockTableRecord
  2
*D2
340
0
  0
BLOCK_RECORD
  5
522
330
1
100
AcDbSymbolTableRecord
100
AcDbBlockTableRecord
  2
*D3
340
0
  0
BLOCK_RECORD
  5
679
330
1
100
AcDbSymbolTableRecord
100
AcDbBlockTableRecord
  2
*D4
340
0
  0
BLOCK_RECORD
  5
68F
330
1
100
AcDbSymbolTableRecord
100
AcDbBlockTableRecord
  2
*D5
340
0
  0
BLOCK_RECORD
  5
6BF
330
1
100
AcDbSymbolTableRecord
100
AcDbBlockTableRecord
  2
*D6
340
0
  0
BLOCK_RECORD
  5
6F7
330
1
100
AcDbSymbolTableRecord
100
AcDbBlockTableRecord
  2
*D7
340
0
  0
BLOCK_RECORD
  5
8C1
330
1
100
AcDbSymbolTableRecord
100
AcDbBlockTableRecord
  2
*D8
340
0
  0
ENDTAB
  0
ENDSEC
  0
SECTION
  2
BLOCKS
  0
BLOCK
  5
76
330
75
100
AcDbEntity
  8
0
100
AcDbBlockBegin
  2
*Model_Space
 70
     0
 10
0.0
 20
0.0
 30
0.0
  3
*Model_Space
  1

  0
ENDBLK
  5
77
330
75
100
AcDbEntity
  8
0
100
AcDbBlockEnd
  0
BLOCK
  5
72
330
71
100
AcDbEntity
 67
     1
  8
0
100
AcDbBlockBegin
  2
*Paper_Space
 70
     0
 10
0.0
 20
0.0
 30
0.0
  3
*Paper_Space
  1

  0
ENDBLK
  5
73
330
71
100
AcDbEntity
 67
     1
  8
0
100
AcDbBlockEnd
  0
BLOCK
  5
7A
330
79
100
AcDbEntity
 67
     1
  8
0
100
AcDbBlockBegin
  2
*Paper_Space0
 70
     0
 10
0.0
 20
0.0
 30
0.0
  3
*Paper_Space0
  1

  0
ENDBLK
  5
7B
330
79
100
AcDbEntity
 67
     1
  8
0
100
AcDbBlockEnd
  0
BLOCK
  5
1E4
330
1E3
100
AcDbEntity
  8
0
100
AcDbBlockBegin
  2
*D1
 70
     1
 10
0.0
 20
0.0
 30
0.0
  3
*D1
  1

  0
LINE
  5
8EE
330
1E3
100
AcDbEntity
  8
0
 62
     0
370
    -2
100
AcDbLine
 10
200.1005342867077
 20
137.1715208067221
 30
0.0
 11
200.4152654667536
 21
137.1715208067221
 31
0.0
  0
LINE
  5
8EF
330
1E3
100
AcDbEntity
  8
0
 62
     0
370
    -2
100
AcDbLine
 10
200.1005342867077
 20
135.1715208067221
 30
0.0
 11
200.4152654667536
 21
135.1715208067221
 31
0.0
  0
LINE
  5
8F0
330
1E3
100
AcDbEntity
  8
0
 62
     0
370
    -2
100
AcDbLine
 10
200.3652654667536
 20
137.071520806722
 30
0.0
 11
200.3652654667536
 21
135.2715208067221
 31
0.0
  0
SOLID
  5
8F1
330
1E3
100
AcDbEntity
  8
0
 62
     0
100
AcDbTrace
 10
200.3485988000869
 20
137.071520806722
 30
0.0
 11
200.3819321334203
 21
137.071520806722
 31
0.0
 12
200.3652654667536
 22
137.1715208067221
 32
0.0
 13
200.3652654667536
 23
137.1715208067221
 33
0.0
  0
SOLID
  5
8F2
330
1E3
100
AcDbEntity
  8
0
 62
     0
100
AcDbTrace
 10
200.3485988000869
 20
135.2715208067221
 30
0.0
 11
200.3819321334203
 21
135.2715208067221
 31
0.0
 12
200.3652654667536
 22
135.1715208067221
 32
0.0
 13
200.3652654667536
 23
135.1715208067221
 33
0.0
  0
MTEXT
  5
8F3
330
1E3
100
AcDbEntity
  8
0
 62
     0
100
AcDbMText
 10
200.3176464191346
 20
136.1715208067222
 30
0.0
 40
0.08
 41
0.0
 71
     5
 72
     1
  1
2,00
  7
ROMANC
 11
0.0000000000000001
 21
1.0
 31
0.0
 73
     1
 44
1.0
1001
ACAD
1000
MTEXTBEGIN
1070
    73
1070
     1
1070
    44
1040
1.0
1070
    74
1070
     0
1000
MTEXTEND
  0
POINT
  5
8F4
330
1E3
100
AcDbEntity
  8
DEFPOINTS
 62
     0
100
AcDbPoint
 10
199.6005342867077
 20
137.1715208067221
 30
0.0
  0
POINT
  5
8F5
330
1E3
100
AcDbEntity
  8
DEFPOINTS
 62
     0
100
AcDbPoint
 10
199.6005342867077
 20
135.1715208067221
 30
0.0
  0
POINT
  5
8F6
330
1E3
100
AcDbEntity
  8
DEFPOINTS
 62
     0
100
AcDbPoint
 10
200.3652654667536
 20
135.1715208067221
 30
0.0
  0
ENDBLK
  5
1E5
330
1E3
100
AcDbEntity
  8
0
100
AcDbBlockEnd
  0
BLOCK
  5
26D
330
26C
100
AcDbEntity
  8
0
100
AcDbBlockBegin
  2
*D2
 70
     1
 10
0.0
 20
0.0
 30
0.0
  3
*D2
  1

  0
LINE
  5
8F7
330
26C
100
AcDbEntity
  8
0
 62
     0
370
    -2
100
AcDbLine
 10
199.5818075172961
 20
134.7939162588954
 30
0.0
 11
199.5818075172961
 21
134.4791850788496
 31
0.0
  0
LINE
  5
8F8
330
26C
100
AcDbEntity
  8
0
 62
     0
370
    -2
100
AcDbLine
 10
198.0818075172962
 20
134.7939162588954
 30
0.0
 11
198.0818075172962
 21
134.4791850788496
 31
0.0
  0
LINE
  5
8F9
330
26C
100
AcDbEntity
  8
0
 62
     0
370
    -2
100
AcDbLine
 10
199.4818075172961
 20
134.5291850788497
 30
0.0
 11
198.1818075172962
 21
134.5291850788497
 31
0.0
  0
SOLID
  5
8FA
330
26C
100
AcDbEntity
  8
0
 62
     0
100
AcDbTrace
 10
199.4818075172961
 20
134.5458517455163
 30
0.0
 11
199.4818075172961
 21
134.512518412183
 31
0.0
 12
199.5818075172961
 22
134.5291850788497
 32
0.0
 13
199.5818075172961
 23
134.5291850788497
 33
0.0
  0
SOLID
  5
8FB
330
26C
100
AcDbEntity
  8
0
 62
     0
100
AcDbTrace
 10
198.1818075172962
 20
134.5458517455163
 30
0.0
 11
198.1818075172962
 21
134.512518412183
 31
0.0
 12
198.0818075172962
 22
134.5291850788497
 32
0.0
 13
198.0818075172962
 23
134.5291850788497
 33
0.0
  0
MTEXT
  5
8FC
330
26C
100
AcDbEntity
  8
0
 62
     0
100
AcDbMText
 10
198.8318075172961
 20
134.5768041264687
 30
0.0
 40
0.08
 41
0.0
 71
     5
 72
     1
  1
1,50
  7
ROMANC
 73
     1
 44
1.0
1001
ACAD
1000
MTEXTBEGIN
1070
    73
1070
     1
1070
    44
1040
1.0
1070
    74
1070
     0
1000
MTEXTEND
  0
POINT
  5
8FD
330
26C
100
AcDbEntity
  8
DEFPOINTS
 62
     0
100
AcDbPoint
 10
199.5818075172961
 20
135.2939162588955
 30
0.0
  0
POINT
  5
8FE
330
26C
100
AcDbEntity
  8
DEFPOINTS
 62
     0
100
AcDbPoint
 10
198.0818075172962
 20
135.2939162588955
 30
0.0
  0
POINT
  5
8FF
330
26C
100
AcDbEntity
  8
DEFPOINTS
 62
     0
100
AcDbPoint
 10
198.0818075172962
 20
134.5291850788497
 30
0.0
  0
ENDBLK
  5
26E
330
26C
100
AcDbEntity
  8
0
100
AcDbBlockEnd
  0
BLOCK
  5
523
330
522
100
AcDbEntity
  8
0
100
AcDbBlockBegin
  2
*D3
 70
     1
 10
0.0
 20
0.0
 30
0.0
  3
*D3
  1

  0
LINE
  5
900
330
522
100
AcDbEntity
  8
0
 62
     0
370
    -2
100
AcDbLine
 10
198.5318075172962
 20
135.1532346309179
 30
0.0
 11
198.5318075172962
 21
134.838503450872
 31
0.0
  0
LINE
  5
901
330
522
100
AcDbEntity
  8
0
 62
     0
370
    -2
100
AcDbLine
 10
198.0818075172962
 20
135.1532346309179
 30
0.0
 11
198.0818075172962
 21
134.838503450872
 31
0.0
  0
LINE
  5
902
330
522
100
AcDbEntity
  8
0
 62
     0
370
    -2
100
AcDbLine
 10
198.4318075172962
 20
134.888503450872
 30
0.0
 11
198.1818075172962
 21
134.888503450872
 31
0.0
  0
SOLID
  5
903
330
522
100
AcDbEntity
  8
0
 62
     0
100
AcDbTrace
 10
198.4318075172962
 20
134.9051701175387
 30
0.0
 11
198.4318075172962
 21
134.8718367842054
 31
0.0
 12
198.5318075172962
 22
134.888503450872
 32
0.0
 13
198.5318075172962
 23
134.888503450872
 33
0.0
  0
SOLID
  5
904
330
522
100
AcDbEntity
  8
0
 62
     0
100
AcDbTrace
 10
198.1818075172962
 20
134.9051701175387
 30
0.0
 11
198.1818075172962
 21
134.8718367842054
 31
0.0
 12
198.0818075172962
 22
134.888503450872
 32
0.0
 13
198.0818075172962
 23
134.888503450872
 33
0.0
  0
MTEXT
  5
905
330
522
100
AcDbEntity
  8
0
 62
     0
100
AcDbMText
 10
198.3068075172962
 20
134.9361224984911
 30
0.0
 40
0.08
 41
0.0
 71
     5
 72
     1
  1
0,45
  7
ROMANC
 73
     1
 44
1.0
1001
ACAD
1000
MTEXTBEGIN
1070
    73
1070
     1
1070
    44
1040
1.0
1070
    74
1070
     0
1000
MTEXTEND
  0
POINT
  5
906
330
522
100
AcDbEntity
  8
DEFPOINTS
 62
     0
100
AcDbPoint
 10
198.5318075172962
 20
135.6532346309179
 30
0.0
  0
POINT
  5
907
330
522
100
AcDbEntity
  8
DEFPOINTS
 62
     0
100
AcDbPoint
 10
198.0818075172962
 20
135.6532346309179
 30
0.0
  0
POINT
  5
908
330
522
100
AcDbEntity
  8
DEFPOINTS
 62
     0
100
AcDbPoint
 10
198.0818075172962
 20
134.888503450872
 30
0.0
  0
ENDBLK
  5
524
330
522
100
AcDbEntity
  8
0
100
AcDbBlockEnd
  0
BLOCK
  5
67A
330
679
100
AcDbEntity
  8
0
100
AcDbBlockBegin
  2
*D4
 70
     1
 10
0.0
 20
0.0
 30
0.0
  3
*D4
  1

  0
LINE
  5
909
330
679
100
AcDbEntity
  8
0
 62
     0
370
    -2
100
AcDbLine
 10
199.1318075172961
 20
135.1532346309179
 30
0.0
 11
199.1318075172961
 21
134.838503450872
 31
0.0
  0
LINE
  5
90A
330
679
100
AcDbEntity
  8
0
 62
     0
370
    -2
100
AcDbLine
 10
198.5318075172962
 20
135.1532346309179
 30
0.0
 11
198.5318075172962
 21
134.838503450872
 31
0.0
  0
LINE
  5
90B
330
679
100
AcDbEntity
  8
0
 62
     0
370
    -2
100
AcDbLine
 10
199.0318075172962
 20
134.888503450872
 30
0.0
 11
198.6318075172962
 21
134.888503450872
 31
0.0
  0
SOLID
  5
90C
330
679
100
AcDbEntity
  8
0
 62
     0
100
AcDbTrace
 10
199.0318075172962
 20
134.9051701175387
 30
0.0
 11
199.0318075172962
 21
134.8718367842054
 31
0.0
 12
199.1318075172961
 22
134.888503450872
 32
0.0
 13
199.1318075172961
 23
134.888503450872
 33
0.0
  0
SOLID
  5
90D
330
679
100
AcDbEntity
  8
0
 62
     0
100
AcDbTrace
 10
198.6318075172962
 20
134.9051701175387
 30
0.0
 11
198.6318075172962
 21
134.8718367842054
 31
0.0
 12
198.5318075172962
 22
134.888503450872
 32
0.0
 13
198.5318075172962
 23
134.888503450872
 33
0.0
  0
MTEXT
  5
90E
330
679
100
AcDbEntity
  8
0
 62
     0
100
AcDbMText
 10
198.8318075172961
 20
134.9361224984911
 30
0.0
 40
0.08
 41
0.0
 71
     5
 72
     1
  1
0,60
  7
ROMANC
 73
     1
 44
1.0
1001
ACAD
1000
MTEXTBEGIN
1070
    73
1070
     1
1070
    44
1040
1.0
1070
    74
1070
     0
1000
MTEXTEND
  0
POINT
  5
90F
330
679
100
AcDbEntity
  8
DEFPOINTS
 62
     0
100
AcDbPoint
 10
199.1318075172961
 20
135.6532346309179
 30
0.0
  0
POINT
  5
910
330
679
100
AcDbEntity
  8
DEFPOINTS
 62
     0
100
AcDbPoint
 10
198.5318075172962
 20
135.6532346309179
 30
0.0
  0
POINT
  5
911
330
679
100
AcDbEntity
  8
DEFPOINTS
 62
     0
100
AcDbPoint
 10
198.5318075172962
 20
134.888503450872
 30
0.0
  0
ENDBLK
  5
67B
330
679
100
AcDbEntity
  8
0
100
AcDbBlockEnd
  0
BLOCK
  5
690
330
68F
100
AcDbEntity
  8
0
100
AcDbBlockBegin
  2
*D5
 70
     1
 10
0.0
 20
0.0
 30
0.0
  3
*D5
  1

  0
LINE
  5
912
330
68F
100
AcDbEntity
  8
0
 62
     0
370
    -2
100
AcDbLine
 10
199.5818075172961
 20
135.1532346309179
 30
0.0
 11
199.5818075172961
 21
134.838503450872
 31
0.0
  0
LINE
  5
913
330
68F
100
AcDbEntity
  8
0
 62
     0
370
    -2
100
AcDbLine
 10
199.1318075172961
 20
135.1532346309179
 30
0.0
 11
199.1318075172961
 21
134.838503450872
 31
0.0
  0
LINE
  5
914
330
68F
100
AcDbEntity
  8
0
 62
     0
370
    -2
100
AcDbLine
 10
199.4818075172961
 20
134.888503450872
 30
0.0
 11
199.2318075172962
 21
134.888503450872
 31
0.0
  0
SOLID
  5
915
330
68F
100
AcDbEntity
  8
0
 62
     0
100
AcDbTrace
 10
199.4818075172961
 20
134.9051701175387
 30
0.0
 11
199.4818075172961
 21
134.8718367842054
 31
0.0
 12
199.5818075172961
 22
134.888503450872
 32
0.0
 13
199.5818075172961
 23
134.888503450872
 33
0.0
  0
SOLID
  5
916
330
68F
100
AcDbEntity
  8
0
 62
     0
100
AcDbTrace
 10
199.2318075172962
 20
134.9051701175387
 30
0.0
 11
199.2318075172962
 21
134.8718367842054
 31
0.0
 12
199.1318075172961
 22
134.888503450872
 32
0.0
 13
199.1318075172961
 23
134.888503450872
 33
0.0
  0
MTEXT
  5
917
330
68F
100
AcDbEntity
  8
0
 62
     0
100
AcDbMText
 10
199.3568075172962
 20
134.9361224984911
 30
0.0
 40
0.08
 41
0.0
 71
     5
 72
     1
  1
0,45
  7
ROMANC
 73
     1
 44
1.0
1001
ACAD
1000
MTEXTBEGIN
1070
    73
1070
     1
1070
    44
1040
1.0
1070
    74
1070
     0
1000
MTEXTEND
  0
POINT
  5
918
330
68F
100
AcDbEntity
  8
DEFPOINTS
 62
     0
100
AcDbPoint
 10
199.5818075172961
 20
135.6532346309179
 30
0.0
  0
POINT
  5
919
330
68F
100
AcDbEntity
  8
DEFPOINTS
 62
     0
100
AcDbPoint
 10
199.1318075172961
 20
135.6532346309179
 30
0.0
  0
POINT
  5
91A
330
68F
100
AcDbEntity
  8
DEFPOINTS
 62
     0
100
AcDbPoint
 10
199.1318075172961
 20
134.888503450872
 30
0.0
  0
ENDBLK
  5
691
330
68F
100
AcDbEntity
  8
0
100
AcDbBlockEnd
  0
BLOCK
  5
6C0
330
6BF
100
AcDbEntity
  8
0
100
AcDbBlockBegin
  2
*D6
 70
     1
 10
0.0
 20
0.0
 30
0.0
  3
*D6
  1

  0
LINE
  5
91B
330
6BF
100
AcDbEntity
  8
0
 62
     0
370
    -2
100
AcDbLine
 10
199.7197771676521
 20
137.1715208067221
 30
0.0
 11
199.986889300079
 21
137.1715208067221
 31
0.0
  0
LINE
  5
91C
330
6BF
100
AcDbEntity
  8
0
 62
     0
370
    -2
100
AcDbLine
 10
199.7197771676521
 20
137.071520806722
 30
0.0
 11
199.986889300079
 21
137.071520806722
 31
0.0
  0
LINE
  5
91D
330
6BF
100
AcDbEntity
  8
0
 62
     0
370
    -2
100
AcDbLine
 10
199.936889300079
 20
136.9715208067221
 30
0.0
 11
199.936889300079
 21
136.8715208067222
 31
0.0
  0
LINE
  5
91E
330
6BF
100
AcDbEntity
  8
0
 62
     0
370
    -2
100
AcDbLine
 10
199.936889300079
 20
137.2715208067221
 30
0.0
 11
199.936889300079
 21
137.6039017591031
 31
0.0
  0
LINE
  5
91F
330
6BF
100
AcDbEntity
  8
0
 62
     0
370
    -2
100
AcDbLine
 10
199.936889300079
 20
137.071520806722
 30
0.0
 11
199.936889300079
 21
137.1715208067221
 31
0.0
  0
SOLID
  5
920
330
6BF
100
AcDbEntity
  8
0
 62
     0
100
AcDbTrace
 10
199.9202226334123
 20
136.9715208067221
 30
0.0
 11
199.9535559667457
 21
136.9715208067221
 31
0.0
 12
199.936889300079
 22
137.071520806722
 32
0.0
 13
199.936889300079
 23
137.071520806722
 33
0.0
  0
SOLID
  5
921
330
6BF
100
AcDbEntity
  8
0
 62
     0
100
AcDbTrace
 10
199.9202226334123
 20
137.2715208067221
 30
0.0
 11
199.9535559667457
 21
137.2715208067221
 31
0.0
 12
199.936889300079
 22
137.1715208067221
 32
0.0
 13
199.936889300079
 23
137.1715208067221
 33
0.0
  0
MTEXT
  5
922
330
6BF
100
AcDbEntity
  8
0
 62
     0
100
AcDbMText
 10
199.8892702524599
 20
137.4877112829127
 30
0.0
 40
0.08
 41
0.0
 71
     5
 72
     1
  1
0,10
  7
ROMANC
 11
0.0000000000000001
 21
1.0
 31
0.0
 73
     1
 44
1.0
1001
ACAD
1000
MTEXTBEGIN
1070
    73
1070
     1
1070
    44
1040
1.0
1070
    74
1070
     0
1000
MTEXTEND
  0
POINT
  5
923
330
6BF
100
AcDbEntity
  8
DEFPOINTS
 62
     0
100
AcDbPoint
 10
199.2197771676521
 20
137.1715208067221
 30
0.0
  0
POINT
  5
924
330
6BF
100
AcDbEntity
  8
DEFPOINTS
 62
     0
100
AcDbPoint
 10
199.2197771676521
 20
137.071520806722
 30
0.0
  0
POINT
  5
925
330
6BF
100
AcDbEntity
  8
DEFPOINTS
 62
     0
100
AcDbPoint
 10
199.936889300079
 20
137.071520806722
 30
0.0
  0
ENDBLK
  5
6C1
330
6BF
100
AcDbEntity
  8
0
100
AcDbBlockEnd
  0
BLOCK
  5
6F8
330
6F7
100
AcDbEntity
  8
0
100
AcDbBlockBegin
  2
*D7
 70
     1
 10
0.0
 20
0.0
 30
0.0
  3
*D7
  1

  0
LINE
  5
926
330
6F7
100
AcDbEntity
  8
0
 62
     0
370
    -2
100
AcDbLine
 10
199.7197771676521
 20
135.4715208067222
 30
0.0
 11
199.986889300079
 21
135.4715208067222
 31
0.0
  0
LINE
  5
927
330
6F7
100
AcDbEntity
  8
0
 62
     0
370
    -2
100
AcDbLine
 10
199.7197771676521
 20
135.1715208067221
 30
0.0
 11
199.986889300079
 21
135.1715208067221
 31
0.0
  0
LINE
  5
928
330
6F7
100
AcDbEntity
  8
0
 62
     0
370
    -2
100
AcDbLine
 10
199.936889300079
 20
135.3715208067221
 30
0.0
 11
199.936889300079
 21
135.2715208067221
 31
0.0
  0
SOLID
  5
929
330
6F7
100
AcDbEntity
  8
0
 62
     0
100
AcDbTrace
 10
199.9202226334123
 20
135.3715208067221
 30
0.0
 11
199.9535559667457
 21
135.3715208067221
 31
0.0
 12
199.936889300079
 22
135.4715208067222
 32
0.0
 13
199.936889300079
 23
135.4715208067222
 33
0.0
  0
SOLID
  5
92A
330
6F7
100
AcDbEntity
  8
0
 62
     0
100
AcDbTrace
 10
199.9202226334123
 20
135.2715208067221
 30
0.0
 11
199.9535559667457
 21
135.2715208067221
 31
0.0
 12
199.936889300079
 22
135.1715208067221
 32
0.0
 13
199.936889300079
 23
135.1715208067221
 33
0.0
  0
MTEXT
  5
92B
330
6F7
100
AcDbEntity
  8
0
 62
     0
100
AcDbMText
 10
199.8892702524599
 20
135.3173701840236
 30
0.0
 40
0.08
 41
0.0
 71
     5
 72
     1
  1
0,30
  7
ROMANC
 11
0.0000000000000001
 21
1.0
 31
0.0
 73
     1
 44
1.0
1001
ACAD
1000
MTEXTBEGIN
1070
    73
1070
     1
1070
    44
1040
1.0
1070
    74
1070
     0
1000
MTEXTEND
  0
POINT
  5
92C
330
6F7
100
AcDbEntity
  8
DEFPOINTS
 62
     0
100
AcDbPoint
 10
199.2197771676521
 20
135.4715208067222
 30
0.0
  0
POINT
  5
92D
330
6F7
100
AcDbEntity
  8
DEFPOINTS
 62
     0
100
AcDbPoint
 10
199.2197771676521
 20
135.1715208067221
 30
0.0
  0
POINT
  5
92E
330
6F7
100
AcDbEntity
  8
DEFPOINTS
 62
     0
100
AcDbPoint
 10
199.936889300079
 20
135.1715208067221
 30
0.0
  0
ENDBLK
  5
6F9
330
6F7
100
AcDbEntity
  8
0
100
AcDbBlockEnd
  0
BLOCK
  5
8C2
330
8C1
100
AcDbEntity
  8
0
100
AcDbBlockBegin
  2
*D8
 70
     1
 10
0.0
 20
0.0
 30
0.0
  3
*D8
  1

  0
LINE
  5
92F
330
8C1
100
AcDbEntity
  8
0
 62
     0
370
    -2
100
AcDbLine
 10
199.7197771676521
 20
137.071520806722
 30
0.0
 11
199.986889300079
 21
137.071520806722
 31
0.0
  0
LINE
  5
930
330
8C1
100
AcDbEntity
  8
0
 62
     0
370
    -2
100
AcDbLine
 10
199.7197771676521
 20
135.4715208067222
 30
0.0
 11
199.986889300079
 21
135.4715208067222
 31
0.0
  0
LINE
  5
931
330
8C1
100
AcDbEntity
  8
0
 62
     0
370
    -2
100
AcDbLine
 10
199.936889300079
 20
136.9715208067221
 30
0.0
 11
199.936889300079
 21
135.5715208067221
 31
0.0
  0
SOLID
  5
932
330
8C1
100
AcDbEntity
  8
0
 62
     0
100
AcDbTrace
 10
199.9202226334123
 20
136.9715208067221
 30
0.0
 11
199.9535559667457
 21
136.9715208067221
 31
0.0
 12
199.936889300079
 22
137.071520806722
 32
0.0
 13
199.936889300079
 23
137.071520806722
 33
0.0
  0
SOLID
  5
933
330
8C1
100
AcDbEntity
  8
0
 62
     0
100
AcDbTrace
 10
199.9202226334123
 20
135.5715208067221
 30
0.0
 11
199.9535559667457
 21
135.5715208067221
 31
0.0
 12
199.936889300079
 22
135.4715208067222
 32
0.0
 13
199.936889300079
 23
135.4715208067222
 33
0.0
  0
MTEXT
  5
934
330
8C1
100
AcDbEntity
  8
0
 62
     0
100
AcDbMText
 10
199.8892702524599
 20
136.2715208067221
 30
0.0
 40
0.08
 41
0.0
 71
     5
 72
     1
  1
1,60
  7
ROMANC
 11
0.0000000000000001
 21
1.0
 31
0.0
 73
     1
 44
1.0
1001
ACAD
1000
MTEXTBEGIN
1070
    73
1070
     1
1070
    44
1040
1.0
1070
    74
1070
     0
1000
MTEXTEND
  0
POINT
  5
935
330
8C1
100
AcDbEntity
  8
DEFPOINTS
 62
     0
100
AcDbPoint
 10
199.2197771676521
 20
137.071520806722
 30
0.0
  0
POINT
  5
936
330
8C1
100
AcDbEntity
  8
DEFPOINTS
 62
     0
100
AcDbPoint
 10
199.2197771676521
 20
135.4715208067222
 30
0.0
  0
POINT
  5
937
330
8C1
100
AcDbEntity
  8
DEFPOINTS
 62
     0
100
AcDbPoint
 10
199.936889300079
 20
135.4715208067222
 30
0.0
  0
ENDBLK
  5
8C3
330
8C1
100
AcDbEntity
  8
0
100
AcDbBlockEnd
  0
ENDSEC
  0
SECTION
  2
ENTITIES
  0
LINE
  5
B4
330
75
100
AcDbEntity
  8
0
100
AcDbLine
 10
204.3463596451904
 20
128.8311254786035
 30
0.0
 11
204.3463596451904
 21
143.6811254786035
 31
0.0
  0
TEXT
  5
B5
330
75
100
AcDbEntity
  8
0
100
AcDbText
 10
197.2199544951049
 20
139.4951014786035
 30
0.0
 40
0.3
  1
P = 68 dm
  7
ROMANC
100
AcDbText
  0
LINE
  5
B6
330
75
100
AcDbEntity
  8
0
100
AcDbLine
 10
193.8463596451904
 20
143.6811254786035
 30
0.0
 11
193.8463596451904
 21
128.8311254786035
 31
0.0
  0
LINE
  5
B7
330
75
100
AcDbEntity
  8
0
100
AcDbLine
 10
193.8463596451904
 20
128.8311254786035
 30
0.0
 11
204.3463596451904
 21
128.8311254786035
 31
0.0
  0
LINE
  5
B8
330
75
100
AcDbEntity
  8
0
100
AcDbLine
 10
204.3463596451904
 20
143.6811254786035
 30
0.0
 11
193.8463596451904
 21
143.6811254786035
 31
0.0
  0
TEXT
  5
B9
330
75
100
AcDbEntity
  8
0
100
AcDbText
 10
200.4543794951049
 20
140.4985964786035
 30
0.0
 40
0.1
  1
2
  7
ROMANC
100
AcDbText
  0
TEXT
  5
BA
330
75
100
AcDbEntity
  8
0
100
AcDbText
 10
197.2578764951049
 20
140.7912704786035
 30
0.0
 40
0.3
  1
ESCALA  1:50
  7
ROMANC
100
AcDbText
  0
TEXT
  5
BB
330
75
100
AcDbEntity
  8
0
100
AcDbText
 10
197.2578764951049
 20
141.2769844786035
 30
0.0
 40
0.3
  1
TIPUS   NT272B
  7
ROMANC
100
AcDbText
  0
TEXT
  5
BC
330
75
100
AcDbEntity
  8
0
100
AcDbText
 10
197.2709704951049
 20
140.1926804786035
 30
0.0
 40
0.3
  1
S= 272  dm
  7
ROMANC
100
AcDbText
  0
DIMENSION
  5
1E2
330
75
100
AcDbEntity
  8
0
100
AcDbDimension
  2
*D1
 10
200.3652654667536
 20
135.1715208067221
 30
0.0
 11
200.3176464191346
 21
136.1715208067222
 31
0.0
 70
    33
 71
     5
 42
2.0
  3
ROMANCS
100
AcDbAlignedDimension
 13
199.6005342867077
 23
137.1715208067221
 33
0.0
 14
199.6005342867077
 24
135.1715208067221
 34
0.0
  0
DIMENSION
  5
269
330
75
100
AcDbEntity
  8
0
100
AcDbDimension
  2
*D2
 10
198.0818075172962
 20
134.5291850788497
 30
0.0
 11
198.8318075172961
 21
134.5768041264687
 31
0.0
 70
    33
 71
     5
 42
1.5
  3
ROMANCS
100
AcDbAlignedDimension
 13
199.5818075172961
 23
135.2939162588955
 33
0.0
 14
198.0818075172962
 24
135.2939162588955
 34
0.0
  0
LWPOLYLINE
  5
2CF
330
75
100
AcDbEntity
  8
Seccion
100
AcDbPolyline
 90
       12
 70
     0
 43
0.0
 10
199.4818075172961
 20
137.1715208067221
 10
199.4267366162921
 20
137.1715208067221
 10
198.1818075172962
 20
137.1715208067221
 10
198.0818075172962
 20
137.071520806722
 10
198.0818075172962
 20
135.4715208067222
 10
198.5318075172962
 20
135.4715208067222
 10
198.5318075172962
 20
135.1715208067221
 10
199.1318075172961
 20
135.1715208067221
 10
199.1318075172961
 20
135.4715208067222
 10
199.5818075172961
 20
135.4715208067222
 10
199.5818075172961
 20
137.071520806722
 10
199.4818075172961
 20
137.1715208067221
  0
LWPOLYLINE
  5
341
330
75
100
AcDbEntity
  8
Seccion
100
AcDbPolyline
 90
       11
 70
     1
 43
0.0
 10
199.4776653816724
 20
137.1615208067221
 10
199.4267366162921
 20
137.1615208067221
 10
198.1859496529199
 20
137.1615208067221
 10
198.0918075172962
 20
137.0673786710984
 10
198.0918075172962
 20
135.481520806722
 10
198.5418075172962
 20
135.481520806722
 10
198.5418075172962
 20
135.1815208067221
 10
199.1218075172962
 20
135.1815208067221
 10
199.1218075172962
 20
135.481520806722
 10
199.5718075172962
 20
135.481520806722
 10
199.5718075172962
 20
137.0673786710984
  0
LWPOLYLINE
  5
342
330
75
100
AcDbEntity
  8
Seccion
100
AcDbPolyline
 90
       11
 70
     1
 43
0.0
 10
199.4735232460487
 20
137.1515208067221
 10
199.4267366162921
 20
137.1515208067221
 10
198.1900917885436
 20
137.1515208067221
 10
198.1018075172961
 20
137.0632365354747
 10
198.1018075172961
 20
135.4915208067221
 10
198.5518075172961
 20
135.4915208067221
 10
198.5518075172961
 20
135.191520806722
 10
199.1118075172962
 20
135.191520806722
 10
199.1118075172962
 20
135.4915208067221
 10
199.5618075172962
 20
135.4915208067221
 10
199.5618075172962
 20
137.0632365354747
  0
DIMENSION
  5
521
330
75
100
AcDbEntity
  8
0
100
AcDbDimension
  2
*D3
 10
198.0818075172962
 20
134.888503450872
 30
0.0
 11
198.3068075172962
 21
134.9361224984911
 31
0.0
 70
    33
 71
     5
 42
0.4499999999999888
  3
ROMANCS
100
AcDbAlignedDimension
 13
198.5318075172962
 23
135.6532346309179
 33
0.0
 14
198.0818075172962
 24
135.6532346309179
 34
0.0
  0
LWPOLYLINE
  5
56C
330
75
100
AcDbEntity
  8
Seccion
100
AcDbPolyline
 90
        2
 70
     0
 43
0.0
 10
198.0918075172962
 20
135.4915208067221
 10
198.0918075172962
 20
135.6880679792357
  0
DIMENSION
  5
678
330
75
100
AcDbEntity
  8
0
100
AcDbDimension
  2
*D4
 10
198.5318075172962
 20
134.888503450872
 30
0.0
 11
198.8318075172961
 21
134.9361224984911
 31
0.0
 70
    33
 71
     5
 42
0.5999999999999944
  3
ROMANCS
100
AcDbAlignedDimension
 13
199.1318075172961
 23
135.6532346309179
 33
0.0
 14
198.5318075172962
 24
135.6532346309179
 34
0.0
  0
DIMENSION
  5
68E
330
75
100
AcDbEntity
  8
0
100
AcDbDimension
  2
*D5
 10
199.1318075172961
 20
134.888503450872
 30
0.0
 11
199.3568075172962
 21
134.9361224984911
 31
0.0
 70
    33
 71
     5
 42
0.4499999999999888
  3
ROMANCS
100
AcDbAlignedDimension
 13
199.5818075172961
 23
135.6532346309179
 33
0.0
 14
199.1318075172961
 24
135.6532346309179
 34
0.0
  0
DIMENSION
  5
6BE
330
75
100
AcDbEntity
  8
0
100
AcDbDimension
  2
*D6
 10
199.936889300079
 20
137.071520806722
 30
0.0
 11
199.936889300079
 21
137.4877112829127
 31
0.0
 70
   161
 71
     5
 42
0.0999999999999943
  3
ROMANCS
100
AcDbAlignedDimension
 13
199.2197771676521
 23
137.1715208067221
 33
0.0
 14
199.2197771676521
 24
137.071520806722
 34
0.0
  0
DIMENSION
  5
6F6
330
75
100
AcDbEntity
  8
0
100
AcDbDimension
  2
*D7
 10
199.936889300079
 20
135.1715208067221
 30
0.0
 11
199.936889300079
 21
135.3173701840236
 31
0.0
 70
   161
 71
     5
 42
0.3000000000000114
  3
ROMANCS
100
AcDbAlignedDimension
 13
199.2197771676521
 23
135.4715208067222
 33
0.0
 14
199.2197771676521
 24
135.1715208067221
 34
0.0
  0
DIMENSION
  5
8C0
330
75
100
AcDbEntity
  8
0
100
AcDbDimension
  2
*D8
 10
199.936889300079
 20
135.4715208067222
 30
0.0
 11
199.936889300079
 21
136.2715208067221
 31
0.0
 70
   161
 71
     5
 42
1.599999999999994
  3
ROMANCS
100
AcDbAlignedDimension
 13
199.2197771676521
 23
137.071520806722
 33
0.0
 14
199.2197771676521
 24
135.4715208067222
 34
0.0
  0
ENDSEC
  0
SECTION
  2
OBJECTS
  0
DICTIONARY
  5
C
330
0
100
AcDbDictionary
281
     1
  3
ACAD_2007HEADERVARS_RT
350
96F
  3
ACAD_COLOR
350
6B
  3
ACAD_GROUP
350
D
  3
ACAD_LAYOUT
350
6A
  3
ACAD_MATERIAL
350
10
  3
ACAD_MLEADERSTYLE
350
6E
  3
ACAD_MLINESTYLE
350
67
  3
ACAD_PLOTSETTINGS
350
69
  3
ACAD_PLOTSTYLENAME
350
E
  3
ACAD_SCALELIST
350
3A
  3
ACAD_TABLESTYLE
350
6C
  3
ACAD_VISUALSTYLE
350
29
  3
ACDB_RECOMPOSE_DATA
350
38D
  3
AcDbVariableDictionary
350
3A2
  3
AEC_PROPERTY_SET_DEFS
350
B2
  3
ASE_INDEX_DICTIONARY
350
347
  3
DWGPROPS
350
96E
  0
DICTIONARY
  5
393
330
8
100
AcDbDictionary
280
     1
281
     1
  0
DICTIONARY
  5
94F
330
2
100
AcDbDictionary
280
     1
281
     1
  3
ACAD_LAYERFILTERS
360
951
  3
ACLYDICTIONARY
360
950
  0
DICTIONARY
  5
343
330
5C
100
AcDbDictionary
280
     1
281
     1
  3
ADSK_XREC_LAYER_RECONCILED
360
344
  0
DICTIONARY
  5
FE
330
FD
100
AcDbDictionary
280
     1
281
     1
  3
ADSK_XREC_LAYER_RECONCILED
360
345
  0
DICTIONARY
  5
2A7
330
75
100
AcDbDictionary
280
     1
281
     1
  3
ACAD_SORTENTS
360
2A8
  0
DICTIONARY
  5
96F
102
{ACAD_REACTORS
330
C
102
}
330
C
100
AcDbDictionary
281
     1
  3
DIMFXL
350
971
  3
DIMFXLON
350
970
  3
DIMJOGANG
350
972
  0
DICTIONARY
  5
6B
102
{ACAD_REACTORS
330
C
102
}
330
C
100
AcDbDictionary
281
     1
  0
DICTIONARY
  5
D
102
{ACAD_REACTORS
330
C
102
}
330
C
100
AcDbDictionary
281
     1
  0
DICTIONARY
  5
6A
102
{ACAD_REACTORS
330
C
102
}
330
C
100
AcDbDictionary
281
     1
  3
Model
350
78
  3
Presentación1
350
74
  3
Presentación2
350
7C
  0
DICTIONARY
  5
10
102
{ACAD_REACTORS
330
C
102
}
330
C
100
AcDbDictionary
281
     1
  3
ByBlock
350
19
  3
ByLayer
350
11
  3
Global
350
21
  0
DICTIONARY
  5
6E
102
{ACAD_REACTORS
330
C
102
}
330
C
100
AcDbDictionary
281
     1
  3
Standard
350
6F
  0
DICTIONARY
  5
67
102
{ACAD_REACTORS
330
C
102
}
330
C
100
AcDbDictionary
281
     1
  3
Standard
350
68
  0
DICTIONARY
  5
69
102
{ACAD_REACTORS
330
C
102
}
330
C
100
AcDbDictionary
281
     1
  0
ACDBDICTIONARYWDFLT
  5
E
102
{ACAD_REACTORS
330
C
102
}
330
C
100
AcDbDictionary
281
     1
  3
Normal
350
F
100
AcDbDictionaryWithDefault
340
F
  0
DICTIONARY
  5
3A
102
{ACAD_REACTORS
330
C
102
}
330
C
100
AcDbDictionary
281
     1
  3
A0
350
3B
  3
A1
350
3C
  3
A2
350
3D
  3
A3
350
3E
  3
A4
350
3F
  3
A5
350
40
  3
A6
350
41
  3
A7
350
42
  3
A8
350
43
  3
A9
350
44
  3
B0
350
45
  3
B1
350
46
  3
B2
350
47
  3
B3
350
48
  3
B4
350
49
  3
B5
350
4A
  3
B6
350
4B
  3
B7
350
4C
  3
B8
350
4D
  3
B9
350
4E
  3
C0
350
4F
  3
C1
350
50
  3
C2
350
51
  3
C3
350
52
  3
C4
350
53
  3
C5
350
54
  3
C6
350
55
  3
C7
350
56
  3
C8
350
57
  3
C9
350
58
  3
D0
350
59
  3
D1
350
5A
  3
D2
350
5B
  0
DICTIONARY
  5
6C
102
{ACAD_REACTORS
330
C
102
}
330
C
100
AcDbDictionary
281
     1
  3
Standard
350
6D
  0
DICTIONARY
  5
29
102
{ACAD_REACTORS
330
C
102
}
330
C
100
AcDbDictionary
281
     1
  3
2dWireframe
350
2F
  3
3D Hidden
350
31
  3
3dWireframe
350
30
  3
Basic
350
2E
  3
Brighten
350
35
  3
ColorChange
350
39
  3
Conceptual
350
32
  3
Dim
350
34
  3
Facepattern
350
38
  3
Flat
350
2A
  3
FlatWithEdges
350
2B
  3
Gouraud
350
2C
  3
GouraudWithEdges
350
2D
  3
Linepattern
350
37
  3
Realistic
350
33
  3
Thicken
350
36
  0
XRECORD
  5
38D
102
{ACAD_REACTORS
330
C
102
}
330
C
100
AcDbXrecord
280
     1
 90
        1
330
6D
  0
DICTIONARY
  5
3A2
102
{ACAD_REACTORS
330
C
102
}
330
C
100
AcDbDictionary
281
     1
  3
CANNOSCALE
350
3A6
  3
CMLEADERSTYLE
350
3A4
  3
CTABLESTYLE
350
3A3
  3
DIMASSOC
350
3AB
  3
HIDETEXT
350
3AA
  3
INDEXCTL
350
3A9
  3
LIGHTINGUNITS
350
3A7
  3
LOFTANG1
350
96A
  3
LOFTANG2
350
96B
  3
LONGITUDE
350
96C
  3
MSLTSCALE
350
3A5
  3
SORTENTS
350
3A8
  0
DICTIONARY
  5
B2
102
{ACAD_REACTORS
330
C
102
}
330
C
100
AcDbDictionary
281
     1
  0
DICTIONARY
  5
347
102
{ACAD_REACTORS
330
C
102
}
330
C
100
AcDbDictionary
281
     1
  3
ASEBlockHierarchyIndexRecord
350
348
1001
DCO15
1040
1622205162.966
  0
XRECORD
  5
96E
102
{ACAD_REACTORS
330
C
102
}
330
C
100
AcDbXrecord
280
     1
  1
DWGPROPS COOKIE
  2

  3

  4

  6

  7

  8
abel
  9

300
=
301
=
302
=
303
=
304
=
305
=
306
=
307
=
308
=
309
=
 40
0.0973274074074074
 41
2454578.702866111
 42
2455838.5187325
  1

 90
        0
  0
DICTIONARY
  5
951
102
{ACAD_REACTORS
330
94F
102
}
330
94F
100
AcDbDictionary
281
     1
  0
DICTIONARY
  5
950
102
{ACAD_REACTORS
330
94F
102
}
330
94F
100
AcDbDictionary
281
     1
1001
ACAD
1000
<All
  0
XRECORD
  5
344
102
{ACAD_REACTORS
330
343
102
}
330
343
100
AcDbXrecord
280
     1
290
     1
  0
XRECORD
  5
345
102
{ACAD_REACTORS
330
FE
102
}
330
FE
100
AcDbXrecord
280
     1
290
     1
  0
SORTENTSTABLE
  5
2A8
102
{ACAD_REACTORS
330
2A7
102
}
330
2A7
100
AcDbSortentsTable
330
75
331
269
  5
2B0
331
6BE
  5
6BE
331
678
  5
678
331
BA
  5
BA
331
B4
  5
B4
331
B8
  5
B8
331
342
  5
342
331
2CF
  5
2CF
331
521
  5
521
331
B7
  5
B7
331
1E2
  5
2AF
331
56C
  5
56C
331
BB
  5
BB
331
B5
  5
B5
331
68E
  5
68E
331
B9
  5
B9
331
BC
  5
BC
331
B6
  5
B6
331
341
  5
341
331
6F6
  5
6F6
  0
XRECORD
  5
971
102
{ACAD_REACTORS
330
96F
102
}
330
96F
100
AcDbXrecord
280
     1
 40
2.0
  0
XRECORD
  5
970
102
{ACAD_REACTORS
330
96F
102
}
330
96F
100
AcDbXrecord
280
     1
290
     1
  0
XRECORD
  5
972
102
{ACAD_REACTORS
330
96F
102
}
330
96F
100
AcDbXrecord
280
     1
 40
1.570796326794896
  0
LAYOUT
  5
78
102
{ACAD_XDICTIONARY
360
979
102
}
102
{ACAD_REACTORS
330
6A
102
}
330
6A
100
AcDbPlotSettings
  1

  2
none_device
  4
ISO_A4_(210.00_x_297.00_MM)
  6

 40
7.5
 41
20.0
 42
7.5
 43
20.0
 44
210.0
 45
297.0
 46
0.0
 47
0.0
 48
0.0
 49
0.0
140
0.0
141
0.0
142
1.0
143
0.1430073648544118
 70
 11952
 72
     1
 73
     1
 74
     0
  7
CLABSA.ctb
 75
     0
147
6.992646854363387
148
-183.0291102081251
149
-125.5581913494065
100
AcDbLayout
  1
Model
 70
     1
 71
     0
 10
0.0
 20
0.0
 11
12.0
 21
9.0
 12
0.0
 22
0.0
 32
0.0
 14
0.0
 24
0.0
 34
0.0
 15
0.0
 25
0.0
 35
0.0
146
0.0
 13
0.0
 23
0.0
 33
0.0
 16
1.0
 26
0.0
 36
0.0
 17
0.0
 27
1.0
 37
0.0
 76
     0
330
75
331
5F
1001
ACAD_PSEXT
1000
Ninguna
1000
Ninguna
1000
No aplicable
1000
La presentación no se trazará a menos que se seleccione un nuevo nombre de configuración de trazador.
1070
     0
  0
LAYOUT
  5
74
102
{ACAD_XDICTIONARY
360
977
102
}
102
{ACAD_REACTORS
330
6A
102
}
330
6A
100
AcDbPlotSettings
  1

  2
Microsoft XPS Document Writer
  4

  6

 40
0.0
 41
0.0
 42
0.0
 43
0.0
 44
0.0
 45
0.0
 46
0.0
 47
0.0
 48
0.0
 49
0.0
140
0.0
141
0.0
142
1.0
143
1.0
 70
   688
 72
     0
 73
     0
 74
     5
  7
CLABSA.ctb
 75
    16
147
1.0
148
0.0
149
0.0
100
AcDbLayout
  1
Presentación1
 70
     1
 71
     1
 10
0.0
 20
0.0
 11
420.0
 21
297.0
 12
0.0
 22
0.0
 32
0.0
 14
1.000000000000000E+20
 24
1.000000000000000E+20
 34
1.000000000000000E+20
 15
-1.000000000000000E+20
 25
-1.000000000000000E+20
 35
-1.000000000000000E+20
146
0.0
 13
0.0
 23
0.0
 33
0.0
 16
1.0
 26
0.0
 36
0.0
 17
0.0
 27
1.0
 37
0.0
 76
     0
330
71
  0
LAYOUT
  5
7C
102
{ACAD_XDICTIONARY
360
97B
102
}
102
{ACAD_REACTORS
330
6A
102
}
330
6A
100
AcDbPlotSettings
  1

  2
Microsoft XPS Document Writer
  4

  6

 40
0.0
 41
0.0
 42
0.0
 43
0.0
 44
0.0
 45
0.0
 46
0.0
 47
0.0
 48
0.0
 49
0.0
140
0.0
141
0.0
142
1.0
143
1.0
 70
   688
 72
     0
 73
     0
 74
     5
  7
CLABSA.ctb
 75
    16
147
1.0
148
0.0
149
0.0
100
AcDbLayout
  1
Presentación2
 70
     1
 71
     2
 10
0.0
 20
0.0
 11
12.0
 21
9.0
 12
0.0
 22
0.0
 32
0.0
 14
0.0
 24
0.0
 34
0.0
 15
0.0
 25
0.0
 35
0.0
146
0.0
 13
0.0
 23
0.0
 33
0.0
 16
1.0
 26
0.0
 36
0.0
 17
0.0
 27
1.0
 37
0.0
 76
     0
330
79
  0
MATERIAL
  5
19
102
{ACAD_XDICTIONARY
360
1A
102
}
102
{ACAD_REACTORS
330
10
102
}
330
10
100
AcDbMaterial
  1
ByBlock
 72
     0
 43
0.0208333333333333
 43
0.0
 43
0.0
 43
0.0
 43
0.0
 43
0.0208333333333333
 43
0.0
 43
0.0
 43
0.0
 43
0.0
 43
1.0
 43
0.0
 43
0.0
 43
0.0
 43
0.0
 43
1.0
 77
     0
 47
0.0208333333333333
 47
0.0
 47
0.0
 47
0.0
 47
0.0
 47
0.0208333333333333
 47
0.0
 47
0.0
 47
0.0
 47
0.0
 47
1.0
 47
0.0
 47
0.0
 47
0.0
 47
0.0
 47
1.0
171
     0
 49
0.0208333333333333
 49
0.0
 49
0.0
 49
0.0
 49
0.0
 49
0.0208333333333333
 49
0.0
 49
0.0
 49
0.0
 49
0.0
 49
1.0
 49
0.0
 49
0.0
 49
0.0
 49
0.0
 49
1.0
175
     0
142
0.0208333333333333
142
0.0
142
0.0
142
0.0
142
0.0
142
0.0208333333333333
142
0.0
142
0.0
142
0.0
142
0.0
142
1.0
142
0.0
142
0.0
142
0.0
142
0.0
142
1.0
179
     0
144
0.0208333333333333
144
0.0
144
0.0
144
0.0
144
0.0
144
0.0208333333333333
144
0.0
144
0.0
144
0.0
144
0.0
144
1.0
144
0.0
144
0.0
144
0.0
144
0.0
144
1.0
147
0.0208333333333333
147
0.0
147
0.0
147
0.0
147
0.0
147
0.0208333333333333
147
0.0
147
0.0
147
0.0
147
0.0
147
1.0
147
0.0
147
0.0
147
0.0
147
0.0
147
1.0
  0
MATERIAL
  5
11
102
{ACAD_XDICTIONARY
360
12
102
}
102
{ACAD_REACTORS
330
10
102
}
330
10
100
AcDbMaterial
  1
ByLayer
 72
     0
 43
0.0208333333333333
 43
0.0
 43
0.0
 43
0.0
 43
0.0
 43
0.0208333333333333
 43
0.0
 43
0.0
 43
0.0
 43
0.0
 43
1.0
 43
0.0
 43
0.0
 43
0.0
 43
0.0
 43
1.0
 77
     0
 47
0.0208333333333333
 47
0.0
 47
0.0
 47
0.0
 47
0.0
 47
0.0208333333333333
 47
0.0
 47
0.0
 47
0.0
 47
0.0
 47
1.0
 47
0.0
 47
0.0
 47
0.0
 47
0.0
 47
1.0
171
     0
 49
0.0208333333333333
 49
0.0
 49
0.0
 49
0.0
 49
0.0
 49
0.0208333333333333
 49
0.0
 49
0.0
 49
0.0
 49
0.0
 49
1.0
 49
0.0
 49
0.0
 49
0.0
 49
0.0
 49
1.0
175
     0
142
0.0208333333333333
142
0.0
142
0.0
142
0.0
142
0.0
142
0.0208333333333333
142
0.0
142
0.0
142
0.0
142
0.0
142
1.0
142
0.0
142
0.0
142
0.0
142
0.0
142
1.0
179
     0
144
0.0208333333333333
144
0.0
144
0.0
144
0.0
144
0.0
144
0.0208333333333333
144
0.0
144
0.0
144
0.0
144
0.0
144
1.0
144
0.0
144
0.0
144
0.0
144
0.0
144
1.0
147
0.0208333333333333
147
0.0
147
0.0
147
0.0
147
0.0
147
0.0208333333333333
147
0.0
147
0.0
147
0.0
147
0.0
147
1.0
147
0.0
147
0.0
147
0.0
147
0.0
147
1.0
  0
MATERIAL
  5
21
102
{ACAD_XDICTIONARY
360
22
102
}
102
{ACAD_REACTORS
330
10
102
}
330
10
100
AcDbMaterial
  1
Global
 72
     0
 43
0.0208333333333333
 43
0.0
 43
0.0
 43
0.0
 43
0.0
 43
0.0208333333333333
 43
0.0
 43
0.0
 43
0.0
 43
0.0
 43
1.0
 43
0.0
 43
0.0
 43
0.0
 43
0.0
 43
1.0
 77
     0
 47
0.0208333333333333
 47
0.0
 47
0.0
 47
0.0
 47
0.0
 47
0.0208333333333333
 47
0.0
 47
0.0
 47
0.0
 47
0.0
 47
1.0
 47
0.0
 47
0.0
 47
0.0
 47
0.0
 47
1.0
171
     0
 49
0.0208333333333333
 49
0.0
 49
0.0
 49
0.0
 49
0.0
 49
0.0208333333333333
 49
0.0
 49
0.0
 49
0.0
 49
0.0
 49
1.0
 49
0.0
 49
0.0
 49
0.0
 49
0.0
 49
1.0
175
     0
142
0.0208333333333333
142
0.0
142
0.0
142
0.0
142
0.0
142
0.0208333333333333
142
0.0
142
0.0
142
0.0
142
0.0
142
1.0
142
0.0
142
0.0
142
0.0
142
0.0
142
1.0
179
     0
144
0.0208333333333333
144
0.0
144
0.0
144
0.0
144
0.0
144
0.0208333333333333
144
0.0
144
0.0
144
0.0
144
0.0
144
1.0
144
0.0
144
0.0
144
0.0
144
0.0
144
1.0
147
0.0208333333333333
147
0.0
147
0.0
147
0.0
147
0.0
147
0.0208333333333333
147
0.0
147
0.0
147
0.0
147
0.0
147
1.0
147
0.0
147
0.0
147
0.0
147
0.0
147
1.0
  0
MLEADERSTYLE
  5
6F
102
{ACAD_REACTORS
330
6E
102
}
330
6E
100
AcDbMLeaderStyle
170
     2
171
     1
172
     0
 90
        2
 40
0.0
 41
0.0
173
     1
 91
-1056964608
340
63
 92
       -2
290
     1
 42
0.09
291
     1
 43
0.36
  3
Standard
 44
0.18
300

342
5D
174
     1
178
     6
175
     1
176
     0
 93
-1056964608
 45
0.18
292
     0
297
     0
 46
0.18
 94
-1056964608
 47
1.0
 49
1.0
140
1.0
293
     1
141
0.0
294
     1
177
     0
142
1.0
295
     0
296
     0
143
0.125
1001
ACAD_MLEADERVER
1070
     2
  0
MLINESTYLE
  5
68
102
{ACAD_REACTORS
330
67
102
}
330
67
100
AcDbMlineStyle
  2
STANDARD
 70
     0
  3

 62
   256
 51
90.0
 52
90.0
 71
     2
 49
0.5
 62
   256
  6
BYLAYER
 49
-0.5
 62
   256
  6
BYLAYER
  0
ACDBPLACEHOLDER
  5
F
102
{ACAD_REACTORS
330
E
102
}
330
E
  0
SCALE
  5
3B
102
{ACAD_REACTORS
330
3A
102
}
330
3A
100
AcDbScale
 70
     0
300
1:1
140
1.0
141
1.0
290
     1
  0
SCALE
  5
3C
102
{ACAD_REACTORS
330
3A
102
}
330
3A
100
AcDbScale
 70
     0
300
1:2
140
1.0
141
2.0
290
     0
  0
SCALE
  5
3D
102
{ACAD_REACTORS
330
3A
102
}
330
3A
100
AcDbScale
 70
     0
300
1:4
140
1.0
141
4.0
290
     0
  0
SCALE
  5
3E
102
{ACAD_REACTORS
330
3A
102
}
330
3A
100
AcDbScale
 70
     0
300
1:5
140
1.0
141
5.0
290
     0
  0
SCALE
  5
3F
102
{ACAD_REACTORS
330
3A
102
}
330
3A
100
AcDbScale
 70
     0
300
1:8
140
1.0
141
8.0
290
     0
  0
SCALE
  5
40
102
{ACAD_REACTORS
330
3A
102
}
330
3A
100
AcDbScale
 70
     0
300
1:10
140
1.0
141
10.0
290
     0
  0
SCALE
  5
41
102
{ACAD_REACTORS
330
3A
102
}
330
3A
100
AcDbScale
 70
     0
300
1:16
140
1.0
141
16.0
290
     0
  0
SCALE
  5
42
102
{ACAD_REACTORS
330
3A
102
}
330
3A
100
AcDbScale
 70
     0
300
1:20
140
1.0
141
20.0
290
     0
  0
SCALE
  5
43
102
{ACAD_REACTORS
330
3A
102
}
330
3A
100
AcDbScale
 70
     0
300
1:30
140
1.0
141
30.0
290
     0
  0
SCALE
  5
44
102
{ACAD_REACTORS
330
3A
102
}
330
3A
100
AcDbScale
 70
     0
300
1:40
140
1.0
141
40.0
290
     0
  0
SCALE
  5
45
102
{ACAD_REACTORS
330
3A
102
}
330
3A
100
AcDbScale
 70
     0
300
1:50
140
1.0
141
50.0
290
     0
  0
SCALE
  5
46
102
{ACAD_REACTORS
330
3A
102
}
330
3A
100
AcDbScale
 70
     0
300
1:100
140
1.0
141
100.0
290
     0
  0
SCALE
  5
47
102
{ACAD_REACTORS
330
3A
102
}
330
3A
100
AcDbScale
 70
     0
300
2:1
140
2.0
141
1.0
290
     0
  0
SCALE
  5
48
102
{ACAD_REACTORS
330
3A
102
}
330
3A
100
AcDbScale
 70
     0
300
4:1
140
4.0
141
1.0
290
     0
  0
SCALE
  5
49
102
{ACAD_REACTORS
330
3A
102
}
330
3A
100
AcDbScale
 70
     0
300
8:1
140
8.0
141
1.0
290
     0
  0
SCALE
  5
4A
102
{ACAD_REACTORS
330
3A
102
}
330
3A
100
AcDbScale
 70
     0
300
10:1
140
10.0
141
1.0
290
     0
  0
SCALE
  5
4B
102
{ACAD_REACTORS
330
3A
102
}
330
3A
100
AcDbScale
 70
     0
300
100:1
140
100.0
141
1.0
290
     0
  0
SCALE
  5
4C
102
{ACAD_REACTORS
330
3A
102
}
330
3A
100
AcDbScale
 70
     0
300
1/128" = 1'-0"
140
0.0078125
141
12.0
290
     0
  0
SCALE
  5
4D
102
{ACAD_REACTORS
330
3A
102
}
330
3A
100
AcDbScale
 70
     0
300
1/64" = 1'-0"
140
0.015625
141
12.0
290
     0
  0
SCALE
  5
4E
102
{ACAD_REACTORS
330
3A
102
}
330
3A
100
AcDbScale
 70
     0
300
1/32" = 1'-0"
140
0.03125
141
12.0
290
     0
  0
SCALE
  5
4F
102
{ACAD_REACTORS
330
3A
102
}
330
3A
100
AcDbScale
 70
     0
300
1/16" = 1'-0"
140
0.0625
141
12.0
290
     0
  0
SCALE
  5
50
102
{ACAD_REACTORS
330
3A
102
}
330
3A
100
AcDbScale
 70
     0
300
3/32" = 1'-0"
140
0.09375
141
12.0
290
     0
  0
SCALE
  5
51
102
{ACAD_REACTORS
330
3A
102
}
330
3A
100
AcDbScale
 70
     0
300
1/8" = 1'-0"
140
0.125
141
12.0
290
     0
  0
SCALE
  5
52
102
{ACAD_REACTORS
330
3A
102
}
330
3A
100
AcDbScale
 70
     0
300
3/16" = 1'-0"
140
0.1875
141
12.0
290
     0
  0
SCALE
  5
53
102
{ACAD_REACTORS
330
3A
102
}
330
3A
100
AcDbScale
 70
     0
300
1/4" = 1'-0"
140
0.25
141
12.0
290
     0
  0
SCALE
  5
54
102
{ACAD_REACTORS
330
3A
102
}
330
3A
100
AcDbScale
 70
     0
300
3/8" = 1'-0"
140
0.375
141
12.0
290
     0
  0
SCALE
  5
55
102
{ACAD_REACTORS
330
3A
102
}
330
3A
100
AcDbScale
 70
     0
300
1/2" = 1'-0"
140
0.5
141
12.0
290
     0
  0
SCALE
  5
56
102
{ACAD_REACTORS
330
3A
102
}
330
3A
100
AcDbScale
 70
     0
300
3/4" = 1'-0"
140
0.75
141
12.0
290
     0
  0
SCALE
  5
57
102
{ACAD_REACTORS
330
3A
102
}
330
3A
100
AcDbScale
 70
     0
300
1" = 1'-0"
140
1.0
141
12.0
290
     0
  0
SCALE
  5
58
102
{ACAD_REACTORS
330
3A
102
}
330
3A
100
AcDbScale
 70
     0
300
1-1/2" = 1'-0"
140
1.5
141
12.0
290
     0
  0
SCALE
  5
59
102
{ACAD_REACTORS
330
3A
102
}
330
3A
100
AcDbScale
 70
     0
300
3" = 1'-0"
140
3.0
141
12.0
290
     0
  0
SCALE
  5
5A
102
{ACAD_REACTORS
330
3A
102
}
330
3A
100
AcDbScale
 70
     0
300
6" = 1'-0"
140
6.0
141
12.0
290
     0
  0
SCALE
  5
5B
102
{ACAD_REACTORS
330
3A
102
}
330
3A
100
AcDbScale
 70
     0
300
1'-0" = 1'-0"
140
12.0
141
12.0
290
     0
  0
TABLESTYLE
  5
6D
102
{ACAD_XDICTIONARY
360
38B
102
}
102
{ACAD_REACTORS
330
6C
102
}
330
6C
100
AcDbTableStyle
  3
Standard
 70
     0
 71
     0
 40
1.5
 41
1.5
280
     0
281
     0
  7
Standard
140
4.5
170
     2
 62
     0
 63
     7
283
     0
274
    -2
284
     1
 64
     0
275
    -2
285
     1
 65
     0
276
    -2
286
     1
 66
     0
277
    -2
287
     1
 67
     0
278
    -2
288
     1
 68
     0
279
    -2
289
     1
 69
     0
  7
Standard
140
6.0
170
     5
 62
     0
 63
     7
283
     0
274
    -2
284
     1
 64
     0
275
    -2
285
     1
 65
     0
276
    -2
286
     1
 66
     0
277
    -2
287
     1
 67
     0
278
    -2
288
     1
 68
     0
279
    -2
289
     1
 69
     0
  7
Standard
140
4.5
170
     5
 62
     0
 63
     7
283
     0
274
    -2
284
     1
 64
     0
275
    -2
285
     1
 65
     0
276
    -2
286
     1
 66
     0
277
    -2
287
     1
 67
     0
278
    -2
288
     1
 68
     0
279
    -2
289
     1
 69
     0
  0
VISUALSTYLE
  5
2F
102
{ACAD_REACTORS
330
29
102
}
330
29
100
AcDbVisualStyle
  2
2dWireframe
 70
     4
 71
     0
 72
     2
 73
     0
 90
        0
 40
-0.6
 41
-30.0
 62
     5
 63
     7
 74
     1
 91
        4
 64
     7
 65
   257
 75
     1
175
     1
 42
1.0
 92
        0
 66
   257
 43
1.0
 76
     1
 77
     6
 78
     2
 67
     7
 79
     5
170
     0
171
     0
290
     0
174
     0
 93
        1
 44
0.0
173
     0
291
     0
 45
0.0
1001
ACAD
1000
AcDbSavedByObjectVersion
1070
     0
  0
VISUALSTYLE
  5
31
102
{ACAD_REACTORS
330
29
102
}
330
29
100
AcDbVisualStyle
  2
3D Hidden
 70
     6
 71
     1
 72
     2
 73
     2
 90
        0
 40
-0.6
 41
-30.0
 62
     5
 63
     7
 74
     2
 91
        2
 64
     7
 65
   257
 75
     2
175
     1
 42
40.0
 92
        0
 66
   257
 43
1.0
 76
     1
 77
     6
 78
     2
 67
     7
 79
     3
170
     0
171
     0
290
     0
174
     0
 93
        1
 44
0.0
173
     0
291
     0
 45
0.0
1001
ACAD
1000
AcDbSavedByObjectVersion
1070
     0
  0
VISUALSTYLE
  5
30
102
{ACAD_REACTORS
330
29
102
}
330
29
100
AcDbVisualStyle
  2
3dWireframe
 70
     5
 71
     0
 72
     2
 73
     0
 90
        0
 40
-0.6
 41
-30.0
 62
     5
 63
     7
 74
     1
 91
        4
 64
     7
 65
   257
 75
     1
175
     1
 42
1.0
 92
        0
 66
   257
 43
1.0
 76
     1
 77
     6
 78
     2
 67
     7
 79
     5
170
     0
171
     0
290
     0
174
     0
 93
        1
 44
0.0
173
     0
291
     0
 45
0.0
1001
ACAD
1000
AcDbSavedByObjectVersion
1070
     0
  0
VISUALSTYLE
  5
2E
102
{ACAD_REACTORS
330
29
102
}
330
29
100
AcDbVisualStyle
  2
Basic
 70
     7
 71
     1
 72
     0
 73
     1
 90
        0
 40
-0.6
 41
-30.0
 62
     5
 63
     7
 74
     0
 91
        4
 64
     7
 65
   257
 75
     1
175
     1
 42
1.0
 92
        8
 66
     7
 43
1.0
 76
     1
 77
     6
 78
     2
 67
     7
 79
     5
170
     0
171
     0
290
     0
174
     0
 93
        1
 44
0.0
173
     0
291
     1
 45
0.0
1001
ACAD
1000
AcDbSavedByObjectVersion
1070
     0
  0
VISUALSTYLE
  5
35
102
{ACAD_REACTORS
330
29
102
}
330
29
100
AcDbVisualStyle
  2
Brighten
 70
    12
 71
     2
 72
     2
 73
     0
 90
        0
 40
-0.6
 41
-30.0
 62
     5
 63
     7
 74
     1
 91
        4
 64
     7
 65
   257
 75
     1
175
     1
 42
1.0
 92
        8
 66
     7
 43
1.0
 76
     1
 77
     6
 78
     2
 67
     7
 79
     5
170
     0
171
     0
290
     0
174
     0
 93
        1
 44
50.0
173
     0
291
     1
 45
0.0
1001
ACAD
1000
AcDbSavedByObjectVersion
1070
     0
  0
VISUALSTYLE
  5
39
102
{ACAD_REACTORS
330
29
102
}
330
29
100
AcDbVisualStyle
  2
ColorChange
 70
    16
 71
     2
 72
     2
 73
     3
 90
        0
 40
-0.6
 41
-30.0
 62
     5
 63
     8
 74
     1
 91
        4
 64
     7
 65
   257
 75
     1
175
     1
 42
1.0
 92
        8
 66
     8
 43
1.0
 76
     1
 77
     6
 78
     2
 67
     7
 79
     5
170
     0
171
     0
290
     0
174
     0
 93
        1
 44
0.0
173
     0
291
     1
 45
0.0
1001
ACAD
1000
AcDbSavedByObjectVersion
1070
     0
  0
VISUALSTYLE
  5
32
102
{ACAD_REACTORS
330
29
102
}
330
29
100
AcDbVisualStyle
  2
Conceptual
 70
     9
 71
     3
 72
     2
 73
     0
 90
        0
 40
-0.6
 41
-30.0
 62
     5
 63
     7
 74
     2
 91
        2
 64
     7
 65
   257
 75
     1
175
     1
 42
40.0
 92
        8
 66
     7
 43
1.0
 76
     1
 77
     6
 78
     2
 67
     7
 79
     3
170
     0
171
     0
290
     0
174
     0
 93
        1
 44
0.0
173
     0
291
     0
 45
0.0
1001
ACAD
1000
AcDbSavedByObjectVersion
1070
     0
  0
VISUALSTYLE
  5
34
102
{ACAD_REACTORS
330
29
102
}
330
29
100
AcDbVisualStyle
  2
Dim
 70
    11
 71
     2
 72
     2
 73
     0
 90
        0
 40
-0.6
 41
-30.0
 62
     5
 63
     7
 74
     1
 91
        4
 64
     7
 65
   257
 75
     1
175
     1
 42
1.0
 92
        8
 66
     7
 43
1.0
 76
     1
 77
     6
 78
     2
 67
     7
 79
     5
170
     0
171
     0
290
     0
174
     0
 93
        1
 44
-50.0
173
     0
291
     1
 45
0.0
1001
ACAD
1000
AcDbSavedByObjectVersion
1070
     0
  0
VISUALSTYLE
  5
38
102
{ACAD_REACTORS
330
29
102
}
330
29
100
AcDbVisualStyle
  2
Facepattern
 70
    15
 71
     2
 72
     2
 73
     0
 90
        0
 40
-0.6
 41
-30.0
 62
     5
 63
     7
 74
     1
 91
        4
 64
     7
 65
   257
 75
     1
175
     1
 42
1.0
 92
        8
 66
     7
 43
1.0
 76
     1
 77
     6
 78
     2
 67
     7
 79
     5
170
     0
171
     0
290
     0
174
     0
 93
        1
 44
0.0
173
     0
291
     1
 45
0.0
1001
ACAD
1000
AcDbSavedByObjectVersion
1070
     0
  0
VISUALSTYLE
  5
2A
102
{ACAD_REACTORS
330
29
102
}
330
29
100
AcDbVisualStyle
  2
Flat
 70
     0
 71
     2
 72
     1
 73
     1
 90
        2
 40
-0.6
 41
30.0
 62
     5
 63
     7
 74
     0
 91
        4
 64
     7
 65
   257
 75
     1
175
     1
 42
1.0
 92
        8
 66
     7
 43
1.0
 76
     1
 77
     6
 78
     2
 67
     7
 79
     5
170
     0
171
     0
290
     0
174
     0
 93
       13
 44
0.0
173
     0
291
     1
 45
0.0
1001
ACAD
1000
AcDbSavedByObjectVersion
1070
     0
  0
VISUALSTYLE
  5
2B
102
{ACAD_REACTORS
330
29
102
}
330
29
100
AcDbVisualStyle
  2
FlatWithEdges
 70
     1
 71
     2
 72
     1
 73
     1
 90
        2
 40
-0.6
 41
30.0
 62
     5
 63
     7
 74
     1
 91
        4
 64
     7
 65
   257
 75
     1
175
     1
 42
1.0
 92
        0
 66
   257
 43
1.0
 76
     1
 77
     6
 78
     2
 67
     7
 79
     5
170
     0
171
     0
290
     0
174
     0
 93
       13
 44
0.0
173
     0
291
     1
 45
0.0
1001
ACAD
1000
AcDbSavedByObjectVersion
1070
     0
  0
VISUALSTYLE
  5
2C
102
{ACAD_REACTORS
330
29
102
}
330
29
100
AcDbVisualStyle
  2
Gouraud
 70
     2
 71
     2
 72
     2
 73
     1
 90
        2
 40
-0.6
 41
30.0
 62
     5
 63
     7
 74
     0
 91
        4
 64
     7
 65
   257
 75
     1
175
     1
 42
1.0
 92
        0
 66
     7
 43
1.0
 76
     1
 77
     6
 78
     2
 67
     7
 79
     5
170
     0
171
     0
290
     0
174
     0
 93
       13
 44
0.0
173
     0
291
     1
 45
0.0
1001
ACAD
1000
AcDbSavedByObjectVersion
1070
     0
  0
VISUALSTYLE
  5
2D
102
{ACAD_REACTORS
330
29
102
}
330
29
100
AcDbVisualStyle
  2
GouraudWithEdges
 70
     3
 71
     2
 72
     2
 73
     1
 90
        2
 40
-0.6
 41
30.0
 62
     5
 63
     7
 74
     1
 91
        4
 64
     7
 65
   257
 75
     1
175
     1
 42
1.0
 92
        0
 66
   257
 43
1.0
 76
     1
 77
     6
 78
     2
 67
     7
 79
     5
170
     0
171
     0
290
     0
174
     0
 93
       13
 44
0.0
173
     0
291
     1
 45
0.0
1001
ACAD
1000
AcDbSavedByObjectVersion
1070
     0
  0
VISUALSTYLE
  5
37
102
{ACAD_REACTORS
330
29
102
}
330
29
100
AcDbVisualStyle
  2
Linepattern
 70
    14
 71
     2
 72
     2
 73
     0
 90
        0
 40
-0.6
 41
-30.0
 62
     5
 63
     7
 74
     1
 91
        4
 64
     7
 65
   257
 75
     7
175
     7
 42
1.0
 92
        8
 66
     7
 43
1.0
 76
     1
 77
     6
 78
     2
 67
     7
 79
     5
170
     0
171
     0
290
     0
174
     0
 93
        1
 44
0.0
173
     0
291
     1
 45
0.0
1001
ACAD
1000
AcDbSavedByObjectVersion
1070
     0
  0
VISUALSTYLE
  5
33
102
{ACAD_REACTORS
330
29
102
}
330
29
100
AcDbVisualStyle
  2
Realistic
 70
     8
 71
     2
 72
     2
 73
     0
 90
        0
 40
-0.6
 41
-30.0
 62
     5
 63
     7
 74
     1
 91
        0
 64
     7
 65
   257
 75
     1
175
     1
 42
1.0
 92
        8
 66
     8
 43
1.0
 76
     1
 77
     6
 78
     2
 67
     7
 79
     5
170
     0
171
     0
290
     0
174
     0
 93
       13
 44
0.0
173
     0
291
     0
 45
0.0
1001
ACAD
1000
AcDbSavedByObjectVersion
1070
     0
  0
VISUALSTYLE
  5
36
102
{ACAD_REACTORS
330
29
102
}
330
29
100
AcDbVisualStyle
  2
Thicken
 70
    13
 71
     2
 72
     2
 73
     0
 90
        0
 40
-0.6
 41
-30.0
 62
     5
 63
     7
 74
     1
 91
        4
 64
     7
 65
   257
 75
     1
175
     1
 42
1.0
 92
       12
 66
     7
 43
1.0
 76
     1
 77
     6
 78
     2
 67
     7
 79
     5
170
     0
171
     0
290
     0
174
     0
 93
        1
 44
0.0
173
     0
291
     1
 45
0.0
1001
ACAD
1000
AcDbSavedByObjectVersion
1070
     0
  0
DICTIONARYVAR
  5
3A6
102
{ACAD_REACTORS
330
3A2
102
}
330
3A2
100
DictionaryVariables
280
     0
  1
1:1
  0
DICTIONARYVAR
  5
3A4
102
{ACAD_REACTORS
330
3A2
102
}
330
3A2
100
DictionaryVariables
280
     0
  1
STANDARD
  0
DICTIONARYVAR
  5
3A3
102
{ACAD_REACTORS
330
3A2
102
}
330
3A2
100
DictionaryVariables
280
     0
  1
STANDARD
  0
DICTIONARYVAR
  5
3AB
102
{ACAD_REACTORS
330
3A2
102
}
330
3A2
100
DictionaryVariables
280
     0
  1
2
  0
DICTIONARYVAR
  5
3AA
102
{ACAD_REACTORS
330
3A2
102
}
330
3A2
100
DictionaryVariables
280
     0
  1
1
  0
DICTIONARYVAR
  5
3A9
102
{ACAD_REACTORS
330
3A2
102
}
330
3A2
100
DictionaryVariables
280
     0
  1
0
  0
DICTIONARYVAR
  5
3A7
102
{ACAD_REACTORS
330
3A2
102
}
330
3A2
100
DictionaryVariables
280
     0
  1
2
  0
DICTIONARYVAR
  5
96A
102
{ACAD_REACTORS
330
3A2
102
}
330
3A2
100
DictionaryVariables
280
     0
  1
1.570796
  0
DICTIONARYVAR
  5
96B
102
{ACAD_REACTORS
330
3A2
102
}
330
3A2
100
DictionaryVariables
280
     0
  1
1.570796
  0
DICTIONARYVAR
  5
96C
102
{ACAD_REACTORS
330
3A2
102
}
330
3A2
100
DictionaryVariables
280
     0
  1
-122.394000
  0
DICTIONARYVAR
  5
3A5
102
{ACAD_REACTORS
330
3A2
102
}
330
3A2
100
DictionaryVariables
280
     0
  1
1
  0
DICTIONARYVAR
  5
3A8
102
{ACAD_REACTORS
330
3A2
102
}
330
3A2
100
DictionaryVariables
280
     0
  1
127
  0
XRECORD
  5
348
102
{ACAD_REACTORS
330
347
102
}
330
347
100
AcDbXrecord
280
     1
  0
DICTIONARY
  5
979
330
78
100
AcDbDictionary
280
     1
281
     1
  3
ACAD_XREC_ROUNDTRIP
360
97A
  0
DICTIONARY
  5
977
330
74
100
AcDbDictionary
280
     1
281
     1
  3
ACAD_XREC_ROUNDTRIP
360
978
  0
DICTIONARY
  5
97B
330
7C
100
AcDbDictionary
280
     1
281
     1
  3
ACAD_XREC_ROUNDTRIP
360
97C
  0
DICTIONARY
  5
1A
330
19
100
AcDbDictionary
280
     1
281
     1
  3
ACAD_XREC_ROUNDTRIP
360
974
  3
BUMPTILE
360
1C
  3
DIFFUSETILE
360
1B
  3
OPACITYTILE
360
1F
  3
REFLECTIONTILE
360
1E
  3
REFRACTIONTILE
360
20
  3
SPECULARTILE
360
1D
  0
DICTIONARY
  5
12
330
11
100
AcDbDictionary
280
     1
281
     1
  3
ACAD_XREC_ROUNDTRIP
360
973
  3
BUMPTILE
360
14
  3
DIFFUSETILE
360
13
  3
OPACITYTILE
360
17
  3
REFLECTIONTILE
360
16
  3
REFRACTIONTILE
360
18
  3
SPECULARTILE
360
15
  0
DICTIONARY
  5
22
330
21
100
AcDbDictionary
280
     1
281
     1
  3
ACAD_XREC_ROUNDTRIP
360
975
  3
BUMPTILE
360
24
  3
DIFFUSETILE
360
23
  3
OPACITYTILE
360
27
  3
REFLECTIONTILE
360
26
  3
REFRACTIONTILE
360
28
  3
SPECULARTILE
360
25
  0
DICTIONARY
  5
38B
330
6D
100
AcDbDictionary
280
     1
281
     1
  3
ACAD_ROUNDTRIP_2008_TABLESTYLE_CELLSTYLEMAP
360
96D
  3
ACAD_XREC_ROUNDTRIP
360
976
  0
XRECORD
  5
97A
102
{ACAD_REACTORS
330
979
102
}
330
979
100
AcDbXrecord
280
     1
102
SHADEPLOT
 70
     0
102
SHADEPLOTRESLEVEL
 70
     2
102
SHADEPLOTCUSTOMDPI
 70
   300
  0
XRECORD
  5
978
102
{ACAD_REACTORS
330
977
102
}
330
977
100
AcDbXrecord
280
     1
102
SHADEPLOT
 70
     0
102
SHADEPLOTRESLEVEL
 70
     2
102
SHADEPLOTCUSTOMDPI
 70
   300
  0
XRECORD
  5
97C
102
{ACAD_REACTORS
330
97B
102
}
330
97B
100
AcDbXrecord
280
     1
102
SHADEPLOT
 70
     0
102
SHADEPLOTRESLEVEL
 70
     2
102
SHADEPLOTCUSTOMDPI
 70
   300
  0
XRECORD
  5
974
102
{ACAD_REACTORS
330
1A
102
}
330
1A
100
AcDbXrecord
280
     1
102
MATERIAL
148
0.0
149
0.0
149
0.0
 93
        0
 94
      127
282
     0
 72
     0
 77
     0
171
     0
175
     0
179
     0
273
     0
  0
XRECORD
  5
1C
102
{ACAD_REACTORS
330
1A
102
}
330
1A
100
AcDbXrecord
280
     1
270
     1
271
     1
  0
XRECORD
  5
1B
102
{ACAD_REACTORS
330
1A
102
}
330
1A
100
AcDbXrecord
280
     1
270
     1
271
     1
  0
XRECORD
  5
1F
102
{ACAD_REACTORS
330
1A
102
}
330
1A
100
AcDbXrecord
280
     1
270
     1
271
     1
  0
XRECORD
  5
1E
102
{ACAD_REACTORS
330
1A
102
}
330
1A
100
AcDbXrecord
280
     1
270
     1
271
     1
  0
XRECORD
  5
20
102
{ACAD_REACTORS
330
1A
102
}
330
1A
100
AcDbXrecord
280
     1
270
     1
271
     1
  0
XRECORD
  5
1D
102
{ACAD_REACTORS
330
1A
102
}
330
1A
100
AcDbXrecord
280
     1
270
     1
271
     1
  0
XRECORD
  5
973
102
{ACAD_REACTORS
330
12
102
}
330
12
100
AcDbXrecord
280
     1
102
MATERIAL
148
0.0
149
0.0
149
0.0
 93
        0
 94
      127
282
     0
 72
     0
 77
     0
171
     0
175
     0
179
     0
273
     0
  0
XRECORD
  5
14
102
{ACAD_REACTORS
330
12
102
}
330
12
100
AcDbXrecord
280
     1
270
     1
271
     1
  0
XRECORD
  5
13
102
{ACAD_REACTORS
330
12
102
}
330
12
100
AcDbXrecord
280
     1
270
     1
271
     1
  0
XRECORD
  5
17
102
{ACAD_REACTORS
330
12
102
}
330
12
100
AcDbXrecord
280
     1
270
     1
271
     1
  0
XRECORD
  5
16
102
{ACAD_REACTORS
330
12
102
}
330
12
100
AcDbXrecord
280
     1
270
     1
271
     1
  0
XRECORD
  5
18
102
{ACAD_REACTORS
330
12
102
}
330
12
100
AcDbXrecord
280
     1
270
     1
271
     1
  0
XRECORD
  5
15
102
{ACAD_REACTORS
330
12
102
}
330
12
100
AcDbXrecord
280
     1
270
     1
271
     1
  0
XRECORD
  5
975
102
{ACAD_REACTORS
330
22
102
}
330
22
100
AcDbXrecord
280
     1
102
MATERIAL
148
0.0
149
0.0
149
0.0
 93
        0
 94
      127
282
     0
 72
     0
 77
     0
171
     0
175
     0
179
     0
273
     0
  0
XRECORD
  5
24
102
{ACAD_REACTORS
330
22
102
}
330
22
100
AcDbXrecord
280
     1
270
     1
271
     1
  0
XRECORD
  5
23
102
{ACAD_REACTORS
330
22
102
}
330
22
100
AcDbXrecord
280
     1
270
     1
271
     1
  0
XRECORD
  5
27
102
{ACAD_REACTORS
330
22
102
}
330
22
100
AcDbXrecord
280
     1
270
     1
271
     1
  0
XRECORD
  5
26
102
{ACAD_REACTORS
330
22
102
}
330
22
100
AcDbXrecord
280
     1
270
     1
271
     1
  0
XRECORD
  5
28
102
{ACAD_REACTORS
330
22
102
}
330
22
100
AcDbXrecord
280
     1
270
     1
271
     1
  0
XRECORD
  5
25
102
{ACAD_REACTORS
330
22
102
}
330
22
100
AcDbXrecord
280
     1
270
     1
271
     1
  0
CELLSTYLEMAP
  5
96D
102
{ACAD_REACTORS
330
38B
102
}
330
38B
100
AcDbCellStyleMap
 90
        3
300
CELLSTYLE
  1
TABLEFORMAT_BEGIN
 90
        5
170
     1
 91
        0
 92
    32768
 62
   257
 93
        1
300
CONTENTFORMAT
  1
CONTENTFORMAT_BEGIN
 90
        0
 91
        0
 92
      512
 93
        0
300

 40
0.0
140
1.0
 94
        5
 62
     0
340
5D
144
6.0
309
CONTENTFORMAT_END
171
     1
301
MARGIN
  1
CELLMARGIN_BEGIN
 40
1.5
 40
1.5
 40
1.5
 40
1.5
 40
0.18
 40
0.18
309
CELLMARGIN_END
 94
        6
 95
        1
302
GRIDFORMAT
  1
GRIDFORMAT_BEGIN
 90
        0
 91
        1
 62
     0
 92
       -2
340
0
 93
        0
 40
1.125
309
GRIDFORMAT_END
 95
        2
302
GRIDFORMAT
  1
GRIDFORMAT_BEGIN
 90
        0
 91
        1
 62
     0
 92
       -2
340
0
 93
        0
 40
1.125
309
GRIDFORMAT_END
 95
        4
302
GRIDFORMAT
  1
GRIDFORMAT_BEGIN
 90
        0
 91
        1
 62
     0
 92
       -2
340
0
 93
        0
 40
1.125
309
GRIDFORMAT_END
 95
        8
302
GRIDFORMAT
  1
GRIDFORMAT_BEGIN
 90
        0
 91
        1
 62
     0
 92
       -2
340
0
 93
        0
 40
1.125
309
GRIDFORMAT_END
 95
       16
302
GRIDFORMAT
  1
GRIDFORMAT_BEGIN
 90
        0
 91
        1
 62
     0
 92
       -2
340
0
 93
        0
 40
1.125
309
GRIDFORMAT_END
 95
       32
302
GRIDFORMAT
  1
GRIDFORMAT_BEGIN
 90
        0
 91
        1
 62
     0
 92
       -2
340
0
 93
        0
 40
1.125
309
GRIDFORMAT_END
309
TABLEFORMAT_END
  1
CELLSTYLE_BEGIN
 90
        1
 91
        1
300
_TITLE
309
CELLSTYLE_END
300
CELLSTYLE
  1
TABLEFORMAT_BEGIN
 90
        5
170
     1
 91
        0
 92
        0
 62
   257
 93
        1
300
CONTENTFORMAT
  1
CONTENTFORMAT_BEGIN
 90
        0
 91
        0
 92
      512
 93
        0
300

 40
0.0
140
1.0
 94
        5
 62
     0
340
5D
144
4.5
309
CONTENTFORMAT_END
171
     1
301
MARGIN
  1
CELLMARGIN_BEGIN
 40
1.5
 40
1.5
 40
1.5
 40
1.5
 40
0.18
 40
0.18
309
CELLMARGIN_END
 94
        6
 95
        1
302
GRIDFORMAT
  1
GRIDFORMAT_BEGIN
 90
        0
 91
        1
 62
     0
 92
       -2
340
0
 93
        0
 40
1.125
309
GRIDFORMAT_END
 95
        2
302
GRIDFORMAT
  1
GRIDFORMAT_BEGIN
 90
        0
 91
        1
 62
     0
 92
       -2
340
0
 93
        0
 40
1.125
309
GRIDFORMAT_END
 95
        4
302
GRIDFORMAT
  1
GRIDFORMAT_BEGIN
 90
        0
 91
        1
 62
     0
 92
       -2
340
0
 93
        0
 40
1.125
309
GRIDFORMAT_END
 95
        8
302
GRIDFORMAT
  1
GRIDFORMAT_BEGIN
 90
        0
 91
        1
 62
     0
 92
       -2
340
0
 93
        0
 40
1.125
309
GRIDFORMAT_END
 95
       16
302
GRIDFORMAT
  1
GRIDFORMAT_BEGIN
 90
        0
 91
        1
 62
     0
 92
       -2
340
0
 93
        0
 40
1.125
309
GRIDFORMAT_END
 95
       32
302
GRIDFORMAT
  1
GRIDFORMAT_BEGIN
 90
        0
 91
        1
 62
     0
 92
       -2
340
0
 93
        0
 40
1.125
309
GRIDFORMAT_END
309
TABLEFORMAT_END
  1
CELLSTYLE_BEGIN
 90
        2
 91
        1
300
_HEADER
309
CELLSTYLE_END
300
CELLSTYLE
  1
TABLEFORMAT_BEGIN
 90
        5
170
     1
 91
        0
 92
        0
 62
   257
 93
        1
300
CONTENTFORMAT
  1
CONTENTFORMAT_BEGIN
 90
        0
 91
        0
 92
      512
 93
        0
300

 40
0.0
140
1.0
 94
        2
 62
     0
340
5D
144
4.5
309
CONTENTFORMAT_END
171
     1
301
MARGIN
  1
CELLMARGIN_BEGIN
 40
1.5
 40
1.5
 40
1.5
 40
1.5
 40
0.18
 40
0.18
309
CELLMARGIN_END
 94
        6
 95
        1
302
GRIDFORMAT
  1
GRIDFORMAT_BEGIN
 90
        0
 91
        1
 62
     0
 92
       -2
340
0
 93
        0
 40
1.125
309
GRIDFORMAT_END
 95
        2
302
GRIDFORMAT
  1
GRIDFORMAT_BEGIN
 90
        0
 91
        1
 62
     0
 92
       -2
340
0
 93
        0
 40
1.125
309
GRIDFORMAT_END
 95
        4
302
GRIDFORMAT
  1
GRIDFORMAT_BEGIN
 90
        0
 91
        1
 62
     0
 92
       -2
340
0
 93
        0
 40
1.125
309
GRIDFORMAT_END
 95
        8
302
GRIDFORMAT
  1
GRIDFORMAT_BEGIN
 90
        0
 91
        1
 62
     0
 92
       -2
340
0
 93
        0
 40
1.125
309
GRIDFORMAT_END
 95
       16
302
GRIDFORMAT
  1
GRIDFORMAT_BEGIN
 90
        0
 91
        1
 62
     0
 92
       -2
340
0
 93
        0
 40
1.125
309
GRIDFORMAT_END
 95
       32
302
GRIDFORMAT
  1
GRIDFORMAT_BEGIN
 90
        0
 91
        1
 62
     0
 92
       -2
340
0
 93
        0
 40
1.125
309
GRIDFORMAT_END
309
TABLEFORMAT_END
  1
CELLSTYLE_BEGIN
 90
        3
 91
        2
300
_DATA
309
CELLSTYLE_END
  0
XRECORD
  5
976
102
{ACAD_REACTORS
330
38B
102
}
330
38B
100
AcDbXrecord
280
     1
102
ACAD_ROUNDTRIP_PRE2007_TABLESTYLE
 90
      512
 91
        0
  1

 92
      512
 93
        0
  2

 94
      512
 95
        0
  3

  0
ENDSEC
  0
EOF
