  0
SECTION
  2
HEADER
  9
$ACADVER
  1
AC1015
  9
$ACADMAINTVER
 70
     6
  9
$DWGCODEPAGE
  3
ANSI_1252
  9
$INSBASE
 10
0.0
 20
0.0
 30
0.0
  9
$EXTMIN
 10
318.848696
 20
29.86362299999999
 30
0.0
  9
$EXTMAX
 10
329.348696
 20
44.713623
 30
0.0
  9
$LIMMIN
 10
0.0
 20
0.0
  9
$LIMMAX
 10
410.0
 20
287.0
  9
$ORTHOMODE
 70
     1
  9
$REGENMODE
 70
     1
  9
$FILLMODE
 70
     1
  9
$QTEXTMODE
 70
     0
  9
$MIRRTEXT
 70
     1
  9
$LTSCALE
 40
25.0
  9
$ATTMODE
 70
     1
  9
$TEXTSIZE
 40
0.1
  9
$TRACEWID
 40
1.0
  9
$TEXTSTYLE
  7
ROMANC
  9
$CLAYER
  8
0
  9
$CELTYPE
  6
BYLAYER
  9
$CECOLOR
 62
   256
  9
$CELTSCALE
 40
1.0
  9
$DISPSILH
 70
     0
  9
$DIMSCALE
 40
1.5
  9
$DIMASZ
 40
0.1
  9
$DIMEXO
 40
0.01
  9
$DIMDLI
 40
7.0
  9
$DIMRND
 40
0.0
  9
$DIMDLE
 40
0.0
  9
$DIMEXE
 40
0.01
  9
$DIMTP
 40
0.0
  9
$DIMTM
 40
0.0
  9
$DIMTXT
 40
0.05
  9
$DIMCEN
 40
0.0
  9
$DIMTSZ
 40
0.0
  9
$DIMTOL
 70
     0
  9
$DIMLIM
 70
     0
  9
$DIMTIH
 70
     0
  9
$DIMTOH
 70
     0
  9
$DIMSE1
 70
     0
  9
$DIMSE2
 70
     0
  9
$DIMTAD
 70
     1
  9
$DIMZIN
 70
     0
  9
$DIMBLK
  1

  9
$DIMASO
 70
     1
  9
$DIMSHO
 70
     0
  9
$DIMPOST
  1

  9
$DIMAPOST
  1

  9
$DIMALT
 70
     0
  9
$DIMALTD
 70
     2
  9
$DIMALTF
 40
25.4
  9
$DIMLFAC
 40
1.0
  9
$DIMTOFL
 70
     1
  9
$DIMTVP
 40
0.0
  9
$DIMTIX
 70
     1
  9
$DIMSOXD
 70
     0
  9
$DIMSAH
 70
     0
  9
$DIMBLK1
  1

  9
$DIMBLK2
  1

  9
$DIMSTYLE
  2
MERITXELL
  9
$DIMCLRD
 70
     0
  9
$DIMCLRE
 70
     0
  9
$DIMCLRT
 70
     0
  9
$DIMTFAC
 40
70.0
  9
$DIMGAP
 40
0.025
  9
$DIMJUST
 70
     0
  9
$DIMSD1
 70
     0
  9
$DIMSD2
 70
     0
  9
$DIMTOLJ
 70
     1
  9
$DIMTZIN
 70
     0
  9
$DIMALTZ
 70
     0
  9
$DIMALTTZ
 70
     0
  9
$DIMUPT
 70
     0
  9
$DIMDEC
 70
     2
  9
$DIMTDEC
 70
     2
  9
$DIMALTU
 70
     2
  9
$DIMALTTD
 70
     2
  9
$DIMTXSTY
  7
ROMANC
  9
$DIMAUNIT
 70
     0
  9
$DIMADEC
 70
     0
  9
$DIMALTRND
 40
0.0
  9
$DIMAZIN
 70
     0
  9
$DIMDSEP
 70
    46
  9
$DIMATFIT
 70
     3
  9
$DIMFRAC
 70
     0
  9
$DIMLDRBLK
  1

  9
$DIMLUNIT
 70
     2
  9
$DIMLWD
 70
    -2
  9
$DIMLWE
 70
    -2
  9
$DIMTMOVE
 70
     2
  9
$LUNITS
 70
     2
  9
$LUPREC
 70
     2
  9
$SKETCHINC
 40
1.0
  9
$FILLETRAD
 40
0.0
  9
$AUNITS
 70
     0
  9
$AUPREC
 70
     0
  9
$MENU
  1
acad
  9
$ELEVATION
 40
0.0
  9
$PELEVATION
 40
0.0
  9
$THICKNESS
 40
0.0
  9
$LIMCHECK
 70
     0
  9
$CHAMFERA
 40
0.0
  9
$CHAMFERB
 40
0.0
  9
$CHAMFERC
 40
0.0
  9
$CHAMFERD
 40
0.0
  9
$SKPOLY
 70
     0
  9
$TDCREATE
 40
2450927.461950000
  9
$TDUCREATE
 40
2450927.378616666
  9
$TDUPDATE
 40
2451675.419632534
  9
$TDUUPDATE
 40
2451675.336299201
  9
$TDINDWG
 40
0.2188857407
  9
$TDUSRTIMER
 40
0.2188857407
  9
$USRTIMER
 70
     1
  9
$ANGBASE
 50
0.0
  9
$ANGDIR
 70
     0
  9
$PDMODE
 70
     0
  9
$PDSIZE
 40
0.0
  9
$PLINEWID
 40
0.0
  9
$SPLFRAME
 70
     0
  9
$SPLINETYPE
 70
     6
  9
$SPLINESEGS
 70
     8
  9
$HANDSEED
  5
118A
  9
$SURFTAB1
 70
     6
  9
$SURFTAB2
 70
     6
  9
$SURFTYPE
 70
     6
  9
$SURFU
 70
     6
  9
$SURFV
 70
     6
  9
$UCSBASE
  2

  9
$UCSNAME
  2

  9
$UCSORG
 10
0.0
 20
0.0
 30
0.0
  9
$UCSXDIR
 10
1.0
 20
0.0
 30
0.0
  9
$UCSYDIR
 10
0.0
 20
1.0
 30
0.0
  9
$UCSORTHOREF
  2

  9
$UCSORTHOVIEW
 70
     0
  9
$UCSORGTOP
 10
0.0
 20
0.0
 30
0.0
  9
$UCSORGBOTTOM
 10
0.0
 20
0.0
 30
0.0
  9
$UCSORGLEFT
 10
0.0
 20
0.0
 30
0.0
  9
$UCSORGRIGHT
 10
0.0
 20
0.0
 30
0.0
  9
$UCSORGFRONT
 10
0.0
 20
0.0
 30
0.0
  9
$UCSORGBACK
 10
0.0
 20
0.0
 30
0.0
  9
$PUCSBASE
  2

  9
$PUCSNAME
  2

  9
$PUCSORG
 10
0.0
 20
0.0
 30
0.0
  9
$PUCSXDIR
 10
1.0
 20
0.0
 30
0.0
  9
$PUCSYDIR
 10
0.0
 20
1.0
 30
0.0
  9
$PUCSORTHOREF
  2

  9
$PUCSORTHOVIEW
 70
     0
  9
$PUCSORGTOP
 10
0.0
 20
0.0
 30
0.0
  9
$PUCSORGBOTTOM
 10
0.0
 20
0.0
 30
0.0
  9
$PUCSORGLEFT
 10
0.0
 20
0.0
 30
0.0
  9
$PUCSORGRIGHT
 10
0.0
 20
0.0
 30
0.0
  9
$PUCSORGFRONT
 10
0.0
 20
0.0
 30
0.0
  9
$PUCSORGBACK
 10
0.0
 20
0.0
 30
0.0
  9
$USERI1
 70
     0
  9
$USERI2
 70
     0
  9
$USERI3
 70
     0
  9
$USERI4
 70
     0
  9
$USERI5
 70
     0
  9
$USERR1
 40
0.0
  9
$USERR2
 40
0.0
  9
$USERR3
 40
0.0
  9
$USERR4
 40
0.0
  9
$USERR5
 40
0.0
  9
$WORLDVIEW
 70
     1
  9
$SHADEDGE
 70
     3
  9
$SHADEDIF
 70
    70
  9
$TILEMODE
 70
     1
  9
$MAXACTVP
 70
    16
  9
$PINSBASE
 10
0.0
 20
0.0
 30
0.0
  9
$PLIMCHECK
 70
     0
  9
$PEXTMIN
 10
3.934800455223182
 20
4.031011496907353
 30
-0.0000000349181948
  9
$PEXTMAX
 10
192.1779989945691
 20
281.7874829664755
 30
0.0000000814935746
  9
$PLIMMIN
 10
-6.043083190917968
 20
-6.720414161682128
  9
$PLIMMAX
 10
204.0149154663085
 20
290.2055807113647
  9
$UNITMODE
 70
     0
  9
$VISRETAIN
 70
     0
  9
$PLINEGEN
 70
     0
  9
$PSLTSCALE
 70
     0
  9
$TREEDEPTH
 70
  3020
  9
$CMLSTYLE
  2
STANDARD
  9
$CMLJUST
 70
     0
  9
$CMLSCALE
 40
1.0
  9
$PROXYGRAPHICS
 70
     1
  9
$MEASUREMENT
 70
     0
  9
$CELWEIGHT
370
    -1
  9
$ENDCAPS
280
     0
  9
$JOINSTYLE
280
     0
  9
$LWDISPLAY
290
     0
  9
$INSUNITS
 70
     0
  9
$HYPERLINKBASE
  1

  9
$STYLESHEET
  1

  9
$XEDIT
290
     1
  9
$CEPSNTYPE
380
     0
  9
$PSTYLEMODE
290
     1
  9
$FINGERPRINTGUID
  2
{2421DE50-0B03-11D4-A579-0008C769B1B5}
  9
$VERSIONGUID
  2
{432F57F0-2644-11D4-A596-0008C769B1B5}
  9
$EXTNAMES
290
     1
  9
$PSVPSCALE
 40
0.0
  9
$OLESTARTUP
290
     0
  0
ENDSEC
  0
SECTION
  2
CLASSES
  0
CLASS
  1
DICTIONARYVAR
  2
AcDbDictionaryVar
  3
AutoCAD 2000
 90
        0
280
     0
281
     0
  0
CLASS
  1
LWPOLYLINE
  2
AcDbPolyline
  3
AutoCAD 2000
 90
    32768
280
     0
281
     1
  0
CLASS
  1
ACDBDICTIONARYWDFLT
  2
AcDbDictionaryWithDefault
  3
AutoCAD 2000
 90
        0
280
     0
281
     0
  0
CLASS
  1
ACDBPLACEHOLDER
  2
AcDbPlaceHolder
  3
AutoCAD 2000
 90
        0
280
     0
281
     0
  0
CLASS
  1
LAYOUT
  2
AcDbLayout
  3
AutoCAD 2000
 90
        0
280
     0
281
     0
  0
CLASS
  1
PLOTSETTINGS
  2
AcDbPlotSettings
  3
AutoCAD 2000
 90
        0
280
     0
281
     0
  0
ENDSEC
  0
SECTION
  2
TABLES
  0
TABLE
  2
VPORT
  5
8
330
0
100
AcDbSymbolTable
 70
     7
  0
VPORT
  5
1189
330
8
100
AcDbSymbolTableRecord
100
AcDbViewportTableRecord
  2
*Active
 70
     0
 10
0.0
 20
0.0
 11
1.0
 21
1.0
 12
324.1005717719679
 22
37.29169518569444
 13
0.0
 23
0.0
 14
1.0
 24
1.0
 15
10.0
 25
10.0
 16
0.0
 26
0.0
 36
1.0
 17
0.0
 27
0.0
 37
0.0
 40
15.0001791355211
 41
1.706845238095238
 42
50.0
 43
0.0
 44
0.0
 50
0.0
 51
0.0
 71
     0
 72
   100
 73
     1
 74
     0
 75
     0
 76
     0
 77
     0
 78
     1
281
     0
 65
     1
110
0.0
120
0.0
130
0.0
111
1.0
121
0.0
131
0.0
112
0.0
122
1.0
132
0.0
 79
     0
146
0.0
  0
ENDTAB
  0
TABLE
  2
LTYPE
  5
5
330
0
100
AcDbSymbolTable
 70
     1
  0
LTYPE
  5
11
330
5
100
AcDbSymbolTableRecord
100
AcDbLinetypeTableRecord
  2
BYBLOCK
 70
     0
  3

 72
    65
 73
     0
 40
0.0
  0
LTYPE
  5
12
330
5
100
AcDbSymbolTableRecord
100
AcDbLinetypeTableRecord
  2
BYLAYER
 70
     0
  3

 72
    65
 73
     0
 40
0.0
  0
LTYPE
  5
13
330
5
100
AcDbSymbolTableRecord
100
AcDbLinetypeTableRecord
  2
CONTINUOUS
 70
     0
  3
Solid line
 72
    65
 73
     0
 40
0.0
  0
ENDTAB
  0
TABLE
  2
LAYER
  5
2
330
0
100
AcDbSymbolTable
 70
     3
  0
LAYER
  5
E
330
2
100
AcDbSymbolTableRecord
100
AcDbLayerTableRecord
  2
0
 70
     0
 62
     7
  6
CONTINUOUS
370
    -3
390
FBF
  0
LAYER
  5
70C
330
2
100
AcDbSymbolTableRecord
100
AcDbLayerTableRecord
  2
DEFPOINTS
 70
     0
 62
     7
  6
CONTINUOUS
290
     0
370
    -3
390
FBF
  0
LAYER
  5
1014
330
2
100
AcDbSymbolTableRecord
100
AcDbLayerTableRecord
  2
Finestra
 70
     0
 62
     7
  6
CONTINUOUS
290
     0
370
    -3
390
FBF
  0
ENDTAB
  0
TABLE
  2
STYLE
  5
3
330
0
100
AcDbSymbolTable
 70
     2
  0
STYLE
  5
F
330
3
100
AcDbSymbolTableRecord
100
AcDbTextStyleTableRecord
  2
STANDARD
 70
     0
 40
0.0
 41
1.0
 50
0.0
 71
     0
 42
0.1
  3
txt
  4

  0
STYLE
  5
1C
330
3
100
AcDbSymbolTableRecord
100
AcDbTextStyleTableRecord
  2
ROMANC
 70
     0
 40
0.0
 41
1.0
 50
0.0
 71
     0
 42
0.1
  3
romanc
  4

  0
ENDTAB
  0
TABLE
  2
VIEW
  5
6
330
0
100
AcDbSymbolTable
 70
     0
  0
ENDTAB
  0
TABLE
  2
UCS
  5
7
330
0
100
AcDbSymbolTable
 70
     0
  0
ENDTAB
  0
TABLE
  2
APPID
  5
9
330
0
100
AcDbSymbolTable
 70
     1
  0
APPID
  5
10
330
9
100
AcDbSymbolTableRecord
100
AcDbRegAppTableRecord
  2
ACAD
 70
     0
  0
ENDTAB
  0
TABLE
  2
DIMSTYLE
  5
A
330
0
100
AcDbSymbolTable
 70
     1
100
AcDbDimStyleTable
 71
     1
340
1F
  0
DIMSTYLE
105
1F
102
{ACAD_REACTORS
330
1074
330
107F
330
108C
330
10B4
330
10C1
330
10D0
330
10DD
102
}
330
A
100
AcDbSymbolTableRecord
100
AcDbDimStyleTableRecord
  2
MERITXELL
 70
     0
 40
1.5
 41
0.1
 42
0.01
 43
7.0
 44
0.01
 73
     0
 74
     0
 77
     1
140
0.05
141
0.1
146
70.0
172
     1
174
     1
271
     2
272
     2
279
     2
340
1C
  0
ENDTAB
  0
TABLE
  2
BLOCK_RECORD
  5
1
330
0
100
AcDbSymbolTable
 70
     9
  0
BLOCK_RECORD
  5
17
330
1
100
AcDbSymbolTableRecord
100
AcDbBlockTableRecord
  2
*MODEL_SPACE
340
FC2
  0
BLOCK_RECORD
  5
14
330
1
100
AcDbSymbolTableRecord
100
AcDbBlockTableRecord
  2
*PAPER_SPACE
340
FC3
  0
BLOCK_RECORD
  5
1075
330
1
100
AcDbSymbolTableRecord
100
AcDbBlockTableRecord
  2
*D2
340
0
  0
BLOCK_RECORD
  5
1080
330
1
100
AcDbSymbolTableRecord
100
AcDbBlockTableRecord
  2
*D3
340
0
  0
BLOCK_RECORD
  5
108D
330
1
100
AcDbSymbolTableRecord
100
AcDbBlockTableRecord
  2
*D4
340
0
  0
BLOCK_RECORD
  5
10B5
330
1
100
AcDbSymbolTableRecord
100
AcDbBlockTableRecord
  2
*D5
340
0
  0
BLOCK_RECORD
  5
10C2
330
1
100
AcDbSymbolTableRecord
100
AcDbBlockTableRecord
  2
*D6
340
0
  0
BLOCK_RECORD
  5
10D1
330
1
100
AcDbSymbolTableRecord
100
AcDbBlockTableRecord
  2
*D7
340
0
  0
BLOCK_RECORD
  5
10DE
330
1
100
AcDbSymbolTableRecord
100
AcDbBlockTableRecord
  2
*D8
340
0
  0
ENDTAB
  0
ENDSEC
  0
SECTION
  2
BLOCKS
  0
BLOCK
  5
23
330
17
100
AcDbEntity
  8
0
100
AcDbBlockBegin
  2
*MODEL_SPACE
 70
     0
 10
0.0
 20
0.0
 30
0.0
  3
*MODEL_SPACE
  1

  0
ENDBLK
  5
24
330
17
100
AcDbEntity
  8
0
100
AcDbBlockEnd
  0
BLOCK
  5
21
330
14
100
AcDbEntity
 67
     1
  8
0
100
AcDbBlockBegin
  2
*PAPER_SPACE
 70
     0
 10
0.0
 20
0.0
 30
0.0
  3
*PAPER_SPACE
  1

  0
ENDBLK
  5
22
330
14
100
AcDbEntity
 67
     1
  8
0
100
AcDbBlockEnd
  0
BLOCK
  5
107D
330
1075
100
AcDbEntity
  8
0
100
AcDbBlockBegin
  2
*D2
 70
     1
 10
0.0
 20
0.0
 30
0.0
  3
*D2
  1

  0
LINE
  5
117B
330
1075
100
AcDbEntity
  8
0
 62
     0
370
    -2
100
AcDbLine
 10
323.1431375327703
 20
35.32686480873504
 30
0.0
 11
324.0431375327705
 21
35.32686480873504
 31
0.0
  0
SOLID
  5
117C
330
1075
100
AcDbEntity
  8
0
 62
     0
100
AcDbTrace
 10
323.1431375327703
 20
35.35186480873504
 30
0.0
 11
323.1431375327703
 21
35.30186480873504
 31
0.0
 12
322.9931375327704
 22
35.32686480873504
 32
0.0
 13
322.9931375327704
 23
35.32686480873504
 33
0.0
  0
SOLID
  5
117D
330
1075
100
AcDbEntity
  8
0
 62
     0
100
AcDbTrace
 10
324.0431375327705
 20
35.35186480873504
 30
0.0
 11
324.0431375327705
 21
35.30186480873504
 31
0.0
 12
324.1931375327705
 22
35.32686480873504
 32
0.0
 13
324.1931375327705
 23
35.32686480873504
 33
0.0
  0
MTEXT
  5
117E
330
1075
100
AcDbEntity
  8
0
 62
     0
100
AcDbMText
 10
323.5931375327704
 20
35.40186480873504
 30
0.0
 40
0.075
 41
0.0
 71
     5
 72
     1
  1
\A1;1.20
  7
ROMANC
 73
     1
 44
1.0
  0
POINT
  5
117F
330
1075
100
AcDbEntity
  8
DEFPOINTS
 62
     0
100
AcDbPoint
 10
322.9931375327704
 20
35.32686480873504
 30
0.0
  0
POINT
  5
1180
330
1075
100
AcDbEntity
  8
DEFPOINTS
 62
     0
100
AcDbPoint
 10
324.1931375327705
 20
35.32686480873504
 30
0.0
  0
POINT
  5
1181
330
1075
100
AcDbEntity
  8
DEFPOINTS
 62
     0
100
AcDbPoint
 10
324.1931375327705
 20
35.32686480873504
 30
0.0
  0
ENDBLK
  5
107E
330
1075
100
AcDbEntity
  8
0
100
AcDbBlockEnd
  0
BLOCK
  5
108A
330
1080
100
AcDbEntity
  8
0
100
AcDbBlockBegin
  2
*D3
 70
     1
 10
0.0
 20
0.0
 30
0.0
  3
*D3
  1

  0
LINE
  5
10AB
330
1080
100
AcDbEntity
  8
0
 62
     0
370
    -2
100
AcDbLine
 10
323.5931375327703
 20
34.06186480873504
 30
0.0
 11
323.5931375327703
 21
33.8327201875415
 31
0.0
  0
LINE
  5
10AC
330
1080
100
AcDbEntity
  8
0
 62
     0
370
    -2
100
AcDbLine
 10
322.9931375327704
 20
34.06186480873503
 30
0.0
 11
322.9931375327704
 21
33.8327201875415
 31
0.0
  0
LINE
  5
10AD
330
1080
100
AcDbEntity
  8
0
 62
     0
370
    -2
100
AcDbLine
 10
323.4431375327703
 20
33.8477201875415
 30
0.0
 11
323.1431375327703
 21
33.8477201875415
 31
0.0
  0
SOLID
  5
10AE
330
1080
100
AcDbEntity
  8
0
 62
     0
100
AcDbTrace
 10
323.4431375327703
 20
33.8727201875415
 30
0.0
 11
323.4431375327703
 21
33.8227201875415
 31
0.0
 12
323.5931375327703
 22
33.8477201875415
 32
0.0
 13
323.5931375327703
 23
33.8477201875415
 33
0.0
  0
SOLID
  5
10AF
330
1080
100
AcDbEntity
  8
0
 62
     0
100
AcDbTrace
 10
323.1431375327703
 20
33.8727201875415
 30
0.0
 11
323.1431375327703
 21
33.8227201875415
 31
0.0
 12
322.9931375327704
 22
33.8477201875415
 32
0.0
 13
322.9931375327704
 23
33.8477201875415
 33
0.0
  0
MTEXT
  5
10B0
330
1080
100
AcDbEntity
  8
0
 62
     0
100
AcDbMText
 10
323.2931375327704
 20
33.9227201875415
 30
0.0
 40
0.075
 41
0.0
 71
     5
 72
     1
  1
\A1;0.60
  7
ROMANC
 73
     1
 44
1.0
  0
POINT
  5
10B1
330
1080
100
AcDbEntity
  8
DEFPOINTS
 62
     0
100
AcDbPoint
 10
323.5931375327703
 20
34.07686480873504
 30
0.0
  0
POINT
  5
10B2
330
1080
100
AcDbEntity
  8
DEFPOINTS
 62
     0
100
AcDbPoint
 10
322.9931375327704
 20
34.07686480873503
 30
0.0
  0
POINT
  5
10B3
330
1080
100
AcDbEntity
  8
DEFPOINTS
 62
     0
100
AcDbPoint
 10
322.9931375327704
 20
33.8477201875415
 30
0.0
  0
ENDBLK
  5
108B
330
1080
100
AcDbEntity
  8
0
100
AcDbBlockEnd
  0
BLOCK
  5
1097
330
108D
100
AcDbEntity
  8
0
100
AcDbBlockBegin
  2
*D4
 70
     1
 10
0.0
 20
0.0
 30
0.0
  3
*D4
  1

  0
LINE
  5
10A2
330
108D
100
AcDbEntity
  8
0
 62
     0
370
    -2
100
AcDbLine
 10
324.1931375327703
 20
34.31186480873503
 30
0.0
 11
324.1931375327703
 21
33.8327201875415
 31
0.0
  0
LINE
  5
10A3
330
108D
100
AcDbEntity
  8
0
 62
     0
370
    -2
100
AcDbLine
 10
323.5931375327703
 20
34.06186480873504
 30
0.0
 11
323.5931375327703
 21
33.8327201875415
 31
0.0
  0
LINE
  5
10A4
330
108D
100
AcDbEntity
  8
0
 62
     0
370
    -2
100
AcDbLine
 10
324.0431375327704
 20
33.8477201875415
 30
0.0
 11
323.7431375327703
 21
33.8477201875415
 31
0.0
  0
SOLID
  5
10A5
330
108D
100
AcDbEntity
  8
0
 62
     0
100
AcDbTrace
 10
324.0431375327704
 20
33.8727201875415
 30
0.0
 11
324.0431375327704
 21
33.8227201875415
 31
0.0
 12
324.1931375327703
 22
33.8477201875415
 32
0.0
 13
324.1931375327703
 23
33.8477201875415
 33
0.0
  0
SOLID
  5
10A6
330
108D
100
AcDbEntity
  8
0
 62
     0
100
AcDbTrace
 10
323.7431375327703
 20
33.8727201875415
 30
0.0
 11
323.7431375327703
 21
33.8227201875415
 31
0.0
 12
323.5931375327703
 22
33.8477201875415
 32
0.0
 13
323.5931375327703
 23
33.8477201875415
 33
0.0
  0
MTEXT
  5
10A7
330
108D
100
AcDbEntity
  8
0
 62
     0
100
AcDbMText
 10
323.8931375327703
 20
33.9227201875415
 30
0.0
 40
0.075
 41
0.0
 71
     5
 72
     1
  1
\A1;0.60
  7
ROMANC
 73
     1
 44
1.0
  0
POINT
  5
10A8
330
108D
100
AcDbEntity
  8
DEFPOINTS
 62
     0
100
AcDbPoint
 10
324.1931375327703
 20
34.32686480873504
 30
0.0
  0
POINT
  5
10A9
330
108D
100
AcDbEntity
  8
DEFPOINTS
 62
     0
100
AcDbPoint
 10
323.5931375327703
 20
34.07686480873504
 30
0.0
  0
POINT
  5
10AA
330
108D
100
AcDbEntity
  8
DEFPOINTS
 62
     0
100
AcDbPoint
 10
323.5931375327703
 20
33.8477201875415
 30
0.0
  0
ENDBLK
  5
1098
330
108D
100
AcDbEntity
  8
0
100
AcDbBlockEnd
  0
BLOCK
  5
10BF
330
10B5
100
AcDbEntity
  8
0
100
AcDbBlockBegin
  2
*D5
 70
     1
 10
0.0
 20
0.0
 30
0.0
  3
*D5
  1

  0
LINE
  5
10B6
330
10B5
100
AcDbEntity
  8
0
 62
     0
370
    -2
100
AcDbLine
 10
322.9931375327704
 20
34.06186480873503
 30
0.0
 11
322.9931375327704
 21
33.59118941025239
 31
0.0
  0
LINE
  5
10B7
330
10B5
100
AcDbEntity
  8
0
 62
     0
370
    -2
100
AcDbLine
 10
324.1931375327703
 20
34.31186480873503
 30
0.0
 11
324.1931375327703
 21
33.59118941025239
 31
0.0
  0
LINE
  5
10B8
330
10B5
100
AcDbEntity
  8
0
 62
     0
370
    -2
100
AcDbLine
 10
323.1431375327703
 20
33.60618941025239
 30
0.0
 11
324.0431375327704
 21
33.60618941025239
 31
0.0
  0
SOLID
  5
10B9
330
10B5
100
AcDbEntity
  8
0
 62
     0
100
AcDbTrace
 10
323.1431375327703
 20
33.63118941025239
 30
0.0
 11
323.1431375327703
 21
33.58118941025239
 31
0.0
 12
322.9931375327704
 22
33.60618941025239
 32
0.0
 13
322.9931375327704
 23
33.60618941025239
 33
0.0
  0
SOLID
  5
10BA
330
10B5
100
AcDbEntity
  8
0
 62
     0
100
AcDbTrace
 10
324.0431375327704
 20
33.63118941025239
 30
0.0
 11
324.0431375327704
 21
33.58118941025239
 31
0.0
 12
324.1931375327703
 22
33.60618941025239
 32
0.0
 13
324.1931375327703
 23
33.60618941025239
 33
0.0
  0
MTEXT
  5
10BB
330
10B5
100
AcDbEntity
  8
0
 62
     0
100
AcDbMText
 10
323.5931375327703
 20
33.68118941025239
 30
0.0
 40
0.075
 41
0.0
 71
     5
 72
     1
  1
\A1;1.20
  7
ROMANC
 73
     1
 44
1.0
  0
POINT
  5
10BC
330
10B5
100
AcDbEntity
  8
DEFPOINTS
 62
     0
100
AcDbPoint
 10
322.9931375327704
 20
34.07686480873503
 30
0.0
  0
POINT
  5
10BD
330
10B5
100
AcDbEntity
  8
DEFPOINTS
 62
     0
100
AcDbPoint
 10
324.1931375327703
 20
34.32686480873504
 30
0.0
  0
POINT
  5
10BE
330
10B5
100
AcDbEntity
  8
DEFPOINTS
 62
     0
100
AcDbPoint
 10
324.1931375327703
 20
33.60618941025239
 30
0.0
  0
ENDBLK
  5
10C0
330
10B5
100
AcDbEntity
  8
0
100
AcDbBlockEnd
  0
BLOCK
  5
10CE
330
10C2
100
AcDbEntity
  8
0
100
AcDbBlockBegin
  2
*D6
 70
     1
 10
0.0
 20
0.0
 30
0.0
  3
*D6
  1

  0
LINE
  5
10C3
330
10C2
100
AcDbEntity
  8
0
 62
     0
370
    -2
100
AcDbLine
 10
323.6081375327703
 20
34.07686480873504
 30
0.0
 11
324.5128865283312
 21
34.07686480873504
 31
0.0
  0
LINE
  5
10C4
330
10C2
100
AcDbEntity
  8
0
 62
     0
370
    -2
100
AcDbLine
 10
323.6081375327703
 20
34.32686480873504
 30
0.0
 11
324.5128865283312
 21
34.32686480873504
 31
0.0
  0
LINE
  5
10C5
330
10C2
100
AcDbEntity
  8
0
 62
     0
370
    -2
100
AcDbLine
 10
324.4978865283312
 20
33.92686480873503
 30
0.0
 11
324.4978865283312
 21
33.77686480873504
 31
0.0
  0
LINE
  5
10C6
330
10C2
100
AcDbEntity
  8
0
 62
     0
370
    -2
100
AcDbLine
 10
324.4978865283312
 20
34.47686480873503
 30
0.0
 11
324.4978865283312
 21
34.62686480873503
 31
0.0
  0
LINE
  5
10C7
330
10C2
100
AcDbEntity
  8
0
 62
     0
370
    -2
100
AcDbLine
 10
324.4978865283312
 20
34.07686480873504
 30
0.0
 11
324.4978865283312
 21
34.32686480873504
 31
0.0
  0
SOLID
  5
10C8
330
10C2
100
AcDbEntity
  8
0
 62
     0
100
AcDbTrace
 10
324.4728865283312
 20
33.92686480873503
 30
0.0
 11
324.5228865283312
 21
33.92686480873503
 31
0.0
 12
324.4978865283312
 22
34.07686480873504
 32
0.0
 13
324.4978865283312
 23
34.07686480873504
 33
0.0
  0
SOLID
  5
10C9
330
10C2
100
AcDbEntity
  8
0
 62
     0
100
AcDbTrace
 10
324.4728865283312
 20
34.47686480873503
 30
0.0
 11
324.5228865283312
 21
34.47686480873503
 31
0.0
 12
324.4978865283312
 22
34.32686480873504
 32
0.0
 13
324.4978865283312
 23
34.32686480873504
 33
0.0
  0
MTEXT
  5
10CA
330
10C2
100
AcDbEntity
  8
0
 62
     0
100
AcDbMText
 10
324.4228865283312
 20
34.20186480873509
 30
0.0
 40
0.075
 41
0.0
 71
     5
 72
     1
  1
\A1;0.25
  7
ROMANC
 11
0.0000000000000001
 21
1.0
 31
0.0
 73
     1
 44
1.0
  0
POINT
  5
10CB
330
10C2
100
AcDbEntity
  8
DEFPOINTS
 62
     0
100
AcDbPoint
 10
323.5931375327703
 20
34.07686480873504
 30
0.0
  0
POINT
  5
10CC
330
10C2
100
AcDbEntity
  8
DEFPOINTS
 62
     0
100
AcDbPoint
 10
323.5931375327703
 20
34.32686480873504
 30
0.0
  0
POINT
  5
10CD
330
10C2
100
AcDbEntity
  8
DEFPOINTS
 62
     0
100
AcDbPoint
 10
324.4978865283312
 20
34.32686480873504
 30
0.0
  0
ENDBLK
  5
10CF
330
10C2
100
AcDbEntity
  8
0
100
AcDbBlockEnd
  0
BLOCK
  5
10DB
330
10D1
100
AcDbEntity
  8
0
100
AcDbBlockBegin
  2
*D7
 70
     1
 10
0.0
 20
0.0
 30
0.0
  3
*D7
  1

  0
LINE
  5
1172
330
10D1
100
AcDbEntity
  8
0
 62
     0
370
    -2
100
AcDbLine
 10
324.2081375327705
 20
35.32686480873504
 30
0.0
 11
324.7232501182367
 21
35.32686480873504
 31
0.0
  0
LINE
  5
1173
330
10D1
100
AcDbEntity
  8
0
 62
     0
370
    -2
100
AcDbLine
 10
323.6231375327703
 20
34.07686480873504
 30
0.0
 11
324.7232501182367
 21
34.07686480873504
 31
0.0
  0
LINE
  5
1174
330
10D1
100
AcDbEntity
  8
0
 62
     0
370
    -2
100
AcDbLine
 10
324.7082501182367
 20
35.17686480873503
 30
0.0
 11
324.7082501182367
 21
34.22686480873503
 31
0.0
  0
SOLID
  5
1175
330
10D1
100
AcDbEntity
  8
0
 62
     0
100
AcDbTrace
 10
324.6832501182367
 20
35.17686480873503
 30
0.0
 11
324.7332501182366
 21
35.17686480873503
 31
0.0
 12
324.7082501182367
 22
35.32686480873504
 32
0.0
 13
324.7082501182367
 23
35.32686480873504
 33
0.0
  0
SOLID
  5
1176
330
10D1
100
AcDbEntity
  8
0
 62
     0
100
AcDbTrace
 10
324.6832501182367
 20
34.22686480873503
 30
0.0
 11
324.7332501182366
 21
34.22686480873503
 31
0.0
 12
324.7082501182367
 22
34.07686480873504
 32
0.0
 13
324.7082501182367
 23
34.07686480873504
 33
0.0
  0
MTEXT
  5
1177
330
10D1
100
AcDbEntity
  8
0
 62
     0
100
AcDbMText
 10
324.6332501182367
 20
34.70186480873509
 30
0.0
 40
0.075
 41
0.0
 71
     5
 72
     1
  1
\A1;1.25
  7
ROMANC
 11
0.0000000000000001
 21
1.0
 31
0.0
 73
     1
 44
1.0
  0
POINT
  5
1178
330
10D1
100
AcDbEntity
  8
DEFPOINTS
 62
     0
100
AcDbPoint
 10
324.1931375327705
 20
35.32686480873504
 30
0.0
  0
POINT
  5
1179
330
10D1
100
AcDbEntity
  8
DEFPOINTS
 62
     0
100
AcDbPoint
 10
323.6081375327703
 20
34.07686480873504
 30
0.0
  0
POINT
  5
117A
330
10D1
100
AcDbEntity
  8
DEFPOINTS
 62
     0
100
AcDbPoint
 10
324.7082501182367
 20
34.07686480873504
 30
0.0
  0
ENDBLK
  5
10DC
330
10D1
100
AcDbEntity
  8
0
100
AcDbBlockEnd
  0
BLOCK
  5
10E8
330
10DE
100
AcDbEntity
  8
0
100
AcDbBlockBegin
  2
*D8
 70
     1
 10
0.0
 20
0.0
 30
0.0
  3
*D8
  1

  0
LINE
  5
1157
330
10DE
100
AcDbEntity
  8
0
 62
     0
370
    -2
100
AcDbLine
 10
323.6081375327704
 20
35.92686480873504
 30
0.0
 11
324.962496419251
 21
35.92686480873504
 31
0.0
  0
LINE
  5
1158
330
10DE
100
AcDbEntity
  8
0
 62
     0
370
    -2
100
AcDbLine
 10
323.6081375327703
 20
34.07686480873504
 30
0.0
 11
324.962496419251
 21
34.07686480873504
 31
0.0
  0
LINE
  5
1159
330
10DE
100
AcDbEntity
  8
0
 62
     0
370
    -2
100
AcDbLine
 10
324.947496419251
 20
35.77686480873504
 30
0.0
 11
324.947496419251
 21
34.22686480873503
 31
0.0
  0
SOLID
  5
115A
330
10DE
100
AcDbEntity
  8
0
 62
     0
100
AcDbTrace
 10
324.9224964192511
 20
35.77686480873504
 30
0.0
 11
324.972496419251
 21
35.77686480873504
 31
0.0
 12
324.947496419251
 22
35.92686480873504
 32
0.0
 13
324.947496419251
 23
35.92686480873504
 33
0.0
  0
SOLID
  5
115B
330
10DE
100
AcDbEntity
  8
0
 62
     0
100
AcDbTrace
 10
324.9224964192511
 20
34.22686480873503
 30
0.0
 11
324.972496419251
 21
34.22686480873503
 31
0.0
 12
324.947496419251
 22
34.07686480873504
 32
0.0
 13
324.947496419251
 23
34.07686480873504
 33
0.0
  0
MTEXT
  5
115C
330
10DE
100
AcDbEntity
  8
0
 62
     0
100
AcDbMText
 10
324.872496419251
 20
35.00186480873508
 30
0.0
 40
0.075
 41
0.0
 71
     5
 72
     1
  1
\A1;1.85
  7
ROMANC
 11
0.0000000000000001
 21
1.0
 31
0.0
 73
     1
 44
1.0
  0
POINT
  5
115D
330
10DE
100
AcDbEntity
  8
DEFPOINTS
 62
     0
100
AcDbPoint
 10
323.5931375327704
 20
35.92686480873504
 30
0.0
  0
POINT
  5
115E
330
10DE
100
AcDbEntity
  8
DEFPOINTS
 62
     0
100
AcDbPoint
 10
323.5931375327703
 20
34.07686480873504
 30
0.0
  0
POINT
  5
115F
330
10DE
100
AcDbEntity
  8
DEFPOINTS
 62
     0
100
AcDbPoint
 10
324.947496419251
 20
34.07686480873504
 30
0.0
  0
ENDBLK
  5
10E9
330
10DE
100
AcDbEntity
  8
0
100
AcDbBlockEnd
  0
ENDSEC
  0
SECTION
  2
ENTITIES
  0
TEXT
  5
2A
330
17
100
AcDbEntity
  8
0
100
AcDbText
 10
321.7731487472426
 20
42.309482
 30
0.0
 40
0.3
  1
TIPUS   NT192
  7
ROMANC
100
AcDbText
  0
TEXT
  5
2D
330
17
100
AcDbEntity
  8
0
100
AcDbText
 10
321.7819632635875
 20
40.49646044792456
 30
0.0
 40
0.3
  1
P = 55,8 dm
  7
ROMANC
100
AcDbText
  0
TEXT
  5
2E
330
17
100
AcDbEntity
  8
0
100
AcDbText
 10
321.760277983087
 20
41.10581332917407
 30
0.0
 40
0.3
  1
S = 192 dm
  7
ROMANC
100
AcDbText
  0
TEXT
  5
2F
330
17
100
AcDbEntity
  8
0
100
AcDbText
 10
321.7731487472426
 20
41.70440332917407
 30
0.0
 40
0.3
  1
ESCALA  1:50
  7
ROMANC
100
AcDbText
  0
TEXT
  5
30
330
17
100
AcDbEntity
  8
0
100
AcDbText
 10
324.9356092856618
 20
41.41172932917407
 30
0.0
 40
0.1
  1
2
  7
ROMANC
100
AcDbText
  0
LWPOLYLINE
  5
ED8
330
17
100
AcDbEntity
  8
0
100
AcDbPolyline
 90
        4
 70
     1
 43
0.0
 10
329.348696
 20
29.86362299999999
 10
329.348696
 20
44.713623
 10
318.848696
 20
44.713623
 10
318.848696
 20
29.86362299999999
  0
DIMENSION
  5
1074
330
17
100
AcDbEntity
  8
0
100
AcDbDimension
  2
*D2
 10
324.1931375327705
 20
35.32686480873504
 30
0.0
 11
323.5931375327704
 21
35.40186480873504
 31
0.0
 70
    32
 71
     5
 42
1.200000000000159
  3
MERITXELL
100
AcDbAlignedDimension
 13
322.9931375327704
 23
35.32686480873504
 33
0.0
 14
324.1931375327705
 24
35.32686480873504
 34
0.0
100
AcDbRotatedDimension
1001
ACAD
1000
DSTYLE
1002
{
1070
   141
1040
0.0
1070
   147
1040
0.025
1002
}
  0
DIMENSION
  5
107F
330
17
100
AcDbEntity
  8
0
100
AcDbDimension
  2
*D3
 10
322.9931375327704
 20
33.8477201875415
 30
0.0
 11
323.2931375327704
 21
33.9227201875415
 31
0.0
 70
    32
 71
     5
 42
0.5999999999999659
  3
MERITXELL
100
AcDbAlignedDimension
 13
323.5931375327703
 23
34.07686480873504
 33
0.0
 14
322.9931375327704
 24
34.07686480873503
 34
0.0
100
AcDbRotatedDimension
1001
ACAD
1000
DSTYLE
1002
{
1070
   141
1040
0.0
1070
   147
1040
0.025
1002
}
  0
DIMENSION
  5
108C
330
17
100
AcDbEntity
  8
0
100
AcDbDimension
  2
*D4
 10
323.5931375327703
 20
33.8477201875415
 30
0.0
 11
323.8931375327703
 21
33.9227201875415
 31
0.0
 70
    32
 71
     5
 42
0.6000000000000228
  3
MERITXELL
100
AcDbAlignedDimension
 13
324.1931375327703
 23
34.32686480873504
 33
0.0
 14
323.5931375327703
 24
34.07686480873504
 34
0.0
100
AcDbRotatedDimension
1001
ACAD
1000
DSTYLE
1002
{
1070
   141
1040
0.0
1070
   147
1040
0.025
1002
}
  0
DIMENSION
  5
10B4
330
17
100
AcDbEntity
  8
0
100
AcDbDimension
  2
*D5
 10
324.1931375327703
 20
33.60618941025239
 30
0.0
 11
323.5931375327703
 21
33.68118941025239
 31
0.0
 70
    32
 71
     5
 42
1.199999999999988
  3
MERITXELL
100
AcDbAlignedDimension
 13
322.9931375327704
 23
34.07686480873503
 33
0.0
 14
324.1931375327703
 24
34.32686480873504
 34
0.0
100
AcDbRotatedDimension
1001
ACAD
1000
DSTYLE
1002
{
1070
   141
1040
0.0
1070
   147
1040
0.025
1002
}
  0
DIMENSION
  5
10C1
330
17
100
AcDbEntity
  8
0
100
AcDbDimension
  2
*D6
 10
324.4978865283312
 20
34.32686480873504
 30
0.0
 11
324.4228865283312
 21
34.20186480873509
 31
0.0
 70
    32
 71
     5
 42
0.25
  3
MERITXELL
100
AcDbAlignedDimension
 13
323.5931375327703
 23
34.07686480873504
 33
0.0
 14
323.5931375327703
 24
34.32686480873504
 34
0.0
 50
90.0
100
AcDbRotatedDimension
1001
ACAD
1000
DSTYLE
1002
{
1070
   141
1040
0.0
1070
   147
1040
0.025
1002
}
  0
DIMENSION
  5
10D0
330
17
100
AcDbEntity
  8
0
100
AcDbDimension
  2
*D7
 10
324.7082501182367
 20
34.07686480873504
 30
0.0
 11
324.6332501182367
 21
34.70186480873509
 31
0.0
 70
    32
 71
     5
 42
1.25
  3
MERITXELL
100
AcDbAlignedDimension
 13
324.1931375327705
 23
35.32686480873504
 33
0.0
 14
323.6081375327703
 24
34.07686480873504
 34
0.0
 50
90.0
100
AcDbRotatedDimension
1001
ACAD
1000
DSTYLE
1002
{
1070
   141
1040
0.0
1070
   147
1040
0.025
1002
}
  0
DIMENSION
  5
10DD
330
17
100
AcDbEntity
  8
0
100
AcDbDimension
  2
*D8
 10
324.947496419251
 20
34.07686480873504
 30
0.0
 11
324.872496419251
 21
35.00186480873508
 31
0.0
 70
    32
 71
     5
 42
1.850000000000001
  3
MERITXELL
100
AcDbAlignedDimension
 13
323.5931375327704
 23
35.92686480873504
 33
0.0
 14
323.5931375327703
 24
34.07686480873504
 34
0.0
 50
90.0
100
AcDbRotatedDimension
1001
ACAD
1000
DSTYLE
1002
{
1070
   141
1040
0.0
1070
   147
1040
0.025
1002
}
  0
LWPOLYLINE
  5
1118
330
17
100
AcDbEntity
  8
0
100
AcDbPolyline
 90
        6
 70
     1
 43
0.0
 10
323.5931375327703
 20
34.07686480873504
 10
322.9931375327704
 20
34.07686480873503
 10
322.9931375327704
 20
35.32686480873504
 42
-1.0
 10
324.1931375327705
 20
35.32686480873504
 10
324.1931375327703
 20
34.32686480873504
 10
323.5931375327703
 20
34.32686480873504
  0
LWPOLYLINE
  5
1182
330
17
100
AcDbEntity
  8
0
100
AcDbPolyline
 90
        6
 70
     1
 43
0.0
 10
323.6006375327703
 20
34.06936480873504
 10
322.9856375327703
 20
34.06936480873503
 10
322.9856375327703
 20
35.32686480873504
 42
-1.0
 10
324.2006375327705
 20
35.32686480873498
 10
324.2006375327703
 20
34.31936480873504
 10
323.6006375327703
 20
34.31936480873504
  0
LWPOLYLINE
  5
1183
330
17
100
AcDbEntity
  8
0
100
AcDbPolyline
 90
        6
 70
     1
 43
0.0
 10
323.6081375327703
 20
34.06186480873504
 10
322.9781375327704
 20
34.06186480873503
 10
322.9781375327704
 20
35.32686480873504
 42
-1.0
 10
324.2081375327705
 20
35.32686480873498
 10
324.2081375327703
 20
34.31186480873503
 10
323.6081375327703
 20
34.31186480873503
  0
VIEWPORT
  5
1011
330
14
100
AcDbEntity
 67
     1
  8
0
100
AcDbViewport
 10
98.98591613769532
 20
141.7425832748413
 30
0.0
 40
536.2015101998647
 41
314.1477025756836
 68
     1
 69
     1
 12
98.98591613769532
 22
141.7425832748413
 13
0.0
 23
0.0
 14
10.0
 24
10.0
 15
10.0
 25
10.0
 16
0.0
 26
0.0
 36
1.0
 17
0.0
 27
0.0
 37
0.0
 42
50.0
 43
0.0
 44
0.0
 45
314.1477025756836
 50
0.0
 51
0.0
 72
   100
 90
    32800
  1

281
     0
 71
     1
 74
     0
110
0.0
120
0.0
130
0.0
111
1.0
121
0.0
131
0.0
112
0.0
122
1.0
132
0.0
 79
     0
146
0.0
  0
VIEWPORT
  5
1013
330
14
100
AcDbEntity
 67
     1
  8
Finestra
100
AcDbViewport
 10
98.05176715372272
 20
142.9095510177477
 30
0.0
 40
188.2310181418715
 41
277.7383111740046
 68
     2
 69
     2
 12
324.1005717719679
 22
37.29169518569444
 13
0.0
 23
0.0
 14
1.0
 24
1.0
 15
10.0
 25
10.0
 16
0.0
 26
0.0
 36
1.0
 17
0.0
 27
0.0
 37
0.0
 42
50.0
 43
0.0
 44
0.0
 45
13.88691555870023
 50
0.0
 51
0.0
 72
   100
 90
    36864
  1

281
     0
 71
     1
 74
     0
110
0.0
120
0.0
130
0.0
111
1.0
121
0.0
131
0.0
112
0.0
122
1.0
132
0.0
 79
     0
146
0.0
  0
ENDSEC
  0
SECTION
  2
OBJECTS
  0
DICTIONARY
  5
C
330
0
100
AcDbDictionary
281
     1
  3
ACAD_GROUP
350
D
  3
ACAD_LAYOUT
350
FC0
  3
ACAD_MLINESTYLE
350
1A
  3
ACAD_PLOTSETTINGS
350
FC1
  3
ACAD_PLOTSTYLENAME
350
FBE
  3
ACDBVARIABLEDICTIONARY
350
25
  0
DICTIONARY
  5
D
102
{ACAD_REACTORS
330
C
102
}
330
C
100
AcDbDictionary
281
     1
  0
DICTIONARY
  5
FC0
102
{ACAD_REACTORS
330
C
102
}
330
C
100
AcDbDictionary
281
     1
  3
Model
350
FC2
  3
Presentación1
350
FC3
  0
DICTIONARY
  5
1A
102
{ACAD_REACTORS
330
C
102
}
330
C
100
AcDbDictionary
281
     1
  3
STANDARD
350
1B
  0
DICTIONARY
  5
FC1
102
{ACAD_REACTORS
330
C
102
}
330
C
100
AcDbDictionary
281
     1
  3
dei
350
1024
  0
ACDBDICTIONARYWDFLT
  5
FBE
102
{ACAD_REACTORS
330
C
102
}
330
C
100
AcDbDictionary
281
     1
  3
Normal
350
FBF
100
AcDbDictionaryWithDefault
340
FBF
  0
DICTIONARY
  5
25
102
{ACAD_REACTORS
330
C
102
}
330
C
100
AcDbDictionary
281
     1
  3
DIMADEC
350
26
  3
SORTENTS
350
FD1
  0
LAYOUT
  5
FC2
102
{ACAD_REACTORS
330
FC0
102
}
330
FC0
100
AcDbPlotSettings
  1

  2
\\SERVIDOR1\PLOTTER750
  4

  6

 40
0.0
 41
0.0
 42
0.0
 43
0.0
 44
0.0
 45
0.0
 46
0.0
 47
0.0
 48
0.0
 49
0.0
140
0.0
141
0.0
142
1.0
143
1.0
 70
  1712
 72
     0
 73
     0
 74
     0
  7
standard.ctb
 75
     0
147
1.0
148
0.0
149
0.0
100
AcDbLayout
  1
Model
 70
     1
 71
     0
 10
0.0
 20
0.0
 11
12.0
 21
9.0
 12
0.0
 22
0.0
 32
0.0
 14
0.0
 24
0.0
 34
0.0
 15
0.0
 25
0.0
 35
0.0
146
0.0
 13
0.0
 23
0.0
 33
0.0
 16
1.0
 26
0.0
 36
0.0
 17
0.0
 27
1.0
 37
0.0
 76
     0
330
17
  0
LAYOUT
  5
FC3
102
{ACAD_REACTORS
330
FC0
102
}
330
FC0
100
AcDbPlotSettings
  1

  2
\\SERVIDOR1\LS3_4DEI
  4
A4
  6

 40
6.043083190917968
 41
6.720414161682128
 42
7.821090698242187
 43
5.027069091796875
 44
210.0579986572265
 45
296.9259948730469
 46
0.0
 47
0.0
 48
0.0
 49
0.0
140
0.0
141
0.0
142
1.0
143
1.0
 70
   688
 72
     1
 73
     0
 74
     5
  7
standard.ctb
 75
    16
147
1.0
148
0.0
149
0.0
100
AcDbLayout
  1
Presentación1
 70
     0
 71
     1
 10
-6.043083190917968
 20
-6.720414161682128
 11
204.0149154663085
 21
290.2055807113647
 12
0.0
 22
0.0
 32
0.0
 14
3.934800455223182
 24
4.031011496907353
 34
-0.0000000349181948
 15
192.1779989945691
 25
281.7874829664755
 35
0.0000000814935746
146
0.0
 13
0.0
 23
0.0
 33
0.0
 16
1.0
 26
0.0
 36
0.0
 17
0.0
 27
1.0
 37
0.0
 76
     0
330
14
331
1011
  0
MLINESTYLE
  5
1B
102
{ACAD_REACTORS
330
1A
102
}
330
1A
100
AcDbMlineStyle
  2
STANDARD
 70
     0
  3

 62
   256
 51
90.0
 52
90.0
 71
     2
 49
0.5
 62
   256
  6
BYLAYER
 49
-0.5
 62
   256
  6
BYLAYER
  0
PLOTSETTINGS
  5
1024
102
{ACAD_REACTORS
330
FC1
102
}
330
FC1
100
AcDbPlotSettings
  1
dei
  2
LS3_4DEI.pc3
  4
User136
  6

 40
6.043083190917968
 41
6.720414161682128
 42
7.821090698242187
 43
5.027069091796875
 44
210.0579986572265
 45
296.9259948730469
 46
0.0
 47
0.0
 48
0.0
 49
0.0
140
0.0
141
0.0
142
1.0
143
1.0
 70
   688
 72
     1
 73
     0
 74
     5
  7
standard.ctb
 75
    16
147
1.0
148
0.0
149
0.0
  0
ACDBPLACEHOLDER
  5
FBF
102
{ACAD_REACTORS
330
FBE
102
}
330
FBE
  0
DICTIONARYVAR
  5
26
102
{ACAD_REACTORS
330
25
102
}
330
25
100
DictionaryVariables
280
     0
  1
0
  0
DICTIONARYVAR
  5
FD1
102
{ACAD_REACTORS
330
25
102
}
330
25
100
DictionaryVariables
280
     0
  1
96
  0
ENDSEC
  0
EOF
