  0
SECTION
  2
HEADER
  9
$ACADVER
  1
AC1015
  9
$ACADMAINTVER
 70
     6
  9
$DWGCODEPAGE
  3
ANSI_1252
  9
$INSBASE
 10
0.0
 20
0.0
 30
0.0
  9
$EXTMIN
 10
281.395069244134
 20
29.89657355491301
 30
-0.0015258207003583
  9
$EXTMAX
 10
291.8969308140735
 20
44.7474837405175
 30
0.0000000349246037
  9
$LIMMIN
 10
280.3959999999999
 20
28.89699999999999
  9
$LIMMAX
 10
292.8959999999999
 20
43.74699999999999
  9
$ORTHOMODE
 70
     0
  9
$REGENMODE
 70
     1
  9
$FILLMODE
 70
     1
  9
$QTEXTMODE
 70
     0
  9
$MIRRTEXT
 70
     1
  9
$LTSCALE
 40
1.0
  9
$ATTMODE
 70
     1
  9
$TEXTSIZE
 40
0.2
  9
$TRACEWID
 40
0.05
  9
$TEXTSTYLE
  7
Standard
  9
$CLAYER
  8
0
  9
$CELTYPE
  6
ByLayer
  9
$CECOLOR
 62
   256
  9
$CELTSCALE
 40
1.0
  9
$DISPSILH
 70
     0
  9
$DIMSCALE
 40
1.0
  9
$DIMASZ
 40
0.18
  9
$DIMEXO
 40
0.0625
  9
$DIMDLI
 40
0.38
  9
$DIMRND
 40
0.0
  9
$DIMDLE
 40
0.0
  9
$DIMEXE
 40
0.18
  9
$DIMTP
 40
0.0
  9
$DIMTM
 40
0.0
  9
$DIMTXT
 40
0.18
  9
$DIMCEN
 40
0.09
  9
$DIMTSZ
 40
0.0
  9
$DIMTOL
 70
     0
  9
$DIMLIM
 70
     0
  9
$DIMTIH
 70
     1
  9
$DIMTOH
 70
     1
  9
$DIMSE1
 70
     0
  9
$DIMSE2
 70
     0
  9
$DIMTAD
 70
     0
  9
$DIMZIN
 70
     0
  9
$DIMBLK
  1

  9
$DIMASO
 70
     1
  9
$DIMSHO
 70
     1
  9
$DIMPOST
  1

  9
$DIMAPOST
  1

  9
$DIMALT
 70
     0
  9
$DIMALTD
 70
     2
  9
$DIMALTF
 40
25.4
  9
$DIMLFAC
 40
1.0
  9
$DIMTOFL
 70
     0
  9
$DIMTVP
 40
0.0
  9
$DIMTIX
 70
     0
  9
$DIMSOXD
 70
     0
  9
$DIMSAH
 70
     0
  9
$DIMBLK1
  1

  9
$DIMBLK2
  1

  9
$DIMSTYLE
  2
Standard
  9
$DIMCLRD
 70
     0
  9
$DIMCLRE
 70
     0
  9
$DIMCLRT
 70
     0
  9
$DIMTFAC
 40
1.0
  9
$DIMGAP
 40
0.09
  9
$DIMJUST
 70
     0
  9
$DIMSD1
 70
     0
  9
$DIMSD2
 70
     0
  9
$DIMTOLJ
 70
     1
  9
$DIMTZIN
 70
     0
  9
$DIMALTZ
 70
     0
  9
$DIMALTTZ
 70
     0
  9
$DIMUPT
 70
     0
  9
$DIMDEC
 70
     4
  9
$DIMTDEC
 70
     4
  9
$DIMALTU
 70
     2
  9
$DIMALTTD
 70
     2
  9
$DIMTXSTY
  7
Standard
  9
$DIMAUNIT
 70
     0
  9
$DIMADEC
 70
     0
  9
$DIMALTRND
 40
0.0
  9
$DIMAZIN
 70
     0
  9
$DIMDSEP
 70
    46
  9
$DIMATFIT
 70
     3
  9
$DIMFRAC
 70
     0
  9
$DIMLDRBLK
  1

  9
$DIMLUNIT
 70
     2
  9
$DIMLWD
 70
    -2
  9
$DIMLWE
 70
    -2
  9
$DIMTMOVE
 70
     0
  9
$LUNITS
 70
     2
  9
$LUPREC
 70
     4
  9
$SKETCHINC
 40
0.1
  9
$FILLETRAD
 40
0.0
  9
$AUNITS
 70
     0
  9
$AUPREC
 70
     0
  9
$MENU
  1
acad
  9
$ELEVATION
 40
0.0
  9
$PELEVATION
 40
0.0
  9
$THICKNESS
 40
0.0
  9
$LIMCHECK
 70
     0
  9
$CHAMFERA
 40
0.0
  9
$CHAMFERB
 40
0.0
  9
$CHAMFERC
 40
0.0
  9
$CHAMFERD
 40
0.0
  9
$SKPOLY
 70
     0
  9
$TDCREATE
 40
2448315.373408102
  9
$TDUCREATE
 40
2448315.290074768
  9
$TDUPDATE
 40
2451724.648505845
  9
$TDUUPDATE
 40
2451724.565172511
  9
$TDINDWG
 40
0.0148152778
  9
$TDUSRTIMER
 40
0.0148113426
  9
$USRTIMER
 70
     1
  9
$ANGBASE
 50
0.0
  9
$ANGDIR
 70
     0
  9
$PDMODE
 70
     0
  9
$PDSIZE
 40
0.0
  9
$PLINEWID
 40
0.0
  9
$SPLFRAME
 70
     0
  9
$SPLINETYPE
 70
     6
  9
$SPLINESEGS
 70
     8
  9
$HANDSEED
  5
15F
  9
$SURFTAB1
 70
     6
  9
$SURFTAB2
 70
     6
  9
$SURFTYPE
 70
     6
  9
$SURFU
 70
     6
  9
$SURFV
 70
     6
  9
$UCSBASE
  2

  9
$UCSNAME
  2

  9
$UCSORG
 10
0.0
 20
0.0
 30
0.0
  9
$UCSXDIR
 10
1.0
 20
0.0
 30
0.0
  9
$UCSYDIR
 10
0.0
 20
1.0
 30
0.0
  9
$UCSORTHOREF
  2

  9
$UCSORTHOVIEW
 70
     0
  9
$UCSORGTOP
 10
0.0
 20
0.0
 30
0.0
  9
$UCSORGBOTTOM
 10
0.0
 20
0.0
 30
0.0
  9
$UCSORGLEFT
 10
0.0
 20
0.0
 30
0.0
  9
$UCSORGRIGHT
 10
0.0
 20
0.0
 30
0.0
  9
$UCSORGFRONT
 10
0.0
 20
0.0
 30
0.0
  9
$UCSORGBACK
 10
0.0
 20
0.0
 30
0.0
  9
$PUCSBASE
  2

  9
$PUCSNAME
  2

  9
$PUCSORG
 10
0.0
 20
0.0
 30
0.0
  9
$PUCSXDIR
 10
1.0
 20
0.0
 30
0.0
  9
$PUCSYDIR
 10
0.0
 20
1.0
 30
0.0
  9
$PUCSORTHOREF
  2

  9
$PUCSORTHOVIEW
 70
     0
  9
$PUCSORGTOP
 10
0.0
 20
0.0
 30
0.0
  9
$PUCSORGBOTTOM
 10
0.0
 20
0.0
 30
0.0
  9
$PUCSORGLEFT
 10
0.0
 20
0.0
 30
0.0
  9
$PUCSORGRIGHT
 10
0.0
 20
0.0
 30
0.0
  9
$PUCSORGFRONT
 10
0.0
 20
0.0
 30
0.0
  9
$PUCSORGBACK
 10
0.0
 20
0.0
 30
0.0
  9
$USERI1
 70
     0
  9
$USERI2
 70
     0
  9
$USERI3
 70
     0
  9
$USERI4
 70
     0
  9
$USERI5
 70
     0
  9
$USERR1
 40
0.0
  9
$USERR2
 40
0.0
  9
$USERR3
 40
0.0
  9
$USERR4
 40
0.0
  9
$USERR5
 40
0.0
  9
$WORLDVIEW
 70
     1
  9
$SHADEDGE
 70
     3
  9
$SHADEDIF
 70
    70
  9
$TILEMODE
 70
     1
  9
$MAXACTVP
 70
    16
  9
$PINSBASE
 10
0.0
 20
0.0
 30
0.0
  9
$PLIMCHECK
 70
     0
  9
$PEXTMIN
 10
1.000000000000000E+20
 20
1.000000000000000E+20
 30
1.000000000000000E+20
  9
$PEXTMAX
 10
-1.000000000000000E+20
 20
-1.000000000000000E+20
 30
-1.000000000000000E+20
  9
$PLIMMIN
 10
0.0
 20
0.0
  9
$PLIMMAX
 10
12.0
 20
9.0
  9
$UNITMODE
 70
     0
  9
$VISRETAIN
 70
     0
  9
$PLINEGEN
 70
     0
  9
$PSLTSCALE
 70
     1
  9
$TREEDEPTH
 70
  3020
  9
$CMLSTYLE
  2
Standard
  9
$CMLJUST
 70
     0
  9
$CMLSCALE
 40
1.0
  9
$PROXYGRAPHICS
 70
     1
  9
$MEASUREMENT
 70
     0
  9
$CELWEIGHT
370
    -1
  9
$ENDCAPS
280
     0
  9
$JOINSTYLE
280
     0
  9
$LWDISPLAY
290
     0
  9
$INSUNITS
 70
     0
  9
$HYPERLINKBASE
  1

  9
$STYLESHEET
  1

  9
$XEDIT
290
     1
  9
$CEPSNTYPE
380
     0
  9
$PSTYLEMODE
290
     1
  9
$FINGERPRINTGUID
  2
{A09CBBB2-476A-11D4-A5CD-0008C769B1B5}
  9
$VERSIONGUID
  2
{905FC323-4CF7-11D4-A5DB-0008C769B1B5}
  9
$EXTNAMES
290
     1
  9
$PSVPSCALE
 40
0.0
  9
$OLESTARTUP
290
     0
  0
ENDSEC
  0
SECTION
  2
CLASSES
  0
CLASS
  1
ACDBDICTIONARYWDFLT
  2
AcDbDictionaryWithDefault
  3
AutoCAD 2000
 90
        0
280
     0
281
     0
  0
CLASS
  1
ACDBPLACEHOLDER
  2
AcDbPlaceHolder
  3
AutoCAD 2000
 90
        0
280
     0
281
     0
  0
CLASS
  1
LAYOUT
  2
AcDbLayout
  3
AutoCAD 2000
 90
        0
280
     0
281
     0
  0
ENDSEC
  0
SECTION
  2
TABLES
  0
TABLE
  2
VPORT
  5
8
330
0
100
AcDbSymbolTable
 70
     2
  0
VPORT
  5
15E
330
8
100
AcDbSymbolTableRecord
100
AcDbViewportTableRecord
  2
*Active
 70
     0
 10
0.0
 20
0.0
 11
1.0
 21
1.0
 12
286.6460000291037
 22
37.32202864771525
 13
0.0
 23
0.0
 14
1.0
 24
1.0
 15
0.0
 25
0.0
 16
0.0
 26
0.0
 36
1.0
 17
0.0
 27
0.0
 37
0.0
 40
15.02276184858158
 41
1.060218978102189
 42
50.0
 43
0.0
 44
0.0
 50
0.0
 51
0.0
 71
     0
 72
   100
 73
     1
 74
     1
 75
     0
 76
     0
 77
     0
 78
     0
281
     0
 65
     1
110
0.0
120
0.0
130
0.0
111
1.0
121
0.0
131
0.0
112
0.0
122
1.0
132
0.0
 79
     0
146
0.0
  0
ENDTAB
  0
TABLE
  2
LTYPE
  5
5
330
0
100
AcDbSymbolTable
 70
     1
  0
LTYPE
  5
13
330
5
100
AcDbSymbolTableRecord
100
AcDbLinetypeTableRecord
  2
ByBlock
 70
     0
  3

 72
    65
 73
     0
 40
0.0
  0
LTYPE
  5
14
330
5
100
AcDbSymbolTableRecord
100
AcDbLinetypeTableRecord
  2
ByLayer
 70
     0
  3

 72
    65
 73
     0
 40
0.0
  0
LTYPE
  5
15
330
5
100
AcDbSymbolTableRecord
100
AcDbLinetypeTableRecord
  2
CONTINUOUS
 70
     0
  3
Solid line
 72
    65
 73
     0
 40
0.0
  0
ENDTAB
  0
TABLE
  2
LAYER
  5
2
330
0
100
AcDbSymbolTable
 70
     8
  0
LAYER
  5
10
330
2
100
AcDbSymbolTableRecord
100
AcDbLayerTableRecord
  2
0
 70
     0
 62
     7
  6
CONTINUOUS
370
    -3
390
F
  0
LAYER
  5
22
330
2
100
AcDbSymbolTableRecord
100
AcDbLayerTableRecord
  2
1
 70
     0
 62
     7
  6
CONTINUOUS
370
    -3
390
F
  0
LAYER
  5
23
330
2
100
AcDbSymbolTableRecord
100
AcDbLayerTableRecord
  2
7
 70
     0
 62
     7
  6
CONTINUOUS
370
    -3
390
F
  0
LAYER
  5
24
330
2
100
AcDbSymbolTableRecord
100
AcDbLayerTableRecord
  2
8
 70
     0
 62
     7
  6
CONTINUOUS
370
    -3
390
F
  0
LAYER
  5
25
330
2
100
AcDbSymbolTableRecord
100
AcDbLayerTableRecord
  2
9
 70
     0
 62
     7
  6
CONTINUOUS
370
    -3
390
F
  0
LAYER
  5
26
330
2
100
AcDbSymbolTableRecord
100
AcDbLayerTableRecord
  2
22
 70
     0
 62
     7
  6
CONTINUOUS
370
    -3
390
F
  0
LAYER
  5
27
330
2
100
AcDbSymbolTableRecord
100
AcDbLayerTableRecord
  2
25
 70
     0
 62
     7
  6
CONTINUOUS
370
    -3
390
F
  0
LAYER
  5
7F
330
2
100
AcDbSymbolTableRecord
100
AcDbLayerTableRecord
  2
Defpoints
 70
     0
 62
     7
  6
CONTINUOUS
290
     0
370
    -3
390
F
  0
ENDTAB
  0
TABLE
  2
STYLE
  5
3
330
0
100
AcDbSymbolTable
 70
     2
  0
STYLE
  5
11
330
3
100
AcDbSymbolTableRecord
100
AcDbTextStyleTableRecord
  2
Standard
 70
     0
 40
0.0
 41
1.0
 50
0.0
 71
     0
 42
0.2
  3
txt
  4

  0
STYLE
  5
28
330
3
100
AcDbSymbolTableRecord
100
AcDbTextStyleTableRecord
  2
ROMANC
 70
     0
 40
0.0
 41
1.0
 50
0.0
 71
     0
 42
0.2
  3
ROMANC
  4

  0
ENDTAB
  0
TABLE
  2
VIEW
  5
6
330
0
100
AcDbSymbolTable
 70
     0
  0
ENDTAB
  0
TABLE
  2
UCS
  5
7
330
0
100
AcDbSymbolTable
 70
     0
  0
ENDTAB
  0
TABLE
  2
APPID
  5
9
330
0
100
AcDbSymbolTable
 70
     1
  0
APPID
  5
12
330
9
100
AcDbSymbolTableRecord
100
AcDbRegAppTableRecord
  2
ACAD
 70
     0
  0
ENDTAB
  0
TABLE
  2
DIMSTYLE
  5
A
330
0
100
AcDbSymbolTable
 70
     1
100
AcDbDimStyleTable
 71
     1
340
7A
  0
DIMSTYLE
105
7A
102
{ACAD_REACTORS
330
C4
330
D2
330
F7
330
10F
330
11D
102
}
330
A
100
AcDbSymbolTableRecord
100
AcDbDimStyleTableRecord
  2
Standard
 70
     0
340
11
  0
ENDTAB
  0
TABLE
  2
BLOCK_RECORD
  5
1
330
0
100
AcDbSymbolTable
 70
     5
  0
BLOCK_RECORD
  5
1E
330
1
100
AcDbSymbolTableRecord
100
AcDbBlockTableRecord
  2
*Model_Space
340
21
  0
BLOCK_RECORD
  5
1A
330
1
100
AcDbSymbolTableRecord
100
AcDbBlockTableRecord
  2
*Paper_Space
340
1D
  0
BLOCK_RECORD
  5
C5
330
1
100
AcDbSymbolTableRecord
100
AcDbBlockTableRecord
  2
*D0
340
0
  0
BLOCK_RECORD
  5
D3
330
1
100
AcDbSymbolTableRecord
100
AcDbBlockTableRecord
  2
*D1
340
0
  0
BLOCK_RECORD
  5
F8
330
1
100
AcDbSymbolTableRecord
100
AcDbBlockTableRecord
  2
*D2
340
0
  0
BLOCK_RECORD
  5
110
330
1
100
AcDbSymbolTableRecord
100
AcDbBlockTableRecord
  2
*D3
340
0
  0
BLOCK_RECORD
  5
11E
330
1
100
AcDbSymbolTableRecord
100
AcDbBlockTableRecord
  2
*D4
340
0
  0
ENDTAB
  0
ENDSEC
  0
SECTION
  2
BLOCKS
  0
BLOCK
  5
1F
330
1E
100
AcDbEntity
  8
0
100
AcDbBlockBegin
  2
*Model_Space
 70
     0
 10
0.0
 20
0.0
 30
0.0
  3
*Model_Space
  1

  0
ENDBLK
  5
20
330
1E
100
AcDbEntity
  8
0
100
AcDbBlockEnd
  0
BLOCK
  5
1B
330
1A
100
AcDbEntity
 67
     1
  8
0
100
AcDbBlockBegin
  2
*Paper_Space
 70
     0
 10
0.0
 20
0.0
 30
0.0
  3
*Paper_Space
  1

  0
ENDBLK
  5
1C
330
1A
100
AcDbEntity
 67
     1
  8
0
100
AcDbBlockEnd
  0
BLOCK
  5
D0
330
C5
100
AcDbEntity
  8
0
100
AcDbBlockBegin
  2
*D0
 70
     1
 10
0.0
 20
0.0
 30
0.0
  3
*D0
  1

  0
LINE
  5
12B
330
C5
100
AcDbEntity
  8
0
 62
     0
370
    -2
100
AcDbLine
 10
287.1220844230521
 20
36.47894091322843
 30
0.0
 11
288.6819531246191
 21
36.47894091322843
 31
0.0
  0
LINE
  5
12C
330
C5
100
AcDbEntity
  8
0
 62
     0
370
    -2
100
AcDbLine
 10
286.3220844230521
 20
35.17894091322844
 30
0.0
 11
288.6819531246191
 21
35.17894091322844
 31
0.0
  0
LINE
  5
12D
330
C5
100
AcDbEntity
  8
0
 62
     0
370
    -2
100
AcDbLine
 10
288.501953124619
 20
36.29894091322843
 30
0.0
 11
288.501953124619
 21
36.00894091322843
 31
0.0
  0
LINE
  5
12E
330
C5
100
AcDbEntity
  8
0
 62
     0
370
    -2
100
AcDbLine
 10
288.501953124619
 20
35.35894091322843
 30
0.0
 11
288.501953124619
 21
35.64894091322843
 31
0.0
  0
SOLID
  5
12F
330
C5
100
AcDbEntity
  8
0
 62
     0
100
AcDbTrace
 10
288.471953124619
 20
36.29894091322843
 30
0.0
 11
288.531953124619
 21
36.29894091322843
 31
0.0
 12
288.501953124619
 22
36.47894091322843
 32
0.0
 13
288.501953124619
 23
36.47894091322843
 33
0.0
  0
SOLID
  5
130
330
C5
100
AcDbEntity
  8
0
 62
     0
100
AcDbTrace
 10
288.471953124619
 20
35.35894091322843
 30
0.0
 11
288.531953124619
 21
35.35894091322843
 31
0.0
 12
288.501953124619
 22
35.17894091322844
 32
0.0
 13
288.501953124619
 23
35.17894091322844
 33
0.0
  0
MTEXT
  5
131
330
C5
100
AcDbEntity
  8
0
 62
     0
100
AcDbMText
 10
288.501953124619
 20
35.82894091322848
 30
0.0
 40
0.18
 41
0.0
 71
     5
 72
     1
  1
\A1;1.3000
 73
     1
 44
1.0
  0
POINT
  5
132
330
C5
100
AcDbEntity
  8
Defpoints
 62
     0
100
AcDbPoint
 10
287.0595844230521
 20
36.47894091322843
 30
0.0
  0
POINT
  5
133
330
C5
100
AcDbEntity
  8
Defpoints
 62
     0
100
AcDbPoint
 10
286.2595844230521
 20
35.17894091322844
 30
0.0
  0
POINT
  5
134
330
C5
100
AcDbEntity
  8
Defpoints
 62
     0
100
AcDbPoint
 10
288.501953124619
 20
35.17894091322844
 30
0.0
  0
ENDBLK
  5
D1
330
C5
100
AcDbEntity
  8
0
100
AcDbBlockEnd
  0
BLOCK
  5
DF
330
D3
100
AcDbEntity
  8
0
100
AcDbBlockBegin
  2
*D1
 70
     1
 10
0.0
 20
0.0
 30
0.0
  3
*D1
  1

  0
LINE
  5
135
330
D3
100
AcDbEntity
  8
0
 62
     0
370
    -2
100
AcDbLine
 10
287.022084423052
 20
35.32894091322843
 30
0.0
 11
288.4287487222007
 21
35.32894091322843
 31
0.0
  0
LINE
  5
136
330
D3
100
AcDbEntity
  8
0
 62
     0
370
    -2
100
AcDbLine
 10
286.3845844230521
 20
35.17894091322844
 30
0.0
 11
288.4287487222007
 21
35.17894091322844
 31
0.0
  0
LINE
  5
137
330
D3
100
AcDbEntity
  8
0
 62
     0
370
    -2
100
AcDbLine
 10
288.2487487222007
 20
35.50894091322843
 30
0.0
 11
288.2487487222007
 21
35.68894091322842
 31
0.0
  0
LINE
  5
138
330
D3
100
AcDbEntity
  8
0
 62
     0
370
    -2
100
AcDbLine
 10
288.2487487222007
 20
34.99894091322843
 30
0.0
 11
288.2487487222007
 21
34.81894091322843
 31
0.0
  0
LINE
  5
139
330
D3
100
AcDbEntity
  8
0
 62
     0
370
    -2
100
AcDbLine
 10
288.2487487222007
 20
34.81894091322843
 30
0.0
 11
288.0687487222007
 21
34.81894091322843
 31
0.0
  0
SOLID
  5
13A
330
D3
100
AcDbEntity
  8
0
 62
     0
100
AcDbTrace
 10
288.2187487222007
 20
35.50894091322843
 30
0.0
 11
288.2787487222007
 21
35.50894091322843
 31
0.0
 12
288.2487487222007
 22
35.32894091322843
 32
0.0
 13
288.2487487222007
 23
35.32894091322843
 33
0.0
  0
SOLID
  5
13B
330
D3
100
AcDbEntity
  8
0
 62
     0
100
AcDbTrace
 10
288.2187487222007
 20
34.99894091322843
 30
0.0
 11
288.2787487222007
 21
34.99894091322843
 31
0.0
 12
288.2487487222007
 22
35.17894091322844
 32
0.0
 13
288.2487487222007
 23
35.17894091322844
 33
0.0
  0
MTEXT
  5
13C
330
D3
100
AcDbEntity
  8
0
 62
     0
100
AcDbMText
 10
287.6037487222007
 20
34.81894091322848
 30
0.0
 40
0.18
 41
0.0
 71
     5
 72
     1
  1
\A1;0.1500
 73
     1
 44
1.0
  0
POINT
  5
13D
330
D3
100
AcDbEntity
  8
Defpoints
 62
     0
100
AcDbPoint
 10
286.959584423052
 20
35.32894091322843
 30
0.0
  0
POINT
  5
13E
330
D3
100
AcDbEntity
  8
Defpoints
 62
     0
100
AcDbPoint
 10
286.3220844230521
 20
35.17894091322844
 30
0.0
  0
POINT
  5
13F
330
D3
100
AcDbEntity
  8
Defpoints
 62
     0
100
AcDbPoint
 10
288.2487487222007
 20
35.17894091322844
 30
0.0
  0
ENDBLK
  5
E0
330
D3
100
AcDbEntity
  8
0
100
AcDbBlockEnd
  0
BLOCK
  5
103
330
F8
100
AcDbEntity
  8
0
100
AcDbBlockBegin
  2
*D2
 70
     1
 10
0.0
 20
0.0
 30
0.0
  3
*D2
  1

  0
LINE
  5
154
330
F8
100
AcDbEntity
  8
0
 62
     0
370
    -2
100
AcDbLine
 10
286.6095844230521
 20
35.26644091322843
 30
0.0
 11
286.6095844230521
 21
34.70060876914036
 31
0.0
  0
LINE
  5
155
330
F8
100
AcDbEntity
  8
0
 62
     0
370
    -2
100
AcDbLine
 10
285.909584423052
 20
35.26644091322843
 30
0.0
 11
285.909584423052
 21
34.70060876914036
 31
0.0
  0
LINE
  5
156
330
F8
100
AcDbEntity
  8
0
 62
     0
370
    -2
100
AcDbLine
 10
286.4295844230521
 20
34.88060876914035
 30
0.0
 11
286.089584423052
 21
34.88060876914035
 31
0.0
  0
LINE
  5
157
330
F8
100
AcDbEntity
  8
0
 62
     0
370
    -2
100
AcDbLine
 10
285.909584423052
 20
34.88060876914035
 30
0.0
 11
285.339584423052
 21
34.88060876914035
 31
0.0
  0
SOLID
  5
158
330
F8
100
AcDbEntity
  8
0
 62
     0
100
AcDbTrace
 10
286.4295844230521
 20
34.91060876914036
 30
0.0
 11
286.4295844230521
 21
34.85060876914035
 31
0.0
 12
286.6095844230521
 22
34.88060876914035
 32
0.0
 13
286.6095844230521
 23
34.88060876914035
 33
0.0
  0
SOLID
  5
159
330
F8
100
AcDbEntity
  8
0
 62
     0
100
AcDbTrace
 10
286.089584423052
 20
34.91060876914036
 30
0.0
 11
286.089584423052
 21
34.85060876914035
 31
0.0
 12
285.909584423052
 22
34.88060876914035
 32
0.0
 13
285.909584423052
 23
34.88060876914035
 33
0.0
  0
MTEXT
  5
15A
330
F8
100
AcDbEntity
  8
0
 62
     0
100
AcDbMText
 10
284.859584423052
 20
34.88060876914035
 30
0.0
 40
0.18
 41
0.0
 71
     5
 72
     1
  1
\A1;0.7000
 73
     1
 44
1.0
  0
POINT
  5
15B
330
F8
100
AcDbEntity
  8
Defpoints
 62
     0
100
AcDbPoint
 10
286.6095844230521
 20
35.32894091322843
 30
0.0
  0
POINT
  5
15C
330
F8
100
AcDbEntity
  8
Defpoints
 62
     0
100
AcDbPoint
 10
285.909584423052
 20
35.32894091322843
 30
0.0
  0
POINT
  5
15D
330
F8
100
AcDbEntity
  8
Defpoints
 62
     0
100
AcDbPoint
 10
285.909584423052
 20
34.88060876914035
 30
0.0
  0
ENDBLK
  5
104
330
F8
100
AcDbEntity
  8
0
100
AcDbBlockEnd
  0
BLOCK
  5
11B
330
110
100
AcDbEntity
  8
0
100
AcDbBlockBegin
  2
*D3
 70
     1
 10
0.0
 20
0.0
 30
0.0
  3
*D3
  1

  0
LINE
  5
14A
330
110
100
AcDbEntity
  8
0
 62
     0
370
    -2
100
AcDbLine
 10
286.959584423052
 20
35.26644091322843
 30
0.0
 11
286.959584423052
 21
34.38625398521485
 31
0.0
  0
LINE
  5
14B
330
110
100
AcDbEntity
  8
0
 62
     0
370
    -2
100
AcDbLine
 10
285.5595844230521
 20
35.26644091322843
 30
0.0
 11
285.5595844230521
 21
34.38625398521485
 31
0.0
  0
LINE
  5
14C
330
110
100
AcDbEntity
  8
0
 62
     0
370
    -2
100
AcDbLine
 10
287.1395844230521
 20
34.56625398521484
 30
0.0
 11
287.319584423052
 21
34.56625398521484
 31
0.0
  0
LINE
  5
14D
330
110
100
AcDbEntity
  8
0
 62
     0
370
    -2
100
AcDbLine
 10
285.3795844230521
 20
34.56625398521484
 30
0.0
 11
285.1995844230521
 21
34.56625398521484
 31
0.0
  0
SOLID
  5
14E
330
110
100
AcDbEntity
  8
0
 62
     0
100
AcDbTrace
 10
287.1395844230521
 20
34.59625398521485
 30
0.0
 11
287.1395844230521
 21
34.53625398521484
 31
0.0
 12
286.959584423052
 22
34.56625398521484
 32
0.0
 13
286.959584423052
 23
34.56625398521484
 33
0.0
  0
SOLID
  5
14F
330
110
100
AcDbEntity
  8
0
 62
     0
100
AcDbTrace
 10
285.3795844230521
 20
34.59625398521485
 30
0.0
 11
285.3795844230521
 21
34.53625398521484
 31
0.0
 12
285.5595844230521
 22
34.56625398521484
 32
0.0
 13
285.5595844230521
 23
34.56625398521484
 33
0.0
  0
MTEXT
  5
150
330
110
100
AcDbEntity
  8
0
 62
     0
100
AcDbMText
 10
286.2595844230521
 20
34.56625398521484
 30
0.0
 40
0.18
 41
0.0
 71
     5
 72
     1
  1
\A1;1.4000
 73
     1
 44
1.0
  0
POINT
  5
151
330
110
100
AcDbEntity
  8
Defpoints
 62
     0
100
AcDbPoint
 10
286.959584423052
 20
35.32894091322843
 30
0.0
  0
POINT
  5
152
330
110
100
AcDbEntity
  8
Defpoints
 62
     0
100
AcDbPoint
 10
285.5595844230521
 20
35.32894091322843
 30
0.0
  0
POINT
  5
153
330
110
100
AcDbEntity
  8
Defpoints
 62
     0
100
AcDbPoint
 10
285.5595844230521
 20
34.56625398521484
 30
0.0
  0
ENDBLK
  5
11C
330
110
100
AcDbEntity
  8
0
100
AcDbBlockEnd
  0
BLOCK
  5
129
330
11E
100
AcDbEntity
  8
0
100
AcDbBlockBegin
  2
*D4
 70
     1
 10
0.0
 20
0.0
 30
0.0
  3
*D4
  1

  0
LINE
  5
140
330
11E
100
AcDbEntity
  8
0
 62
     0
370
    -2
100
AcDbLine
 10
285.459584423052
 20
36.54144091322843
 30
0.0
 11
285.459584423052
 21
37.06941260320732
 31
0.0
  0
LINE
  5
141
330
11E
100
AcDbEntity
  8
0
 62
     0
370
    -2
100
AcDbLine
 10
287.0595844230521
 20
36.54144091322843
 30
0.0
 11
287.0595844230521
 21
37.06941260320732
 31
0.0
  0
LINE
  5
142
330
11E
100
AcDbEntity
  8
0
 62
     0
370
    -2
100
AcDbLine
 10
285.6395844230521
 20
36.88941260320731
 30
0.0
 11
285.7945844230521
 21
36.88941260320731
 31
0.0
  0
LINE
  5
143
330
11E
100
AcDbEntity
  8
0
 62
     0
370
    -2
100
AcDbLine
 10
286.879584423052
 20
36.88941260320731
 30
0.0
 11
286.724584423052
 21
36.88941260320731
 31
0.0
  0
SOLID
  5
144
330
11E
100
AcDbEntity
  8
0
 62
     0
100
AcDbTrace
 10
285.6395844230521
 20
36.91941260320731
 30
0.0
 11
285.6395844230521
 21
36.85941260320731
 31
0.0
 12
285.459584423052
 22
36.88941260320731
 32
0.0
 13
285.459584423052
 23
36.88941260320731
 33
0.0
  0
SOLID
  5
145
330
11E
100
AcDbEntity
  8
0
 62
     0
100
AcDbTrace
 10
286.879584423052
 20
36.91941260320731
 30
0.0
 11
286.879584423052
 21
36.85941260320731
 31
0.0
 12
287.0595844230521
 22
36.88941260320731
 32
0.0
 13
287.0595844230521
 23
36.88941260320731
 33
0.0
  0
MTEXT
  5
146
330
11E
100
AcDbEntity
  8
0
 62
     0
100
AcDbMText
 10
286.2595844230521
 20
36.88941260320731
 30
0.0
 40
0.18
 41
0.0
 71
     5
 72
     1
  1
\A1;1.6000
 73
     1
 44
1.0
  0
POINT
  5
147
330
11E
100
AcDbEntity
  8
Defpoints
 62
     0
100
AcDbPoint
 10
285.459584423052
 20
36.47894091322843
 30
0.0
  0
POINT
  5
148
330
11E
100
AcDbEntity
  8
Defpoints
 62
     0
100
AcDbPoint
 10
287.0595844230521
 20
36.47894091322843
 30
0.0
  0
POINT
  5
149
330
11E
100
AcDbEntity
  8
Defpoints
 62
     0
100
AcDbPoint
 10
287.0595844230521
 20
36.88941260320731
 30
0.0
  0
ENDBLK
  5
12A
330
11E
100
AcDbEntity
  8
0
100
AcDbBlockEnd
  0
ENDSEC
  0
SECTION
  2
ENTITIES
  0
TEXT
  5
2C
330
1E
100
AcDbEntity
  8
0
  6
Continuous
100
AcDbText
 10
287.2805487186718
 20
41.39364127471099
 30
0.0
 40
0.1
  1
2
  7
ROMANC
100
AcDbText
  0
TEXT
  5
2D
330
1E
100
AcDbEntity
  8
0
  6
Continuous
100
AcDbText
 10
283.9259999999999
 20
41.768
 30
0.0
 40
0.3
  1
ESCALA  1:50
  7
ROMANC
100
AcDbText
  0
LWPOLYLINE
  5
2E
330
1E
100
AcDbEntity
  8
0
  6
Continuous
100
AcDbPolyline
 90
        4
 70
     1
 43
0.0
 10
281.3959999999999
 20
44.747
 10
291.8959999999999
 20
44.747
 10
291.8959999999999
 20
29.897
 10
281.3959999999999
 20
29.897
  0
TEXT
  5
34
330
1E
100
AcDbEntity
  8
0
  6
Continuous
100
AcDbText
 10
283.9259999999999
 20
42.381
 30
0.0
 40
0.3
  1
TIPUS   NT179A
  7
ROMANC
100
AcDbText
  0
TEXT
  5
3C
330
1E
100
AcDbEntity
  8
0
  6
Continuous
100
AcDbText
 10
283.9449999999999
 20
41.09899999999998
 30
0.0
 40
0.3
  1
S = 179 dm
  7
ROMANC
100
AcDbText
  0
TEXT
  5
3D
330
1E
100
AcDbEntity
  8
0
  6
Continuous
100
AcDbText
 10
283.922
 20
40.529
 30
0.0
 40
0.3
  1
P = 539 dm
  7
ROMANC
100
AcDbText
  0
LWPOLYLINE
  5
C3
330
1E
100
AcDbEntity
  8
0
100
AcDbPolyline
 90
        6
 70
     1
 43
0.0
 10
285.909584423052
 20
35.32894091322843
 10
285.5595844230521
 20
35.32894091322843
 10
285.459584423052
 20
36.47894091322843
 10
287.0595844230521
 20
36.47894091322843
 10
286.959584423052
 20
35.32894091322843
 10
286.6095844230521
 20
35.32894091322843
 42
-0.4285714285713826
  0
DIMENSION
  5
C4
330
1E
100
AcDbEntity
  8
0
100
AcDbDimension
  2
*D0
 10
288.501953124619
 20
35.17894091322844
 30
0.0
 11
288.501953124619
 21
35.82894091322848
 31
0.0
 70
   160
 71
     5
 42
1.299999999999997
  3
Standard
100
AcDbAlignedDimension
 13
287.0595844230521
 23
36.47894091322843
 33
0.0
 14
286.2595844230521
 24
35.17894091322844
 34
0.0
 50
90.0
100
AcDbRotatedDimension
  0
DIMENSION
  5
D2
330
1E
100
AcDbEntity
  8
0
100
AcDbDimension
  2
*D1
 10
288.2487487222007
 20
35.17894091322844
 30
0.0
 11
287.6037487222007
 21
34.81894091322848
 31
0.0
 70
   160
 71
     5
 42
0.1499999999999915
  3
Standard
100
AcDbAlignedDimension
 13
286.959584423052
 23
35.32894091322843
 33
0.0
 14
286.3220844230521
 24
35.17894091322844
 34
0.0
 50
90.0
100
AcDbRotatedDimension
  0
DIMENSION
  5
F7
330
1E
100
AcDbEntity
  8
0
100
AcDbDimension
  2
*D2
 10
285.909584423052
 20
34.88060876914035
 30
0.0
 11
284.859584423052
 21
34.88060876914035
 31
0.0
 70
   160
 71
     5
 42
0.7000000000000455
  3
Standard
100
AcDbAlignedDimension
 13
286.6095844230521
 23
35.32894091322843
 33
0.0
 14
285.909584423052
 24
35.32894091322843
 34
0.0
100
AcDbRotatedDimension
  0
DIMENSION
  5
10F
330
1E
100
AcDbEntity
  8
0
100
AcDbDimension
  2
*D3
 10
285.5595844230521
 20
34.56625398521484
 30
0.0
 11
286.2595844230521
 21
34.56625398521484
 31
0.0
 70
    32
 71
     5
 42
1.399999999999977
  3
Standard
100
AcDbAlignedDimension
 13
286.959584423052
 23
35.32894091322843
 33
0.0
 14
285.5595844230521
 24
35.32894091322843
 34
0.0
100
AcDbRotatedDimension
  0
DIMENSION
  5
11D
330
1E
100
AcDbEntity
  8
0
100
AcDbDimension
  2
*D4
 10
287.0595844230521
 20
36.88941260320731
 30
0.0
 11
286.2595844230521
 21
36.88941260320731
 31
0.0
 70
    32
 71
     5
 42
1.600000000000022
  3
Standard
100
AcDbAlignedDimension
 13
285.459584423052
 23
36.47894091322843
 33
0.0
 14
287.0595844230521
 24
36.47894091322843
 34
0.0
100
AcDbRotatedDimension
  0
ENDSEC
  0
SECTION
  2
OBJECTS
  0
DICTIONARY
  5
C
330
0
100
AcDbDictionary
281
     1
  3
ACAD_GROUP
350
D
  3
ACAD_LAYOUT
350
19
  3
ACAD_MLINESTYLE
350
16
  3
ACAD_PLOTSETTINGS
350
18
  3
ACAD_PLOTSTYLENAME
350
E
  0
DICTIONARY
  5
D
102
{ACAD_REACTORS
330
C
102
}
330
C
100
AcDbDictionary
281
     1
  0
DICTIONARY
  5
19
102
{ACAD_REACTORS
330
C
102
}
330
C
100
AcDbDictionary
281
     1
  3
Model
350
21
  3
Presentación1
350
1D
  0
DICTIONARY
  5
16
102
{ACAD_REACTORS
330
C
102
}
330
C
100
AcDbDictionary
281
     1
  3
Standard
350
17
  0
DICTIONARY
  5
18
102
{ACAD_REACTORS
330
C
102
}
330
C
100
AcDbDictionary
281
     1
  0
ACDBDICTIONARYWDFLT
  5
E
102
{ACAD_REACTORS
330
C
102
}
330
C
100
AcDbDictionary
281
     1
  3
Normal
350
F
100
AcDbDictionaryWithDefault
340
F
  0
LAYOUT
  5
21
102
{ACAD_REACTORS
330
19
102
}
330
19
100
AcDbPlotSettings
  1

  2
HP DesignJet 750C/PS FILE
  4

  6

 40
0.0
 41
0.0
 42
0.0
 43
0.0
 44
0.0
 45
0.0
 46
0.0
 47
0.0
 48
0.0
 49
0.0
140
0.0
141
0.0
142
1.0
143
1.0
 70
  1712
 72
     0
 73
     0
 74
     0
  7

 75
     0
147
1.0
148
0.0
149
0.0
100
AcDbLayout
  1
Model
 70
     1
 71
     0
 10
0.0
 20
0.0
 11
12.0
 21
9.0
 12
0.0
 22
0.0
 32
0.0
 14
0.0
 24
0.0
 34
0.0
 15
0.0
 25
0.0
 35
0.0
146
0.0
 13
0.0
 23
0.0
 33
0.0
 16
1.0
 26
0.0
 36
0.0
 17
0.0
 27
1.0
 37
0.0
 76
     0
330
1E
  0
LAYOUT
  5
1D
102
{ACAD_REACTORS
330
19
102
}
330
19
100
AcDbPlotSettings
  1

  2
HP DesignJet 750C/PS FILE
  4

  6

 40
0.0
 41
0.0
 42
0.0
 43
0.0
 44
0.0
 45
0.0
 46
0.0
 47
0.0
 48
0.0
 49
0.0
140
0.0
141
0.0
142
1.0
143
1.0
 70
   688
 72
     0
 73
     0
 74
     5
  7

 75
    16
147
1.0
148
0.0
149
0.0
100
AcDbLayout
  1
Presentación1
 70
     1
 71
     1
 10
0.0
 20
0.0
 11
12.0
 21
9.0
 12
0.0
 22
0.0
 32
0.0
 14
1.000000000000000E+20
 24
1.000000000000000E+20
 34
1.000000000000000E+20
 15
-1.000000000000000E+20
 25
-1.000000000000000E+20
 35
-1.000000000000000E+20
146
0.0
 13
0.0
 23
0.0
 33
0.0
 16
1.0
 26
0.0
 36
0.0
 17
0.0
 27
1.0
 37
0.0
 76
     0
330
1A
  0
MLINESTYLE
  5
17
102
{ACAD_REACTORS
330
16
102
}
330
16
100
AcDbMlineStyle
  2
STANDARD
 70
     0
  3

 62
   256
 51
90.0
 52
90.0
 71
     2
 49
0.5
 62
   256
  6
BYLAYER
 49
-0.5
 62
   256
  6
BYLAYER
  0
ACDBPLACEHOLDER
  5
F
102
{ACAD_REACTORS
330
E
102
}
330
E
  0
ENDSEC
  0
EOF
