  0
SECTION
  2
HEADER
  9
$ACADVER
  1
AC1014
  9
$ACADMAINTVER
 70
     0
  9
$DWGCODEPAGE
  3
ANSI_1252
  9
$INSBASE
 10
0.0
 20
0.0
 30
0.0
  9
$EXTMIN
 10
318.829805
 20
29.85788
 30
-0.001526
  9
$EXTMAX
 10
329.371339
 20
44.72551
 30
0.0
  9
$LIMMIN
 10
0.0
 20
0.0
  9
$LIMMAX
 10
410.0
 20
287.0
  9
$ORTHOMODE
 70
     1
  9
$REGENMODE
 70
     1
  9
$FILLMODE
 70
     1
  9
$QTEXTMODE
 70
     0
  9
$MIRRTEXT
 70
     1
  9
$DRAGMODE
 70
     2
  9
$LTSCALE
 40
25.0
  9
$OSMODE
 70
     0
  9
$ATTMODE
 70
     1
  9
$TEXTSIZE
 40
0.1
  9
$TRACEWID
 40
1.0
  9
$TEXTSTYLE
  7
ROMANC
  9
$CLAYER
  8
0
  9
$CELTYPE
  6
BYLAYER
  9
$CECOLOR
 62
   256
  9
$CELTSCALE
 40
1.0
  9
$DELOBJ
 70
     1
  9
$DISPSILH
 70
     0
  9
$DIMSCALE
 40
1.5
  9
$DIMASZ
 40
0.1
  9
$DIMEXO
 40
0.01
  9
$DIMDLI
 40
7.0
  9
$DIMRND
 40
0.0
  9
$DIMDLE
 40
0.0
  9
$DIMEXE
 40
0.01
  9
$DIMTP
 40
0.0
  9
$DIMTM
 40
0.0
  9
$DIMTXT
 40
0.05
  9
$DIMCEN
 40
0.0
  9
$DIMTSZ
 40
0.0
  9
$DIMTOL
 70
     0
  9
$DIMLIM
 70
     0
  9
$DIMTIH
 70
     0
  9
$DIMTOH
 70
     0
  9
$DIMSE1
 70
     0
  9
$DIMSE2
 70
     0
  9
$DIMTAD
 70
     1
  9
$DIMZIN
 70
     0
  9
$DIMBLK
  1

  9
$DIMASO
 70
     1
  9
$DIMSHO
 70
     0
  9
$DIMPOST
  1

  9
$DIMAPOST
  1

  9
$DIMALT
 70
     0
  9
$DIMALTD
 70
     2
  9
$DIMALTF
 40
25.4
  9
$DIMLFAC
 40
1.0
  9
$DIMTOFL
 70
     1
  9
$DIMTVP
 40
0.0
  9
$DIMTIX
 70
     1
  9
$DIMSOXD
 70
     0
  9
$DIMSAH
 70
     0
  9
$DIMBLK1
  1

  9
$DIMBLK2
  1

  9
$DIMSTYLE
  2
MERITXELL
  9
$DIMCLRD
 70
     0
  9
$DIMCLRE
 70
     0
  9
$DIMCLRT
 70
     0
  9
$DIMTFAC
 40
70.0
  9
$DIMGAP
 40
0.025
  9
$DIMJUST
 70
     0
  9
$DIMSD1
 70
     0
  9
$DIMSD2
 70
     0
  9
$DIMTOLJ
 70
     1
  9
$DIMTZIN
 70
     0
  9
$DIMALTZ
 70
     0
  9
$DIMALTTZ
 70
     0
  9
$DIMFIT
 70
     5
  9
$DIMUPT
 70
     0
  9
$DIMUNIT
 70
     2
  9
$DIMDEC
 70
     2
  9
$DIMTDEC
 70
     2
  9
$DIMALTU
 70
     2
  9
$DIMALTTD
 70
     2
  9
$DIMTXSTY
  7
ROMANC
  9
$DIMAUNIT
 70
     0
  9
$LUNITS
 70
     2
  9
$LUPREC
 70
     2
  9
$SKETCHINC
 40
1.0
  9
$FILLETRAD
 40
0.0
  9
$AUNITS
 70
     0
  9
$AUPREC
 70
     0
  9
$MENU
  1
acad
  9
$ELEVATION
 40
0.0
  9
$PELEVATION
 40
0.0
  9
$THICKNESS
 40
0.0
  9
$LIMCHECK
 70
     0
  9
$BLIPMODE
 70
     0
  9
$CHAMFERA
 40
0.0
  9
$CHAMFERB
 40
0.0
  9
$CHAMFERC
 40
0.0
  9
$CHAMFERD
 40
0.0
  9
$SKPOLY
 70
     0
  9
$TDCREATE
 40
2450927.461950000
  9
$TDUPDATE
 40
2451416.607233669
  9
$TDINDWG
 40
0.1810230671
  9
$TDUSRTIMER
 40
0.1810230671
  9
$USRTIMER
 70
     1
  9
$ANGBASE
 50
0.0
  9
$ANGDIR
 70
     0
  9
$PDMODE
 70
     0
  9
$PDSIZE
 40
0.0
  9
$PLINEWID
 40
0.0
  9
$COORDS
 70
     2
  9
$SPLFRAME
 70
     0
  9
$SPLINETYPE
 70
     6
  9
$SPLINESEGS
 70
     8
  9
$ATTDIA
 70
     0
  9
$ATTREQ
 70
     1
  9
$HANDLING
 70
     1
  9
$HANDSEED
  5
FAD
  9
$SURFTAB1
 70
     6
  9
$SURFTAB2
 70
     6
  9
$SURFTYPE
 70
     6
  9
$SURFU
 70
     6
  9
$SURFV
 70
     6
  9
$UCSNAME
  2

  9
$UCSORG
 10
0.0
 20
0.0
 30
0.0
  9
$UCSXDIR
 10
1.0
 20
0.0
 30
0.0
  9
$UCSYDIR
 10
0.0
 20
1.0
 30
0.0
  9
$PUCSNAME
  2

  9
$PUCSORG
 10
0.0
 20
0.0
 30
0.0
  9
$PUCSXDIR
 10
1.0
 20
0.0
 30
0.0
  9
$PUCSYDIR
 10
0.0
 20
1.0
 30
0.0
  9
$USERI1
 70
     0
  9
$USERI2
 70
     0
  9
$USERI3
 70
     0
  9
$USERI4
 70
     0
  9
$USERI5
 70
     0
  9
$USERR1
 40
0.0
  9
$USERR2
 40
0.0
  9
$USERR3
 40
0.0
  9
$USERR4
 40
0.0
  9
$USERR5
 40
0.0
  9
$WORLDVIEW
 70
     1
  9
$SHADEDGE
 70
     3
  9
$SHADEDIF
 70
    70
  9
$TILEMODE
 70
     1
  9
$MAXACTVP
 70
    16
  9
$PINSBASE
 10
0.0
 20
0.0
 30
0.0
  9
$PLIMCHECK
 70
     0
  9
$PEXTMIN
 10
1.000000E+20
 20
1.000000E+20
 30
1.000000E+20
  9
$PEXTMAX
 10
-1.000000E+20
 20
-1.000000E+20
 30
-1.000000E+20
  9
$PLIMMIN
 10
0.0
 20
0.0
  9
$PLIMMAX
 10
12.0
 20
9.0
  9
$UNITMODE
 70
     0
  9
$VISRETAIN
 70
     0
  9
$PLINEGEN
 70
     0
  9
$PSLTSCALE
 70
     0
  9
$TREEDEPTH
 70
  3020
  9
$PICKSTYLE
 70
     1
  9
$CMLSTYLE
  2
STANDARD
  9
$CMLJUST
 70
     0
  9
$CMLSCALE
 40
1.0
  9
$PROXYGRAPHICS
 70
     1
  9
$MEASUREMENT
 70
     0
  0
ENDSEC
  0
SECTION
  2
CLASSES
  0
CLASS
  1
DICTIONARYVAR
  2
AcDbDictionaryVar
  3
"AutoCAD"
 90
        0
280
     0
281
     0
  0
CLASS
  1
LWPOLYLINE
  2
AcDbPolyline
  3
"AutoCAD"
 90
        0
280
     0
281
     1
  0
ENDSEC
  0
SECTION
  2
TABLES
  0
TABLE
  2
VPORT
  5
8
100
AcDbSymbolTable
 70
     7
  0
VPORT
  5
FAC
100
AcDbSymbolTableRecord
100
AcDbViewportTableRecord
  2
*ACTIVE
 70
     0
 10
0.0
 20
0.0
 11
1.0
 21
1.0
 12
324.100572
 22
37.291695
 13
0.0
 23
0.0
 14
1.0
 24
1.0
 15
10.0
 25
10.0
 16
0.0
 26
0.0
 36
1.0
 17
0.0
 27
0.0
 37
0.0
 40
15.000972
 41
1.693114
 42
50.0
 43
0.0
 44
0.0
 50
0.0
 51
0.0
 71
     0
 72
   100
 73
     1
 74
     0
 75
     0
 76
     0
 77
     0
 78
     1
  0
ENDTAB
  0
TABLE
  2
LTYPE
  5
5
100
AcDbSymbolTable
 70
     1
  0
LTYPE
  5
11
100
AcDbSymbolTableRecord
100
AcDbLinetypeTableRecord
  2
BYBLOCK
 70
     0
  3

 72
    65
 73
     0
 40
0.0
  0
LTYPE
  5
12
100
AcDbSymbolTableRecord
100
AcDbLinetypeTableRecord
  2
BYLAYER
 70
     0
  3

 72
    65
 73
     0
 40
0.0
  0
LTYPE
  5
13
100
AcDbSymbolTableRecord
100
AcDbLinetypeTableRecord
  2
CONTINUOUS
 70
     0
  3
Solid line
 72
    65
 73
     0
 40
0.0
  0
ENDTAB
  0
TABLE
  2
LAYER
  5
2
100
AcDbSymbolTable
 70
     4
  0
LAYER
  5
E
100
AcDbSymbolTableRecord
100
AcDbLayerTableRecord
  2
0
 70
     0
 62
     7
  6
CONTINUOUS
  0
LAYER
  5
70C
100
AcDbSymbolTableRecord
100
AcDbLayerTableRecord
  2
DEFPOINTS
 70
     0
 62
     7
  6
CONTINUOUS
  0
LAYER
  5
908
100
AcDbSymbolTableRecord
100
AcDbLayerTableRecord
  2
COTES
 70
     0
 62
     4
  6
CONTINUOUS
  0
LAYER
  5
909
100
AcDbSymbolTableRecord
100
AcDbLayerTableRecord
  2
SECCIO
 70
     0
 62
    30
  6
CONTINUOUS
  0
ENDTAB
  0
TABLE
  2
STYLE
  5
3
100
AcDbSymbolTable
 70
     2
  0
STYLE
  5
F
100
AcDbSymbolTableRecord
100
AcDbTextStyleTableRecord
  2
STANDARD
 70
     0
 40
0.0
 41
1.0
 50
0.0
 71
     0
 42
0.1
  3
txt
  4

  0
STYLE
  5
1C
100
AcDbSymbolTableRecord
100
AcDbTextStyleTableRecord
  2
ROMANC
 70
     0
 40
0.0
 41
1.0
 50
0.0
 71
     0
 42
0.1
  3
romanc
  4

  0
ENDTAB
  0
TABLE
  2
VIEW
  5
6
100
AcDbSymbolTable
 70
     0
  0
ENDTAB
  0
TABLE
  2
UCS
  5
7
100
AcDbSymbolTable
 70
     0
  0
ENDTAB
  0
TABLE
  2
APPID
  5
9
100
AcDbSymbolTable
 70
     1
  0
APPID
  5
10
100
AcDbSymbolTableRecord
100
AcDbRegAppTableRecord
  2
ACAD
 70
     0
  0
ENDTAB
  0
TABLE
  2
DIMSTYLE
  5
A
100
AcDbSymbolTable
 70
     2
  0
DIMSTYLE
105
1F
100
AcDbSymbolTableRecord
100
AcDbDimStyleTableRecord
  2
MERITXELL
 70
     0
  3

  4

  5

  6

  7

 40
1.5
 41
0.1
 42
0.01
 43
7.0
 44
0.01
 45
0.0
 46
0.0
 47
0.0
 48
0.0
140
0.05
141
0.1
142
0.0
143
25.4
144
1.0
145
0.0
146
70.0
147
0.09
 71
     0
 72
     0
 73
     0
 74
     0
 75
     0
 76
     0
 77
     1
 78
     0
170
     0
171
     2
172
     1
173
     0
174
     1
175
     0
176
     0
177
     0
178
     0
270
     2
271
     2
272
     2
273
     2
274
     2
340
1C
275
     0
280
     0
281
     0
282
     0
283
     1
284
     0
285
     0
286
     0
287
     5
288
     0
  0
DIMSTYLE
105
90A
102
{ACAD_REACTORS
330
91D
330
91C
330
91B
330
91A
330
910
330
90F
330
90E
330
90D
330
90C
330
919
330
918
330
92B
330
92A
330
929
330
928
330
927
330
926
330
925
330
924
330
923
330
922
330
921
102
}
100
AcDbSymbolTableRecord
100
AcDbDimStyleTableRecord
  2
STANDARD
 70
     0
  3

  4

  5
TICK
  6

  7

 40
1.0
 41
0.05
 42
0.08
 43
0.08
 44
0.08
 45
0.0
 46
1.25
 47
0.0
 48
0.0
140
0.08
141
-0.08
142
0.0
143
0.039
144
1.0
145
1.0
146
1.0
147
0.08
 71
     0
 72
     0
 73
     0
 74
     0
 75
     0
 76
     0
 77
     0
 78
     0
170
     0
171
     2
172
     0
173
     0
174
     0
175
     0
176
    71
177
    71
178
     7
270
     2
271
     2
272
     2
273
     2
274
     2
340
F
275
     0
280
     0
281
     0
282
     0
283
     1
284
     0
285
     0
286
     0
287
     5
288
     0
  0
ENDTAB
  0
TABLE
  2
BLOCK_RECORD
  5
1
100
AcDbSymbolTable
 70
    38
  0
BLOCK_RECORD
  5
17
100
AcDbSymbolTableRecord
100
AcDbBlockTableRecord
  2
*MODEL_SPACE
  0
BLOCK_RECORD
  5
14
100
AcDbSymbolTableRecord
100
AcDbBlockTableRecord
  2
*PAPER_SPACE
  0
BLOCK_RECORD
  5
386
100
AcDbSymbolTableRecord
100
AcDbBlockTableRecord
  2
TICK
  0
BLOCK_RECORD
  5
7FF
100
AcDbSymbolTableRecord
100
AcDbBlockTableRecord
  2
*D1
  0
BLOCK_RECORD
  5
80B
100
AcDbSymbolTableRecord
100
AcDbBlockTableRecord
  2
*D2
  0
BLOCK_RECORD
  5
817
100
AcDbSymbolTableRecord
100
AcDbBlockTableRecord
  2
*D3
  0
BLOCK_RECORD
  5
820
100
AcDbSymbolTableRecord
100
AcDbBlockTableRecord
  2
*D4
  0
BLOCK_RECORD
  5
82D
100
AcDbSymbolTableRecord
100
AcDbBlockTableRecord
  2
*D5
  0
BLOCK_RECORD
  5
83A
100
AcDbSymbolTableRecord
100
AcDbBlockTableRecord
  2
*D6
  0
BLOCK_RECORD
  5
846
100
AcDbSymbolTableRecord
100
AcDbBlockTableRecord
  2
*D7
  0
BLOCK_RECORD
  5
852
100
AcDbSymbolTableRecord
100
AcDbBlockTableRecord
  2
*D8
  0
BLOCK_RECORD
  5
85E
100
AcDbSymbolTableRecord
100
AcDbBlockTableRecord
  2
*D9
  0
BLOCK_RECORD
  5
86B
100
AcDbSymbolTableRecord
100
AcDbBlockTableRecord
  2
*D10
  0
BLOCK_RECORD
  5
877
100
AcDbSymbolTableRecord
100
AcDbBlockTableRecord
  2
*D11
  0
BLOCK_RECORD
  5
884
100
AcDbSymbolTableRecord
100
AcDbBlockTableRecord
  2
*D12
  0
BLOCK_RECORD
  5
890
100
AcDbSymbolTableRecord
100
AcDbBlockTableRecord
  2
*D13
  0
BLOCK_RECORD
  5
89C
100
AcDbSymbolTableRecord
100
AcDbBlockTableRecord
  2
*D14
  0
BLOCK_RECORD
  5
8A8
100
AcDbSymbolTableRecord
100
AcDbBlockTableRecord
  2
*D15
  0
BLOCK_RECORD
  5
8B5
100
AcDbSymbolTableRecord
100
AcDbBlockTableRecord
  2
*D16
  0
BLOCK_RECORD
  5
8C1
100
AcDbSymbolTableRecord
100
AcDbBlockTableRecord
  2
*D17
  0
BLOCK_RECORD
  5
8CE
100
AcDbSymbolTableRecord
100
AcDbBlockTableRecord
  2
*D18
  0
BLOCK_RECORD
  5
8DA
100
AcDbSymbolTableRecord
100
AcDbBlockTableRecord
  2
*D19
  0
BLOCK_RECORD
  5
8E6
100
AcDbSymbolTableRecord
100
AcDbBlockTableRecord
  2
*D20
  0
BLOCK_RECORD
  5
8F2
100
AcDbSymbolTableRecord
100
AcDbBlockTableRecord
  2
*D21
  0
BLOCK_RECORD
  5
8FF
100
AcDbSymbolTableRecord
100
AcDbBlockTableRecord
  2
*D22
  0
BLOCK_RECORD
  5
90B
100
AcDbSymbolTableRecord
100
AcDbBlockTableRecord
  2
VILADOMAT
  0
BLOCK_RECORD
  5
E29
100
AcDbSymbolTableRecord
100
AcDbBlockTableRecord
  2
*D24
  0
BLOCK_RECORD
  5
E36
100
AcDbSymbolTableRecord
100
AcDbBlockTableRecord
  2
*D25
  0
BLOCK_RECORD
  5
E43
100
AcDbSymbolTableRecord
100
AcDbBlockTableRecord
  2
*D26
  0
BLOCK_RECORD
  5
E4E
100
AcDbSymbolTableRecord
100
AcDbBlockTableRecord
  2
*D27
  0
BLOCK_RECORD
  5
E5D
100
AcDbSymbolTableRecord
100
AcDbBlockTableRecord
  2
*D28
  0
BLOCK_RECORD
  5
E86
100
AcDbSymbolTableRecord
100
AcDbBlockTableRecord
  2
*D29
  0
BLOCK_RECORD
  5
EAE
100
AcDbSymbolTableRecord
100
AcDbBlockTableRecord
  2
*D30
  0
BLOCK_RECORD
  5
EBB
100
AcDbSymbolTableRecord
100
AcDbBlockTableRecord
  2
*D31
  0
BLOCK_RECORD
  5
EC8
100
AcDbSymbolTableRecord
100
AcDbBlockTableRecord
  2
*D32
  0
BLOCK_RECORD
  5
ED5
100
AcDbSymbolTableRecord
100
AcDbBlockTableRecord
  2
*D33
  0
BLOCK_RECORD
  5
EE2
100
AcDbSymbolTableRecord
100
AcDbBlockTableRecord
  2
*D34
  0
BLOCK_RECORD
  5
EEF
100
AcDbSymbolTableRecord
100
AcDbBlockTableRecord
  2
*D35
  0
BLOCK_RECORD
  5
EFC
100
AcDbSymbolTableRecord
100
AcDbBlockTableRecord
  2
*D36
  0
BLOCK_RECORD
  5
F0B
100
AcDbSymbolTableRecord
100
AcDbBlockTableRecord
  2
*D37
  0
ENDTAB
  0
ENDSEC
  0
SECTION
  2
BLOCKS
  0
BLOCK
  5
23
100
AcDbEntity
  8
0
100
AcDbBlockBegin
  2
*MODEL_SPACE
 70
     0
 10
0.0
 20
0.0
 30
0.0
  3
*MODEL_SPACE
  1

  0
ENDBLK
  5
24
100
AcDbEntity
  8
0
100
AcDbBlockEnd
  0
BLOCK
  5
21
100
AcDbEntity
 67
     1
  8
0
100
AcDbBlockBegin
  2
*PAPER_SPACE
 70
     0
 10
0.0
 20
0.0
 30
0.0
  3
*PAPER_SPACE
  1

  0
ENDBLK
  5
22
100
AcDbEntity
 67
     1
  8
0
100
AcDbBlockEnd
  0
BLOCK
  5
389
100
AcDbEntity
  8
0
100
AcDbBlockBegin
  2
TICK
 70
     0
 10
0.0
 20
0.0
 30
0.0
  3
TICK
  1

  0
LINE
  5
387
100
AcDbEntity
  8
0
  6
BYBLOCK
 62
     6
100
AcDbLine
 10
-1.0
 20
-1.0
 30
0.0
 11
1.0
 21
1.0
 31
0.0
  0
LINE
  5
388
100
AcDbEntity
  8
0
  6
BYBLOCK
 62
    71
100
AcDbLine
 10
0.0
 20
0.0
 30
0.0
 11
-1.0
 21
0.0
 31
0.0
  0
ENDBLK
  5
38A
100
AcDbEntity
  8
0
100
AcDbBlockEnd
  0
BLOCK
  5
809
100
AcDbEntity
  8
0
100
AcDbBlockBegin
  2
*D1
 70
     1
 10
0.0
 20
0.0
 30
0.0
  3
*D1
  1

  0
LINE
  5
800
100
AcDbEntity
  8
0
  6
BYBLOCK
 62
    71
100
AcDbLine
 10
142.056455
 20
122.778217
 30
0.0
 11
142.056455
 21
123.002231
 31
0.0
  0
LINE
  5
801
100
AcDbEntity
  8
0
  6
BYBLOCK
 62
    71
100
AcDbLine
 10
143.056455
 20
122.778217
 30
0.0
 11
143.056455
 21
123.002231
 31
0.0
  0
LINE
  5
802
100
AcDbEntity
  8
0
  6
BYBLOCK
 62
    71
100
AcDbLine
 10
142.106455
 20
122.922231
 30
0.0
 11
143.006455
 21
122.922231
 31
0.0
  0
INSERT
  5
803
100
AcDbEntity
  8
0
  6
BYBLOCK
 62
    71
100
AcDbBlockReference
  2
TICK
 10
142.056455
 20
122.922231
 30
0.0
 41
0.05
 42
0.05
 43
0.05
 50
180.0
  0
INSERT
  5
804
100
AcDbEntity
  8
0
  6
BYBLOCK
 62
    71
100
AcDbBlockReference
  2
TICK
 10
143.056455
 20
122.922231
 30
0.0
 41
0.05
 42
0.05
 43
0.05
  0
TEXT
  5
805
100
AcDbEntity
  8
0
  6
BYBLOCK
 62
     7
100
AcDbText
 10
142.463121
 20
122.962231
 30
0.0
 40
0.08
  1
1.00
 72
     1
 11
142.556455
 21
123.002231
 31
0.0
100
AcDbText
 73
     2
  0
POINT
  5
806
100
AcDbEntity
  8
DEFPOINTS
  6
BYBLOCK
 62
     0
100
AcDbPoint
 10
142.056455
 20
122.698217
 30
0.0
  0
POINT
  5
807
100
AcDbEntity
  8
DEFPOINTS
  6
BYBLOCK
 62
     0
100
AcDbPoint
 10
143.056455
 20
122.698217
 30
0.0
  0
POINT
  5
808
100
AcDbEntity
  8
DEFPOINTS
  6
BYBLOCK
 62
     0
100
AcDbPoint
 10
143.056455
 20
122.922231
 30
0.0
  0
ENDBLK
  5
80A
100
AcDbEntity
  8
0
100
AcDbBlockEnd
  0
BLOCK
  5
815
100
AcDbEntity
  8
0
100
AcDbBlockBegin
  2
*D2
 70
     1
 10
0.0
 20
0.0
 30
0.0
  3
*D2
  1

  0
LINE
  5
80C
100
AcDbEntity
  8
0
  6
BYBLOCK
 62
    71
100
AcDbLine
 10
143.056455
 20
122.778217
 30
0.0
 11
143.056455
 21
123.002231
 31
0.0
  0
LINE
  5
80D
100
AcDbEntity
  8
0
  6
BYBLOCK
 62
    71
100
AcDbLine
 10
144.056455
 20
122.478217
 30
0.0
 11
144.056455
 21
123.002231
 31
0.0
  0
LINE
  5
80E
100
AcDbEntity
  8
0
  6
BYBLOCK
 62
    71
100
AcDbLine
 10
143.106455
 20
122.922231
 30
0.0
 11
144.006455
 21
122.922231
 31
0.0
  0
INSERT
  5
80F
100
AcDbEntity
  8
0
  6
BYBLOCK
 62
    71
100
AcDbBlockReference
  2
TICK
 10
143.056455
 20
122.922231
 30
0.0
 41
0.05
 42
0.05
 43
0.05
 50
180.0
  0
INSERT
  5
810
100
AcDbEntity
  8
0
  6
BYBLOCK
 62
    71
100
AcDbBlockReference
  2
TICK
 10
144.056455
 20
122.922231
 30
0.0
 41
0.05
 42
0.05
 43
0.05
  0
TEXT
  5
811
100
AcDbEntity
  8
0
  6
BYBLOCK
 62
     7
100
AcDbText
 10
143.463121
 20
122.962231
 30
0.0
 40
0.08
  1
1.00
 72
     1
 11
143.556455
 21
123.002231
 31
0.0
100
AcDbText
 73
     2
  0
POINT
  5
812
100
AcDbEntity
  8
DEFPOINTS
  6
BYBLOCK
 62
     0
100
AcDbPoint
 10
143.056455
 20
122.698217
 30
0.0
  0
POINT
  5
813
100
AcDbEntity
  8
DEFPOINTS
  6
BYBLOCK
 62
     0
100
AcDbPoint
 10
144.056455
 20
122.398217
 30
0.0
  0
POINT
  5
814
100
AcDbEntity
  8
DEFPOINTS
  6
BYBLOCK
 62
     0
100
AcDbPoint
 10
144.056455
 20
122.922231
 30
0.0
  0
ENDBLK
  5
816
100
AcDbEntity
  8
0
100
AcDbBlockEnd
  0
BLOCK
  5
81E
100
AcDbEntity
  8
0
100
AcDbBlockBegin
  2
*D3
 70
     1
 10
0.0
 20
0.0
 30
0.0
  3
*D3
  1

  0
LINE
  5
818
100
AcDbEntity
  8
0
  6
BYBLOCK
 62
    71
100
AcDbLine
 10
143.056455
 20
124.948217
 30
0.0
 11
143.056455
 21
124.513095
 31
0.0
  0
LINE
  5
819
100
AcDbEntity
  8
0
  6
BYBLOCK
 62
    71
100
AcDbLine
 10
143.056455
 20
124.513095
 30
0.0
 11
143.056455
 21
124.113095
 31
0.0
  0
INSERT
  5
81A
100
AcDbEntity
  8
0
  6
BYBLOCK
 62
    71
100
AcDbBlockReference
  2
TICK
 10
143.056455
 20
124.998217
 30
0.0
 41
0.05
 42
0.05
 43
0.05
 50
90.0
  0
TEXT
  5
81B
100
AcDbEntity
  8
0
  6
BYBLOCK
 62
     7
100
AcDbText
 10
143.016455
 20
124.139762
 30
0.0
 40
0.08
  1
R1.00
 50
90.0
 72
     1
 11
142.976455
 21
124.273095
 31
0.0
100
AcDbText
 73
     2
  0
POINT
  5
81C
100
AcDbEntity
  8
DEFPOINTS
  6
BYBLOCK
 62
     0
100
AcDbPoint
 10
143.056455
 20
124.998217
 30
0.0
  0
POINT
  5
81D
100
AcDbEntity
  8
DEFPOINTS
  6
BYBLOCK
 62
     0
100
AcDbPoint
 10
143.056455
 20
123.998217
 30
0.0
  0
ENDBLK
  5
81F
100
AcDbEntity
  8
0
100
AcDbBlockEnd
  0
BLOCK
  5
82B
100
AcDbEntity
  8
0
100
AcDbBlockBegin
  2
*D4
 70
     1
 10
0.0
 20
0.0
 30
0.0
  3
*D4
  1

  0
LINE
  5
821
100
AcDbEntity
  8
0
  6
BYBLOCK
 62
    71
100
AcDbLine
 10
141.806455
 20
122.018217
 30
0.0
 11
141.806455
 21
121.65475
 31
0.0
  0
LINE
  5
822
100
AcDbEntity
  8
0
  6
BYBLOCK
 62
    71
100
AcDbLine
 10
142.056455
 20
122.016422
 30
0.0
 11
142.056455
 21
121.65475
 31
0.0
  0
LINE
  5
823
100
AcDbEntity
  8
0
  6
BYBLOCK
 62
    71
100
AcDbLine
 10
141.756455
 20
121.73475
 30
0.0
 11
141.706455
 21
121.73475
 31
0.0
  0
LINE
  5
824
100
AcDbEntity
  8
0
  6
BYBLOCK
 62
    71
100
AcDbLine
 10
142.106455
 20
121.73475
 30
0.0
 11
142.156455
 21
121.73475
 31
0.0
  0
INSERT
  5
825
100
AcDbEntity
  8
0
  6
BYBLOCK
 62
    71
100
AcDbBlockReference
  2
TICK
 10
141.806455
 20
121.73475
 30
0.0
 41
0.05
 42
0.05
 43
0.05
  0
INSERT
  5
826
100
AcDbEntity
  8
0
  6
BYBLOCK
 62
    71
100
AcDbBlockReference
  2
TICK
 10
142.056455
 20
121.73475
 30
0.0
 41
0.05
 42
0.05
 43
0.05
 50
180.0
  0
TEXT
  5
827
100
AcDbEntity
  8
0
  6
BYBLOCK
 62
     7
100
AcDbText
 10
141.812907
 20
121.515081
 30
0.0
 40
0.08
  1
0.25
 72
     1
 11
141.926241
 21
121.555081
 31
0.0
100
AcDbText
 73
     2
  0
POINT
  5
828
100
AcDbEntity
  8
DEFPOINTS
  6
BYBLOCK
 62
     0
100
AcDbPoint
 10
141.806455
 20
122.098217
 30
0.0
  0
POINT
  5
829
100
AcDbEntity
  8
DEFPOINTS
  6
BYBLOCK
 62
     0
100
AcDbPoint
 10
142.056455
 20
122.096422
 30
0.0
  0
POINT
  5
82A
100
AcDbEntity
  8
DEFPOINTS
  6
BYBLOCK
 62
     0
100
AcDbPoint
 10
142.056455
 20
121.73475
 30
0.0
  0
ENDBLK
  5
82C
100
AcDbEntity
  8
0
100
AcDbBlockEnd
  0
BLOCK
  5
838
100
AcDbEntity
  8
0
100
AcDbBlockBegin
  2
*D5
 70
     1
 10
0.0
 20
0.0
 30
0.0
  3
*D5
  1

  0
LINE
  5
82E
100
AcDbEntity
  8
0
  6
BYBLOCK
 62
    71
100
AcDbLine
 10
144.056455
 20
122.01894
 30
0.0
 11
144.056455
 21
121.655685
 31
0.0
  0
LINE
  5
82F
100
AcDbEntity
  8
0
  6
BYBLOCK
 62
    71
100
AcDbLine
 10
144.306455
 20
122.018217
 30
0.0
 11
144.306455
 21
121.655685
 31
0.0
  0
LINE
  5
830
100
AcDbEntity
  8
0
  6
BYBLOCK
 62
    71
100
AcDbLine
 10
144.006455
 20
121.735685
 30
0.0
 11
143.956455
 21
121.735685
 31
0.0
  0
LINE
  5
831
100
AcDbEntity
  8
0
  6
BYBLOCK
 62
    71
100
AcDbLine
 10
144.356455
 20
121.735685
 30
0.0
 11
144.406455
 21
121.735685
 31
0.0
  0
INSERT
  5
832
100
AcDbEntity
  8
0
  6
BYBLOCK
 62
    71
100
AcDbBlockReference
  2
TICK
 10
144.056455
 20
121.735685
 30
0.0
 41
0.05
 42
0.05
 43
0.05
  0
INSERT
  5
833
100
AcDbEntity
  8
0
  6
BYBLOCK
 62
    71
100
AcDbBlockReference
  2
TICK
 10
144.306455
 20
121.735685
 30
0.0
 41
0.05
 42
0.05
 43
0.05
 50
180.0
  0
TEXT
  5
834
100
AcDbEntity
  8
0
  6
BYBLOCK
 62
     7
100
AcDbText
 10
144.084034
 20
121.515081
 30
0.0
 40
0.08
  1
0.25
 72
     1
 11
144.197367
 21
121.555081
 31
0.0
100
AcDbText
 73
     2
  0
POINT
  5
835
100
AcDbEntity
  8
DEFPOINTS
  6
BYBLOCK
 62
     0
100
AcDbPoint
 10
144.056455
 20
122.09894
 30
0.0
  0
POINT
  5
836
100
AcDbEntity
  8
DEFPOINTS
  6
BYBLOCK
 62
     0
100
AcDbPoint
 10
144.306455
 20
122.098217
 30
0.0
  0
POINT
  5
837
100
AcDbEntity
  8
DEFPOINTS
  6
BYBLOCK
 62
     0
100
AcDbPoint
 10
144.306455
 20
121.735685
 30
0.0
  0
ENDBLK
  5
839
100
AcDbEntity
  8
0
100
AcDbBlockEnd
  0
BLOCK
  5
844
100
AcDbEntity
  8
0
100
AcDbBlockBegin
  2
*D6
 70
     1
 10
0.0
 20
0.0
 30
0.0
  3
*D6
  1

  0
LINE
  5
83B
100
AcDbEntity
  8
0
  6
BYBLOCK
 62
    71
100
AcDbLine
 10
144.386455
 20
122.098217
 30
0.0
 11
144.973154
 21
122.098217
 31
0.0
  0
LINE
  5
83C
100
AcDbEntity
  8
0
  6
BYBLOCK
 62
    71
100
AcDbLine
 10
144.385022
 20
122.398217
 30
0.0
 11
144.973154
 21
122.398217
 31
0.0
  0
LINE
  5
83D
100
AcDbEntity
  8
0
  6
BYBLOCK
 62
    71
100
AcDbLine
 10
144.893154
 20
122.148217
 30
0.0
 11
144.893154
 21
122.348217
 31
0.0
  0
INSERT
  5
83E
100
AcDbEntity
  8
0
  6
BYBLOCK
 62
    71
100
AcDbBlockReference
  2
TICK
 10
144.893154
 20
122.098217
 30
0.0
 41
0.05
 42
0.05
 43
0.05
 50
270.0
  0
INSERT
  5
83F
100
AcDbEntity
  8
0
  6
BYBLOCK
 62
    71
100
AcDbBlockReference
  2
TICK
 10
144.893154
 20
122.398217
 30
0.0
 41
0.05
 42
0.05
 43
0.05
 50
90.0
  0
TEXT
  5
840
100
AcDbEntity
  8
0
  6
BYBLOCK
 62
     7
100
AcDbText
 10
145.08328
 20
122.15045
 30
0.0
 40
0.08
  1
0.30
 50
90.0
 72
     1
 11
145.04328
 21
122.257116
 31
0.0
100
AcDbText
 73
     2
  0
POINT
  5
841
100
AcDbEntity
  8
DEFPOINTS
  6
BYBLOCK
 62
     0
100
AcDbPoint
 10
144.306455
 20
122.098217
 30
0.0
  0
POINT
  5
842
100
AcDbEntity
  8
DEFPOINTS
  6
BYBLOCK
 62
     0
100
AcDbPoint
 10
144.305022
 20
122.398217
 30
0.0
  0
POINT
  5
843
100
AcDbEntity
  8
DEFPOINTS
  6
BYBLOCK
 62
     0
100
AcDbPoint
 10
144.893154
 20
122.398217
 30
0.0
  0
ENDBLK
  5
845
100
AcDbEntity
  8
0
100
AcDbBlockEnd
  0
BLOCK
  5
850
100
AcDbEntity
  8
0
100
AcDbBlockBegin
  2
*D7
 70
     1
 10
0.0
 20
0.0
 30
0.0
  3
*D7
  1

  0
LINE
  5
847
100
AcDbEntity
  8
0
  6
BYBLOCK
 62
    71
100
AcDbLine
 10
144.385022
 20
122.398217
 30
0.0
 11
144.973154
 21
122.398217
 31
0.0
  0
LINE
  5
848
100
AcDbEntity
  8
0
  6
BYBLOCK
 62
    71
100
AcDbLine
 10
144.387149
 20
124.00198
 30
0.0
 11
144.973154
 21
124.00198
 31
0.0
  0
LINE
  5
849
100
AcDbEntity
  8
0
  6
BYBLOCK
 62
    71
100
AcDbLine
 10
144.893154
 20
122.448217
 30
0.0
 11
144.893154
 21
123.95198
 31
0.0
  0
INSERT
  5
84A
100
AcDbEntity
  8
0
  6
BYBLOCK
 62
    71
100
AcDbBlockReference
  2
TICK
 10
144.893154
 20
122.398217
 30
0.0
 41
0.05
 42
0.05
 43
0.05
 50
270.0
  0
INSERT
  5
84B
100
AcDbEntity
  8
0
  6
BYBLOCK
 62
    71
100
AcDbBlockReference
  2
TICK
 10
144.893154
 20
124.00198
 30
0.0
 41
0.05
 42
0.05
 43
0.05
 50
90.0
  0
TEXT
  5
84C
100
AcDbEntity
  8
0
  6
BYBLOCK
 62
     7
100
AcDbText
 10
144.853154
 20
123.100098
 30
0.0
 40
0.08
  1
1.60
 50
90.0
 72
     1
 11
144.813154
 21
123.200098
 31
0.0
100
AcDbText
 73
     2
  0
POINT
  5
84D
100
AcDbEntity
  8
DEFPOINTS
  6
BYBLOCK
 62
     0
100
AcDbPoint
 10
144.305022
 20
122.398217
 30
0.0
  0
POINT
  5
84E
100
AcDbEntity
  8
DEFPOINTS
  6
BYBLOCK
 62
     0
100
AcDbPoint
 10
144.307149
 20
124.00198
 30
0.0
  0
POINT
  5
84F
100
AcDbEntity
  8
DEFPOINTS
  6
BYBLOCK
 62
     0
100
AcDbPoint
 10
144.893154
 20
124.00198
 30
0.0
  0
ENDBLK
  5
851
100
AcDbEntity
  8
0
100
AcDbBlockEnd
  0
BLOCK
  5
85C
100
AcDbEntity
  8
0
100
AcDbBlockBegin
  2
*D8
 70
     1
 10
0.0
 20
0.0
 30
0.0
  3
*D8
  1

  0
LINE
  5
853
100
AcDbEntity
  8
0
  6
BYBLOCK
 62
    71
100
AcDbLine
 10
144.385022
 20
124.00198
 30
0.0
 11
144.973154
 21
124.00198
 31
0.0
  0
LINE
  5
854
100
AcDbEntity
  8
0
  6
BYBLOCK
 62
    71
100
AcDbLine
 10
143.971522
 20
124.998217
 30
0.0
 11
144.973154
 21
124.998217
 31
0.0
  0
LINE
  5
855
100
AcDbEntity
  8
0
  6
BYBLOCK
 62
    71
100
AcDbLine
 10
144.893154
 20
124.05198
 30
0.0
 11
144.893154
 21
124.948217
 31
0.0
  0
INSERT
  5
856
100
AcDbEntity
  8
0
  6
BYBLOCK
 62
    71
100
AcDbBlockReference
  2
TICK
 10
144.893154
 20
124.00198
 30
0.0
 41
0.05
 42
0.05
 43
0.05
 50
270.0
  0
INSERT
  5
857
100
AcDbEntity
  8
0
  6
BYBLOCK
 62
    71
100
AcDbBlockReference
  2
TICK
 10
144.893154
 20
124.998217
 30
0.0
 41
0.05
 42
0.05
 43
0.05
 50
90.0
  0
TEXT
  5
858
100
AcDbEntity
  8
0
  6
BYBLOCK
 62
     7
100
AcDbText
 10
144.853154
 20
124.406765
 30
0.0
 40
0.08
  1
1.00
 50
90.0
 72
     1
 11
144.813154
 21
124.500098
 31
0.0
100
AcDbText
 73
     2
  0
POINT
  5
859
100
AcDbEntity
  8
DEFPOINTS
  6
BYBLOCK
 62
     0
100
AcDbPoint
 10
144.305022
 20
124.00198
 30
0.0
  0
POINT
  5
85A
100
AcDbEntity
  8
DEFPOINTS
  6
BYBLOCK
 62
     0
100
AcDbPoint
 10
143.891522
 20
124.998217
 30
0.0
  0
POINT
  5
85B
100
AcDbEntity
  8
DEFPOINTS
  6
BYBLOCK
 62
     0
100
AcDbPoint
 10
144.893154
 20
124.998217
 30
0.0
  0
ENDBLK
  5
85D
100
AcDbEntity
  8
0
100
AcDbBlockEnd
  0
BLOCK
  5
869
100
AcDbEntity
  8
0
100
AcDbBlockBegin
  2
*D9
 70
     1
 10
0.0
 20
0.0
 30
0.0
  3
*D9
  1

  0
LINE
  5
85F
100
AcDbEntity
  8
0
  6
BYBLOCK
 62
    71
100
AcDbLine
 10
143.884655
 20
124.998217
 30
0.0
 11
144.973154
 21
124.998217
 31
0.0
  0
LINE
  5
860
100
AcDbEntity
  8
0
  6
BYBLOCK
 62
    71
100
AcDbLine
 10
143.392253
 20
125.248217
 30
0.0
 11
144.973154
 21
125.248217
 31
0.0
  0
LINE
  5
861
100
AcDbEntity
  8
0
  6
BYBLOCK
 62
    71
100
AcDbLine
 10
144.893154
 20
124.948217
 30
0.0
 11
144.893154
 21
124.898217
 31
0.0
  0
LINE
  5
862
100
AcDbEntity
  8
0
  6
BYBLOCK
 62
    71
100
AcDbLine
 10
144.893154
 20
125.298217
 30
0.0
 11
144.893154
 21
125.348217
 31
0.0
  0
INSERT
  5
863
100
AcDbEntity
  8
0
  6
BYBLOCK
 62
    71
100
AcDbBlockReference
  2
TICK
 10
144.893154
 20
124.998217
 30
0.0
 41
0.05
 42
0.05
 43
0.05
 50
90.0
  0
INSERT
  5
864
100
AcDbEntity
  8
0
  6
BYBLOCK
 62
    71
100
AcDbBlockReference
  2
TICK
 10
144.893154
 20
125.248217
 30
0.0
 41
0.05
 42
0.05
 43
0.05
 50
270.0
  0
TEXT
  5
865
100
AcDbEntity
  8
0
  6
BYBLOCK
 62
     7
100
AcDbText
 10
145.076459
 20
125.026897
 30
0.0
 40
0.08
  1
0.25
 50
90.0
 72
     1
 11
145.036459
 21
125.140231
 31
0.0
100
AcDbText
 73
     2
  0
POINT
  5
866
100
AcDbEntity
  8
DEFPOINTS
  6
BYBLOCK
 62
     0
100
AcDbPoint
 10
143.804655
 20
124.998217
 30
0.0
  0
POINT
  5
867
100
AcDbEntity
  8
DEFPOINTS
  6
BYBLOCK
 62
     0
100
AcDbPoint
 10
143.312253
 20
125.248217
 30
0.0
  0
POINT
  5
868
100
AcDbEntity
  8
DEFPOINTS
  6
BYBLOCK
 62
     0
100
AcDbPoint
 10
144.893154
 20
125.248217
 30
0.0
  0
ENDBLK
  5
86A
100
AcDbEntity
  8
0
100
AcDbBlockEnd
  0
BLOCK
  5
875
100
AcDbEntity
  8
0
100
AcDbBlockBegin
  2
*D10
 70
     1
 10
0.0
 20
0.0
 30
0.0
  3
*D10
  1

  0
LINE
  5
86C
100
AcDbEntity
  8
0
  6
BYBLOCK
 62
    71
100
AcDbLine
 10
143.136455
 20
122.398217
 30
0.0
 11
143.356559
 21
122.398217
 31
0.0
  0
LINE
  5
86D
100
AcDbEntity
  8
0
  6
BYBLOCK
 62
    71
100
AcDbLine
 10
143.136455
 20
122.698217
 30
0.0
 11
143.356559
 21
122.698217
 31
0.0
  0
LINE
  5
86E
100
AcDbEntity
  8
0
  6
BYBLOCK
 62
    71
100
AcDbLine
 10
143.276559
 20
122.448217
 30
0.0
 11
143.276559
 21
122.648217
 31
0.0
  0
INSERT
  5
86F
100
AcDbEntity
  8
0
  6
BYBLOCK
 62
    71
100
AcDbBlockReference
  2
TICK
 10
143.276559
 20
122.398217
 30
0.0
 41
0.05
 42
0.05
 43
0.05
 50
270.0
  0
INSERT
  5
870
100
AcDbEntity
  8
0
  6
BYBLOCK
 62
    71
100
AcDbBlockReference
  2
TICK
 10
143.276559
 20
122.698217
 30
0.0
 41
0.05
 42
0.05
 43
0.05
 50
90.0
  0
TEXT
  5
871
100
AcDbEntity
  8
0
  6
BYBLOCK
 62
     7
100
AcDbText
 10
143.218673
 20
122.446849
 30
0.0
 40
0.08
  1
0.30
 50
90.0
 72
     1
 11
143.178673
 21
122.553516
 31
0.0
100
AcDbText
 73
     2
  0
POINT
  5
872
100
AcDbEntity
  8
DEFPOINTS
  6
BYBLOCK
 62
     0
100
AcDbPoint
 10
143.056455
 20
122.398217
 30
0.0
  0
POINT
  5
873
100
AcDbEntity
  8
DEFPOINTS
  6
BYBLOCK
 62
     0
100
AcDbPoint
 10
143.056455
 20
122.698217
 30
0.0
  0
POINT
  5
874
100
AcDbEntity
  8
DEFPOINTS
  6
BYBLOCK
 62
     0
100
AcDbPoint
 10
143.276559
 20
122.698217
 30
0.0
  0
ENDBLK
  5
876
100
AcDbEntity
  8
0
100
AcDbBlockEnd
  0
BLOCK
  5
882
100
AcDbEntity
  8
0
100
AcDbBlockBegin
  2
*D11
 70
     1
 10
0.0
 20
0.0
 30
0.0
  3
*D11
  1

  0
LINE
  5
878
100
AcDbEntity
  8
0
  6
BYBLOCK
 62
    71
100
AcDbLine
 10
142.056455
 20
122.016422
 30
0.0
 11
142.056455
 21
121.655685
 31
0.0
  0
LINE
  5
879
100
AcDbEntity
  8
0
  6
BYBLOCK
 62
    71
100
AcDbLine
 10
144.056455
 20
122.01894
 30
0.0
 11
144.056455
 21
121.655685
 31
0.0
  0
LINE
  5
87A
100
AcDbEntity
  8
0
  6
BYBLOCK
 62
    71
100
AcDbLine
 10
142.106455
 20
121.735685
 30
0.0
 11
142.88377
 21
121.735685
 31
0.0
  0
LINE
  5
87B
100
AcDbEntity
  8
0
  6
BYBLOCK
 62
    71
100
AcDbLine
 10
144.006455
 20
121.735685
 30
0.0
 11
143.28758
 21
121.735685
 31
0.0
  0
INSERT
  5
87C
100
AcDbEntity
  8
0
  6
BYBLOCK
 62
    71
100
AcDbBlockReference
  2
TICK
 10
142.056455
 20
121.735685
 30
0.0
 41
0.05
 42
0.05
 43
0.05
 50
180.0
  0
INSERT
  5
87D
100
AcDbEntity
  8
0
  6
BYBLOCK
 62
    71
100
AcDbBlockReference
  2
TICK
 10
144.056455
 20
121.735685
 30
0.0
 41
0.05
 42
0.05
 43
0.05
  0
TEXT
  5
87E
100
AcDbEntity
  8
0
  6
BYBLOCK
 62
     7
100
AcDbText
 10
142.979008
 20
121.692294
 30
0.0
 40
0.08
  1
2.00
 72
     1
 11
143.085675
 21
121.732294
 31
0.0
100
AcDbText
 73
     2
  0
POINT
  5
87F
100
AcDbEntity
  8
DEFPOINTS
  6
BYBLOCK
 62
     0
100
AcDbPoint
 10
142.056455
 20
122.096422
 30
0.0
  0
POINT
  5
880
100
AcDbEntity
  8
DEFPOINTS
  6
BYBLOCK
 62
     0
100
AcDbPoint
 10
144.056455
 20
122.09894
 30
0.0
  0
POINT
  5
881
100
AcDbEntity
  8
DEFPOINTS
  6
BYBLOCK
 62
     0
100
AcDbPoint
 10
144.056455
 20
121.735685
 30
0.0
  0
ENDBLK
  5
883
100
AcDbEntity
  8
0
100
AcDbBlockEnd
  0
BLOCK
  5
88E
100
AcDbEntity
  8
0
100
AcDbBlockBegin
  2
*D12
 70
     1
 10
0.0
 20
0.0
 30
0.0
  3
*D12
  1

  0
LINE
  5
885
100
AcDbEntity
  8
0
  6
BYBLOCK
 62
    71
100
AcDbLine
 10
153.702968
 20
123.059563
 30
0.0
 11
153.702968
 21
123.328779
 31
0.0
  0
LINE
  5
886
100
AcDbEntity
  8
0
  6
BYBLOCK
 62
    71
100
AcDbLine
 10
154.702968
 20
123.059563
 30
0.0
 11
154.702968
 21
123.328779
 31
0.0
  0
LINE
  5
887
100
AcDbEntity
  8
0
  6
BYBLOCK
 62
    71
100
AcDbLine
 10
153.752968
 20
123.248779
 30
0.0
 11
154.652968
 21
123.248779
 31
0.0
  0
INSERT
  5
888
100
AcDbEntity
  8
0
  6
BYBLOCK
 62
    71
100
AcDbBlockReference
  2
TICK
 10
153.702968
 20
123.248779
 30
0.0
 41
0.05
 42
0.05
 43
0.05
 50
180.0
  0
INSERT
  5
889
100
AcDbEntity
  8
0
  6
BYBLOCK
 62
    71
100
AcDbBlockReference
  2
TICK
 10
154.702968
 20
123.248779
 30
0.0
 41
0.05
 42
0.05
 43
0.05
  0
TEXT
  5
88A
100
AcDbEntity
  8
0
  6
BYBLOCK
 62
     7
100
AcDbText
 10
154.109635
 20
123.288779
 30
0.0
 40
0.08
  1
1.00
 72
     1
 11
154.202968
 21
123.328779
 31
0.0
100
AcDbText
 73
     2
  0
POINT
  5
88B
100
AcDbEntity
  8
DEFPOINTS
  6
BYBLOCK
 62
     0
100
AcDbPoint
 10
153.702968
 20
122.979563
 30
0.0
  0
POINT
  5
88C
100
AcDbEntity
  8
DEFPOINTS
  6
BYBLOCK
 62
     0
100
AcDbPoint
 10
154.702968
 20
122.979563
 30
0.0
  0
POINT
  5
88D
100
AcDbEntity
  8
DEFPOINTS
  6
BYBLOCK
 62
     0
100
AcDbPoint
 10
154.702968
 20
123.248779
 30
0.0
  0
ENDBLK
  5
88F
100
AcDbEntity
  8
0
100
AcDbBlockEnd
  0
BLOCK
  5
89A
100
AcDbEntity
  8
0
100
AcDbBlockBegin
  2
*D13
 70
     1
 10
0.0
 20
0.0
 30
0.0
  3
*D13
  1

  0
LINE
  5
891
100
AcDbEntity
  8
0
  6
BYBLOCK
 62
    71
100
AcDbLine
 10
154.702968
 20
123.059563
 30
0.0
 11
154.702968
 21
123.328779
 31
0.0
  0
LINE
  5
892
100
AcDbEntity
  8
0
  6
BYBLOCK
 62
    71
100
AcDbLine
 10
155.502968
 20
122.759563
 30
0.0
 11
155.502968
 21
123.328779
 31
0.0
  0
LINE
  5
893
100
AcDbEntity
  8
0
  6
BYBLOCK
 62
    71
100
AcDbLine
 10
154.752968
 20
123.248779
 30
0.0
 11
155.452968
 21
123.248779
 31
0.0
  0
INSERT
  5
894
100
AcDbEntity
  8
0
  6
BYBLOCK
 62
    71
100
AcDbBlockReference
  2
TICK
 10
154.702968
 20
123.248779
 30
0.0
 41
0.05
 42
0.05
 43
0.05
 50
180.0
  0
INSERT
  5
895
100
AcDbEntity
  8
0
  6
BYBLOCK
 62
    71
100
AcDbBlockReference
  2
TICK
 10
155.502968
 20
123.248779
 30
0.0
 41
0.05
 42
0.05
 43
0.05
  0
TEXT
  5
896
100
AcDbEntity
  8
0
  6
BYBLOCK
 62
     7
100
AcDbText
 10
154.996301
 20
123.288779
 30
0.0
 40
0.08
  1
0.80
 72
     1
 11
155.102968
 21
123.328779
 31
0.0
100
AcDbText
 73
     2
  0
POINT
  5
897
100
AcDbEntity
  8
DEFPOINTS
  6
BYBLOCK
 62
     0
100
AcDbPoint
 10
154.702968
 20
122.979563
 30
0.0
  0
POINT
  5
898
100
AcDbEntity
  8
DEFPOINTS
  6
BYBLOCK
 62
     0
100
AcDbPoint
 10
155.502968
 20
122.679563
 30
0.0
  0
POINT
  5
899
100
AcDbEntity
  8
DEFPOINTS
  6
BYBLOCK
 62
     0
100
AcDbPoint
 10
155.502968
 20
123.248779
 30
0.0
  0
ENDBLK
  5
89B
100
AcDbEntity
  8
0
100
AcDbBlockEnd
  0
BLOCK
  5
8A6
100
AcDbEntity
  8
0
100
AcDbBlockBegin
  2
*D14
 70
     1
 10
0.0
 20
0.0
 30
0.0
  3
*D14
  1

  0
LINE
  5
89D
100
AcDbEntity
  8
0
  6
BYBLOCK
 62
    71
100
AcDbLine
 10
154.782968
 20
122.679563
 30
0.0
 11
155.079849
 21
122.679563
 31
0.0
  0
LINE
  5
89E
100
AcDbEntity
  8
0
  6
BYBLOCK
 62
    71
100
AcDbLine
 10
154.782968
 20
122.979563
 30
0.0
 11
155.079849
 21
122.979563
 31
0.0
  0
LINE
  5
89F
100
AcDbEntity
  8
0
  6
BYBLOCK
 62
    71
100
AcDbLine
 10
154.999849
 20
122.729563
 30
0.0
 11
154.999849
 21
122.929563
 31
0.0
  0
INSERT
  5
8A0
100
AcDbEntity
  8
0
  6
BYBLOCK
 62
    71
100
AcDbBlockReference
  2
TICK
 10
154.999849
 20
122.679563
 30
0.0
 41
0.05
 42
0.05
 43
0.05
 50
270.0
  0
INSERT
  5
8A1
100
AcDbEntity
  8
0
  6
BYBLOCK
 62
    71
100
AcDbBlockReference
  2
TICK
 10
154.999849
 20
122.979563
 30
0.0
 41
0.05
 42
0.05
 43
0.05
 50
90.0
  0
TEXT
  5
8A2
100
AcDbEntity
  8
0
  6
BYBLOCK
 62
     7
100
AcDbText
 10
154.959849
 20
122.731909
 30
0.0
 40
0.08
  1
0.30
 50
90.0
 72
     1
 11
154.919849
 21
122.838576
 31
0.0
100
AcDbText
 73
     2
  0
POINT
  5
8A3
100
AcDbEntity
  8
DEFPOINTS
  6
BYBLOCK
 62
     0
100
AcDbPoint
 10
154.702968
 20
122.679563
 30
0.0
  0
POINT
  5
8A4
100
AcDbEntity
  8
DEFPOINTS
  6
BYBLOCK
 62
     0
100
AcDbPoint
 10
154.702968
 20
122.979563
 30
0.0
  0
POINT
  5
8A5
100
AcDbEntity
  8
DEFPOINTS
  6
BYBLOCK
 62
     0
100
AcDbPoint
 10
154.999849
 20
122.979563
 30
0.0
  0
ENDBLK
  5
8A7
100
AcDbEntity
  8
0
100
AcDbBlockEnd
  0
BLOCK
  5
8B3
100
AcDbEntity
  8
0
100
AcDbBlockBegin
  2
*D15
 70
     1
 10
0.0
 20
0.0
 30
0.0
  3
*D15
  1

  0
LINE
  5
8A9
100
AcDbEntity
  8
0
  6
BYBLOCK
 62
    71
100
AcDbLine
 10
153.452968
 20
122.299563
 30
0.0
 11
153.452968
 21
121.963135
 31
0.0
  0
LINE
  5
8AA
100
AcDbEntity
  8
0
  6
BYBLOCK
 62
    71
100
AcDbLine
 10
153.702968
 20
122.296741
 30
0.0
 11
153.702968
 21
121.963135
 31
0.0
  0
LINE
  5
8AB
100
AcDbEntity
  8
0
  6
BYBLOCK
 62
    71
100
AcDbLine
 10
153.402968
 20
122.043135
 30
0.0
 11
153.352968
 21
122.043135
 31
0.0
  0
LINE
  5
8AC
100
AcDbEntity
  8
0
  6
BYBLOCK
 62
    71
100
AcDbLine
 10
153.752968
 20
122.043135
 30
0.0
 11
153.802968
 21
122.043135
 31
0.0
  0
INSERT
  5
8AD
100
AcDbEntity
  8
0
  6
BYBLOCK
 62
    71
100
AcDbBlockReference
  2
TICK
 10
153.452968
 20
122.043135
 30
0.0
 41
0.05
 42
0.05
 43
0.05
  0
INSERT
  5
8AE
100
AcDbEntity
  8
0
  6
BYBLOCK
 62
    71
100
AcDbBlockReference
  2
TICK
 10
153.702968
 20
122.043135
 30
0.0
 41
0.05
 42
0.05
 43
0.05
 50
180.0
  0
TEXT
  5
8AF
100
AcDbEntity
  8
0
  6
BYBLOCK
 62
     7
100
AcDbText
 10
153.147767
 20
122.083135
 30
0.0
 40
0.08
  1
0.25
 72
     1
 11
153.2611
 21
122.123135
 31
0.0
100
AcDbText
 73
     2
  0
POINT
  5
8B0
100
AcDbEntity
  8
DEFPOINTS
  6
BYBLOCK
 62
     0
100
AcDbPoint
 10
153.452968
 20
122.379563
 30
0.0
  0
POINT
  5
8B1
100
AcDbEntity
  8
DEFPOINTS
  6
BYBLOCK
 62
     0
100
AcDbPoint
 10
153.702968
 20
122.376741
 30
0.0
  0
POINT
  5
8B2
100
AcDbEntity
  8
DEFPOINTS
  6
BYBLOCK
 62
     0
100
AcDbPoint
 10
153.702968
 20
122.043135
 30
0.0
  0
ENDBLK
  5
8B4
100
AcDbEntity
  8
0
100
AcDbBlockEnd
  0
BLOCK
  5
8BF
100
AcDbEntity
  8
0
100
AcDbBlockBegin
  2
*D16
 70
     1
 10
0.0
 20
0.0
 30
0.0
  3
*D16
  1

  0
LINE
  5
8B6
100
AcDbEntity
  8
0
  6
BYBLOCK
 62
    71
100
AcDbLine
 10
153.702968
 20
122.296741
 30
0.0
 11
153.702968
 21
121.963135
 31
0.0
  0
LINE
  5
8B7
100
AcDbEntity
  8
0
  6
BYBLOCK
 62
    71
100
AcDbLine
 10
155.502968
 20
122.300209
 30
0.0
 11
155.502968
 21
121.963135
 31
0.0
  0
LINE
  5
8B8
100
AcDbEntity
  8
0
  6
BYBLOCK
 62
    71
100
AcDbLine
 10
153.752968
 20
122.043135
 30
0.0
 11
155.452968
 21
122.043135
 31
0.0
  0
INSERT
  5
8B9
100
AcDbEntity
  8
0
  6
BYBLOCK
 62
    71
100
AcDbBlockReference
  2
TICK
 10
153.702968
 20
122.043135
 30
0.0
 41
0.05
 42
0.05
 43
0.05
 50
180.0
  0
INSERT
  5
8BA
100
AcDbEntity
  8
0
  6
BYBLOCK
 62
    71
100
AcDbBlockReference
  2
TICK
 10
155.502968
 20
122.043135
 30
0.0
 41
0.05
 42
0.05
 43
0.05
  0
TEXT
  5
8BB
100
AcDbEntity
  8
0
  6
BYBLOCK
 62
     7
100
AcDbText
 10
154.502968
 20
122.083135
 30
0.0
 40
0.08
  1
1.80
 72
     1
 11
154.602968
 21
122.123135
 31
0.0
100
AcDbText
 73
     2
  0
POINT
  5
8BC
100
AcDbEntity
  8
DEFPOINTS
  6
BYBLOCK
 62
     0
100
AcDbPoint
 10
153.702968
 20
122.376741
 30
0.0
  0
POINT
  5
8BD
100
AcDbEntity
  8
DEFPOINTS
  6
BYBLOCK
 62
     0
100
AcDbPoint
 10
155.502968
 20
122.380209
 30
0.0
  0
POINT
  5
8BE
100
AcDbEntity
  8
DEFPOINTS
  6
BYBLOCK
 62
     0
100
AcDbPoint
 10
155.502968
 20
122.043135
 30
0.0
  0
ENDBLK
  5
8C0
100
AcDbEntity
  8
0
100
AcDbBlockEnd
  0
BLOCK
  5
8CC
100
AcDbEntity
  8
0
100
AcDbBlockBegin
  2
*D17
 70
     1
 10
0.0
 20
0.0
 30
0.0
  3
*D17
  1

  0
LINE
  5
8C2
100
AcDbEntity
  8
0
  6
BYBLOCK
 62
    71
100
AcDbLine
 10
155.502968
 20
122.300209
 30
0.0
 11
155.502968
 21
121.963135
 31
0.0
  0
LINE
  5
8C3
100
AcDbEntity
  8
0
  6
BYBLOCK
 62
    71
100
AcDbLine
 10
155.752968
 20
122.299563
 30
0.0
 11
155.752968
 21
121.963135
 31
0.0
  0
LINE
  5
8C4
100
AcDbEntity
  8
0
  6
BYBLOCK
 62
    71
100
AcDbLine
 10
155.452968
 20
122.043135
 30
0.0
 11
155.402968
 21
122.043135
 31
0.0
  0
LINE
  5
8C5
100
AcDbEntity
  8
0
  6
BYBLOCK
 62
    71
100
AcDbLine
 10
155.802968
 20
122.043135
 30
0.0
 11
155.852968
 21
122.043135
 31
0.0
  0
INSERT
  5
8C6
100
AcDbEntity
  8
0
  6
BYBLOCK
 62
    71
100
AcDbBlockReference
  2
TICK
 10
155.502968
 20
122.043135
 30
0.0
 41
0.05
 42
0.05
 43
0.05
  0
INSERT
  5
8C7
100
AcDbEntity
  8
0
  6
BYBLOCK
 62
    71
100
AcDbBlockReference
  2
TICK
 10
155.752968
 20
122.043135
 30
0.0
 41
0.05
 42
0.05
 43
0.05
 50
180.0
  0
TEXT
  5
8C8
100
AcDbEntity
  8
0
  6
BYBLOCK
 62
     7
100
AcDbText
 10
155.846548
 20
122.083135
 30
0.0
 40
0.08
  1
0.25
 72
     1
 11
155.959882
 21
122.123135
 31
0.0
100
AcDbText
 73
     2
  0
POINT
  5
8C9
100
AcDbEntity
  8
DEFPOINTS
  6
BYBLOCK
 62
     0
100
AcDbPoint
 10
155.502968
 20
122.380209
 30
0.0
  0
POINT
  5
8CA
100
AcDbEntity
  8
DEFPOINTS
  6
BYBLOCK
 62
     0
100
AcDbPoint
 10
155.752968
 20
122.379563
 30
0.0
  0
POINT
  5
8CB
100
AcDbEntity
  8
DEFPOINTS
  6
BYBLOCK
 62
     0
100
AcDbPoint
 10
155.752968
 20
122.043135
 30
0.0
  0
ENDBLK
  5
8CD
100
AcDbEntity
  8
0
100
AcDbBlockEnd
  0
BLOCK
  5
8D8
100
AcDbEntity
  8
0
100
AcDbBlockBegin
  2
*D18
 70
     1
 10
0.0
 20
0.0
 30
0.0
  3
*D18
  1

  0
LINE
  5
8CF
100
AcDbEntity
  8
0
  6
BYBLOCK
 62
    71
100
AcDbLine
 10
155.832968
 20
122.379563
 30
0.0
 11
156.231073
 21
122.379563
 31
0.0
  0
LINE
  5
8D0
100
AcDbEntity
  8
0
  6
BYBLOCK
 62
    71
100
AcDbLine
 10
155.833831
 20
122.679563
 30
0.0
 11
156.231073
 21
122.679563
 31
0.0
  0
LINE
  5
8D1
100
AcDbEntity
  8
0
  6
BYBLOCK
 62
    71
100
AcDbLine
 10
156.151073
 20
122.429563
 30
0.0
 11
156.151073
 21
122.629563
 31
0.0
  0
INSERT
  5
8D2
100
AcDbEntity
  8
0
  6
BYBLOCK
 62
    71
100
AcDbBlockReference
  2
TICK
 10
156.151073
 20
122.379563
 30
0.0
 41
0.05
 42
0.05
 43
0.05
 50
270.0
  0
INSERT
  5
8D3
100
AcDbEntity
  8
0
  6
BYBLOCK
 62
    71
100
AcDbBlockReference
  2
TICK
 10
156.151073
 20
122.679563
 30
0.0
 41
0.05
 42
0.05
 43
0.05
 50
90.0
  0
TEXT
  5
8D4
100
AcDbEntity
  8
0
  6
BYBLOCK
 62
     7
100
AcDbText
 10
156.111073
 20
122.426864
 30
0.0
 40
0.08
  1
0.30
 50
90.0
 72
     1
 11
156.071073
 21
122.53353
 31
0.0
100
AcDbText
 73
     2
  0
POINT
  5
8D5
100
AcDbEntity
  8
DEFPOINTS
  6
BYBLOCK
 62
     0
100
AcDbPoint
 10
155.752968
 20
122.379563
 30
0.0
  0
POINT
  5
8D6
100
AcDbEntity
  8
DEFPOINTS
  6
BYBLOCK
 62
     0
100
AcDbPoint
 10
155.753831
 20
122.679563
 30
0.0
  0
POINT
  5
8D7
100
AcDbEntity
  8
DEFPOINTS
  6
BYBLOCK
 62
     0
100
AcDbPoint
 10
156.151073
 20
122.679563
 30
0.0
  0
ENDBLK
  5
8D9
100
AcDbEntity
  8
0
100
AcDbBlockEnd
  0
BLOCK
  5
8E4
100
AcDbEntity
  8
0
100
AcDbBlockBegin
  2
*D19
 70
     1
 10
0.0
 20
0.0
 30
0.0
  3
*D19
  1

  0
LINE
  5
8DB
100
AcDbEntity
  8
0
  6
BYBLOCK
 62
    71
100
AcDbLine
 10
155.833831
 20
122.679563
 30
0.0
 11
156.231073
 21
122.679563
 31
0.0
  0
LINE
  5
8DC
100
AcDbEntity
  8
0
  6
BYBLOCK
 62
    71
100
AcDbLine
 10
155.833831
 20
123.579563
 30
0.0
 11
156.231073
 21
123.579563
 31
0.0
  0
LINE
  5
8DD
100
AcDbEntity
  8
0
  6
BYBLOCK
 62
    71
100
AcDbLine
 10
156.151073
 20
122.729563
 30
0.0
 11
156.151073
 21
123.529563
 31
0.0
  0
INSERT
  5
8DE
100
AcDbEntity
  8
0
  6
BYBLOCK
 62
    71
100
AcDbBlockReference
  2
TICK
 10
156.151073
 20
122.679563
 30
0.0
 41
0.05
 42
0.05
 43
0.05
 50
270.0
  0
INSERT
  5
8DF
100
AcDbEntity
  8
0
  6
BYBLOCK
 62
    71
100
AcDbBlockReference
  2
TICK
 10
156.151073
 20
123.579563
 30
0.0
 41
0.05
 42
0.05
 43
0.05
 50
90.0
  0
TEXT
  5
8E0
100
AcDbEntity
  8
0
  6
BYBLOCK
 62
     7
100
AcDbText
 10
156.111073
 20
123.022896
 30
0.0
 40
0.08
  1
0.90
 50
90.0
 72
     1
 11
156.071073
 21
123.129563
 31
0.0
100
AcDbText
 73
     2
  0
POINT
  5
8E1
100
AcDbEntity
  8
DEFPOINTS
  6
BYBLOCK
 62
     0
100
AcDbPoint
 10
155.753831
 20
122.679563
 30
0.0
  0
POINT
  5
8E2
100
AcDbEntity
  8
DEFPOINTS
  6
BYBLOCK
 62
     0
100
AcDbPoint
 10
155.753831
 20
123.579563
 30
0.0
  0
POINT
  5
8E3
100
AcDbEntity
  8
DEFPOINTS
  6
BYBLOCK
 62
     0
100
AcDbPoint
 10
156.151073
 20
123.579563
 30
0.0
  0
ENDBLK
  5
8E5
100
AcDbEntity
  8
0
100
AcDbBlockEnd
  0
BLOCK
  5
8F0
100
AcDbEntity
  8
0
100
AcDbBlockBegin
  2
*D20
 70
     1
 10
0.0
 20
0.0
 30
0.0
  3
*D20
  1

  0
LINE
  5
8E7
100
AcDbEntity
  8
0
  6
BYBLOCK
 62
    71
100
AcDbLine
 10
155.833831
 20
123.579563
 30
0.0
 11
156.231073
 21
123.579563
 31
0.0
  0
LINE
  5
8E8
100
AcDbEntity
  8
0
  6
BYBLOCK
 62
    71
100
AcDbLine
 10
155.398257
 20
124.479563
 30
0.0
 11
156.231073
 21
124.479563
 31
0.0
  0
LINE
  5
8E9
100
AcDbEntity
  8
0
  6
BYBLOCK
 62
    71
100
AcDbLine
 10
156.151073
 20
123.629563
 30
0.0
 11
156.151073
 21
124.429563
 31
0.0
  0
INSERT
  5
8EA
100
AcDbEntity
  8
0
  6
BYBLOCK
 62
    71
100
AcDbBlockReference
  2
TICK
 10
156.151073
 20
123.579563
 30
0.0
 41
0.05
 42
0.05
 43
0.05
 50
270.0
  0
INSERT
  5
8EB
100
AcDbEntity
  8
0
  6
BYBLOCK
 62
    71
100
AcDbBlockReference
  2
TICK
 10
156.151073
 20
124.479563
 30
0.0
 41
0.05
 42
0.05
 43
0.05
 50
90.0
  0
TEXT
  5
8EC
100
AcDbEntity
  8
0
  6
BYBLOCK
 62
     7
100
AcDbText
 10
156.111073
 20
123.922896
 30
0.0
 40
0.08
  1
0.90
 50
90.0
 72
     1
 11
156.071073
 21
124.029563
 31
0.0
100
AcDbText
 73
     2
  0
POINT
  5
8ED
100
AcDbEntity
  8
DEFPOINTS
  6
BYBLOCK
 62
     0
100
AcDbPoint
 10
155.753831
 20
123.579563
 30
0.0
  0
POINT
  5
8EE
100
AcDbEntity
  8
DEFPOINTS
  6
BYBLOCK
 62
     0
100
AcDbPoint
 10
155.318257
 20
124.479563
 30
0.0
  0
POINT
  5
8EF
100
AcDbEntity
  8
DEFPOINTS
  6
BYBLOCK
 62
     0
100
AcDbPoint
 10
156.151073
 20
124.479563
 30
0.0
  0
ENDBLK
  5
8F1
100
AcDbEntity
  8
0
100
AcDbBlockEnd
  0
BLOCK
  5
8FD
100
AcDbEntity
  8
0
100
AcDbBlockBegin
  2
*D21
 70
     1
 10
0.0
 20
0.0
 30
0.0
  3
*D21
  1

  0
LINE
  5
8F3
100
AcDbEntity
  8
0
  6
BYBLOCK
 62
    71
100
AcDbLine
 10
155.398257
 20
124.479563
 30
0.0
 11
156.231073
 21
124.479563
 31
0.0
  0
LINE
  5
8F4
100
AcDbEntity
  8
0
  6
BYBLOCK
 62
    71
100
AcDbLine
 10
154.851857
 20
124.729563
 30
0.0
 11
156.231073
 21
124.729563
 31
0.0
  0
LINE
  5
8F5
100
AcDbEntity
  8
0
  6
BYBLOCK
 62
    71
100
AcDbLine
 10
156.151073
 20
124.429563
 30
0.0
 11
156.151073
 21
124.379563
 31
0.0
  0
LINE
  5
8F6
100
AcDbEntity
  8
0
  6
BYBLOCK
 62
    71
100
AcDbLine
 10
156.151073
 20
124.779563
 30
0.0
 11
156.151073
 21
124.829563
 31
0.0
  0
INSERT
  5
8F7
100
AcDbEntity
  8
0
  6
BYBLOCK
 62
    71
100
AcDbBlockReference
  2
TICK
 10
156.151073
 20
124.479563
 30
0.0
 41
0.05
 42
0.05
 43
0.05
 50
90.0
  0
INSERT
  5
8F8
100
AcDbEntity
  8
0
  6
BYBLOCK
 62
    71
100
AcDbBlockReference
  2
TICK
 10
156.151073
 20
124.729563
 30
0.0
 41
0.05
 42
0.05
 43
0.05
 50
270.0
  0
TEXT
  5
8F9
100
AcDbEntity
  8
0
  6
BYBLOCK
 62
     7
100
AcDbText
 10
156.111073
 20
124.831595
 30
0.0
 40
0.08
  1
0.25
 50
90.0
 72
     1
 11
156.071073
 21
124.944928
 31
0.0
100
AcDbText
 73
     2
  0
POINT
  5
8FA
100
AcDbEntity
  8
DEFPOINTS
  6
BYBLOCK
 62
     0
100
AcDbPoint
 10
155.318257
 20
124.479563
 30
0.0
  0
POINT
  5
8FB
100
AcDbEntity
  8
DEFPOINTS
  6
BYBLOCK
 62
     0
100
AcDbPoint
 10
154.771857
 20
124.729563
 30
0.0
  0
POINT
  5
8FC
100
AcDbEntity
  8
DEFPOINTS
  6
BYBLOCK
 62
     0
100
AcDbPoint
 10
156.151073
 20
124.729563
 30
0.0
  0
ENDBLK
  5
8FE
100
AcDbEntity
  8
0
100
AcDbBlockEnd
  0
BLOCK
  5
906
100
AcDbEntity
  8
0
100
AcDbBlockBegin
  2
*D22
 70
     1
 10
0.0
 20
0.0
 30
0.0
  3
*D22
  1

  0
LINE
  5
900
100
AcDbEntity
  8
0
  6
BYBLOCK
 62
    71
100
AcDbLine
 10
154.399015
 20
124.404732
 30
0.0
 11
154.50153
 21
123.989971
 31
0.0
  0
LINE
  5
901
100
AcDbEntity
  8
0
  6
BYBLOCK
 62
    71
100
AcDbLine
 10
154.50153
 20
123.989971
 30
0.0
 11
154.597507
 21
123.601656
 31
0.0
  0
INSERT
  5
902
100
AcDbEntity
  8
0
  6
BYBLOCK
 62
    71
100
AcDbBlockReference
  2
TICK
 10
154.387018
 20
124.453271
 30
0.0
 41
0.05
 42
0.05
 43
0.05
 50
103.883238
  0
TEXT
  5
903
100
AcDbEntity
  8
0
  6
BYBLOCK
 62
     7
100
AcDbText
 10
154.562756
 20
123.908962
 30
0.0
 40
0.08
  1
R0.90
 50
283.883238
 72
     1
 11
154.636779
 21
123.776177
 31
0.0
100
AcDbText
 73
     2
  0
POINT
  5
904
100
AcDbEntity
  8
DEFPOINTS
  6
BYBLOCK
 62
     0
100
AcDbPoint
 10
154.387018
 20
124.453271
 30
0.0
  0
POINT
  5
905
100
AcDbEntity
  8
DEFPOINTS
  6
BYBLOCK
 62
     0
100
AcDbPoint
 10
154.602968
 20
123.579563
 30
0.0
  0
ENDBLK
  5
907
100
AcDbEntity
  8
0
100
AcDbBlockEnd
  0
BLOCK
  5
936
100
AcDbEntity
  8
0
100
AcDbBlockBegin
  2
VILADOMAT
 70
     0
 10
0.0
 20
0.0
 30
0.0
  3
VILADOMAT
  1

  0
DIMENSION
  5
90C
100
AcDbEntity
  8
COTES
100
AcDbDimension
  2
*D9
 10
-5.873182
 20
3.756356
 30
0.0
 11
-5.729876
 21
3.648369
 31
0.0
 12
-150.766336
 22
-121.491862
 32
0.0
 70
   128
  3
STANDARD
100
AcDbAlignedDimension
 13
-6.961681
 23
3.506356
 33
0.0
 14
-7.454083
 24
3.756356
 34
0.0
 50
90.0
100
AcDbRotatedDimension
  0
DIMENSION
  5
90D
100
AcDbEntity
  8
COTES
100
AcDbDimension
  2
*D8
 10
-5.873182
 20
3.506356
 30
0.0
 11
-5.953182
 21
3.008237
 31
0.0
 12
-150.766336
 22
-121.491862
 32
0.0
  3
STANDARD
100
AcDbAlignedDimension
 13
-6.461314
 23
2.510118
 33
0.0
 14
-6.874814
 24
3.506356
 34
0.0
 50
90.0
100
AcDbRotatedDimension
  0
DIMENSION
  5
90E
100
AcDbEntity
  8
COTES
100
AcDbDimension
  2
*D7
 10
-5.873182
 20
2.510118
 30
0.0
 11
-5.953182
 21
1.708237
 31
0.0
 12
-150.766336
 22
-121.491862
 32
0.0
  3
STANDARD
100
AcDbAlignedDimension
 13
-6.461314
 23
0.906356
 33
0.0
 14
-6.459187
 24
2.510118
 34
0.0
 50
90.0
100
AcDbRotatedDimension
  0
DIMENSION
  5
90F
100
AcDbEntity
  8
COTES
100
AcDbDimension
  2
*D6
 10
-5.873182
 20
0.906356
 30
0.0
 11
-5.723056
 21
0.765255
 31
0.0
 12
-150.766336
 22
-121.491862
 32
0.0
 70
   128
  3
STANDARD
100
AcDbAlignedDimension
 13
-6.459881
 23
0.606356
 33
0.0
 14
-6.461314
 24
0.906356
 34
0.0
 50
90.0
100
AcDbRotatedDimension
  0
DIMENSION
  5
910
100
AcDbEntity
  8
COTES
100
AcDbDimension
  2
*D5
 10
-6.459881
 20
0.243823
 30
0.0
 11
-6.568968
 21
0.06322
 31
0.0
 12
-150.766336
 22
-121.491862
 32
0.0
 70
   128
  3
STANDARD
100
AcDbAlignedDimension
 13
-6.709881
 23
0.607079
 33
0.0
 14
-6.459881
 24
0.606356
 34
0.0
100
AcDbRotatedDimension
  0
ARC
  5
911
100
AcDbEntity
  8
SECCIO
100
AcDbCircle
 10
-7.709881
 20
2.506356
 30
0.0
 40
1.25
100
AcDbArc
 50
0.0
 51
180.0
  0
ARC
  5
912
100
AcDbEntity
  8
SECCIO
100
AcDbCircle
 10
-7.709881
 20
2.506356
 30
0.0
 40
1.0
100
AcDbArc
 50
0.0
 51
180.0
  0
LINE
  5
913
100
AcDbEntity
  8
SECCIO
100
AcDbLine
 10
-6.459881
 20
0.606356
 30
0.0
 11
-6.459881
 21
2.506356
 31
0.0
  0
LINE
  5
914
100
AcDbEntity
  8
SECCIO
100
AcDbLine
 10
-8.709881
 20
2.506356
 30
0.0
 11
-8.709881
 21
1.206356
 31
0.0
  0
LINE
  5
915
100
AcDbEntity
  8
SECCIO
100
AcDbLine
 10
-6.709881
 20
0.906356
 30
0.0
 11
-6.709881
 21
2.506356
 31
0.0
  0
LINE
  5
916
100
AcDbEntity
  8
SECCIO
100
AcDbLine
 10
-8.959881
 20
2.506356
 30
0.0
 11
-8.959881
 21
0.606356
 31
0.0
  0
LINE
  5
917
100
AcDbEntity
  8
SECCIO
100
AcDbLine
 10
-8.959881
 20
0.606356
 30
0.0
 11
-6.459881
 21
0.606356
 31
0.0
  0
DIMENSION
  5
918
100
AcDbEntity
  8
COTES
100
AcDbDimension
  2
*D11
 10
-6.709881
 20
0.243823
 30
0.0
 11
-7.680661
 21
0.240433
 31
0.0
 12
-150.766336
 22
-121.491862
 32
0.0
 70
   128
  3
STANDARD
100
AcDbAlignedDimension
 13
-8.709881
 23
0.60456
 33
0.0
 14
-6.709881
 24
0.607079
 34
0.0
100
AcDbRotatedDimension
  0
DIMENSION
  5
919
100
AcDbEntity
  8
COTES
100
AcDbDimension
  2
*D10
 10
-7.489777
 20
1.206356
 30
0.0
 11
-7.587663
 21
1.061654
 31
0.0
 12
-150.766336
 22
-121.491862
 32
0.0
 70
   128
  3
STANDARD
100
AcDbAlignedDimension
 13
-7.709881
 23
0.906356
 33
0.0
 14
-7.709881
 24
1.206356
 34
0.0
 50
90.0
100
AcDbRotatedDimension
  0
DIMENSION
  5
91A
100
AcDbEntity
  8
COTES
100
AcDbDimension
  2
*D4
 10
-8.709881
 20
0.242889
 30
0.0
 11
-8.840095
 21
0.06322
 31
0.0
 12
-150.766336
 22
-121.491862
 32
0.0
 70
   128
  3
STANDARD
100
AcDbAlignedDimension
 13
-8.959881
 23
0.606356
 33
0.0
 14
-8.709881
 24
0.60456
 34
0.0
100
AcDbRotatedDimension
  0
DIMENSION
  5
91B
100
AcDbEntity
  8
COTES
100
AcDbDimension
  2
*D3
 10
-7.709881
 20
2.506356
 30
0.0
 11
-7.789881
 21
2.781234
 31
0.0
 12
-150.766336
 22
-121.491862
 32
0.0
 70
     4
  3
STANDARD
100
AcDbRadialDimension
 15
-7.709881
 25
3.506356
 35
0.0
 40
-0.485122
  0
DIMENSION
  5
91C
100
AcDbEntity
  8
COTES
100
AcDbDimension
  2
*D2
 10
-6.709881
 20
1.430369
 30
0.0
 11
-7.209881
 21
1.510369
 31
0.0
 12
-150.766336
 22
-121.491862
 32
0.0
  3
STANDARD
100
AcDbAlignedDimension
 13
-7.709881
 23
1.206356
 33
0.0
 14
-6.709881
 24
0.906356
 34
0.0
100
AcDbRotatedDimension
  0
DIMENSION
  5
91D
100
AcDbEntity
  8
COTES
100
AcDbDimension
  2
*D1
 10
-7.709881
 20
1.430369
 30
0.0
 11
-8.209881
 21
1.510369
 31
0.0
 12
-150.766336
 22
-121.491862
 32
0.0
  3
STANDARD
100
AcDbAlignedDimension
 13
-8.709881
 23
1.206356
 33
0.0
 14
-7.709881
 24
1.206356
 34
0.0
100
AcDbRotatedDimension
  0
LINE
  5
91E
100
AcDbEntity
  8
SECCIO
100
AcDbLine
 10
-7.709881
 20
0.906356
 30
0.0
 11
-6.709881
 21
0.906356
 31
0.0
  0
LINE
  5
91F
100
AcDbEntity
  8
SECCIO
100
AcDbLine
 10
-7.709881
 20
1.206356
 30
0.0
 11
-8.709881
 21
1.206356
 31
0.0
  0
LINE
  5
920
100
AcDbEntity
  8
SECCIO
100
AcDbLine
 10
-7.709881
 20
0.906356
 30
0.0
 11
-7.709881
 21
1.206356
 31
0.0
  0
DIMENSION
  5
921
100
AcDbEntity
  8
COTES
100
AcDbDimension
  2
*D22
 10
-3.301087
 20
2.087702
 30
0.0
 11
-3.267276
 21
2.284316
 31
0.0
 12
-157.904055
 22
-121.491862
 32
0.0
 70
     4
  3
STANDARD
100
AcDbRadialDimension
 15
-3.517037
 25
2.96141
 35
0.0
 40
-0.477242
  0
DIMENSION
  5
922
100
AcDbEntity
  8
COTES
100
AcDbDimension
  2
*D21
 10
-1.752982
 20
3.237702
 30
0.0
 11
-1.832982
 21
3.453066
 31
0.0
 12
-157.904055
 22
-121.491862
 32
0.0
 70
   128
  3
STANDARD
100
AcDbAlignedDimension
 13
-2.585798
 23
2.987702
 33
0.0
 14
-3.132198
 24
3.237702
 34
0.0
 50
90.0
100
AcDbRotatedDimension
  0
DIMENSION
  5
923
100
AcDbEntity
  8
COTES
100
AcDbDimension
  2
*D20
 10
-1.752982
 20
2.987702
 30
0.0
 11
-1.832982
 21
2.537702
 31
0.0
 12
-157.904055
 22
-121.491862
 32
0.0
  3
STANDARD
100
AcDbAlignedDimension
 13
-2.150224
 23
2.087702
 33
0.0
 14
-2.585798
 24
2.987702
 34
0.0
 50
90.0
100
AcDbRotatedDimension
  0
DIMENSION
  5
924
100
AcDbEntity
  8
COTES
100
AcDbDimension
  2
*D19
 10
-1.752982
 20
2.087702
 30
0.0
 11
-1.832982
 21
1.637702
 31
0.0
 12
-157.904055
 22
-121.491862
 32
0.0
  3
STANDARD
100
AcDbAlignedDimension
 13
-2.150224
 23
1.187702
 33
0.0
 14
-2.150224
 24
2.087702
 34
0.0
 50
90.0
100
AcDbRotatedDimension
  0
DIMENSION
  5
925
100
AcDbEntity
  8
COTES
100
AcDbDimension
  2
*D18
 10
-1.752982
 20
1.187702
 30
0.0
 11
-1.832982
 21
1.041669
 31
0.0
 12
-157.904055
 22
-121.491862
 32
0.0
 70
   128
  3
STANDARD
100
AcDbAlignedDimension
 13
-2.151087
 23
0.887702
 33
0.0
 14
-2.150224
 24
1.187702
 34
0.0
 50
90.0
100
AcDbRotatedDimension
  0
DIMENSION
  5
926
100
AcDbEntity
  8
COTES
100
AcDbDimension
  2
*D17
 10
-2.151087
 20
0.551273
 30
0.0
 11
-1.944173
 21
0.631273
 31
0.0
 12
-157.904055
 22
-121.491862
 32
0.0
 70
   128
  3
STANDARD
100
AcDbAlignedDimension
 13
-2.401087
 23
0.888348
 33
0.0
 14
-2.151087
 24
0.887702
 34
0.0
100
AcDbRotatedDimension
  0
DIMENSION
  5
927
100
AcDbEntity
  8
COTES
100
AcDbDimension
  2
*D16
 10
-2.401087
 20
0.551273
 30
0.0
 11
-3.301087
 21
0.631273
 31
0.0
 12
-157.904055
 22
-121.491862
 32
0.0
  3
STANDARD
100
AcDbAlignedDimension
 13
-4.201087
 23
0.88488
 33
0.0
 14
-2.401087
 24
0.888348
 34
0.0
100
AcDbRotatedDimension
  0
DIMENSION
  5
928
100
AcDbEntity
  8
COTES
100
AcDbDimension
  2
*D15
 10
-4.201087
 20
0.551273
 30
0.0
 11
-4.642955
 21
0.631273
 31
0.0
 12
-157.904055
 22
-121.491862
 32
0.0
 70
   128
  3
STANDARD
100
AcDbAlignedDimension
 13
-4.451087
 23
0.887702
 33
0.0
 14
-4.201087
 24
0.88488
 34
0.0
100
AcDbRotatedDimension
  0
DIMENSION
  5
929
100
AcDbEntity
  8
COTES
100
AcDbDimension
  2
*D14
 10
-2.904206
 20
1.487702
 30
0.0
 11
-2.984206
 21
1.346714
 31
0.0
 12
-157.904055
 22
-121.491862
 32
0.0
 70
   128
  3
STANDARD
100
AcDbAlignedDimension
 13
-3.201087
 23
1.187702
 33
0.0
 14
-3.201087
 24
1.487702
 34
0.0
 50
90.0
100
AcDbRotatedDimension
  0
DIMENSION
  5
92A
100
AcDbEntity
  8
COTES
100
AcDbDimension
  2
*D13
 10
-2.401087
 20
1.756918
 30
0.0
 11
-2.801087
 21
1.836918
 31
0.0
 12
-157.904055
 22
-121.491862
 32
0.0
  3
STANDARD
100
AcDbAlignedDimension
 13
-3.201087
 23
1.487702
 33
0.0
 14
-2.401087
 24
1.187702
 34
0.0
100
AcDbRotatedDimension
  0
DIMENSION
  5
92B
100
AcDbEntity
  8
COTES
100
AcDbDimension
  2
*D12
 10
-3.201087
 20
1.756918
 30
0.0
 11
-3.701087
 21
1.836918
 31
0.0
 12
-157.904055
 22
-121.491862
 32
0.0
  3
STANDARD
100
AcDbAlignedDimension
 13
-4.201087
 23
1.487702
 33
0.0
 14
-3.201087
 24
1.487702
 34
0.0
100
AcDbRotatedDimension
  0
LINE
  5
92C
100
AcDbEntity
  8
SECCIO
100
AcDbLine
 10
-3.201087
 20
1.187702
 30
0.0
 11
-3.201087
 21
1.487702
 31
0.0
  0
LINE
  5
92D
100
AcDbEntity
  8
SECCIO
100
AcDbLine
 10
-4.201087
 20
1.487702
 30
0.0
 11
-3.201087
 21
1.487702
 31
0.0
  0
LINE
  5
92E
100
AcDbEntity
  8
SECCIO
100
AcDbLine
 10
-4.451087
 20
0.887702
 30
0.0
 11
-4.451087
 21
2.087702
 31
0.0
  0
ARC
  5
92F
100
AcDbEntity
  8
SECCIO
100
AcDbCircle
 10
-3.301087
 20
2.087702
 30
0.0
 40
1.15
100
AcDbArc
 50
0.0
 51
180.0
  0
LINE
  5
930
100
AcDbEntity
  8
SECCIO
100
AcDbLine
 10
-2.151087
 20
0.887702
 30
0.0
 11
-2.151087
 21
2.087702
 31
0.0
  0
LINE
  5
931
100
AcDbEntity
  8
SECCIO
100
AcDbLine
 10
-3.201087
 20
1.187702
 30
0.0
 11
-2.401087
 21
1.187702
 31
0.0
  0
ARC
  5
932
100
AcDbEntity
  8
SECCIO
100
AcDbCircle
 10
-3.301087
 20
2.087702
 30
0.0
 40
0.9
100
AcDbArc
 50
0.0
 51
180.0
  0
LINE
  5
933
100
AcDbEntity
  8
SECCIO
100
AcDbLine
 10
-4.201087
 20
1.487702
 30
0.0
 11
-4.201087
 21
2.087702
 31
0.0
  0
LINE
  5
934
100
AcDbEntity
  8
SECCIO
100
AcDbLine
 10
-2.401087
 20
1.187702
 30
0.0
 11
-2.401087
 21
2.087702
 31
0.0
  0
LINE
  5
935
100
AcDbEntity
  8
SECCIO
100
AcDbLine
 10
-4.451087
 20
0.887702
 30
0.0
 11
-2.151087
 21
0.887702
 31
0.0
  0
ENDBLK
  5
937
100
AcDbEntity
  8
0
100
AcDbBlockEnd
  0
BLOCK
  5
E2A
100
AcDbEntity
  8
0
100
AcDbBlockBegin
  2
*D24
 70
     1
 10
0.0
 20
0.0
 30
0.0
  3
*D24
  1

  0
LINE
  5
E2B
100
AcDbEntity
  8
0
  6
BYBLOCK
 62
     0
100
AcDbLine
 10
323.636507
 20
34.232486
 30
0.0
 11
323.636507
 21
33.838548
 31
0.0
  0
LINE
  5
E2C
100
AcDbEntity
  8
0
  6
BYBLOCK
 62
     0
100
AcDbLine
 10
324.036507
 20
34.232486
 30
0.0
 11
324.036507
 21
33.838548
 31
0.0
  0
LINE
  5
E2D
100
AcDbEntity
  8
0
  6
BYBLOCK
 62
     0
100
AcDbLine
 10
323.786507
 20
33.853548
 30
0.0
 11
323.886507
 21
33.853548
 31
0.0
  0
SOLID
  5
E2E
100
AcDbEntity
  8
0
  6
BYBLOCK
 62
     0
100
AcDbTrace
 10
323.786507
 20
33.878548
 30
0.0
 11
323.786507
 21
33.828548
 31
0.0
 12
323.636507
 22
33.853548
 32
0.0
 13
323.636507
 23
33.853548
 33
0.0
  0
SOLID
  5
E2F
100
AcDbEntity
  8
0
  6
BYBLOCK
 62
     0
100
AcDbTrace
 10
323.886507
 20
33.878548
 30
0.0
 11
323.886507
 21
33.828548
 31
0.0
 12
324.036507
 22
33.853548
 32
0.0
 13
324.036507
 23
33.853548
 33
0.0
  0
MTEXT
  5
E30
100
AcDbEntity
  8
0
  6
BYBLOCK
 62
     0
100
AcDbMText
 10
323.836507
 20
33.928548
 30
0.0
 40
0.075
 41
0.0
 71
     5
 72
     1
  1
\A1;0.40
  7
ROMANC
  0
POINT
  5
E31
100
AcDbEntity
  8
DEFPOINTS
  6
BYBLOCK
 62
     0
100
AcDbPoint
 10
323.636507
 20
34.247486
 30
0.0
  0
POINT
  5
E32
100
AcDbEntity
  8
DEFPOINTS
  6
BYBLOCK
 62
     0
100
AcDbPoint
 10
324.036507
 20
34.247486
 30
0.0
  0
POINT
  5
E33
100
AcDbEntity
  8
DEFPOINTS
  6
BYBLOCK
 62
     0
100
AcDbPoint
 10
324.036507
 20
33.853548
 30
0.0
  0
ENDBLK
  5
E34
100
AcDbEntity
  8
0
100
AcDbBlockEnd
  0
BLOCK
  5
E37
100
AcDbEntity
  8
0
100
AcDbBlockBegin
  2
*D25
 70
     1
 10
0.0
 20
0.0
 30
0.0
  3
*D25
  1

  0
LINE
  5
E38
100
AcDbEntity
  8
0
  6
BYBLOCK
 62
     0
100
AcDbLine
 10
323.486507
 20
34.232486
 30
0.0
 11
323.486507
 21
33.616376
 31
0.0
  0
LINE
  5
E39
100
AcDbEntity
  8
0
  6
BYBLOCK
 62
     0
100
AcDbLine
 10
324.186507
 20
34.232486
 30
0.0
 11
324.186507
 21
33.616376
 31
0.0
  0
LINE
  5
E3A
100
AcDbEntity
  8
0
  6
BYBLOCK
 62
     0
100
AcDbLine
 10
323.636507
 20
33.631376
 30
0.0
 11
324.036507
 21
33.631376
 31
0.0
  0
SOLID
  5
E3B
100
AcDbEntity
  8
0
  6
BYBLOCK
 62
     0
100
AcDbTrace
 10
323.636507
 20
33.656376
 30
0.0
 11
323.636507
 21
33.606376
 31
0.0
 12
323.486507
 22
33.631376
 32
0.0
 13
323.486507
 23
33.631376
 33
0.0
  0
SOLID
  5
E3C
100
AcDbEntity
  8
0
  6
BYBLOCK
 62
     0
100
AcDbTrace
 10
324.036507
 20
33.656376
 30
0.0
 11
324.036507
 21
33.606376
 31
0.0
 12
324.186507
 22
33.631376
 32
0.0
 13
324.186507
 23
33.631376
 33
0.0
  0
MTEXT
  5
E3D
100
AcDbEntity
  8
0
  6
BYBLOCK
 62
     0
100
AcDbMText
 10
323.836507
 20
33.706376
 30
0.0
 40
0.075
 41
0.0
 71
     5
 72
     1
  1
\A1;0.70
  7
ROMANC
  0
POINT
  5
E3E
100
AcDbEntity
  8
DEFPOINTS
  6
BYBLOCK
 62
     0
100
AcDbPoint
 10
323.486507
 20
34.247486
 30
0.0
  0
POINT
  5
E3F
100
AcDbEntity
  8
DEFPOINTS
  6
BYBLOCK
 62
     0
100
AcDbPoint
 10
324.186507
 20
34.247486
 30
0.0
  0
POINT
  5
E40
100
AcDbEntity
  8
DEFPOINTS
  6
BYBLOCK
 62
     0
100
AcDbPoint
 10
324.186507
 20
33.631376
 30
0.0
  0
ENDBLK
  5
E41
100
AcDbEntity
  8
0
100
AcDbBlockEnd
  0
BLOCK
  5
E44
100
AcDbEntity
  8
0
100
AcDbBlockBegin
  2
*D26
 70
     1
 10
0.0
 20
0.0
 30
0.0
  3
*D26
  1

  0
LINE
  5
E45
100
AcDbEntity
  8
0
  6
BYBLOCK
 62
     0
100
AcDbLine
 10
323.536507
 20
35.247486
 30
0.0
 11
324.136507
 21
35.247486
 31
0.0
  0
SOLID
  5
E46
100
AcDbEntity
  8
0
  6
BYBLOCK
 62
     0
100
AcDbTrace
 10
323.536507
 20
35.272486
 30
0.0
 11
323.536507
 21
35.222486
 31
0.0
 12
323.386507
 22
35.247486
 32
0.0
 13
323.386507
 23
35.247486
 33
0.0
  0
SOLID
  5
E47
100
AcDbEntity
  8
0
  6
BYBLOCK
 62
     0
100
AcDbTrace
 10
324.136507
 20
35.272486
 30
0.0
 11
324.136507
 21
35.222486
 31
0.0
 12
324.286507
 22
35.247486
 32
0.0
 13
324.286507
 23
35.247486
 33
0.0
  0
MTEXT
  5
E48
100
AcDbEntity
  8
0
  6
BYBLOCK
 62
     0
100
AcDbMText
 10
323.836507
 20
35.322486
 30
0.0
 40
0.075
 41
0.0
 71
     5
 72
     1
  1
\A1;0.90
  7
ROMANC
  0
POINT
  5
E49
100
AcDbEntity
  8
DEFPOINTS
  6
BYBLOCK
 62
     0
100
AcDbPoint
 10
323.386507
 20
35.247486
 30
0.0
  0
POINT
  5
E4A
100
AcDbEntity
  8
DEFPOINTS
  6
BYBLOCK
 62
     0
100
AcDbPoint
 10
324.286507
 20
35.247486
 30
0.0
  0
POINT
  5
E4B
100
AcDbEntity
  8
DEFPOINTS
  6
BYBLOCK
 62
     0
100
AcDbPoint
 10
324.286507
 20
35.247486
 30
0.0
  0
ENDBLK
  5
E4C
100
AcDbEntity
  8
0
100
AcDbBlockEnd
  0
BLOCK
  5
E78
100
AcDbEntity
  8
0
100
AcDbBlockBegin
  2
*D27
 70
     1
 10
0.0
 20
0.0
 30
0.0
  3
*D27
  1

  0
LINE
  5
E79
100
AcDbEntity
  8
0
  6
BYBLOCK
 62
     0
100
AcDbLine
 10
324.051507
 20
34.247486
 30
0.0
 11
324.558391
 21
34.247486
 31
0.0
  0
LINE
  5
E7A
100
AcDbEntity
  8
0
  6
BYBLOCK
 62
     0
100
AcDbLine
 10
323.851507
 20
34.047486
 30
0.0
 11
324.558391
 21
34.047486
 31
0.0
  0
LINE
  5
E7B
100
AcDbEntity
  8
0
  6
BYBLOCK
 62
     0
100
AcDbLine
 10
324.543391
 20
34.397486
 30
0.0
 11
324.543391
 21
34.547486
 31
0.0
  0
LINE
  5
E7C
100
AcDbEntity
  8
0
  6
BYBLOCK
 62
     0
100
AcDbLine
 10
324.543391
 20
33.897486
 30
0.0
 11
324.543391
 21
33.747486
 31
0.0
  0
MTEXT
  5
E7D
100
AcDbEntity
  8
0
  6
BYBLOCK
 62
     0
100
AcDbMText
 10
324.468391
 20
33.88132
 30
0.0
 40
0.075
 41
0.0
 71
     5
 72
     1
  1
\A1;0.20
  7
ROMANC
 11
0.0
 21
1.0
 31
0.0
  0
LINE
  5
E7E
100
AcDbEntity
  8
0
  6
BYBLOCK
 62
     0
100
AcDbLine
 10
324.543391
 20
34.247486
 30
0.0
 11
324.543391
 21
34.047486
 31
0.0
  0
LINE
  5
E7F
100
AcDbEntity
  8
0
  6
BYBLOCK
 62
     0
100
AcDbLine
 10
324.543391
 20
34.247486
 30
0.0
 11
324.543391
 21
34.047486
 31
0.0
  0
SOLID
  5
E80
100
AcDbEntity
  8
0
  6
BYBLOCK
 62
     0
100
AcDbTrace
 10
324.518391
 20
34.397486
 30
0.0
 11
324.568391
 21
34.397486
 31
0.0
 12
324.543391
 22
34.247486
 32
0.0
 13
324.543391
 23
34.247486
 33
0.0
  0
SOLID
  5
E81
100
AcDbEntity
  8
0
  6
BYBLOCK
 62
     0
100
AcDbTrace
 10
324.518391
 20
33.897486
 30
0.0
 11
324.568391
 21
33.897486
 31
0.0
 12
324.543391
 22
34.047486
 32
0.0
 13
324.543391
 23
34.047486
 33
0.0
  0
POINT
  5
E82
100
AcDbEntity
  8
DEFPOINTS
  6
BYBLOCK
 62
     0
100
AcDbPoint
 10
324.036507
 20
34.247486
 30
0.0
  0
POINT
  5
E83
100
AcDbEntity
  8
DEFPOINTS
  6
BYBLOCK
 62
     0
100
AcDbPoint
 10
323.836507
 20
34.047486
 30
0.0
  0
POINT
  5
E84
100
AcDbEntity
  8
DEFPOINTS
  6
BYBLOCK
 62
     0
100
AcDbPoint
 10
324.543391
 20
34.047486
 30
0.0
  0
ENDBLK
  5
E85
100
AcDbEntity
  8
0
100
AcDbBlockEnd
  0
BLOCK
  5
E5E
100
AcDbEntity
  8
0
100
AcDbBlockBegin
  2
*D28
 70
     1
 10
0.0
 20
0.0
 30
0.0
  3
*D28
  1

  0
LINE
  5
E5F
100
AcDbEntity
  8
0
  6
BYBLOCK
 62
     0
100
AcDbLine
 10
324.201507
 20
34.247486
 30
0.0
 11
324.558391
 21
34.247486
 31
0.0
  0
LINE
  5
E60
100
AcDbEntity
  8
0
  6
BYBLOCK
 62
     0
100
AcDbLine
 10
324.301507
 20
35.247486
 30
0.0
 11
324.558391
 21
35.247486
 31
0.0
  0
LINE
  5
E61
100
AcDbEntity
  8
0
  6
BYBLOCK
 62
     0
100
AcDbLine
 10
324.543391
 20
34.397486
 30
0.0
 11
324.543391
 21
35.097486
 31
0.0
  0
SOLID
  5
E62
100
AcDbEntity
  8
0
  6
BYBLOCK
 62
     0
100
AcDbTrace
 10
324.518391
 20
34.397486
 30
0.0
 11
324.568391
 21
34.397486
 31
0.0
 12
324.543391
 22
34.247486
 32
0.0
 13
324.543391
 23
34.247486
 33
0.0
  0
SOLID
  5
E63
100
AcDbEntity
  8
0
  6
BYBLOCK
 62
     0
100
AcDbTrace
 10
324.518391
 20
35.097486
 30
0.0
 11
324.568391
 21
35.097486
 31
0.0
 12
324.543391
 22
35.247486
 32
0.0
 13
324.543391
 23
35.247486
 33
0.0
  0
MTEXT
  5
E64
100
AcDbEntity
  8
0
  6
BYBLOCK
 62
     0
100
AcDbMText
 10
324.468391
 20
34.747486
 30
0.0
 40
0.075
 41
0.0
 71
     5
 72
     1
  1
\A1;1.00
  7
ROMANC
 11
0.0
 21
1.0
 31
0.0
  0
POINT
  5
E65
100
AcDbEntity
  8
DEFPOINTS
  6
BYBLOCK
 62
     0
100
AcDbPoint
 10
324.186507
 20
34.247486
 30
0.0
  0
POINT
  5
E66
100
AcDbEntity
  8
DEFPOINTS
  6
BYBLOCK
 62
     0
100
AcDbPoint
 10
324.286507
 20
35.247486
 30
0.0
  0
POINT
  5
E67
100
AcDbEntity
  8
DEFPOINTS
  6
BYBLOCK
 62
     0
100
AcDbPoint
 10
324.543391
 20
35.247486
 30
0.0
  0
ENDBLK
  5
E68
100
AcDbEntity
  8
0
100
AcDbBlockEnd
  0
BLOCK
  5
E87
100
AcDbEntity
  8
0
100
AcDbBlockBegin
  2
*D29
 70
     1
 10
0.0
 20
0.0
 30
0.0
  3
*D29
  1

  0
LINE
  5
E88
100
AcDbEntity
  8
0
  6
BYBLOCK
 62
     0
100
AcDbLine
 10
323.851507
 20
35.697486
 30
0.0
 11
324.836276
 21
35.697486
 31
0.0
  0
LINE
  5
E89
100
AcDbEntity
  8
0
  6
BYBLOCK
 62
     0
100
AcDbLine
 10
323.851507
 20
34.047486
 30
0.0
 11
324.836276
 21
34.047486
 31
0.0
  0
LINE
  5
E8A
100
AcDbEntity
  8
0
  6
BYBLOCK
 62
     0
100
AcDbLine
 10
324.821276
 20
35.547486
 30
0.0
 11
324.821276
 21
34.197486
 31
0.0
  0
SOLID
  5
E8B
100
AcDbEntity
  8
0
  6
BYBLOCK
 62
     0
100
AcDbTrace
 10
324.796276
 20
35.547486
 30
0.0
 11
324.846276
 21
35.547486
 31
0.0
 12
324.821276
 22
35.697486
 32
0.0
 13
324.821276
 23
35.697486
 33
0.0
  0
SOLID
  5
E8C
100
AcDbEntity
  8
0
  6
BYBLOCK
 62
     0
100
AcDbTrace
 10
324.796276
 20
34.197486
 30
0.0
 11
324.846276
 21
34.197486
 31
0.0
 12
324.821276
 22
34.047486
 32
0.0
 13
324.821276
 23
34.047486
 33
0.0
  0
MTEXT
  5
E8D
100
AcDbEntity
  8
0
  6
BYBLOCK
 62
     0
100
AcDbMText
 10
324.746276
 20
34.872486
 30
0.0
 40
0.075
 41
0.0
 71
     5
 72
     1
  1
\A1;1.65
  7
ROMANC
 11
0.0
 21
1.0
 31
0.0
  0
POINT
  5
E8E
100
AcDbEntity
  8
DEFPOINTS
  6
BYBLOCK
 62
     0
100
AcDbPoint
 10
323.836507
 20
35.697486
 30
0.0
  0
POINT
  5
E8F
100
AcDbEntity
  8
DEFPOINTS
  6
BYBLOCK
 62
     0
100
AcDbPoint
 10
323.836507
 20
34.047486
 30
0.0
  0
POINT
  5
E90
100
AcDbEntity
  8
DEFPOINTS
  6
BYBLOCK
 62
     0
100
AcDbPoint
 10
324.821276
 20
34.047486
 30
0.0
  0
ENDBLK
  5
E91
100
AcDbEntity
  8
0
100
AcDbBlockEnd
  0
BLOCK
  5
EAF
100
AcDbEntity
  8
0
100
AcDbBlockBegin
  2
*D30
 70
     1
 10
0.0
 20
0.0
 30
0.0
  3
*D30
  1

  0
LINE
  5
EB0
100
AcDbEntity
  8
0
  6
BYBLOCK
 62
     0
100
AcDbLine
 10
324.432754
 20
35.686513
 30
0.0
 11
324.734996
 21
35.686513
 31
0.0
  0
LINE
  5
EB1
100
AcDbEntity
  8
0
  6
BYBLOCK
 62
     0
100
AcDbLine
 10
324.432754
 20
34.686513
 30
0.0
 11
324.734996
 21
34.686513
 31
0.0
  0
LINE
  5
EB2
100
AcDbEntity
  8
0
  6
BYBLOCK
 62
     0
100
AcDbLine
 10
324.719996
 20
35.536513
 30
0.0
 11
324.719996
 21
34.836513
 31
0.0
  0
SOLID
  5
EB3
100
AcDbEntity
  8
0
  6
BYBLOCK
 62
     0
100
AcDbTrace
 10
324.694996
 20
35.536513
 30
0.0
 11
324.744996
 21
35.536513
 31
0.0
 12
324.719996
 22
35.686513
 32
0.0
 13
324.719996
 23
35.686513
 33
0.0
  0
SOLID
  5
EB4
100
AcDbEntity
  8
0
  6
BYBLOCK
 62
     0
100
AcDbTrace
 10
324.694996
 20
34.836513
 30
0.0
 11
324.744996
 21
34.836513
 31
0.0
 12
324.719996
 22
34.686513
 32
0.0
 13
324.719996
 23
34.686513
 33
0.0
  0
MTEXT
  5
EB5
100
AcDbEntity
  8
0
  6
BYBLOCK
 62
     0
100
AcDbMText
 10
324.644996
 20
35.186513
 30
0.0
 40
0.075
 41
0.0
 71
     5
 72
     1
  1
\A1;1.00
  7
ROMANC
 11
0.0
 21
1.0
 31
0.0
  0
POINT
  5
EB6
100
AcDbEntity
  8
DEFPOINTS
  6
BYBLOCK
 62
     0
100
AcDbPoint
 10
324.417754
 20
35.686513
 30
0.0
  0
POINT
  5
EB7
100
AcDbEntity
  8
DEFPOINTS
  6
BYBLOCK
 62
     0
100
AcDbPoint
 10
324.417754
 20
34.686513
 30
0.0
  0
POINT
  5
EB8
100
AcDbEntity
  8
DEFPOINTS
  6
BYBLOCK
 62
     0
100
AcDbPoint
 10
324.719996
 20
34.686513
 30
0.0
  0
ENDBLK
  5
EB9
100
AcDbEntity
  8
0
100
AcDbBlockEnd
  0
BLOCK
  5
EBC
100
AcDbEntity
  8
0
100
AcDbBlockBegin
  2
*D31
 70
     1
 10
0.0
 20
0.0
 30
0.0
  3
*D31
  1

  0
LINE
  5
EBD
100
AcDbEntity
  8
0
  6
BYBLOCK
 62
     0
100
AcDbLine
 10
323.857754
 20
36.186513
 30
0.0
 11
324.734996
 21
36.186513
 31
0.0
  0
LINE
  5
EBE
100
AcDbEntity
  8
0
  6
BYBLOCK
 62
     0
100
AcDbLine
 10
324.432754
 20
35.686513
 30
0.0
 11
324.734996
 21
35.686513
 31
0.0
  0
LINE
  5
EBF
100
AcDbEntity
  8
0
  6
BYBLOCK
 62
     0
100
AcDbLine
 10
324.719996
 20
36.036513
 30
0.0
 11
324.719996
 21
35.836513
 31
0.0
  0
SOLID
  5
EC0
100
AcDbEntity
  8
0
  6
BYBLOCK
 62
     0
100
AcDbTrace
 10
324.694996
 20
36.036513
 30
0.0
 11
324.744996
 21
36.036513
 31
0.0
 12
324.719996
 22
36.186513
 32
0.0
 13
324.719996
 23
36.186513
 33
0.0
  0
SOLID
  5
EC1
100
AcDbEntity
  8
0
  6
BYBLOCK
 62
     0
100
AcDbTrace
 10
324.694996
 20
35.836513
 30
0.0
 11
324.744996
 21
35.836513
 31
0.0
 12
324.719996
 22
35.686513
 32
0.0
 13
324.719996
 23
35.686513
 33
0.0
  0
MTEXT
  5
EC2
100
AcDbEntity
  8
0
  6
BYBLOCK
 62
     0
100
AcDbMText
 10
324.644996
 20
35.936513
 30
0.0
 40
0.075
 41
0.0
 71
     5
 72
     1
  1
\A1;0.50
  7
ROMANC
 11
0.0
 21
1.0
 31
0.0
  0
POINT
  5
EC3
100
AcDbEntity
  8
DEFPOINTS
  6
BYBLOCK
 62
     0
100
AcDbPoint
 10
323.842754
 20
36.186513
 30
0.0
  0
POINT
  5
EC4
100
AcDbEntity
  8
DEFPOINTS
  6
BYBLOCK
 62
     0
100
AcDbPoint
 10
324.417754
 20
35.686513
 30
0.0
  0
POINT
  5
EC5
100
AcDbEntity
  8
DEFPOINTS
  6
BYBLOCK
 62
     0
100
AcDbPoint
 10
324.719996
 20
35.686513
 30
0.0
  0
ENDBLK
  5
EC6
100
AcDbEntity
  8
0
100
AcDbBlockEnd
  0
BLOCK
  5
EC9
100
AcDbEntity
  8
0
100
AcDbBlockBegin
  2
*D32
 70
     1
 10
0.0
 20
0.0
 30
0.0
  3
*D32
  1

  0
LINE
  5
ECA
100
AcDbEntity
  8
0
  6
BYBLOCK
 62
     0
100
AcDbLine
 10
324.432754
 20
34.686513
 30
0.0
 11
324.734996
 21
34.686513
 31
0.0
  0
LINE
  5
ECB
100
AcDbEntity
  8
0
  6
BYBLOCK
 62
     0
100
AcDbLine
 10
324.235353
 20
34.287119
 30
0.0
 11
324.734996
 21
34.287119
 31
0.0
  0
LINE
  5
ECC
100
AcDbEntity
  8
0
  6
BYBLOCK
 62
     0
100
AcDbLine
 10
324.719996
 20
34.536513
 30
0.0
 11
324.719996
 21
34.437119
 31
0.0
  0
SOLID
  5
ECD
100
AcDbEntity
  8
0
  6
BYBLOCK
 62
     0
100
AcDbTrace
 10
324.694996
 20
34.536513
 30
0.0
 11
324.744996
 21
34.536513
 31
0.0
 12
324.719996
 22
34.686513
 32
0.0
 13
324.719996
 23
34.686513
 33
0.0
  0
SOLID
  5
ECE
100
AcDbEntity
  8
0
  6
BYBLOCK
 62
     0
100
AcDbTrace
 10
324.694996
 20
34.437119
 30
0.0
 11
324.744996
 21
34.437119
 31
0.0
 12
324.719996
 22
34.287119
 32
0.0
 13
324.719996
 23
34.287119
 33
0.0
  0
MTEXT
  5
ECF
100
AcDbEntity
  8
0
  6
BYBLOCK
 62
     0
100
AcDbMText
 10
324.644996
 20
34.486816
 30
0.0
 40
0.075
 41
0.0
 71
     5
 72
     1
  1
\A1;0.40
  7
ROMANC
 11
0.0
 21
1.0
 31
0.0
  0
POINT
  5
ED0
100
AcDbEntity
  8
DEFPOINTS
  6
BYBLOCK
 62
     0
100
AcDbPoint
 10
324.417754
 20
34.686513
 30
0.0
  0
POINT
  5
ED1
100
AcDbEntity
  8
DEFPOINTS
  6
BYBLOCK
 62
     0
100
AcDbPoint
 10
324.220353
 20
34.287119
 30
0.0
  0
POINT
  5
ED2
100
AcDbEntity
  8
DEFPOINTS
  6
BYBLOCK
 62
     0
100
AcDbPoint
 10
324.719996
 20
34.287119
 30
0.0
  0
ENDBLK
  5
ED3
100
AcDbEntity
  8
0
100
AcDbBlockEnd
  0
BLOCK
  5
ED6
100
AcDbEntity
  8
0
100
AcDbBlockBegin
  2
*D33
 70
     1
 10
0.0
 20
0.0
 30
0.0
  3
*D33
  1

  0
LINE
  5
ED7
100
AcDbEntity
  8
0
  6
BYBLOCK
 62
     0
100
AcDbLine
 10
323.872754
 20
36.186513
 30
0.0
 11
325.053738
 21
36.186513
 31
0.0
  0
LINE
  5
ED8
100
AcDbEntity
  8
0
  6
BYBLOCK
 62
     0
100
AcDbLine
 10
324.500174
 20
34.287119
 30
0.0
 11
325.053738
 21
34.287119
 31
0.0
  0
LINE
  5
ED9
100
AcDbEntity
  8
0
  6
BYBLOCK
 62
     0
100
AcDbLine
 10
325.038738
 20
36.036513
 30
0.0
 11
325.038738
 21
34.437119
 31
0.0
  0
SOLID
  5
EDA
100
AcDbEntity
  8
0
  6
BYBLOCK
 62
     0
100
AcDbTrace
 10
325.013738
 20
36.036513
 30
0.0
 11
325.063738
 21
36.036513
 31
0.0
 12
325.038738
 22
36.186513
 32
0.0
 13
325.038738
 23
36.186513
 33
0.0
  0
SOLID
  5
EDB
100
AcDbEntity
  8
0
  6
BYBLOCK
 62
     0
100
AcDbTrace
 10
325.013738
 20
34.437119
 30
0.0
 11
325.063738
 21
34.437119
 31
0.0
 12
325.038738
 22
34.287119
 32
0.0
 13
325.038738
 23
34.287119
 33
0.0
  0
MTEXT
  5
EDC
100
AcDbEntity
  8
0
  6
BYBLOCK
 62
     0
100
AcDbMText
 10
324.963738
 20
35.236816
 30
0.0
 40
0.075
 41
0.0
 71
     5
 72
     1
  1
\A1;1.90
  7
ROMANC
 11
0.0
 21
1.0
 31
0.0
  0
POINT
  5
EDD
100
AcDbEntity
  8
DEFPOINTS
  6
BYBLOCK
 62
     0
100
AcDbPoint
 10
323.857754
 20
36.186513
 30
0.0
  0
POINT
  5
EDE
100
AcDbEntity
  8
DEFPOINTS
  6
BYBLOCK
 62
     0
100
AcDbPoint
 10
324.485174
 20
34.287119
 30
0.0
  0
POINT
  5
EDF
100
AcDbEntity
  8
DEFPOINTS
  6
BYBLOCK
 62
     0
100
AcDbPoint
 10
325.038738
 20
34.287119
 30
0.0
  0
ENDBLK
  5
EE0
100
AcDbEntity
  8
0
100
AcDbBlockEnd
  0
BLOCK
  5
EE3
100
AcDbEntity
  8
0
100
AcDbBlockBegin
  2
*D34
 70
     1
 10
0.0
 20
0.0
 30
0.0
  3
*D34
  1

  0
LINE
  5
EE4
100
AcDbEntity
  8
0
  6
BYBLOCK
 62
     0
100
AcDbLine
 10
324.017754
 20
34.671513
 30
0.0
 11
324.017754
 21
34.042035
 31
0.0
  0
LINE
  5
EE5
100
AcDbEntity
  8
0
  6
BYBLOCK
 62
     0
100
AcDbLine
 10
324.417754
 20
34.671513
 30
0.0
 11
324.417754
 21
34.042035
 31
0.0
  0
LINE
  5
EE6
100
AcDbEntity
  8
0
  6
BYBLOCK
 62
     0
100
AcDbLine
 10
324.167754
 20
34.057035
 30
0.0
 11
324.267754
 21
34.057035
 31
0.0
  0
SOLID
  5
EE7
100
AcDbEntity
  8
0
  6
BYBLOCK
 62
     0
100
AcDbTrace
 10
324.167754
 20
34.082035
 30
0.0
 11
324.167754
 21
34.032035
 31
0.0
 12
324.017754
 22
34.057035
 32
0.0
 13
324.017754
 23
34.057035
 33
0.0
  0
SOLID
  5
EE8
100
AcDbEntity
  8
0
  6
BYBLOCK
 62
     0
100
AcDbTrace
 10
324.267754
 20
34.082035
 30
0.0
 11
324.267754
 21
34.032035
 31
0.0
 12
324.417754
 22
34.057035
 32
0.0
 13
324.417754
 23
34.057035
 33
0.0
  0
MTEXT
  5
EE9
100
AcDbEntity
  8
0
  6
BYBLOCK
 62
     0
100
AcDbMText
 10
324.217754
 20
34.132035
 30
0.0
 40
0.075
 41
0.0
 71
     5
 72
     1
  1
\A1;0.40
  7
ROMANC
  0
POINT
  5
EEA
100
AcDbEntity
  8
DEFPOINTS
  6
BYBLOCK
 62
     0
100
AcDbPoint
 10
324.017754
 20
34.686513
 30
0.0
  0
POINT
  5
EEB
100
AcDbEntity
  8
DEFPOINTS
  6
BYBLOCK
 62
     0
100
AcDbPoint
 10
324.417754
 20
34.686513
 30
0.0
  0
POINT
  5
EEC
100
AcDbEntity
  8
DEFPOINTS
  6
BYBLOCK
 62
     0
100
AcDbPoint
 10
324.417754
 20
34.057035
 30
0.0
  0
ENDBLK
  5
EED
100
AcDbEntity
  8
0
100
AcDbBlockEnd
  0
BLOCK
  5
EF0
100
AcDbEntity
  8
0
100
AcDbBlockBegin
  2
*D35
 70
     1
 10
0.0
 20
0.0
 30
0.0
  3
*D35
  1

  0
LINE
  5
EF1
100
AcDbEntity
  8
0
  6
BYBLOCK
 62
     0
100
AcDbLine
 10
323.267754
 20
34.671513
 30
0.0
 11
323.267754
 21
34.042035
 31
0.0
  0
LINE
  5
EF2
100
AcDbEntity
  8
0
  6
BYBLOCK
 62
     0
100
AcDbLine
 10
324.017754
 20
34.671513
 30
0.0
 11
324.017754
 21
34.042035
 31
0.0
  0
LINE
  5
EF3
100
AcDbEntity
  8
0
  6
BYBLOCK
 62
     0
100
AcDbLine
 10
323.417754
 20
34.057035
 30
0.0
 11
323.867754
 21
34.057035
 31
0.0
  0
SOLID
  5
EF4
100
AcDbEntity
  8
0
  6
BYBLOCK
 62
     0
100
AcDbTrace
 10
323.417754
 20
34.082035
 30
0.0
 11
323.417754
 21
34.032035
 31
0.0
 12
323.267754
 22
34.057035
 32
0.0
 13
323.267754
 23
34.057035
 33
0.0
  0
SOLID
  5
EF5
100
AcDbEntity
  8
0
  6
BYBLOCK
 62
     0
100
AcDbTrace
 10
323.867754
 20
34.082035
 30
0.0
 11
323.867754
 21
34.032035
 31
0.0
 12
324.017754
 22
34.057035
 32
0.0
 13
324.017754
 23
34.057035
 33
0.0
  0
MTEXT
  5
EF6
100
AcDbEntity
  8
0
  6
BYBLOCK
 62
     0
100
AcDbMText
 10
323.642754
 20
34.132035
 30
0.0
 40
0.075
 41
0.0
 71
     5
 72
     1
  1
\A1;0.75
  7
ROMANC
  0
POINT
  5
EF7
100
AcDbEntity
  8
DEFPOINTS
  6
BYBLOCK
 62
     0
100
AcDbPoint
 10
323.267754
 20
34.686513
 30
0.0
  0
POINT
  5
EF8
100
AcDbEntity
  8
DEFPOINTS
  6
BYBLOCK
 62
     0
100
AcDbPoint
 10
324.017754
 20
34.686513
 30
0.0
  0
POINT
  5
EF9
100
AcDbEntity
  8
DEFPOINTS
  6
BYBLOCK
 62
     0
100
AcDbPoint
 10
324.017754
 20
34.057035
 30
0.0
  0
ENDBLK
  5
EFA
100
AcDbEntity
  8
0
100
AcDbBlockEnd
  0
BLOCK
  5
EFD
100
AcDbEntity
  8
0
100
AcDbBlockBegin
  2
*D36
 70
     1
 10
0.0
 20
0.0
 30
0.0
  3
*D36
  1

  0
LINE
  5
EFE
100
AcDbEntity
  8
0
  6
BYBLOCK
 62
     0
100
AcDbLine
 10
323.267754
 20
34.671513
 30
0.0
 11
323.267754
 21
33.742472
 31
0.0
  0
LINE
  5
EFF
100
AcDbEntity
  8
0
  6
BYBLOCK
 62
     0
100
AcDbLine
 10
324.417754
 20
34.671513
 30
0.0
 11
324.417754
 21
33.742472
 31
0.0
  0
LINE
  5
F00
100
AcDbEntity
  8
0
  6
BYBLOCK
 62
     0
100
AcDbLine
 10
323.417754
 20
33.757472
 30
0.0
 11
324.267754
 21
33.757472
 31
0.0
  0
SOLID
  5
F01
100
AcDbEntity
  8
0
  6
BYBLOCK
 62
     0
100
AcDbTrace
 10
323.417754
 20
33.782472
 30
0.0
 11
323.417754
 21
33.732472
 31
0.0
 12
323.267754
 22
33.757472
 32
0.0
 13
323.267754
 23
33.757472
 33
0.0
  0
SOLID
  5
F02
100
AcDbEntity
  8
0
  6
BYBLOCK
 62
     0
100
AcDbTrace
 10
324.267754
 20
33.782472
 30
0.0
 11
324.267754
 21
33.732472
 31
0.0
 12
324.417754
 22
33.757472
 32
0.0
 13
324.417754
 23
33.757472
 33
0.0
  0
MTEXT
  5
F03
100
AcDbEntity
  8
0
  6
BYBLOCK
 62
     0
100
AcDbMText
 10
323.842754
 20
33.832472
 30
0.0
 40
0.075
 41
0.0
 71
     5
 72
     1
  1
\A1;1.15
  7
ROMANC
  0
POINT
  5
F04
100
AcDbEntity
  8
DEFPOINTS
  6
BYBLOCK
 62
     0
100
AcDbPoint
 10
323.267754
 20
34.686513
 30
0.0
  0
POINT
  5
F05
100
AcDbEntity
  8
DEFPOINTS
  6
BYBLOCK
 62
     0
100
AcDbPoint
 10
324.417754
 20
34.686513
 30
0.0
  0
POINT
  5
F06
100
AcDbEntity
  8
DEFPOINTS
  6
BYBLOCK
 62
     0
100
AcDbPoint
 10
324.417754
 20
33.757472
 30
0.0
  0
ENDBLK
  5
F07
100
AcDbEntity
  8
0
100
AcDbBlockEnd
  0
BLOCK
  5
F0C
100
AcDbEntity
  8
0
100
AcDbBlockBegin
  2
*D37
 70
     1
 10
0.0
 20
0.0
 30
0.0
  3
*D37
  1

  0
LINE
  5
F0D
100
AcDbEntity
  8
0
  6
BYBLOCK
 62
     0
100
AcDbLine
 10
323.10364
 20
35.686513
 30
0.0
 11
323.95364
 21
35.686513
 31
0.0
  0
SOLID
  5
F0E
100
AcDbEntity
  8
0
  6
BYBLOCK
 62
     0
100
AcDbTrace
 10
323.10364
 20
35.711513
 30
0.0
 11
323.10364
 21
35.661513
 31
0.0
 12
322.95364
 22
35.686513
 32
0.0
 13
322.95364
 23
35.686513
 33
0.0
  0
SOLID
  5
F0F
100
AcDbEntity
  8
0
  6
BYBLOCK
 62
     0
100
AcDbTrace
 10
323.95364
 20
35.711513
 30
0.0
 11
323.95364
 21
35.661513
 31
0.0
 12
324.10364
 22
35.686513
 32
0.0
 13
324.10364
 23
35.686513
 33
0.0
  0
MTEXT
  5
F10
100
AcDbEntity
  8
0
  6
BYBLOCK
 62
     0
100
AcDbMText
 10
323.52864
 20
35.761513
 30
0.0
 40
0.075
 41
0.0
 71
     5
 72
     1
  1
\A1;1.15
  7
ROMANC
  0
POINT
  5
F11
100
AcDbEntity
  8
DEFPOINTS
  6
BYBLOCK
 62
     0
100
AcDbPoint
 10
322.95364
 20
35.686513
 30
0.0
  0
POINT
  5
F12
100
AcDbEntity
  8
DEFPOINTS
  6
BYBLOCK
 62
     0
100
AcDbPoint
 10
324.10364
 20
35.686513
 30
0.0
  0
POINT
  5
F13
100
AcDbEntity
  8
DEFPOINTS
  6
BYBLOCK
 62
     0
100
AcDbPoint
 10
324.10364
 20
35.686513
 30
0.0
  0
ENDBLK
  5
F14
100
AcDbEntity
  8
0
100
AcDbBlockEnd
  0
ENDSEC
  0
SECTION
  2
ENTITIES
  0
LINE
  5
27
100
AcDbEntity
  8
0
100
AcDbLine
 10
329.348696
 20
29.863623
 30
0.0
 11
329.348696
 21
44.713623
 31
0.0
  0
LINE
  5
28
100
AcDbEntity
  8
0
100
AcDbLine
 10
318.848696
 20
44.713623
 30
0.0
 11
318.848696
 21
29.863623
 31
0.0
  0
LINE
  5
29
100
AcDbEntity
  8
0
100
AcDbLine
 10
318.848696
 20
29.863623
 30
0.0
 11
329.348696
 21
29.863623
 31
0.0
  0
TEXT
  5
2A
100
AcDbEntity
  8
0
100
AcDbText
 10
321.773149
 20
42.309482
 30
0.0
 40
0.3
  1
TIPUS   NT173A
  7
ROMANC
100
AcDbText
  0
TEXT
  5
2D
100
AcDbEntity
  8
0
100
AcDbText
 10
321.781963
 20
40.49646
 30
0.0
 40
0.3
  1
P = 54,1 dm
  7
ROMANC
100
AcDbText
  0
TEXT
  5
2E
100
AcDbEntity
  8
0
100
AcDbText
 10
321.760278
 20
41.105813
 30
0.0
 40
0.3
  1
S = 173 dm
  7
ROMANC
100
AcDbText
  0
TEXT
  5
2F
100
AcDbEntity
  8
0
100
AcDbText
 10
321.773149
 20
41.704403
 30
0.0
 40
0.3
  1
ESCALA  1:50
  7
ROMANC
100
AcDbText
  0
TEXT
  5
30
100
AcDbEntity
  8
0
100
AcDbText
 10
324.920182
 20
41.411729
 30
0.0
 40
0.1
  1
2
  7
ROMANC
100
AcDbText
  0
LINE
  5
31
100
AcDbEntity
  8
0
100
AcDbLine
 10
329.348696
 20
44.713623
 30
0.0
 11
318.848696
 21
44.713623
 31
0.0
  0
LINE
  5
F1B
100
AcDbEntity
  8
0
  6
BYBLOCK
 62
     0
100
AcDbLine
 10
323.10364
 20
35.686513
 30
0.0
 11
323.95364
 21
35.686513
 31
0.0
  0
SOLID
  5
F1C
100
AcDbEntity
  8
0
  6
BYBLOCK
 62
     0
100
AcDbTrace
 10
323.10364
 20
35.711513
 30
0.0
 11
323.10364
 21
35.661513
 31
0.0
 12
322.95364
 22
35.686513
 32
0.0
 13
322.95364
 23
35.686513
 33
0.0
  0
SOLID
  5
F1D
100
AcDbEntity
  8
0
  6
BYBLOCK
 62
     0
100
AcDbTrace
 10
323.95364
 20
35.711513
 30
0.0
 11
323.95364
 21
35.661513
 31
0.0
 12
324.10364
 22
35.686513
 32
0.0
 13
324.10364
 23
35.686513
 33
0.0
  0
MTEXT
  5
F1E
100
AcDbEntity
  8
0
  6
BYBLOCK
 62
     0
100
AcDbMText
 10
323.52864
 20
35.761513
 30
0.0
 40
0.075
 41
0.0
 71
     5
 72
     1
  1
\A1;1.15
  7
ROMANC
  0
POINT
  5
F1F
100
AcDbEntity
  8
DEFPOINTS
  6
BYBLOCK
 62
     0
100
AcDbPoint
 10
322.95364
 20
35.686513
 30
0.0
  0
POINT
  5
F20
100
AcDbEntity
  8
DEFPOINTS
  6
BYBLOCK
 62
     0
100
AcDbPoint
 10
324.10364
 20
35.686513
 30
0.0
  0
POINT
  5
F21
100
AcDbEntity
  8
DEFPOINTS
  6
BYBLOCK
 62
     0
100
AcDbPoint
 10
324.10364
 20
35.686513
 30
0.0
  0
LINE
  5
F22
100
AcDbEntity
  8
0
100
AcDbLine
 10
324.080399
 20
34.4486
 30
0.0
 11
324.099854
 21
34.515461
 31
0.0
  0
LINE
  5
F23
100
AcDbEntity
  8
0
100
AcDbLine
 10
324.099854
 20
34.515461
 30
0.0
 11
324.110829
 21
34.574647
 31
0.0
  0
LINE
  5
F24
100
AcDbEntity
  8
0
100
AcDbLine
 10
324.110829
 20
34.574647
 30
0.0
 11
324.117563
 21
34.644492
 31
0.0
  0
LINE
  5
F25
100
AcDbEntity
  8
0
100
AcDbLine
 10
324.117563
 20
34.644492
 30
0.0
 11
324.11864
 21
34.68632
 31
0.0
  0
LINE
  5
F26
100
AcDbEntity
  8
0
100
AcDbLine
 10
324.11864
 20
34.68632
 30
0.0
 11
324.11864
 21
35.687553
 31
0.0
  0
ARC
  5
F27
100
AcDbEntity
  8
0
100
AcDbCircle
 10
323.52864
 20
35.605888
 30
0.0
 40
0.595625
100
AcDbArc
 50
7.880519
 51
172.119481
  0
LINE
  5
F28
100
AcDbEntity
  8
0
100
AcDbLine
 10
322.93864
 20
35.687553
 30
0.0
 11
322.93864
 21
34.671513
 31
0.0
  0
LINE
  5
F29
100
AcDbEntity
  8
0
100
AcDbLine
 10
322.93864
 20
34.671513
 30
0.0
 11
323.689078
 21
34.671513
 31
0.0
  0
LINE
  5
F2A
100
AcDbEntity
  8
0
100
AcDbLine
 10
323.689078
 20
34.671513
 30
0.0
 11
323.690061
 21
34.638342
 31
0.0
  0
LINE
  5
F2B
100
AcDbEntity
  8
0
100
AcDbLine
 10
323.690061
 20
34.638342
 30
0.0
 11
323.695391
 21
34.582383
 31
0.0
  0
LINE
  5
F2C
100
AcDbEntity
  8
0
100
AcDbLine
 10
323.695391
 20
34.582383
 30
0.0
 11
323.706386
 21
34.52007
 31
0.0
  0
LINE
  5
F2D
100
AcDbEntity
  8
0
100
AcDbLine
 10
323.706386
 20
34.52007
 30
0.0
 11
323.718431
 21
34.474187
 31
0.0
  0
LINE
  5
F2E
100
AcDbEntity
  8
0
100
AcDbLine
 10
323.718431
 20
34.474187
 30
0.0
 11
323.734455
 21
34.428737
 31
0.0
  0
LINE
  5
F2F
100
AcDbEntity
  8
0
100
AcDbLine
 10
323.734455
 20
34.428737
 30
0.0
 11
323.757102
 21
34.381181
 31
0.0
  0
LINE
  5
F30
100
AcDbEntity
  8
0
100
AcDbLine
 10
323.757102
 20
34.381181
 30
0.0
 11
323.784051
 21
34.340216
 31
0.0
  0
LINE
  5
F31
100
AcDbEntity
  8
0
100
AcDbLine
 10
323.784051
 20
34.340216
 30
0.0
 11
323.817581
 21
34.305217
 31
0.0
  0
LINE
  5
F32
100
AcDbEntity
  8
0
100
AcDbLine
 10
323.817581
 20
34.305217
 30
0.0
 11
323.856625
 21
34.281068
 31
0.0
  0
LINE
  5
F33
100
AcDbEntity
  8
0
100
AcDbLine
 10
323.856625
 20
34.281068
 30
0.0
 11
323.893903
 21
34.271793
 31
0.0
  0
LINE
  5
F34
100
AcDbEntity
  8
0
100
AcDbLine
 10
323.893903
 20
34.271793
 30
0.0
 11
323.919304
 21
34.272454
 31
0.0
  0
LINE
  5
F35
100
AcDbEntity
  8
0
100
AcDbLine
 10
323.919304
 20
34.272454
 30
0.0
 11
323.955203
 21
34.283132
 31
0.0
  0
LINE
  5
F36
100
AcDbEntity
  8
0
100
AcDbLine
 10
323.955203
 20
34.283132
 30
0.0
 11
323.985981
 21
34.30224
 31
0.0
  0
LINE
  5
F37
100
AcDbEntity
  8
0
100
AcDbLine
 10
323.985981
 20
34.30224
 30
0.0
 11
324.022291
 21
34.339026
 31
0.0
  0
LINE
  5
F38
100
AcDbEntity
  8
0
100
AcDbLine
 10
324.022291
 20
34.339026
 30
0.0
 11
324.046186
 21
34.374227
 31
0.0
  0
LINE
  5
F39
100
AcDbEntity
  8
0
100
AcDbLine
 10
324.046186
 20
34.374227
 30
0.0
 11
324.065713
 21
34.412145
 31
0.0
  0
LINE
  5
F3A
100
AcDbEntity
  8
0
100
AcDbLine
 10
324.065713
 20
34.412145
 30
0.0
 11
324.080399
 21
34.4486
 31
0.0
  0
LINE
  5
F3B
100
AcDbEntity
  8
0
100
AcDbLine
 10
324.073302
 20
34.451055
 30
0.0
 11
324.092548
 21
34.517197
 31
0.0
  0
LINE
  5
F3C
100
AcDbEntity
  8
0
100
AcDbLine
 10
324.092548
 20
34.517197
 30
0.0
 11
324.103395
 21
34.575693
 31
0.0
  0
LINE
  5
F3D
100
AcDbEntity
  8
0
100
AcDbLine
 10
324.103395
 20
34.575693
 30
0.0
 11
324.110072
 21
34.644949
 31
0.0
  0
LINE
  5
F3E
100
AcDbEntity
  8
0
100
AcDbLine
 10
324.110072
 20
34.644949
 30
0.0
 11
324.11114
 21
34.686417
 31
0.0
  0
LINE
  5
F3F
100
AcDbEntity
  8
0
100
AcDbLine
 10
324.11114
 20
34.686417
 30
0.0
 11
324.11114
 21
35.687035
 31
0.0
  0
ARC
  5
F40
100
AcDbEntity
  8
0
100
AcDbCircle
 10
323.52864
 20
35.605888
 30
0.0
 40
0.588125
100
AcDbArc
 50
7.930687
 51
172.069313
  0
LINE
  5
F41
100
AcDbEntity
  8
0
100
AcDbLine
 10
322.94614
 20
35.687035
 30
0.0
 11
322.94614
 21
34.679013
 31
0.0
  0
LINE
  5
F42
100
AcDbEntity
  8
0
100
AcDbLine
 10
322.94614
 20
34.679013
 30
0.0
 11
323.696359
 21
34.679013
 31
0.0
  0
LINE
  5
F43
100
AcDbEntity
  8
0
100
AcDbLine
 10
323.696359
 20
34.679013
 30
0.0
 11
323.69755
 21
34.638809
 31
0.0
  0
LINE
  5
F44
100
AcDbEntity
  8
0
100
AcDbLine
 10
323.69755
 20
34.638809
 30
0.0
 11
323.702829
 21
34.583391
 31
0.0
  0
LINE
  5
F45
100
AcDbEntity
  8
0
100
AcDbLine
 10
323.702829
 20
34.583391
 30
0.0
 11
323.713718
 21
34.521677
 31
0.0
  0
LINE
  5
F46
100
AcDbEntity
  8
0
100
AcDbLine
 10
323.713718
 20
34.521677
 30
0.0
 11
323.725607
 21
34.47639
 31
0.0
  0
LINE
  5
F47
100
AcDbEntity
  8
0
100
AcDbLine
 10
323.725607
 20
34.47639
 30
0.0
 11
323.741397
 21
34.431604
 31
0.0
  0
LINE
  5
F48
100
AcDbEntity
  8
0
100
AcDbLine
 10
323.741397
 20
34.431604
 30
0.0
 11
323.763651
 21
34.384871
 31
0.0
  0
LINE
  5
F49
100
AcDbEntity
  8
0
100
AcDbLine
 10
323.763651
 20
34.384871
 30
0.0
 11
323.789941
 21
34.34491
 31
0.0
  0
LINE
  5
F4A
100
AcDbEntity
  8
0
100
AcDbLine
 10
323.789941
 20
34.34491
 30
0.0
 11
323.822337
 21
34.311094
 31
0.0
  0
LINE
  5
F4B
100
AcDbEntity
  8
0
100
AcDbLine
 10
323.822337
 20
34.311094
 30
0.0
 11
323.859573
 21
34.288064
 31
0.0
  0
LINE
  5
F4C
100
AcDbEntity
  8
0
100
AcDbLine
 10
323.859573
 20
34.288064
 30
0.0
 11
323.894725
 21
34.279317
 31
0.0
  0
LINE
  5
F4D
100
AcDbEntity
  8
0
100
AcDbLine
 10
323.894725
 20
34.279317
 30
0.0
 11
323.918117
 21
34.279926
 31
0.0
  0
LINE
  5
F4E
100
AcDbEntity
  8
0
100
AcDbLine
 10
323.918117
 20
34.279926
 30
0.0
 11
323.952101
 21
34.290034
 31
0.0
  0
LINE
  5
F4F
100
AcDbEntity
  8
0
100
AcDbLine
 10
323.952101
 20
34.290034
 30
0.0
 11
323.981269
 21
34.308142
 31
0.0
  0
LINE
  5
F50
100
AcDbEntity
  8
0
100
AcDbLine
 10
323.981269
 20
34.308142
 30
0.0
 11
324.016471
 21
34.343806
 31
0.0
  0
LINE
  5
F51
100
AcDbEntity
  8
0
100
AcDbLine
 10
324.016471
 20
34.343806
 30
0.0
 11
324.039726
 21
34.378064
 31
0.0
  0
LINE
  5
F52
100
AcDbEntity
  8
0
100
AcDbLine
 10
324.039726
 20
34.378064
 30
0.0
 11
324.058886
 21
34.41527
 31
0.0
  0
LINE
  5
F53
100
AcDbEntity
  8
0
100
AcDbLine
 10
324.058886
 20
34.41527
 30
0.0
 11
324.073302
 21
34.451055
 31
0.0
  0
LINE
  5
F54
100
AcDbEntity
  8
0
  6
BYBLOCK
 62
     0
100
AcDbLine
 10
322.95364
 20
34.671513
 30
0.0
 11
322.95364
 21
33.742472
 31
0.0
  0
LINE
  5
F55
100
AcDbEntity
  8
0
  6
BYBLOCK
 62
     0
100
AcDbLine
 10
324.10364
 20
34.671513
 30
0.0
 11
324.10364
 21
33.742472
 31
0.0
  0
LINE
  5
F56
100
AcDbEntity
  8
0
  6
BYBLOCK
 62
     0
100
AcDbLine
 10
323.10364
 20
33.757472
 30
0.0
 11
323.95364
 21
33.757472
 31
0.0
  0
SOLID
  5
F57
100
AcDbEntity
  8
0
  6
BYBLOCK
 62
     0
100
AcDbTrace
 10
323.10364
 20
33.782472
 30
0.0
 11
323.10364
 21
33.732472
 31
0.0
 12
322.95364
 22
33.757472
 32
0.0
 13
322.95364
 23
33.757472
 33
0.0
  0
SOLID
  5
F58
100
AcDbEntity
  8
0
  6
BYBLOCK
 62
     0
100
AcDbTrace
 10
323.95364
 20
33.782472
 30
0.0
 11
323.95364
 21
33.732472
 31
0.0
 12
324.10364
 22
33.757472
 32
0.0
 13
324.10364
 23
33.757472
 33
0.0
  0
MTEXT
  5
F59
100
AcDbEntity
  8
0
  6
BYBLOCK
 62
     0
100
AcDbMText
 10
323.52864
 20
33.832472
 30
0.0
 40
0.075
 41
0.0
 71
     5
 72
     1
  1
\A1;1.15
  7
ROMANC
  0
POINT
  5
F5A
100
AcDbEntity
  8
DEFPOINTS
  6
BYBLOCK
 62
     0
100
AcDbPoint
 10
322.95364
 20
34.686513
 30
0.0
  0
POINT
  5
F5B
100
AcDbEntity
  8
DEFPOINTS
  6
BYBLOCK
 62
     0
100
AcDbPoint
 10
324.10364
 20
34.686513
 30
0.0
  0
POINT
  5
F5C
100
AcDbEntity
  8
DEFPOINTS
  6
BYBLOCK
 62
     0
100
AcDbPoint
 10
324.10364
 20
33.757472
 30
0.0
  0
LINE
  5
F5D
100
AcDbEntity
  8
0
  6
BYBLOCK
 62
     0
100
AcDbLine
 10
322.95364
 20
34.671513
 30
0.0
 11
322.95364
 21
34.042035
 31
0.0
  0
LINE
  5
F5E
100
AcDbEntity
  8
0
  6
BYBLOCK
 62
     0
100
AcDbLine
 10
323.70364
 20
34.671513
 30
0.0
 11
323.70364
 21
34.042035
 31
0.0
  0
LINE
  5
F5F
100
AcDbEntity
  8
0
  6
BYBLOCK
 62
     0
100
AcDbLine
 10
323.10364
 20
34.057035
 30
0.0
 11
323.55364
 21
34.057035
 31
0.0
  0
SOLID
  5
F60
100
AcDbEntity
  8
0
  6
BYBLOCK
 62
     0
100
AcDbTrace
 10
323.10364
 20
34.082035
 30
0.0
 11
323.10364
 21
34.032035
 31
0.0
 12
322.95364
 22
34.057035
 32
0.0
 13
322.95364
 23
34.057035
 33
0.0
  0
SOLID
  5
F61
100
AcDbEntity
  8
0
  6
BYBLOCK
 62
     0
100
AcDbTrace
 10
323.55364
 20
34.082035
 30
0.0
 11
323.55364
 21
34.032035
 31
0.0
 12
323.70364
 22
34.057035
 32
0.0
 13
323.70364
 23
34.057035
 33
0.0
  0
MTEXT
  5
F62
100
AcDbEntity
  8
0
  6
BYBLOCK
 62
     0
100
AcDbMText
 10
323.32864
 20
34.132035
 30
0.0
 40
0.075
 41
0.0
 71
     5
 72
     1
  1
\A1;0.75
  7
ROMANC
  0
POINT
  5
F63
100
AcDbEntity
  8
DEFPOINTS
  6
BYBLOCK
 62
     0
100
AcDbPoint
 10
322.95364
 20
34.686513
 30
0.0
  0
POINT
  5
F64
100
AcDbEntity
  8
DEFPOINTS
  6
BYBLOCK
 62
     0
100
AcDbPoint
 10
323.70364
 20
34.686513
 30
0.0
  0
POINT
  5
F65
100
AcDbEntity
  8
DEFPOINTS
  6
BYBLOCK
 62
     0
100
AcDbPoint
 10
323.70364
 20
34.057035
 30
0.0
  0
LINE
  5
F66
100
AcDbEntity
  8
0
  6
BYBLOCK
 62
     0
100
AcDbLine
 10
323.70364
 20
34.671513
 30
0.0
 11
323.70364
 21
34.042035
 31
0.0
  0
LINE
  5
F67
100
AcDbEntity
  8
0
  6
BYBLOCK
 62
     0
100
AcDbLine
 10
324.10364
 20
34.671513
 30
0.0
 11
324.10364
 21
34.042035
 31
0.0
  0
LINE
  5
F68
100
AcDbEntity
  8
0
  6
BYBLOCK
 62
     0
100
AcDbLine
 10
323.85364
 20
34.057035
 30
0.0
 11
323.95364
 21
34.057035
 31
0.0
  0
SOLID
  5
F69
100
AcDbEntity
  8
0
  6
BYBLOCK
 62
     0
100
AcDbTrace
 10
323.85364
 20
34.082035
 30
0.0
 11
323.85364
 21
34.032035
 31
0.0
 12
323.70364
 22
34.057035
 32
0.0
 13
323.70364
 23
34.057035
 33
0.0
  0
SOLID
  5
F6A
100
AcDbEntity
  8
0
  6
BYBLOCK
 62
     0
100
AcDbTrace
 10
323.95364
 20
34.082035
 30
0.0
 11
323.95364
 21
34.032035
 31
0.0
 12
324.10364
 22
34.057035
 32
0.0
 13
324.10364
 23
34.057035
 33
0.0
  0
MTEXT
  5
F6B
100
AcDbEntity
  8
0
  6
BYBLOCK
 62
     0
100
AcDbMText
 10
323.90364
 20
34.132035
 30
0.0
 40
0.075
 41
0.0
 71
     5
 72
     1
  1
\A1;0.40
  7
ROMANC
  0
POINT
  5
F6C
100
AcDbEntity
  8
DEFPOINTS
  6
BYBLOCK
 62
     0
100
AcDbPoint
 10
323.70364
 20
34.686513
 30
0.0
  0
POINT
  5
F6D
100
AcDbEntity
  8
DEFPOINTS
  6
BYBLOCK
 62
     0
100
AcDbPoint
 10
324.10364
 20
34.686513
 30
0.0
  0
POINT
  5
F6E
100
AcDbEntity
  8
DEFPOINTS
  6
BYBLOCK
 62
     0
100
AcDbPoint
 10
324.10364
 20
34.057035
 30
0.0
  0
LINE
  5
F6F
100
AcDbEntity
  8
0
  6
BYBLOCK
 62
     0
100
AcDbLine
 10
323.55864
 20
36.186513
 30
0.0
 11
324.739624
 21
36.186513
 31
0.0
  0
LINE
  5
F70
100
AcDbEntity
  8
0
  6
BYBLOCK
 62
     0
100
AcDbLine
 10
324.186061
 20
34.287119
 30
0.0
 11
324.739624
 21
34.287119
 31
0.0
  0
LINE
  5
F71
100
AcDbEntity
  8
0
  6
BYBLOCK
 62
     0
100
AcDbLine
 10
324.724624
 20
36.036513
 30
0.0
 11
324.724624
 21
34.437119
 31
0.0
  0
SOLID
  5
F72
100
AcDbEntity
  8
0
  6
BYBLOCK
 62
     0
100
AcDbTrace
 10
324.699624
 20
36.036513
 30
0.0
 11
324.749624
 21
36.036513
 31
0.0
 12
324.724624
 22
36.186513
 32
0.0
 13
324.724624
 23
36.186513
 33
0.0
  0
SOLID
  5
F73
100
AcDbEntity
  8
0
  6
BYBLOCK
 62
     0
100
AcDbTrace
 10
324.699624
 20
34.437119
 30
0.0
 11
324.749624
 21
34.437119
 31
0.0
 12
324.724624
 22
34.287119
 32
0.0
 13
324.724624
 23
34.287119
 33
0.0
  0
MTEXT
  5
F74
100
AcDbEntity
  8
0
  6
BYBLOCK
 62
     0
100
AcDbMText
 10
324.649624
 20
35.236816
 30
0.0
 40
0.075
 41
0.0
 71
     5
 72
     1
  1
\A1;1.90
  7
ROMANC
 11
0.0
 21
1.0
 31
0.0
  0
POINT
  5
F75
100
AcDbEntity
  8
DEFPOINTS
  6
BYBLOCK
 62
     0
100
AcDbPoint
 10
323.54364
 20
36.186513
 30
0.0
  0
POINT
  5
F76
100
AcDbEntity
  8
DEFPOINTS
  6
BYBLOCK
 62
     0
100
AcDbPoint
 10
324.171061
 20
34.287119
 30
0.0
  0
POINT
  5
F77
100
AcDbEntity
  8
DEFPOINTS
  6
BYBLOCK
 62
     0
100
AcDbPoint
 10
324.724624
 20
34.287119
 30
0.0
  0
LINE
  5
F78
100
AcDbEntity
  8
0
  6
BYBLOCK
 62
     0
100
AcDbLine
 10
324.11864
 20
34.686513
 30
0.0
 11
324.420882
 21
34.686513
 31
0.0
  0
LINE
  5
F79
100
AcDbEntity
  8
0
  6
BYBLOCK
 62
     0
100
AcDbLine
 10
323.921239
 20
34.287119
 30
0.0
 11
324.420882
 21
34.287119
 31
0.0
  0
LINE
  5
F7A
100
AcDbEntity
  8
0
  6
BYBLOCK
 62
     0
100
AcDbLine
 10
324.405882
 20
34.536513
 30
0.0
 11
324.405882
 21
34.437119
 31
0.0
  0
SOLID
  5
F7B
100
AcDbEntity
  8
0
  6
BYBLOCK
 62
     0
100
AcDbTrace
 10
324.380882
 20
34.536513
 30
0.0
 11
324.430882
 21
34.536513
 31
0.0
 12
324.405882
 22
34.686513
 32
0.0
 13
324.405882
 23
34.686513
 33
0.0
  0
SOLID
  5
F7C
100
AcDbEntity
  8
0
  6
BYBLOCK
 62
     0
100
AcDbTrace
 10
324.380882
 20
34.437119
 30
0.0
 11
324.430882
 21
34.437119
 31
0.0
 12
324.405882
 22
34.287119
 32
0.0
 13
324.405882
 23
34.287119
 33
0.0
  0
MTEXT
  5
F7D
100
AcDbEntity
  8
0
  6
BYBLOCK
 62
     0
100
AcDbMText
 10
324.330882
 20
34.486816
 30
0.0
 40
0.075
 41
0.0
 71
     5
 72
     1
  1
\A1;0.40
  7
ROMANC
 11
0.0
 21
1.0
 31
0.0
  0
POINT
  5
F7E
100
AcDbEntity
  8
DEFPOINTS
  6
BYBLOCK
 62
     0
100
AcDbPoint
 10
324.10364
 20
34.686513
 30
0.0
  0
POINT
  5
F7F
100
AcDbEntity
  8
DEFPOINTS
  6
BYBLOCK
 62
     0
100
AcDbPoint
 10
323.906239
 20
34.287119
 30
0.0
  0
POINT
  5
F80
100
AcDbEntity
  8
DEFPOINTS
  6
BYBLOCK
 62
     0
100
AcDbPoint
 10
324.405882
 20
34.287119
 30
0.0
  0
LINE
  5
F81
100
AcDbEntity
  8
0
  6
BYBLOCK
 62
     0
100
AcDbLine
 10
323.54364
 20
36.186513
 30
0.0
 11
324.420882
 21
36.186513
 31
0.0
  0
LINE
  5
F82
100
AcDbEntity
  8
0
  6
BYBLOCK
 62
     0
100
AcDbLine
 10
324.11864
 20
35.686513
 30
0.0
 11
324.420882
 21
35.686513
 31
0.0
  0
LINE
  5
F83
100
AcDbEntity
  8
0
  6
BYBLOCK
 62
     0
100
AcDbLine
 10
324.405882
 20
36.036513
 30
0.0
 11
324.405882
 21
35.836513
 31
0.0
  0
SOLID
  5
F84
100
AcDbEntity
  8
0
  6
BYBLOCK
 62
     0
100
AcDbTrace
 10
324.380882
 20
36.036513
 30
0.0
 11
324.430882
 21
36.036513
 31
0.0
 12
324.405882
 22
36.186513
 32
0.0
 13
324.405882
 23
36.186513
 33
0.0
  0
SOLID
  5
F85
100
AcDbEntity
  8
0
  6
BYBLOCK
 62
     0
100
AcDbTrace
 10
324.380882
 20
35.836513
 30
0.0
 11
324.430882
 21
35.836513
 31
0.0
 12
324.405882
 22
35.686513
 32
0.0
 13
324.405882
 23
35.686513
 33
0.0
  0
MTEXT
  5
F86
100
AcDbEntity
  8
0
  6
BYBLOCK
 62
     0
100
AcDbMText
 10
324.330882
 20
35.936513
 30
0.0
 40
0.075
 41
0.0
 71
     5
 72
     1
  1
\A1;0.50
  7
ROMANC
 11
0.0
 21
1.0
 31
0.0
  0
POINT
  5
F87
100
AcDbEntity
  8
DEFPOINTS
  6
BYBLOCK
 62
     0
100
AcDbPoint
 10
323.52864
 20
36.186513
 30
0.0
  0
POINT
  5
F88
100
AcDbEntity
  8
DEFPOINTS
  6
BYBLOCK
 62
     0
100
AcDbPoint
 10
324.10364
 20
35.686513
 30
0.0
  0
POINT
  5
F89
100
AcDbEntity
  8
DEFPOINTS
  6
BYBLOCK
 62
     0
100
AcDbPoint
 10
324.405882
 20
35.686513
 30
0.0
  0
LINE
  5
F8A
100
AcDbEntity
  8
0
  6
BYBLOCK
 62
     0
100
AcDbLine
 10
324.11864
 20
35.686513
 30
0.0
 11
324.420882
 21
35.686513
 31
0.0
  0
LINE
  5
F8B
100
AcDbEntity
  8
0
  6
BYBLOCK
 62
     0
100
AcDbLine
 10
324.11864
 20
34.686513
 30
0.0
 11
324.420882
 21
34.686513
 31
0.0
  0
LINE
  5
F8C
100
AcDbEntity
  8
0
  6
BYBLOCK
 62
     0
100
AcDbLine
 10
324.405882
 20
35.536513
 30
0.0
 11
324.405882
 21
34.836513
 31
0.0
  0
SOLID
  5
F8D
100
AcDbEntity
  8
0
  6
BYBLOCK
 62
     0
100
AcDbTrace
 10
324.380882
 20
35.536513
 30
0.0
 11
324.430882
 21
35.536513
 31
0.0
 12
324.405882
 22
35.686513
 32
0.0
 13
324.405882
 23
35.686513
 33
0.0
  0
SOLID
  5
F8E
100
AcDbEntity
  8
0
  6
BYBLOCK
 62
     0
100
AcDbTrace
 10
324.380882
 20
34.836513
 30
0.0
 11
324.430882
 21
34.836513
 31
0.0
 12
324.405882
 22
34.686513
 32
0.0
 13
324.405882
 23
34.686513
 33
0.0
  0
MTEXT
  5
F8F
100
AcDbEntity
  8
0
  6
BYBLOCK
 62
     0
100
AcDbMText
 10
324.330882
 20
35.186513
 30
0.0
 40
0.075
 41
0.0
 71
     5
 72
     1
  1
\A1;1.00
  7
ROMANC
 11
0.0
 21
1.0
 31
0.0
  0
POINT
  5
F90
100
AcDbEntity
  8
DEFPOINTS
  6
BYBLOCK
 62
     0
100
AcDbPoint
 10
324.10364
 20
35.686513
 30
0.0
  0
POINT
  5
F91
100
AcDbEntity
  8
DEFPOINTS
  6
BYBLOCK
 62
     0
100
AcDbPoint
 10
324.10364
 20
34.686513
 30
0.0
  0
POINT
  5
F92
100
AcDbEntity
  8
DEFPOINTS
  6
BYBLOCK
 62
     0
100
AcDbPoint
 10
324.405882
 20
34.686513
 30
0.0
  0
LINE
  5
F93
100
AcDbEntity
  8
0
100
AcDbLine
 10
324.066205
 20
34.45351
 30
0.0
 11
324.085242
 21
34.518933
 31
0.0
  0
LINE
  5
F94
100
AcDbEntity
  8
0
100
AcDbLine
 10
324.085242
 20
34.518933
 30
0.0
 11
324.095961
 21
34.576738
 31
0.0
  0
LINE
  5
F95
100
AcDbEntity
  8
0
100
AcDbLine
 10
324.095961
 20
34.576738
 30
0.0
 11
324.102582
 21
34.645406
 31
0.0
  0
LINE
  5
F96
100
AcDbEntity
  8
0
100
AcDbLine
 10
324.102582
 20
34.645406
 30
0.0
 11
324.10364
 21
34.686513
 31
0.0
  0
LINE
  5
F97
100
AcDbEntity
  8
0
100
AcDbLine
 10
324.10364
 20
34.686513
 30
0.0
 11
324.10364
 21
35.686513
 31
0.0
  0
ARC
  5
F98
100
AcDbEntity
  8
0
100
AcDbCircle
 10
323.52864
 20
35.605888
 30
0.0
 40
0.580625
100
AcDbArc
 50
7.981826
 51
172.018174
  0
LINE
  5
F99
100
AcDbEntity
  8
0
100
AcDbLine
 10
322.95364
 20
35.686513
 30
0.0
 11
322.95364
 21
34.686513
 31
0.0
  0
LINE
  5
F9A
100
AcDbEntity
  8
0
100
AcDbLine
 10
322.95364
 20
34.686513
 30
0.0
 11
323.70364
 21
34.686513
 31
0.0
  0
LINE
  5
F9B
100
AcDbEntity
  8
0
100
AcDbLine
 10
323.70364
 20
34.686513
 30
0.0
 11
323.70504
 21
34.639276
 31
0.0
  0
LINE
  5
F9C
100
AcDbEntity
  8
0
100
AcDbLine
 10
323.70504
 20
34.639276
 30
0.0
 11
323.710267
 21
34.5844
 31
0.0
  0
LINE
  5
F9D
100
AcDbEntity
  8
0
100
AcDbLine
 10
323.710267
 20
34.5844
 30
0.0
 11
323.721051
 21
34.523283
 31
0.0
  0
LINE
  5
F9E
100
AcDbEntity
  8
0
100
AcDbLine
 10
323.721051
 20
34.523283
 30
0.0
 11
323.732783
 21
34.478593
 31
0.0
  0
LINE
  5
F9F
100
AcDbEntity
  8
0
100
AcDbLine
 10
323.732783
 20
34.478593
 30
0.0
 11
323.748338
 21
34.434472
 31
0.0
  0
LINE
  5
FA0
100
AcDbEntity
  8
0
100
AcDbLine
 10
323.748338
 20
34.434472
 30
0.0
 11
323.7702
 21
34.388562
 31
0.0
  0
LINE
  5
FA1
100
AcDbEntity
  8
0
100
AcDbLine
 10
323.7702
 20
34.388562
 30
0.0
 11
323.79583
 21
34.349604
 31
0.0
  0
LINE
  5
FA2
100
AcDbEntity
  8
0
100
AcDbLine
 10
323.79583
 20
34.349604
 30
0.0
 11
323.827093
 21
34.316971
 31
0.0
  0
LINE
  5
FA3
100
AcDbEntity
  8
0
100
AcDbLine
 10
323.827093
 20
34.316971
 30
0.0
 11
323.862521
 21
34.295059
 31
0.0
  0
LINE
  5
FA4
100
AcDbEntity
  8
0
100
AcDbLine
 10
323.862521
 20
34.295059
 30
0.0
 11
323.895548
 21
34.286841
 31
0.0
  0
LINE
  5
FA5
100
AcDbEntity
  8
0
100
AcDbLine
 10
323.895548
 20
34.286841
 30
0.0
 11
323.91693
 21
34.287398
 31
0.0
  0
LINE
  5
FA6
100
AcDbEntity
  8
0
100
AcDbLine
 10
323.91693
 20
34.287398
 30
0.0
 11
323.948999
 21
34.296936
 31
0.0
  0
LINE
  5
FA7
100
AcDbEntity
  8
0
100
AcDbLine
 10
323.948999
 20
34.296936
 30
0.0
 11
323.976557
 21
34.314045
 31
0.0
  0
LINE
  5
FA8
100
AcDbEntity
  8
0
100
AcDbLine
 10
323.976557
 20
34.314045
 30
0.0
 11
324.010651
 21
34.348586
 31
0.0
  0
LINE
  5
FA9
100
AcDbEntity
  8
0
100
AcDbLine
 10
324.010651
 20
34.348586
 30
0.0
 11
324.033266
 21
34.381901
 31
0.0
  0
LINE
  5
FAA
100
AcDbEntity
  8
0
100
AcDbLine
 10
324.033266
 20
34.381901
 30
0.0
 11
324.052059
 21
34.418395
 31
0.0
  0
LINE
  5
FAB
100
AcDbEntity
  8
0
100
AcDbLine
 10
324.052059
 20
34.418395
 30
0.0
 11
324.066205
 21
34.45351
 31
0.0
  0
ENDSEC
  0
SECTION
  2
OBJECTS
  0
DICTIONARY
  5
C
100
AcDbDictionary
  3
ACAD_GROUP
350
D
  3
ACAD_MLINESTYLE
350
1A
  3
ACDBVARIABLEDICTIONARY
350
25
  0
DICTIONARY
  5
D
102
{ACAD_REACTORS
330
C
102
}
100
AcDbDictionary
  0
DICTIONARY
  5
1A
102
{ACAD_REACTORS
330
C
102
}
100
AcDbDictionary
  3
STANDARD
350
1B
  0
DICTIONARY
  5
25
102
{ACAD_REACTORS
330
C
102
}
100
AcDbDictionary
  3
DIMADEC
350
26
  0
MLINESTYLE
  5
1B
102
{ACAD_REACTORS
330
1A
102
}
100
AcDbMlineStyle
  2
STANDARD
 70
     0
  3

 62
   256
 51
90.0
 52
90.0
 71
     2
 49
0.5
 62
   256
  6
BYLAYER
 49
-0.5
 62
   256
  6
BYLAYER
  0
DICTIONARYVAR
  5
26
102
{ACAD_REACTORS
330
25
102
}
100
DictionaryVariables
280
     0
  1
0
  0
ENDSEC
  0
EOF
