  0
SECTION
  2
HEADER
  9
$ACADVER
  1
AC1014
  9
$ACADMAINTVER
 70
     9
  9
$DWGCODEPAGE
  3
ANSI_1252
  9
$INSBASE
 10
0.0
 20
0.0
 30
0.0
  9
$EXTMIN
 10
281.3950692441339
 20
29.89657355491301
 30
-0.0015258207003583
  9
$EXTMAX
 10
291.8969308140734
 20
44.7474837405175
 30
0.0000000349246037
  9
$LIMMIN
 10
280.3959999999999
 20
28.89699999999999
  9
$LIMMAX
 10
292.8959999999999
 20
43.74699999999999
  9
$ORTHOMODE
 70
     1
  9
$REGENMODE
 70
     1
  9
$FILLMODE
 70
     1
  9
$QTEXTMODE
 70
     0
  9
$MIRRTEXT
 70
     1
  9
$DRAGMODE
 70
     2
  9
$LTSCALE
 40
1.0
  9
$OSMODE
 70
    41
  9
$ATTMODE
 70
     1
  9
$TEXTSIZE
 40
0.2
  9
$TRACEWID
 40
0.05
  9
$TEXTSTYLE
  7
STANDARD
  9
$CLAYER
  8
0
  9
$CELTYPE
  6
BYLAYER
  9
$CECOLOR
 62
   256
  9
$CELTSCALE
 40
1.0
  9
$DELOBJ
 70
     1
  9
$DISPSILH
 70
     0
  9
$DIMSCALE
 40
1.0
  9
$DIMASZ
 40
0.18
  9
$DIMEXO
 40
0.0625
  9
$DIMDLI
 40
0.38
  9
$DIMRND
 40
0.0
  9
$DIMDLE
 40
0.0
  9
$DIMEXE
 40
0.18
  9
$DIMTP
 40
0.0
  9
$DIMTM
 40
0.0
  9
$DIMTXT
 40
0.18
  9
$DIMCEN
 40
0.09
  9
$DIMTSZ
 40
0.0
  9
$DIMTOL
 70
     0
  9
$DIMLIM
 70
     0
  9
$DIMTIH
 70
     1
  9
$DIMTOH
 70
     1
  9
$DIMSE1
 70
     0
  9
$DIMSE2
 70
     0
  9
$DIMTAD
 70
     0
  9
$DIMZIN
 70
     0
  9
$DIMBLK
  1

  9
$DIMASO
 70
     1
  9
$DIMSHO
 70
     1
  9
$DIMPOST
  1

  9
$DIMAPOST
  1

  9
$DIMALT
 70
     0
  9
$DIMALTD
 70
     2
  9
$DIMALTF
 40
25.4
  9
$DIMLFAC
 40
1.0
  9
$DIMTOFL
 70
     0
  9
$DIMTVP
 40
0.0
  9
$DIMTIX
 70
     0
  9
$DIMSOXD
 70
     0
  9
$DIMSAH
 70
     0
  9
$DIMBLK1
  1

  9
$DIMBLK2
  1

  9
$DIMSTYLE
  2
STANDARD
  9
$DIMCLRD
 70
     0
  9
$DIMCLRE
 70
     0
  9
$DIMCLRT
 70
     0
  9
$DIMTFAC
 40
1.0
  9
$DIMGAP
 40
0.09
  9
$DIMJUST
 70
     0
  9
$DIMSD1
 70
     0
  9
$DIMSD2
 70
     0
  9
$DIMTOLJ
 70
     1
  9
$DIMTZIN
 70
     0
  9
$DIMALTZ
 70
     0
  9
$DIMALTTZ
 70
     0
  9
$DIMFIT
 70
     3
  9
$DIMUPT
 70
     0
  9
$DIMUNIT
 70
     2
  9
$DIMDEC
 70
     4
  9
$DIMTDEC
 70
     4
  9
$DIMALTU
 70
     2
  9
$DIMALTTD
 70
     2
  9
$DIMTXSTY
  7
STANDARD
  9
$DIMAUNIT
 70
     0
  9
$LUNITS
 70
     2
  9
$LUPREC
 70
     4
  9
$SKETCHINC
 40
0.1
  9
$FILLETRAD
 40
0.0
  9
$AUNITS
 70
     0
  9
$AUPREC
 70
     0
  9
$MENU
  1
acad
  9
$ELEVATION
 40
0.0
  9
$PELEVATION
 40
0.0
  9
$THICKNESS
 40
0.0
  9
$LIMCHECK
 70
     0
  9
$BLIPMODE
 70
     0
  9
$CHAMFERA
 40
0.0
  9
$CHAMFERB
 40
0.0
  9
$CHAMFERC
 40
0.0
  9
$CHAMFERD
 40
0.0
  9
$SKPOLY
 70
     0
  9
$TDCREATE
 40
2448315.373408102
  9
$TDUPDATE
 40
2451795.406576423
  9
$TDINDWG
 40
0.0455339815
  9
$TDUSRTIMER
 40
0.0455040856
  9
$USRTIMER
 70
     1
  9
$ANGBASE
 50
0.0
  9
$ANGDIR
 70
     0
  9
$PDMODE
 70
     0
  9
$PDSIZE
 40
0.0
  9
$PLINEWID
 40
0.0
  9
$COORDS
 70
     0
  9
$SPLFRAME
 70
     0
  9
$SPLINETYPE
 70
     6
  9
$SPLINESEGS
 70
     8
  9
$ATTDIA
 70
     0
  9
$ATTREQ
 70
     1
  9
$HANDLING
 70
 10241
  9
$HANDSEED
  5
435
  9
$SURFTAB1
 70
     6
  9
$SURFTAB2
 70
     6
  9
$SURFTYPE
 70
     6
  9
$SURFU
 70
     6
  9
$SURFV
 70
     6
  9
$UCSNAME
  2

  9
$UCSORG
 10
0.0
 20
0.0
 30
0.0
  9
$UCSXDIR
 10
1.0
 20
0.0
 30
0.0
  9
$UCSYDIR
 10
0.0
 20
1.0
 30
0.0
  9
$PUCSNAME
  2

  9
$PUCSORG
 10
0.0
 20
0.0
 30
0.0
  9
$PUCSXDIR
 10
1.0
 20
0.0
 30
0.0
  9
$PUCSYDIR
 10
0.0
 20
1.0
 30
0.0
  9
$USERI1
 70
     0
  9
$USERI2
 70
     0
  9
$USERI3
 70
     0
  9
$USERI4
 70
     0
  9
$USERI5
 70
     0
  9
$USERR1
 40
0.0
  9
$USERR2
 40
0.0
  9
$USERR3
 40
0.0
  9
$USERR4
 40
0.0
  9
$USERR5
 40
0.0
  9
$WORLDVIEW
 70
     1
  9
$SHADEDGE
 70
     3
  9
$SHADEDIF
 70
    70
  9
$TILEMODE
 70
     1
  9
$MAXACTVP
 70
    16
  9
$PINSBASE
 10
0.0
 20
0.0
 30
0.0
  9
$PLIMCHECK
 70
     0
  9
$PEXTMIN
 10
0.3356100001950608
 20
0.467916977571349
 30
0.0
  9
$PEXTMAX
 10
199.6258939823488
 20
286.3192515252361
 30
0.0
  9
$PLIMMIN
 10
-5.027083396911621
 20
-5.111741065979003
  9
$PLIMMAX
 10
204.9885873794555
 20
291.8989095687866
  9
$UNITMODE
 70
     0
  9
$VISRETAIN
 70
     0
  9
$PLINEGEN
 70
     0
  9
$PSLTSCALE
 70
     1
  9
$TREEDEPTH
 70
  3020
  9
$PICKSTYLE
 70
     1
  9
$CMLSTYLE
  2
STANDARD
  9
$CMLJUST
 70
     0
  9
$CMLSCALE
 40
1.0
  9
$PROXYGRAPHICS
 70
     1
  9
$MEASUREMENT
 70
     0
  0
ENDSEC
  0
SECTION
  2
CLASSES
  0
CLASS
  1
ACDBDICTIONARYWDFLT
  2
AcDbDictionaryWithDefault
  3
AutoCAD 2000
 90
        0
280
     0
281
     0
  0
CLASS
  1
ACDBPLACEHOLDER
  2
AcDbPlaceHolder
  3
AutoCAD 2000
 90
        0
280
     0
281
     0
  0
CLASS
  1
LAYOUT
  2
AcDbLayout
  3
AutoCAD 2000
 90
        0
280
     0
281
     0
  0
CLASS
  1
LONG_TRANSACTION
  2
AcDbLongTransaction
  3
AutoCAD 2000
 90
        0
280
     0
281
     0
  0
CLASS
  1
LWPOLYLINE
  2
AcDbPolyline
  3
AutoCAD 2000
 90
        0
280
     0
281
     1
  0
CLASS
  1
HATCH
  2
AcDbHatch
  3
AutoCAD 2000
 90
        0
280
     0
281
     1
  0
CLASS
  1
XRECORD
  2
AcDbXrecord
  3
AutoCAD 2000
 90
        0
280
     0
281
     0
  0
CLASS
  1
LONG_TRANSACTION
  2
AcDbLongTransaction
  3
AutoCAD 2000
 90
        0
280
     0
281
     0
  0
CLASS
  1
LWPOLYLINE
  2
AcDbPolyline
  3
AutoCAD 2000
 90
        0
280
     0
281
     1
  0
CLASS
  1
HATCH
  2
AcDbHatch
  3
AutoCAD 2000
 90
        0
280
     0
281
     1
  0
CLASS
  1
XRECORD
  2
AcDbXrecord
  3
AutoCAD 2000
 90
        0
280
     0
281
     0
  0
ENDSEC
  0
SECTION
  2
TABLES
  0
TABLE
  2
VPORT
  5
8
330
0
100
AcDbSymbolTable
 70
    13
  0
VPORT
  5
412
330
8
100
AcDbSymbolTableRecord
100
AcDbViewportTableRecord
  2
*ACTIVE
 70
     0
 10
0.0
 20
0.0
 11
1.0
 21
1.0
 12
286.6460000291037
 22
37.32202864771525
 13
0.0
 23
0.0
 14
1.0
 24
1.0
 15
0.0
 25
0.0
 16
0.0
 26
0.0
 36
1.0
 17
0.0
 27
0.0
 37
0.0
 40
14.99212327770216
 41
1.403174603174603
 42
50.0
 43
0.0
 44
0.0
 50
0.0
 51
0.0
 71
     0
 72
   100
 73
     1
 74
     1
 75
     0
 76
     0
 77
     0
 78
     0
  0
ENDTAB
  0
TABLE
  2
LTYPE
  5
5
330
0
100
AcDbSymbolTable
 70
     1
  0
LTYPE
  5
13
330
5
100
AcDbSymbolTableRecord
100
AcDbLinetypeTableRecord
  2
BYBLOCK
 70
     0
  3

 72
    65
 73
     0
 40
0.0
  0
LTYPE
  5
14
330
5
100
AcDbSymbolTableRecord
100
AcDbLinetypeTableRecord
  2
BYLAYER
 70
     0
  3

 72
    65
 73
     0
 40
0.0
  0
LTYPE
  5
15
330
5
100
AcDbSymbolTableRecord
100
AcDbLinetypeTableRecord
  2
CONTINUOUS
 70
     0
  3
Solid line
 72
    65
 73
     0
 40
0.0
  0
ENDTAB
  0
TABLE
  2
LAYER
  5
2
330
0
100
AcDbSymbolTable
 70
     8
  0
LAYER
  5
10
330
2
100
AcDbSymbolTableRecord
100
AcDbLayerTableRecord
  2
0
 70
     0
 62
     7
  6
CONTINUOUS
  0
LAYER
  5
22
330
2
100
AcDbSymbolTableRecord
100
AcDbLayerTableRecord
  2
1
 70
     0
 62
     7
  6
CONTINUOUS
  0
LAYER
  5
23
330
2
100
AcDbSymbolTableRecord
100
AcDbLayerTableRecord
  2
7
 70
     0
 62
     7
  6
CONTINUOUS
  0
LAYER
  5
24
330
2
100
AcDbSymbolTableRecord
100
AcDbLayerTableRecord
  2
8
 70
     0
 62
     7
  6
CONTINUOUS
  0
LAYER
  5
25
330
2
100
AcDbSymbolTableRecord
100
AcDbLayerTableRecord
  2
9
 70
     0
 62
     7
  6
CONTINUOUS
  0
LAYER
  5
26
330
2
100
AcDbSymbolTableRecord
100
AcDbLayerTableRecord
  2
22
 70
     0
 62
     7
  6
CONTINUOUS
  0
LAYER
  5
27
330
2
100
AcDbSymbolTableRecord
100
AcDbLayerTableRecord
  2
25
 70
     0
 62
     7
  6
CONTINUOUS
  0
LAYER
  5
7F
330
2
100
AcDbSymbolTableRecord
100
AcDbLayerTableRecord
  2
DEFPOINTS
 70
     0
 62
     7
  6
CONTINUOUS
  0
ENDTAB
  0
TABLE
  2
STYLE
  5
3
330
0
100
AcDbSymbolTable
 70
     2
  0
STYLE
  5
11
330
3
100
AcDbSymbolTableRecord
100
AcDbTextStyleTableRecord
  2
STANDARD
 70
     0
 40
0.0
 41
1.0
 50
0.0
 71
     0
 42
0.2
  3
txt
  4

  0
STYLE
  5
28
330
3
100
AcDbSymbolTableRecord
100
AcDbTextStyleTableRecord
  2
ROMANC
 70
     0
 40
0.0
 41
1.0
 50
0.0
 71
     0
 42
0.2
  3
ROMANC
  4

  0
ENDTAB
  0
TABLE
  2
VIEW
  5
6
330
0
100
AcDbSymbolTable
 70
     0
  0
ENDTAB
  0
TABLE
  2
UCS
  5
7
330
0
100
AcDbSymbolTable
 70
     0
  0
ENDTAB
  0
TABLE
  2
APPID
  5
9
330
0
100
AcDbSymbolTable
 70
     1
  0
APPID
  5
12
330
9
100
AcDbSymbolTableRecord
100
AcDbRegAppTableRecord
  2
ACAD
 70
     0
  0
ENDTAB
  0
TABLE
  2
DIMSTYLE
  5
A
330
0
100
AcDbSymbolTable
 70
     1
  0
DIMSTYLE
105
7A
102
{ACAD_REACTORS
330
E4
330
D5
330
C7
330
15D
330
14F
330
101
330
1B7
330
1C5
330
249
330
283
330
261
330
23B
330
22D
330
211
330
21F
330
2DF
330
2C3
330
2D1
330
2EE
330
30A
330
2FC
330
376
330
384
330
393
330
3B5
330
3C3
330
3D1
330
3DF
102
}
330
A
100
AcDbSymbolTableRecord
100
AcDbDimStyleTableRecord
  2
STANDARD
 70
     0
  3

  4

  5

  6

  7

 40
1.0
 41
0.18
 42
0.0625
 43
0.38
 44
0.18
 45
0.0
 46
0.0
 47
0.0
 48
0.0
140
0.18
141
0.09
142
0.0
143
25.4
144
1.0
145
0.0
146
1.0
147
0.09
 71
     0
 72
     0
 73
     1
 74
     1
 75
     0
 76
     0
 77
     0
 78
     0
170
     0
171
     2
172
     0
173
     0
174
     0
175
     0
176
     0
177
     0
178
     0
270
     2
271
     4
272
     4
273
     2
274
     2
340
11
275
     0
280
     0
281
     0
282
     0
283
     1
284
     0
285
     0
286
     0
287
     3
288
     0
  0
ENDTAB
  0
TABLE
  2
BLOCK_RECORD
  5
1
330
0
100
AcDbSymbolTable
 70
    29
  0
BLOCK_RECORD
  5
1E
102
{ACAD_XDICTIONARY
360
1AC
102
}
330
1
100
AcDbSymbolTableRecord
100
AcDbBlockTableRecord
  2
*MODEL_SPACE
  0
BLOCK_RECORD
  5
1A
102
{ACAD_XDICTIONARY
360
1AA
102
}
330
1
100
AcDbSymbolTableRecord
100
AcDbBlockTableRecord
  2
*PAPER_SPACE
  0
BLOCK_RECORD
  5
C8
330
1
100
AcDbSymbolTableRecord
100
AcDbBlockTableRecord
  2
*D0
  0
BLOCK_RECORD
  5
D6
330
1
100
AcDbSymbolTableRecord
100
AcDbBlockTableRecord
  2
*D1
  0
BLOCK_RECORD
  5
E5
330
1
100
AcDbSymbolTableRecord
100
AcDbBlockTableRecord
  2
*D2
  0
BLOCK_RECORD
  5
F3
330
1
100
AcDbSymbolTableRecord
100
AcDbBlockTableRecord
  2
*D3
  0
BLOCK_RECORD
  5
102
330
1
100
AcDbSymbolTableRecord
100
AcDbBlockTableRecord
  2
*D4
  0
BLOCK_RECORD
  5
150
330
1
100
AcDbSymbolTableRecord
100
AcDbBlockTableRecord
  2
*D5
  0
BLOCK_RECORD
  5
15E
330
1
100
AcDbSymbolTableRecord
100
AcDbBlockTableRecord
  2
*D6
  0
BLOCK_RECORD
  5
1B8
330
1
100
AcDbSymbolTableRecord
100
AcDbBlockTableRecord
  2
*D7
  0
BLOCK_RECORD
  5
1C6
330
1
100
AcDbSymbolTableRecord
100
AcDbBlockTableRecord
  2
*D8
  0
BLOCK_RECORD
  5
212
330
1
100
AcDbSymbolTableRecord
100
AcDbBlockTableRecord
  2
*D9
  0
BLOCK_RECORD
  5
220
330
1
100
AcDbSymbolTableRecord
100
AcDbBlockTableRecord
  2
*D10
  0
BLOCK_RECORD
  5
22E
330
1
100
AcDbSymbolTableRecord
100
AcDbBlockTableRecord
  2
*D11
  0
BLOCK_RECORD
  5
23C
330
1
100
AcDbSymbolTableRecord
100
AcDbBlockTableRecord
  2
*D12
  0
BLOCK_RECORD
  5
24A
330
1
100
AcDbSymbolTableRecord
100
AcDbBlockTableRecord
  2
*D13
  0
BLOCK_RECORD
  5
262
330
1
100
AcDbSymbolTableRecord
100
AcDbBlockTableRecord
  2
*D14
  0
BLOCK_RECORD
  5
284
330
1
100
AcDbSymbolTableRecord
100
AcDbBlockTableRecord
  2
*D15
  0
BLOCK_RECORD
  5
2C4
330
1
100
AcDbSymbolTableRecord
100
AcDbBlockTableRecord
  2
*D16
  0
BLOCK_RECORD
  5
2D2
330
1
100
AcDbSymbolTableRecord
100
AcDbBlockTableRecord
  2
*D17
  0
BLOCK_RECORD
  5
2E0
330
1
100
AcDbSymbolTableRecord
100
AcDbBlockTableRecord
  2
*D18
  0
BLOCK_RECORD
  5
2EF
330
1
100
AcDbSymbolTableRecord
100
AcDbBlockTableRecord
  2
*D19
  0
BLOCK_RECORD
  5
2FD
330
1
100
AcDbSymbolTableRecord
100
AcDbBlockTableRecord
  2
*D20
  0
BLOCK_RECORD
  5
30B
330
1
100
AcDbSymbolTableRecord
100
AcDbBlockTableRecord
  2
*D21
  0
BLOCK_RECORD
  5
377
330
1
100
AcDbSymbolTableRecord
100
AcDbBlockTableRecord
  2
*D22
  0
BLOCK_RECORD
  5
385
330
1
100
AcDbSymbolTableRecord
100
AcDbBlockTableRecord
  2
*D23
  0
BLOCK_RECORD
  5
394
330
1
100
AcDbSymbolTableRecord
100
AcDbBlockTableRecord
  2
*D24
  0
BLOCK_RECORD
  5
3B6
330
1
100
AcDbSymbolTableRecord
100
AcDbBlockTableRecord
  2
*D25
  0
BLOCK_RECORD
  5
3C4
330
1
100
AcDbSymbolTableRecord
100
AcDbBlockTableRecord
  2
*D26
  0
BLOCK_RECORD
  5
3D2
330
1
100
AcDbSymbolTableRecord
100
AcDbBlockTableRecord
  2
*D27
  0
BLOCK_RECORD
  5
3E0
330
1
100
AcDbSymbolTableRecord
100
AcDbBlockTableRecord
  2
*D28
  0
ENDTAB
  0
ENDSEC
  0
SECTION
  2
BLOCKS
  0
BLOCK
  5
1F
330
1E
100
AcDbEntity
  8
0
100
AcDbBlockBegin
  2
*MODEL_SPACE
 70
     0
 10
0.0
 20
0.0
 30
0.0
  3
*MODEL_SPACE
  1

  0
ENDBLK
  5
20
330
1E
100
AcDbEntity
  8
0
100
AcDbBlockEnd
  0
BLOCK
  5
1B
330
1A
100
AcDbEntity
 67
     1
  8
0
100
AcDbBlockBegin
  2
*PAPER_SPACE
 70
     0
 10
0.0
 20
0.0
 30
0.0
  3
*PAPER_SPACE
  1

  0
ENDBLK
  5
1C
330
1A
100
AcDbEntity
 67
     1
  8
0
100
AcDbBlockEnd
  0
BLOCK
  5
D3
330
C8
100
AcDbEntity
  8
0
100
AcDbBlockBegin
  2
*D0
 70
     1
 10
0.0
 20
0.0
 30
0.0
  3
*D0
  1

  0
LINE
  5
17F
330
C8
100
AcDbEntity
  8
0
 62
     0
100
AcDbLine
 10
286.1242114476576
 20
36.24736563458589
 30
0.0
 11
288.1582790844174
 21
36.24736563458589
 31
0.0
  0
LINE
  5
180
330
C8
100
AcDbEntity
  8
0
 62
     0
100
AcDbLine
 10
286.1242114476576
 20
34.62736563458587
 30
0.0
 11
288.1582790844174
 21
34.62736563458587
 31
0.0
  0
LINE
  5
181
330
C8
100
AcDbEntity
  8
0
 62
     0
100
AcDbLine
 10
287.9782790844175
 20
36.06736563458589
 30
0.0
 11
287.9782790844175
 21
35.612166902036
 31
0.0
  0
LINE
  5
182
330
C8
100
AcDbEntity
  8
0
 62
     0
100
AcDbLine
 10
287.9782790844175
 20
34.80736563458587
 30
0.0
 11
287.9782790844175
 21
35.25216690203601
 31
0.0
  0
SOLID
  5
183
330
C8
100
AcDbEntity
  8
0
 62
     0
100
AcDbTrace
 10
287.9482790844174
 20
36.06736563458589
 30
0.0
 11
288.0082790844173
 21
36.06736563458589
 31
0.0
 12
287.9782790844175
 22
36.24736563458589
 32
0.0
 13
287.9782790844175
 23
36.24736563458589
 33
0.0
  0
SOLID
  5
184
330
C8
100
AcDbEntity
  8
0
 62
     0
100
AcDbTrace
 10
287.9482790844174
 20
34.80736563458587
 30
0.0
 11
288.0082790844173
 21
34.80736563458587
 31
0.0
 12
287.9782790844175
 22
34.62736563458587
 32
0.0
 13
287.9782790844175
 23
34.62736563458587
 33
0.0
  0
MTEXT
  5
185
330
C8
100
AcDbEntity
  8
0
 62
     0
100
AcDbMText
 10
287.9782790844175
 20
35.43216690203604
 30
0.0
 40
0.18
 41
0.0
 71
     5
 72
     1
  1
\A1;1.6200
1001
ACAD
1000
MTEXTBEGIN
1070
    73
1070
     1
1070
    44
1040
1.0
1070
    74
1070
     0
1000
MTEXTEND
1000
MTEXTBEGIN
1070
    73
1070
     1
1070
    44
1040
1.0
1070
    74
1070
     0
1000
MTEXTEND
  0
POINT
  5
186
330
C8
100
AcDbEntity
  8
DEFPOINTS
 62
     0
100
AcDbPoint
 10
286.0617114476576
 20
36.24736563458589
 30
0.0
  0
POINT
  5
187
330
C8
100
AcDbEntity
  8
DEFPOINTS
 62
     0
100
AcDbPoint
 10
286.0617114476576
 20
34.62736563458587
 30
0.0
  0
POINT
  5
188
330
C8
100
AcDbEntity
  8
DEFPOINTS
 62
     0
100
AcDbPoint
 10
287.9782790844175
 20
34.62736563458587
 30
0.0
  0
ENDBLK
  5
D4
330
C8
100
AcDbEntity
  8
0
100
AcDbBlockEnd
  0
BLOCK
  5
E2
330
D6
100
AcDbEntity
  8
0
100
AcDbBlockBegin
  2
*D1
 70
     1
 10
0.0
 20
0.0
 30
0.0
  3
*D1
  1

  0
LINE
  5
144
330
D6
100
AcDbEntity
  8
0
 62
     0
100
AcDbLine
 10
286.5742114476576
 20
34.77736563458589
 30
0.0
 11
287.8483853356226
 21
34.77736563458589
 31
0.0
  0
LINE
  5
145
330
D6
100
AcDbEntity
  8
0
 62
     0
100
AcDbLine
 10
286.1867114476576
 20
34.62736563458587
 30
0.0
 11
287.8483853356226
 21
34.62736563458587
 31
0.0
  0
LINE
  5
146
330
D6
100
AcDbEntity
  8
0
 62
     0
100
AcDbLine
 10
287.6683853356226
 20
34.95736563458589
 30
0.0
 11
287.6683853356226
 21
35.13736563458589
 31
0.0
  0
LINE
  5
147
330
D6
100
AcDbEntity
  8
0
 62
     0
100
AcDbLine
 10
287.6683853356226
 20
34.44736563458587
 30
0.0
 11
287.6683853356226
 21
34.26736563458582
 31
0.0
  0
LINE
  5
148
330
D6
100
AcDbEntity
  8
0
 62
     0
100
AcDbLine
 10
287.6683853356226
 20
34.26736563458582
 30
0.0
 11
287.4883853356226
 21
34.26736563458582
 31
0.0
  0
SOLID
  5
149
330
D6
100
AcDbEntity
  8
0
 62
     0
100
AcDbTrace
 10
287.6383853356226
 20
34.95736563458589
 30
0.0
 11
287.6983853356226
 21
34.95736563458589
 31
0.0
 12
287.6683853356226
 22
34.77736563458589
 32
0.0
 13
287.6683853356226
 23
34.77736563458589
 33
0.0
  0
SOLID
  5
14A
330
D6
100
AcDbEntity
  8
0
 62
     0
100
AcDbTrace
 10
287.6383853356226
 20
34.44736563458587
 30
0.0
 11
287.6983853356226
 21
34.44736563458587
 31
0.0
 12
287.6683853356226
 22
34.62736563458587
 32
0.0
 13
287.6683853356226
 23
34.62736563458587
 33
0.0
  0
MTEXT
  5
14B
330
D6
100
AcDbEntity
  8
0
 62
     0
100
AcDbMText
 10
287.0233853356226
 20
34.26736563458587
 30
0.0
 40
0.18
 41
0.0
 71
     5
 72
     1
  1
\A1;0.1500
1001
ACAD
1000
MTEXTBEGIN
1070
    73
1070
     1
1070
    44
1040
1.0
1070
    74
1070
     0
1000
MTEXTEND
1000
MTEXTBEGIN
1070
    73
1070
     1
1070
    44
1040
1.0
1070
    74
1070
     0
1000
MTEXTEND
  0
POINT
  5
14C
330
D6
100
AcDbEntity
  8
DEFPOINTS
 62
     0
100
AcDbPoint
 10
286.5117114476575
 20
34.77736563458589
 30
0.0
  0
POINT
  5
14D
330
D6
100
AcDbEntity
  8
DEFPOINTS
 62
     0
100
AcDbPoint
 10
286.1242114476576
 20
34.62736563458587
 30
0.0
  0
POINT
  5
14E
330
D6
100
AcDbEntity
  8
DEFPOINTS
 62
     0
100
AcDbPoint
 10
287.6683853356226
 20
34.62736563458587
 30
0.0
  0
ENDBLK
  5
E3
330
D6
100
AcDbEntity
  8
0
100
AcDbBlockEnd
  0
BLOCK
  5
F0
330
E5
100
AcDbEntity
  8
0
100
AcDbBlockBegin
  2
*D2
 70
     1
 10
0.0
 20
0.0
 30
0.0
  3
*D2
  1

  0
LINE
  5
110
330
E5
100
AcDbEntity
  8
0
 62
     0
100
AcDbLine
 10
285.5617114476576
 20
35.73986563458588
 30
0.0
 11
285.5617114476576
 21
36.95556457024231
 31
0.0
  0
LINE
  5
111
330
E5
100
AcDbEntity
  8
0
 62
     0
100
AcDbLine
 10
286.5617114476576
 20
35.73986563458642
 30
0.0
 11
286.5617114476576
 21
36.95556457024231
 31
0.0
  0
LINE
  5
112
330
E5
100
AcDbEntity
  8
0
 62
     0
100
AcDbLine
 10
285.3817114476576
 20
36.77556457024229
 30
0.0
 11
285.2017114476576
 21
36.77556457024229
 31
0.0
  0
LINE
  5
113
330
E5
100
AcDbEntity
  8
0
 62
     0
100
AcDbLine
 10
286.7417114476576
 20
36.77556457024229
 30
0.0
 11
286.9217114476576
 21
36.77556457024229
 31
0.0
  0
SOLID
  5
114
330
E5
100
AcDbEntity
  8
0
 62
     0
100
AcDbTrace
 10
285.3817114476576
 20
36.80556457024231
 30
0.0
 11
285.3817114476576
 21
36.74556457024229
 31
0.0
 12
285.5617114476576
 22
36.77556457024229
 32
0.0
 13
285.5617114476576
 23
36.77556457024229
 33
0.0
  0
SOLID
  5
115
330
E5
100
AcDbEntity
  8
0
 62
     0
100
AcDbTrace
 10
286.7417114476576
 20
36.80556457024231
 30
0.0
 11
286.7417114476576
 21
36.74556457024229
 31
0.0
 12
286.5617114476576
 22
36.77556457024229
 32
0.0
 13
286.5617114476576
 23
36.77556457024229
 33
0.0
  0
MTEXT
  5
116
330
E5
100
AcDbEntity
  8
0
 62
     0
100
AcDbMText
 10
286.0617114476576
 20
36.77556457024229
 30
0.0
 40
0.18
 41
0.0
 71
     5
 72
     1
  1
\A1;1.0000
1001
ACAD
1000
MTEXTBEGIN
1070
    73
1070
     1
1070
    44
1040
1.0
1070
    74
1070
     0
1000
MTEXTEND
1000
MTEXTBEGIN
1070
    73
1070
     1
1070
    44
1040
1.0
1070
    74
1070
     0
1000
MTEXTEND
  0
POINT
  5
117
330
E5
100
AcDbEntity
  8
DEFPOINTS
 62
     0
100
AcDbPoint
 10
285.5617114476576
 20
35.67736563458588
 30
0.0
  0
POINT
  5
118
330
E5
100
AcDbEntity
  8
DEFPOINTS
 62
     0
100
AcDbPoint
 10
286.5617114476576
 20
35.67736563458643
 30
0.0
  0
POINT
  5
119
330
E5
100
AcDbEntity
  8
DEFPOINTS
 62
     0
100
AcDbPoint
 10
286.5617114476576
 20
36.77556457024229
 30
0.0
  0
ENDBLK
  5
F1
330
E5
100
AcDbEntity
  8
0
100
AcDbBlockEnd
  0
BLOCK
  5
FF
330
F3
100
AcDbEntity
  8
0
100
AcDbBlockBegin
  2
*D3
 70
     1
 10
0.0
 20
0.0
 30
0.0
  3
*D3
  1

  0
LINE
  5
F4
330
F3
100
AcDbEntity
  8
0
 62
     0
100
AcDbLine
 10
285.8105925973381
 20
34.3259387771153
 30
0.0
 11
285.0996894655242
 21
34.3259387771153
 31
0.0
  0
LINE
  5
F5
330
F3
100
AcDbEntity
  8
0
 62
     0
100
AcDbLine
 10
285.7605925973383
 20
35.22593877711502
 30
0.0
 11
285.0996894655242
 21
35.22593877711502
 31
0.0
  0
LINE
  5
F6
330
F3
100
AcDbEntity
  8
0
 62
     0
100
AcDbLine
 10
285.2796894655241
 20
34.5059387771153
 30
0.0
 11
285.2796894655241
 21
35.04593877711501
 31
0.0
  0
LINE
  5
F7
330
F3
100
AcDbEntity
  8
0
 62
     0
100
AcDbLine
 10
285.2796894655241
 20
35.22593877711502
 30
0.0
 11
285.2796894655241
 21
35.40593877711502
 31
0.0
  0
LINE
  5
F8
330
F3
100
AcDbEntity
  8
0
 62
     0
100
AcDbLine
 10
285.2796894655241
 20
35.40593877711502
 30
0.0
 11
285.4596894655241
 21
35.40593877711502
 31
0.0
  0
SOLID
  5
F9
330
F3
100
AcDbEntity
  8
0
 62
     0
100
AcDbTrace
 10
285.2496894655241
 20
34.5059387771153
 30
0.0
 11
285.3096894655241
 21
34.5059387771153
 31
0.0
 12
285.2796894655241
 22
34.3259387771153
 32
0.0
 13
285.2796894655241
 23
34.3259387771153
 33
0.0
  0
SOLID
  5
FA
330
F3
100
AcDbEntity
  8
0
 62
     0
100
AcDbTrace
 10
285.2496894655241
 20
35.04593877711501
 30
0.0
 11
285.3096894655241
 21
35.04593877711501
 31
0.0
 12
285.2796894655241
 22
35.22593877711502
 32
0.0
 13
285.2796894655241
 23
35.22593877711502
 33
0.0
  0
MTEXT
  5
FB
330
F3
100
AcDbEntity
  8
0
 62
     0
100
AcDbMText
 10
285.9396894655241
 20
35.40593877711506
 30
0.0
 40
0.18
 41
0.0
 71
     5
 72
     1
  1
\A1;0.9000
1001
ACAD
1000
MTEXTBEGIN
1070
    73
1070
     1
1070
    44
1040
1.0
1070
    74
1070
     0
1000
MTEXTEND
1000
MTEXTBEGIN
1070
    73
1070
     1
1070
    44
1040
1.0
1070
    74
1070
     0
1000
MTEXTEND
  0
POINT
  5
FC
330
F3
100
AcDbEntity
  8
DEFPOINTS
 62
     0
100
AcDbPoint
 10
285.8730925973381
 20
34.3259387771153
 30
0.0
  0
POINT
  5
FD
330
F3
100
AcDbEntity
  8
DEFPOINTS
 62
     0
100
AcDbPoint
 10
285.8230925973383
 20
35.22593877711502
 30
0.0
  0
POINT
  5
FE
330
F3
100
AcDbEntity
  8
DEFPOINTS
 62
     0
100
AcDbPoint
 10
285.2796894655241
 20
35.22593877711502
 30
0.0
  0
ENDBLK
  5
100
330
F3
100
AcDbEntity
  8
0
100
AcDbBlockEnd
  0
BLOCK
  5
10E
330
102
100
AcDbEntity
  8
0
100
AcDbBlockBegin
  2
*D4
 70
     1
 10
0.0
 20
0.0
 30
0.0
  3
*D4
  1

  0
LINE
  5
12F
330
102
100
AcDbEntity
  8
0
 62
     0
100
AcDbLine
 10
285.4992114476576
 20
35.67736563458588
 30
0.0
 11
284.8683083158434
 21
35.67736563458588
 31
0.0
  0
LINE
  5
130
330
102
100
AcDbEntity
  8
0
 62
     0
100
AcDbLine
 10
285.5492114476577
 20
34.77736563458589
 30
0.0
 11
284.8683083158434
 21
34.77736563458589
 31
0.0
  0
LINE
  5
131
330
102
100
AcDbEntity
  8
0
 62
     0
100
AcDbLine
 10
285.0483083158436
 20
35.49736563458588
 30
0.0
 11
285.0483083158436
 21
34.95736563458589
 31
0.0
  0
LINE
  5
132
330
102
100
AcDbEntity
  8
0
 62
     0
100
AcDbLine
 10
285.0483083158436
 20
34.77736563458589
 30
0.0
 11
285.0483083158436
 21
34.59736563458589
 31
0.0
  0
LINE
  5
133
330
102
100
AcDbEntity
  8
0
 62
     0
100
AcDbLine
 10
285.0483083158436
 20
34.59736563458589
 30
0.0
 11
284.8683083158434
 21
34.59736563458589
 31
0.0
  0
SOLID
  5
134
330
102
100
AcDbEntity
  8
0
 62
     0
100
AcDbTrace
 10
285.0183083158436
 20
35.49736563458588
 30
0.0
 11
285.0783083158436
 21
35.49736563458588
 31
0.0
 12
285.0483083158436
 22
35.67736563458588
 32
0.0
 13
285.0483083158436
 23
35.67736563458588
 33
0.0
  0
SOLID
  5
135
330
102
100
AcDbEntity
  8
0
 62
     0
100
AcDbTrace
 10
285.0183083158436
 20
34.95736563458589
 30
0.0
 11
285.0783083158436
 21
34.95736563458589
 31
0.0
 12
285.0483083158436
 22
34.77736563458589
 32
0.0
 13
285.0483083158436
 23
34.77736563458589
 33
0.0
  0
MTEXT
  5
136
330
102
100
AcDbEntity
  8
0
 62
     0
100
AcDbMText
 10
284.3883083158436
 20
34.59736563458594
 30
0.0
 40
0.18
 41
0.0
 71
     5
 72
     1
  1
\A1;0.9000
1001
ACAD
1000
MTEXTBEGIN
1070
    73
1070
     1
1070
    44
1040
1.0
1070
    74
1070
     0
1000
MTEXTEND
1000
MTEXTBEGIN
1070
    73
1070
     1
1070
    44
1040
1.0
1070
    74
1070
     0
1000
MTEXTEND
  0
POINT
  5
137
330
102
100
AcDbEntity
  8
DEFPOINTS
 62
     0
100
AcDbPoint
 10
285.5617114476576
 20
35.67736563458588
 30
0.0
  0
POINT
  5
138
330
102
100
AcDbEntity
  8
DEFPOINTS
 62
     0
100
AcDbPoint
 10
285.6117114476576
 20
34.77736563458589
 30
0.0
  0
POINT
  5
139
330
102
100
AcDbEntity
  8
DEFPOINTS
 62
     0
100
AcDbPoint
 10
285.0483083158436
 20
34.77736563458589
 30
0.0
  0
ENDBLK
  5
10F
330
102
100
AcDbEntity
  8
0
100
AcDbBlockEnd
  0
BLOCK
  5
15B
330
150
100
AcDbEntity
  8
0
100
AcDbBlockBegin
  2
*D5
 70
     1
 10
0.0
 20
0.0
 30
0.0
  3
*D5
  1

  0
LINE
  5
151
330
150
100
AcDbEntity
  8
0
 62
     0
100
AcDbLine
 10
286.5117114476575
 20
34.71486563458589
 30
0.0
 11
286.5117114476575
 21
33.55990820404632
 31
0.0
  0
LINE
  5
152
330
150
100
AcDbEntity
  8
0
 62
     0
100
AcDbLine
 10
285.6117114476576
 20
34.71486563458589
 30
0.0
 11
285.6117114476576
 21
33.55990820404632
 31
0.0
  0
LINE
  5
153
330
150
100
AcDbEntity
  8
0
 62
     0
100
AcDbLine
 10
286.3317114476576
 20
33.73990820404632
 30
0.0
 11
285.7917114476576
 21
33.73990820404632
 31
0.0
  0
LINE
  5
154
330
150
100
AcDbEntity
  8
0
 62
     0
100
AcDbLine
 10
285.6117114476576
 20
33.73990820404632
 30
0.0
 11
285.4317114476576
 21
33.73990820404632
 31
0.0
  0
SOLID
  5
155
330
150
100
AcDbEntity
  8
0
 62
     0
100
AcDbTrace
 10
286.3317114476576
 20
33.76990820404632
 30
0.0
 11
286.3317114476576
 21
33.70990820404632
 31
0.0
 12
286.5117114476575
 22
33.73990820404632
 32
0.0
 13
286.5117114476575
 23
33.73990820404632
 33
0.0
  0
SOLID
  5
156
330
150
100
AcDbEntity
  8
0
 62
     0
100
AcDbTrace
 10
285.7917114476576
 20
33.76990820404632
 30
0.0
 11
285.7917114476576
 21
33.70990820404632
 31
0.0
 12
285.6117114476576
 22
33.73990820404632
 32
0.0
 13
285.6117114476576
 23
33.73990820404632
 33
0.0
  0
MTEXT
  5
157
330
150
100
AcDbEntity
  8
0
 62
     0
100
AcDbMText
 10
284.9517114476574
 20
33.73990820404632
 30
0.0
 40
0.18
 41
0.0
 71
     5
 72
     1
  1
\A1;0.9000
1001
ACAD
1000
MTEXTBEGIN
1070
    73
1070
     1
1070
    44
1040
1.0
1070
    74
1070
     0
1000
MTEXTEND
1000
MTEXTBEGIN
1070
    73
1070
     1
1070
    44
1040
1.0
1070
    74
1070
     0
1000
MTEXTEND
  0
POINT
  5
158
330
150
100
AcDbEntity
  8
DEFPOINTS
 62
     0
100
AcDbPoint
 10
286.5117114476575
 20
34.77736563458589
 30
0.0
  0
POINT
  5
159
330
150
100
AcDbEntity
  8
DEFPOINTS
 62
     0
100
AcDbPoint
 10
285.6117114476576
 20
34.77736563458589
 30
0.0
  0
POINT
  5
15A
330
150
100
AcDbEntity
  8
DEFPOINTS
 62
     0
100
AcDbPoint
 10
285.6117114476576
 20
33.73990820404632
 30
0.0
  0
ENDBLK
  5
15C
330
150
100
AcDbEntity
  8
0
100
AcDbBlockEnd
  0
BLOCK
  5
169
330
15E
100
AcDbEntity
  8
0
100
AcDbBlockBegin
  2
*D6
 70
     1
 10
0.0
 20
0.0
 30
0.0
  3
*D6
  1

  0
LINE
  5
16B
330
15E
100
AcDbEntity
  8
0
 62
     0
100
AcDbLine
 10
286.2270677236876
 20
34.69872330784411
 30
0.0
 11
286.2270677236876
 21
33.84122994766753
 31
0.0
  0
LINE
  5
16C
330
15E
100
AcDbEntity
  8
0
 62
     0
100
AcDbLine
 10
285.8963551716275
 20
34.69872330784411
 30
0.0
 11
285.8963551716275
 21
33.84122994766753
 31
0.0
  0
LINE
  5
16D
330
15E
100
AcDbEntity
  8
0
 62
     0
100
AcDbLine
 10
286.4070677236876
 20
34.02122994766753
 30
0.0
 11
286.5870677236876
 21
34.02122994766753
 31
0.0
  0
LINE
  5
16E
330
15E
100
AcDbEntity
  8
0
 62
     0
100
AcDbLine
 10
285.7163551716275
 20
34.02122994766753
 30
0.0
 11
285.5363551716276
 21
34.02122994766753
 31
0.0
  0
SOLID
  5
16F
330
15E
100
AcDbEntity
  8
0
 62
     0
100
AcDbTrace
 10
286.4070677236876
 20
34.05122994766752
 30
0.0
 11
286.4070677236876
 21
33.99122994766753
 31
0.0
 12
286.2270677236876
 22
34.02122994766753
 32
0.0
 13
286.2270677236876
 23
34.02122994766753
 33
0.0
  0
SOLID
  5
170
330
15E
100
AcDbEntity
  8
0
 62
     0
100
AcDbTrace
 10
285.7163551716275
 20
34.05122994766752
 30
0.0
 11
285.7163551716275
 21
33.99122994766753
 31
0.0
 12
285.8963551716275
 22
34.02122994766753
 32
0.0
 13
285.8963551716275
 23
34.02122994766753
 33
0.0
  0
MTEXT
  5
171
330
15E
100
AcDbEntity
  8
0
 62
     0
100
AcDbMText
 10
285.0563551716276
 20
34.02122994766753
 30
0.0
 40
0.18
 41
0.0
 71
     5
 72
     1
  1
\A1;0.3000
1001
ACAD
1000
MTEXTBEGIN
1070
    73
1070
     1
1070
    44
1040
1.0
1070
    74
1070
     0
1000
MTEXTEND
1000
MTEXTBEGIN
1070
    73
1070
     1
1070
    44
1040
1.0
1070
    74
1070
     0
1000
MTEXTEND
  0
POINT
  5
172
330
15E
100
AcDbEntity
  8
DEFPOINTS
 62
     0
100
AcDbPoint
 10
286.2270677236876
 20
34.76122330784411
 30
0.0
  0
POINT
  5
173
330
15E
100
AcDbEntity
  8
DEFPOINTS
 62
     0
100
AcDbPoint
 10
285.8963551716275
 20
34.76122330784411
 30
0.0
  0
POINT
  5
174
330
15E
100
AcDbEntity
  8
DEFPOINTS
 62
     0
100
AcDbPoint
 10
285.8963551716275
 20
34.02122994766753
 30
0.0
  0
ENDBLK
  5
16A
330
15E
100
AcDbEntity
  8
0
100
AcDbBlockEnd
  0
BLOCK
  5
1C3
330
1B8
100
AcDbEntity
  8
0
100
AcDbBlockBegin
  2
*D7
 70
     1
 10
0.0
 20
0.0
 30
0.0
  3
*D7
  1

  0
LINE
  5
1B9
330
1B8
100
AcDbEntity
  8
0
 62
     0
100
AcDbLine
 10
286.1367417659177
 20
35.23981668125816
 30
0.0
 11
286.1367417659177
 21
34.38562200535306
 31
0.0
  0
LINE
  5
1BA
330
1B8
100
AcDbEntity
  8
0
 62
     0
100
AcDbLine
 10
286.7367417659178
 20
35.23981668125816
 30
0.0
 11
286.7367417659178
 21
34.38562200535306
 31
0.0
  0
LINE
  5
1BB
330
1B8
100
AcDbEntity
  8
0
 62
     0
100
AcDbLine
 10
286.3167417659178
 20
34.56562200535306
 30
0.0
 11
286.5567417659178
 21
34.56562200535306
 31
0.0
  0
LINE
  5
1BC
330
1B8
100
AcDbEntity
  8
0
 62
     0
100
AcDbLine
 10
286.7367417659178
 20
34.56562200535306
 30
0.0
 11
286.9167417659178
 21
34.56562200535306
 31
0.0
  0
SOLID
  5
1BD
330
1B8
100
AcDbEntity
  8
0
 62
     0
100
AcDbTrace
 10
286.3167417659178
 20
34.59562200535306
 30
0.0
 11
286.3167417659178
 21
34.53562200535306
 31
0.0
 12
286.1367417659177
 22
34.56562200535306
 32
0.0
 13
286.1367417659177
 23
34.56562200535306
 33
0.0
  0
SOLID
  5
1BE
330
1B8
100
AcDbEntity
  8
0
 62
     0
100
AcDbTrace
 10
286.5567417659178
 20
34.59562200535306
 30
0.0
 11
286.5567417659178
 21
34.53562200535306
 31
0.0
 12
286.7367417659178
 22
34.56562200535306
 32
0.0
 13
286.7367417659178
 23
34.56562200535306
 33
0.0
  0
MTEXT
  5
1BF
330
1B8
100
AcDbEntity
  8
0
 62
     0
100
AcDbMText
 10
287.3967417659178
 20
34.56562200535306
 30
0.0
 40
0.18
 41
0.0
 71
     5
 72
     1
  1
\A1;0.6000
1001
ACAD
1000
MTEXTBEGIN
1070
    73
1070
     1
1070
    44
1040
1.0
1070
    74
1070
     0
1000
MTEXTEND
  0
POINT
  5
1C0
330
1B8
100
AcDbEntity
  8
DEFPOINTS
 62
     0
100
AcDbPoint
 10
286.1367417659177
 20
35.30231668125817
 30
0.0
  0
POINT
  5
1C1
330
1B8
100
AcDbEntity
  8
DEFPOINTS
 62
     0
100
AcDbPoint
 10
286.7367417659178
 20
35.30231668125817
 30
0.0
  0
POINT
  5
1C2
330
1B8
100
AcDbEntity
  8
DEFPOINTS
 62
     0
100
AcDbPoint
 10
286.7367417659178
 20
34.56562200535306
 30
0.0
  0
ENDBLK
  5
1C4
330
1B8
100
AcDbEntity
  8
0
100
AcDbBlockEnd
  0
BLOCK
  5
1D2
330
1C6
100
AcDbEntity
  8
0
100
AcDbBlockBegin
  2
*D8
 70
     1
 10
0.0
 20
0.0
 30
0.0
  3
*D8
  1

  0
LINE
  5
1C7
330
1C6
100
AcDbEntity
  8
0
 62
     0
100
AcDbLine
 10
286.7992417659178
 20
35.30231668125817
 30
0.0
 11
287.5292753889697
 21
35.30231668125817
 31
0.0
  0
LINE
  5
1C8
330
1C6
100
AcDbEntity
  8
0
 62
     0
100
AcDbLine
 10
286.7992417659178
 20
36.05231668125817
 30
0.0
 11
287.5292753889697
 21
36.05231668125817
 31
0.0
  0
LINE
  5
1C9
330
1C6
100
AcDbEntity
  8
0
 62
     0
100
AcDbLine
 10
287.3492753889697
 20
35.48231668125817
 30
0.0
 11
287.3492753889697
 21
35.87231668125816
 31
0.0
  0
LINE
  5
1CA
330
1C6
100
AcDbEntity
  8
0
 62
     0
100
AcDbLine
 10
287.3492753889697
 20
36.05231668125817
 30
0.0
 11
287.3492753889697
 21
36.23231668125816
 31
0.0
  0
LINE
  5
1CB
330
1C6
100
AcDbEntity
  8
0
 62
     0
100
AcDbLine
 10
287.3492753889697
 20
36.23231668125816
 30
0.0
 11
287.5292753889697
 21
36.23231668125816
 31
0.0
  0
SOLID
  5
1CC
330
1C6
100
AcDbEntity
  8
0
 62
     0
100
AcDbTrace
 10
287.3192753889697
 20
35.48231668125817
 30
0.0
 11
287.3792753889696
 21
35.48231668125817
 31
0.0
 12
287.3492753889697
 22
35.30231668125817
 32
0.0
 13
287.3492753889697
 23
35.30231668125817
 33
0.0
  0
SOLID
  5
1CD
330
1C6
100
AcDbEntity
  8
0
 62
     0
100
AcDbTrace
 10
287.3192753889697
 20
35.87231668125816
 30
0.0
 11
287.3792753889696
 21
35.87231668125816
 31
0.0
 12
287.3492753889697
 22
36.05231668125817
 32
0.0
 13
287.3492753889697
 23
36.05231668125817
 33
0.0
  0
MTEXT
  5
1CE
330
1C6
100
AcDbEntity
  8
0
 62
     0
100
AcDbMText
 10
288.0242753889697
 20
36.23231668125821
 30
0.0
 40
0.18
 41
0.0
 71
     5
 72
     1
  1
\A1;0.7500
1001
ACAD
1000
MTEXTBEGIN
1070
    73
1070
     1
1070
    44
1040
1.0
1070
    74
1070
     0
1000
MTEXTEND
  0
POINT
  5
1CF
330
1C6
100
AcDbEntity
  8
DEFPOINTS
 62
     0
100
AcDbPoint
 10
286.7367417659178
 20
35.30231668125817
 30
0.0
  0
POINT
  5
1D0
330
1C6
100
AcDbEntity
  8
DEFPOINTS
 62
     0
100
AcDbPoint
 10
286.7367417659178
 20
36.05231668125817
 30
0.0
  0
POINT
  5
1D1
330
1C6
100
AcDbEntity
  8
DEFPOINTS
 62
     0
100
AcDbPoint
 10
287.3492753889697
 20
36.05231668125817
 30
0.0
  0
ENDBLK
  5
1D3
330
1C6
100
AcDbEntity
  8
0
100
AcDbBlockEnd
  0
BLOCK
  5
21D
330
212
100
AcDbEntity
  8
0
100
AcDbBlockBegin
  2
*D9
 70
     1
 10
0.0
 20
0.0
 30
0.0
  3
*D9
  1

  0
LINE
  5
213
330
212
100
AcDbEntity
  8
0
 62
     0
100
AcDbLine
 10
285.4872451510956
 20
36.19656863994844
 30
0.0
 11
285.4872451510956
 21
37.0940174147743
 31
0.0
  0
LINE
  5
214
330
212
100
AcDbEntity
  8
0
 62
     0
100
AcDbLine
 10
287.7372451510956
 20
36.19656863994844
 30
0.0
 11
287.7372451510956
 21
37.0940174147743
 31
0.0
  0
LINE
  5
215
330
212
100
AcDbEntity
  8
0
 62
     0
100
AcDbLine
 10
285.6672451510955
 20
36.9140174147743
 30
0.0
 11
286.1022451510956
 21
36.9140174147743
 31
0.0
  0
LINE
  5
216
330
212
100
AcDbEntity
  8
0
 62
     0
100
AcDbLine
 10
287.5572451510956
 20
36.9140174147743
 30
0.0
 11
287.1222451510956
 21
36.9140174147743
 31
0.0
  0
SOLID
  5
217
330
212
100
AcDbEntity
  8
0
 62
     0
100
AcDbTrace
 10
285.6672451510955
 20
36.9440174147743
 30
0.0
 11
285.6672451510955
 21
36.88401741477429
 31
0.0
 12
285.4872451510956
 22
36.9140174147743
 32
0.0
 13
285.4872451510956
 23
36.9140174147743
 33
0.0
  0
SOLID
  5
218
330
212
100
AcDbEntity
  8
0
 62
     0
100
AcDbTrace
 10
287.5572451510956
 20
36.9440174147743
 30
0.0
 11
287.5572451510956
 21
36.88401741477429
 31
0.0
 12
287.7372451510956
 22
36.9140174147743
 32
0.0
 13
287.7372451510956
 23
36.9140174147743
 33
0.0
  0
MTEXT
  5
219
330
212
100
AcDbEntity
  8
0
 62
     0
100
AcDbMText
 10
286.6122451510956
 20
36.9140174147743
 30
0.0
 40
0.18
 41
0.0
 71
     5
 72
     1
  1
\A1;2.2500
1001
ACAD
1000
MTEXTBEGIN
1070
    73
1070
     1
1070
    44
1040
1.0
1070
    74
1070
     0
1000
MTEXTEND
  0
POINT
  5
21A
330
212
100
AcDbEntity
  8
DEFPOINTS
 62
     0
100
AcDbPoint
 10
285.4872451510956
 20
36.13406863994844
 30
0.0
  0
POINT
  5
21B
330
212
100
AcDbEntity
  8
DEFPOINTS
 62
     0
100
AcDbPoint
 10
287.7372451510956
 20
36.13406863994844
 30
0.0
  0
POINT
  5
21C
330
212
100
AcDbEntity
  8
DEFPOINTS
 62
     0
100
AcDbPoint
 10
287.7372451510956
 20
36.9140174147743
 30
0.0
  0
ENDBLK
  5
21E
330
212
100
AcDbEntity
  8
0
100
AcDbBlockEnd
  0
BLOCK
  5
22B
330
220
100
AcDbEntity
  8
0
100
AcDbBlockBegin
  2
*D10
 70
     1
 10
0.0
 20
0.0
 30
0.0
  3
*D10
  1

  0
LINE
  5
221
330
220
100
AcDbEntity
  8
0
 62
     0
100
AcDbLine
 10
287.7997451510956
 20
36.13406863994844
 30
0.0
 11
288.569862922793
 21
36.13406863994844
 31
0.0
  0
LINE
  5
222
330
220
100
AcDbEntity
  8
0
 62
     0
100
AcDbLine
 10
287.5747451510956
 20
34.88406863994844
 30
0.0
 11
288.569862922793
 21
34.88406863994844
 31
0.0
  0
LINE
  5
223
330
220
100
AcDbEntity
  8
0
 62
     0
100
AcDbLine
 10
288.389862922793
 20
35.95406863994844
 30
0.0
 11
288.389862922793
 21
35.68906863994843
 31
0.0
  0
LINE
  5
224
330
220
100
AcDbEntity
  8
0
 62
     0
100
AcDbLine
 10
288.389862922793
 20
35.06406863994843
 30
0.0
 11
288.389862922793
 21
35.32906863994844
 31
0.0
  0
SOLID
  5
225
330
220
100
AcDbEntity
  8
0
 62
     0
100
AcDbTrace
 10
288.359862922793
 20
35.95406863994844
 30
0.0
 11
288.419862922793
 21
35.95406863994844
 31
0.0
 12
288.389862922793
 22
36.13406863994844
 32
0.0
 13
288.389862922793
 23
36.13406863994844
 33
0.0
  0
SOLID
  5
226
330
220
100
AcDbEntity
  8
0
 62
     0
100
AcDbTrace
 10
288.359862922793
 20
35.06406863994843
 30
0.0
 11
288.419862922793
 21
35.06406863994843
 31
0.0
 12
288.389862922793
 22
34.88406863994844
 32
0.0
 13
288.389862922793
 23
34.88406863994844
 33
0.0
  0
MTEXT
  5
227
330
220
100
AcDbEntity
  8
0
 62
     0
100
AcDbMText
 10
288.389862922793
 20
35.50906863994848
 30
0.0
 40
0.18
 41
0.0
 71
     5
 72
     1
  1
\A1;1.2500
1001
ACAD
1000
MTEXTBEGIN
1070
    73
1070
     1
1070
    44
1040
1.0
1070
    74
1070
     0
1000
MTEXTEND
  0
POINT
  5
228
330
220
100
AcDbEntity
  8
DEFPOINTS
 62
     0
100
AcDbPoint
 10
287.7372451510956
 20
36.13406863994844
 30
0.0
  0
POINT
  5
229
330
220
100
AcDbEntity
  8
DEFPOINTS
 62
     0
100
AcDbPoint
 10
287.5122451510956
 20
34.88406863994844
 30
0.0
  0
POINT
  5
22A
330
220
100
AcDbEntity
  8
DEFPOINTS
 62
     0
100
AcDbPoint
 10
288.389862922793
 20
34.88406863994844
 30
0.0
  0
ENDBLK
  5
22C
330
220
100
AcDbEntity
  8
0
100
AcDbBlockEnd
  0
BLOCK
  5
239
330
22E
100
AcDbEntity
  8
0
100
AcDbBlockBegin
  2
*D11
 70
     1
 10
0.0
 20
0.0
 30
0.0
  3
*D11
  1

  0
LINE
  5
22F
330
22E
100
AcDbEntity
  8
0
 62
     0
100
AcDbLine
 10
287.5747451510956
 20
34.88406863994844
 30
0.0
 11
288.569862922793
 21
34.88406863994844
 31
0.0
  0
LINE
  5
230
330
22E
100
AcDbEntity
  8
0
 62
     0
100
AcDbLine
 10
286.6747451510956
 20
34.38406863994844
 30
0.0
 11
288.569862922793
 21
34.38406863994844
 31
0.0
  0
LINE
  5
231
330
22E
100
AcDbEntity
  8
0
 62
     0
100
AcDbLine
 10
288.389862922793
 20
35.06406863994843
 30
0.0
 11
288.389862922793
 21
35.24406863994844
 31
0.0
  0
LINE
  5
232
330
22E
100
AcDbEntity
  8
0
 62
     0
100
AcDbLine
 10
288.389862922793
 20
34.20406863994843
 30
0.0
 11
288.389862922793
 21
34.02406863994844
 31
0.0
  0
SOLID
  5
233
330
22E
100
AcDbEntity
  8
0
 62
     0
100
AcDbTrace
 10
288.359862922793
 20
35.06406863994843
 30
0.0
 11
288.419862922793
 21
35.06406863994843
 31
0.0
 12
288.389862922793
 22
34.88406863994844
 32
0.0
 13
288.389862922793
 23
34.88406863994844
 33
0.0
  0
SOLID
  5
234
330
22E
100
AcDbEntity
  8
0
 62
     0
100
AcDbTrace
 10
288.359862922793
 20
34.20406863994843
 30
0.0
 11
288.419862922793
 21
34.20406863994843
 31
0.0
 12
288.389862922793
 22
34.38406863994844
 32
0.0
 13
288.389862922793
 23
34.38406863994844
 33
0.0
  0
MTEXT
  5
235
330
22E
100
AcDbEntity
  8
0
 62
     0
100
AcDbMText
 10
288.389862922793
 20
34.63406863994848
 30
0.0
 40
0.18
 41
0.0
 71
     5
 72
     1
  1
\A1;0.5000
1001
ACAD
1000
MTEXTBEGIN
1070
    73
1070
     1
1070
    44
1040
1.0
1070
    74
1070
     0
1000
MTEXTEND
  0
POINT
  5
236
330
22E
100
AcDbEntity
  8
DEFPOINTS
 62
     0
100
AcDbPoint
 10
287.5122451510956
 20
34.88406863994844
 30
0.0
  0
POINT
  5
237
330
22E
100
AcDbEntity
  8
DEFPOINTS
 62
     0
100
AcDbPoint
 10
286.6122451510956
 20
34.38406863994844
 30
0.0
  0
POINT
  5
238
330
22E
100
AcDbEntity
  8
DEFPOINTS
 62
     0
100
AcDbPoint
 10
288.389862922793
 20
34.38406863994844
 30
0.0
  0
ENDBLK
  5
23A
330
22E
100
AcDbEntity
  8
0
100
AcDbBlockEnd
  0
BLOCK
  5
247
330
23C
100
AcDbEntity
  8
0
100
AcDbBlockBegin
  2
*D12
 70
     1
 10
0.0
 20
0.0
 30
0.0
  3
*D12
  1

  0
LINE
  5
23D
330
23C
100
AcDbEntity
  8
0
 62
     0
100
AcDbLine
 10
287.5122451510956
 20
34.82156863994843
 30
0.0
 11
287.5122451510956
 21
33.09460809130508
 31
0.0
  0
LINE
  5
23E
330
23C
100
AcDbEntity
  8
0
 62
     0
100
AcDbLine
 10
285.7122451510956
 20
34.82156863994843
 30
0.0
 11
285.7122451510956
 21
33.09460809130508
 31
0.0
  0
LINE
  5
23F
330
23C
100
AcDbEntity
  8
0
 62
     0
100
AcDbLine
 10
287.3322451510956
 20
33.27460809130508
 30
0.0
 11
287.0772451510956
 21
33.27460809130508
 31
0.0
  0
LINE
  5
240
330
23C
100
AcDbEntity
  8
0
 62
     0
100
AcDbLine
 10
285.8922451510956
 20
33.27460809130508
 30
0.0
 11
286.1472451510956
 21
33.27460809130508
 31
0.0
  0
SOLID
  5
241
330
23C
100
AcDbEntity
  8
0
 62
     0
100
AcDbTrace
 10
287.3322451510956
 20
33.30460809130508
 30
0.0
 11
287.3322451510956
 21
33.24460809130508
 31
0.0
 12
287.5122451510956
 22
33.27460809130508
 32
0.0
 13
287.5122451510956
 23
33.27460809130508
 33
0.0
  0
SOLID
  5
242
330
23C
100
AcDbEntity
  8
0
 62
     0
100
AcDbTrace
 10
285.8922451510956
 20
33.30460809130508
 30
0.0
 11
285.8922451510956
 21
33.24460809130508
 31
0.0
 12
285.7122451510956
 22
33.27460809130508
 32
0.0
 13
285.7122451510956
 23
33.27460809130508
 33
0.0
  0
MTEXT
  5
243
330
23C
100
AcDbEntity
  8
0
 62
     0
100
AcDbMText
 10
286.6122451510956
 20
33.27460809130508
 30
0.0
 40
0.18
 41
0.0
 71
     5
 72
     1
  1
\A1;1.8000
1001
ACAD
1000
MTEXTBEGIN
1070
    73
1070
     1
1070
    44
1040
1.0
1070
    74
1070
     0
1000
MTEXTEND
  0
POINT
  5
244
330
23C
100
AcDbEntity
  8
DEFPOINTS
 62
     0
100
AcDbPoint
 10
287.5122451510956
 20
34.88406863994844
 30
0.0
  0
POINT
  5
245
330
23C
100
AcDbEntity
  8
DEFPOINTS
 62
     0
100
AcDbPoint
 10
285.7122451510956
 20
34.88406863994844
 30
0.0
  0
POINT
  5
246
330
23C
100
AcDbEntity
  8
DEFPOINTS
 62
     0
100
AcDbPoint
 10
285.7122451510956
 20
33.27460809130508
 30
0.0
  0
ENDBLK
  5
248
330
23C
100
AcDbEntity
  8
0
100
AcDbBlockEnd
  0
BLOCK
  5
255
330
24A
100
AcDbEntity
  8
0
100
AcDbBlockBegin
  2
*D13
 70
     1
 10
0.0
 20
0.0
 30
0.0
  3
*D13
  1

  0
LINE
  5
257
330
24A
100
AcDbEntity
  8
0
 62
     0
100
AcDbLine
 10
286.2622451510956
 20
34.67156863994831
 30
0.0
 11
286.2622451510956
 21
33.67459365863173
 31
0.0
  0
LINE
  5
258
330
24A
100
AcDbEntity
  8
0
 62
     0
100
AcDbLine
 10
286.9622451510955
 20
34.67156863994844
 30
0.0
 11
286.9622451510955
 21
33.67459365863173
 31
0.0
  0
LINE
  5
259
330
24A
100
AcDbEntity
  8
0
 62
     0
100
AcDbLine
 10
286.4422451510956
 20
33.85459365863173
 30
0.0
 11
286.7822451510956
 21
33.85459365863173
 31
0.0
  0
LINE
  5
25A
330
24A
100
AcDbEntity
  8
0
 62
     0
100
AcDbLine
 10
286.9622451510955
 20
33.85459365863173
 30
0.0
 11
287.5762193010432
 21
33.85459365863173
 31
0.0
  0
SOLID
  5
25B
330
24A
100
AcDbEntity
  8
0
 62
     0
100
AcDbTrace
 10
286.4422451510956
 20
33.88459365863173
 30
0.0
 11
286.4422451510956
 21
33.82459365863173
 31
0.0
 12
286.2622451510956
 22
33.85459365863173
 32
0.0
 13
286.2622451510956
 23
33.85459365863173
 33
0.0
  0
SOLID
  5
25C
330
24A
100
AcDbEntity
  8
0
 62
     0
100
AcDbTrace
 10
286.7822451510956
 20
33.88459365863173
 30
0.0
 11
286.7822451510956
 21
33.82459365863173
 31
0.0
 12
286.9622451510955
 22
33.85459365863173
 32
0.0
 13
286.9622451510955
 23
33.85459365863173
 33
0.0
  0
MTEXT
  5
25D
330
24A
100
AcDbEntity
  8
0
 62
     0
100
AcDbMText
 10
288.0562193010431
 20
33.85459365863173
 30
0.0
 40
0.18
 41
0.0
 71
     5
 72
     1
  1
\A1;0.7000
1001
ACAD
1000
MTEXTBEGIN
1070
    73
1070
     1
1070
    44
1040
1.0
1070
    74
1070
     0
1000
MTEXTEND
  0
POINT
  5
25E
330
24A
100
AcDbEntity
  8
DEFPOINTS
 62
     0
100
AcDbPoint
 10
286.2622451510956
 20
34.73406863994831
 30
0.0
  0
POINT
  5
25F
330
24A
100
AcDbEntity
  8
DEFPOINTS
 62
     0
100
AcDbPoint
 10
286.9622451510955
 20
34.73406863994844
 30
0.0
  0
POINT
  5
260
330
24A
100
AcDbEntity
  8
DEFPOINTS
 62
     0
100
AcDbPoint
 10
286.9622451510955
 20
33.85459365863173
 30
0.0
  0
ENDBLK
  5
256
330
24A
100
AcDbEntity
  8
0
100
AcDbBlockEnd
  0
BLOCK
  5
26D
330
262
100
AcDbEntity
  8
0
100
AcDbBlockBegin
  2
*D14
 70
     1
 10
0.0
 20
0.0
 30
0.0
  3
*D14
  1

  0
LINE
  5
279
330
262
100
AcDbEntity
  8
0
 62
     0
100
AcDbLine
 10
286.9622451510956
 20
34.82156863994843
 30
0.0
 11
286.9622451510956
 21
33.6020954411063
 31
0.0
  0
LINE
  5
27A
330
262
100
AcDbEntity
  8
0
 62
     0
100
AcDbLine
 10
286.2622451510956
 20
34.82156863994843
 30
0.0
 11
286.2622451510956
 21
33.6020954411063
 31
0.0
  0
LINE
  5
27B
330
262
100
AcDbEntity
  8
0
 62
     0
100
AcDbLine
 10
286.7822451510956
 20
33.7820954411063
 30
0.0
 11
286.4422451510956
 21
33.7820954411063
 31
0.0
  0
LINE
  5
27C
330
262
100
AcDbEntity
  8
0
 62
     0
100
AcDbLine
 10
286.2622451510956
 20
33.7820954411063
 30
0.0
 11
285.4754017824422
 21
33.7820954411063
 31
0.0
  0
SOLID
  5
27D
330
262
100
AcDbEntity
  8
0
 62
     0
100
AcDbTrace
 10
286.7822451510956
 20
33.8120954411063
 30
0.0
 11
286.7822451510956
 21
33.7520954411063
 31
0.0
 12
286.9622451510956
 22
33.7820954411063
 32
0.0
 13
286.9622451510956
 23
33.7820954411063
 33
0.0
  0
SOLID
  5
27E
330
262
100
AcDbEntity
  8
0
 62
     0
100
AcDbTrace
 10
286.4422451510956
 20
33.8120954411063
 30
0.0
 11
286.4422451510956
 21
33.7520954411063
 31
0.0
 12
286.2622451510956
 22
33.7820954411063
 32
0.0
 13
286.2622451510956
 23
33.7820954411063
 33
0.0
  0
MTEXT
  5
27F
330
262
100
AcDbEntity
  8
0
 62
     0
100
AcDbMText
 10
284.9954017824422
 20
33.7820954411063
 30
0.0
 40
0.18
 41
0.0
 71
     5
 72
     1
  1
\A1;0.7000
1001
ACAD
1000
MTEXTBEGIN
1070
    73
1070
     1
1070
    44
1040
1.0
1070
    74
1070
     0
1000
MTEXTEND
  0
POINT
  5
280
330
262
100
AcDbEntity
  8
DEFPOINTS
 62
     0
100
AcDbPoint
 10
286.9622451510956
 20
34.88406863994844
 30
0.0
  0
POINT
  5
281
330
262
100
AcDbEntity
  8
DEFPOINTS
 62
     0
100
AcDbPoint
 10
286.2622451510956
 20
34.88406863994843
 30
0.0
  0
POINT
  5
282
330
262
100
AcDbEntity
  8
DEFPOINTS
 62
     0
100
AcDbPoint
 10
286.2622451510956
 20
33.7820954411063
 30
0.0
  0
ENDBLK
  5
26E
330
262
100
AcDbEntity
  8
0
100
AcDbBlockEnd
  0
BLOCK
  5
28F
330
284
100
AcDbEntity
  8
0
100
AcDbBlockBegin
  2
*D15
 70
     1
 10
0.0
 20
0.0
 30
0.0
  3
*D15
  1

  0
LINE
  5
285
330
284
100
AcDbEntity
  8
0
 62
     0
100
AcDbLine
 10
285.5497451510955
 20
36.13406863994844
 30
0.0
 11
289.6433250143808
 21
36.13406863994844
 31
0.0
  0
LINE
  5
286
330
284
100
AcDbEntity
  8
0
 62
     0
100
AcDbLine
 10
286.7372451510956
 20
34.38406863994844
 30
0.0
 11
289.6433250143808
 21
34.38406863994844
 31
0.0
  0
LINE
  5
287
330
284
100
AcDbEntity
  8
0
 62
     0
100
AcDbLine
 10
289.4633250143808
 20
35.95406863994844
 30
0.0
 11
289.4633250143808
 21
35.43906863994843
 31
0.0
  0
LINE
  5
288
330
284
100
AcDbEntity
  8
0
 62
     0
100
AcDbLine
 10
289.4633250143808
 20
34.56406863994843
 30
0.0
 11
289.4633250143808
 21
35.07906863994843
 31
0.0
  0
SOLID
  5
289
330
284
100
AcDbEntity
  8
0
 62
     0
100
AcDbTrace
 10
289.4333250143808
 20
35.95406863994844
 30
0.0
 11
289.4933250143807
 21
35.95406863994844
 31
0.0
 12
289.4633250143808
 22
36.13406863994844
 32
0.0
 13
289.4633250143808
 23
36.13406863994844
 33
0.0
  0
SOLID
  5
28A
330
284
100
AcDbEntity
  8
0
 62
     0
100
AcDbTrace
 10
289.4333250143808
 20
34.56406863994843
 30
0.0
 11
289.4933250143807
 21
34.56406863994843
 31
0.0
 12
289.4633250143808
 22
34.38406863994844
 32
0.0
 13
289.4633250143808
 23
34.38406863994844
 33
0.0
  0
MTEXT
  5
28B
330
284
100
AcDbEntity
  8
0
 62
     0
100
AcDbMText
 10
289.4633250143808
 20
35.25906863994848
 30
0.0
 40
0.18
 41
0.0
 71
     5
 72
     1
  1
\A1;1.7500
1001
ACAD
1000
MTEXTBEGIN
1070
    73
1070
     1
1070
    44
1040
1.0
1070
    74
1070
     0
1000
MTEXTEND
  0
POINT
  5
28C
330
284
100
AcDbEntity
  8
DEFPOINTS
 62
     0
100
AcDbPoint
 10
285.4872451510956
 20
36.13406863994844
 30
0.0
  0
POINT
  5
28D
330
284
100
AcDbEntity
  8
DEFPOINTS
 62
     0
100
AcDbPoint
 10
286.6747451510956
 20
34.38406863994844
 30
0.0
  0
POINT
  5
28E
330
284
100
AcDbEntity
  8
DEFPOINTS
 62
     0
100
AcDbPoint
 10
289.4633250143808
 20
34.38406863994844
 30
0.0
  0
ENDBLK
  5
290
330
284
100
AcDbEntity
  8
0
100
AcDbBlockEnd
  0
BLOCK
  5
2CF
330
2C4
100
AcDbEntity
  8
0
100
AcDbBlockBegin
  2
*D16
 70
     1
 10
0.0
 20
0.0
 30
0.0
  3
*D16
  1

  0
LINE
  5
2C5
330
2C4
100
AcDbEntity
  8
0
 62
     0
100
AcDbLine
 10
286.2705672638286
 20
33.78044992219091
 30
0.0
 11
287.9559910417674
 21
33.78044992219091
 31
0.0
  0
LINE
  5
2C6
330
2C4
100
AcDbEntity
  8
0
 62
     0
100
AcDbLine
 10
286.7705672638286
 20
34.28044992219091
 30
0.0
 11
287.9559910417674
 21
34.28044992219091
 31
0.0
  0
LINE
  5
2C7
330
2C4
100
AcDbEntity
  8
0
 62
     0
100
AcDbLine
 10
287.7759910417673
 20
33.60044992219091
 30
0.0
 11
287.7759910417673
 21
33.42044992219091
 31
0.0
  0
LINE
  5
2C8
330
2C4
100
AcDbEntity
  8
0
 62
     0
100
AcDbLine
 10
287.7759910417673
 20
34.46044992219091
 30
0.0
 11
287.7759910417673
 21
34.64044992219091
 31
0.0
  0
SOLID
  5
2C9
330
2C4
100
AcDbEntity
  8
0
 62
     0
100
AcDbTrace
 10
287.7459910417674
 20
33.60044992219091
 30
0.0
 11
287.8059910417673
 21
33.60044992219091
 31
0.0
 12
287.7759910417673
 22
33.78044992219091
 32
0.0
 13
287.7759910417673
 23
33.78044992219091
 33
0.0
  0
SOLID
  5
2CA
330
2C4
100
AcDbEntity
  8
0
 62
     0
100
AcDbTrace
 10
287.7459910417674
 20
34.46044992219091
 30
0.0
 11
287.8059910417673
 21
34.46044992219091
 31
0.0
 12
287.7759910417673
 22
34.28044992219091
 32
0.0
 13
287.7759910417673
 23
34.28044992219091
 33
0.0
  0
MTEXT
  5
2CB
330
2C4
100
AcDbEntity
  8
0
 62
     0
100
AcDbMText
 10
287.7759910417673
 20
34.03044992219096
 30
0.0
 40
0.18
 41
0.0
 71
     5
 72
     1
  1
\A1;0.5000
1001
ACAD
1000
MTEXTBEGIN
1070
    73
1070
     1
1070
    44
1040
1.0
1070
    74
1070
     0
1000
MTEXTEND
  0
POINT
  5
2CC
330
2C4
100
AcDbEntity
  8
DEFPOINTS
 62
     0
100
AcDbPoint
 10
286.2080672638286
 20
33.78044992219091
 30
0.0
  0
POINT
  5
2CD
330
2C4
100
AcDbEntity
  8
DEFPOINTS
 62
     0
100
AcDbPoint
 10
286.7080672638286
 20
34.28044992219091
 30
0.0
  0
POINT
  5
2CE
330
2C4
100
AcDbEntity
  8
DEFPOINTS
 62
     0
100
AcDbPoint
 10
287.7759910417673
 20
34.28044992219091
 30
0.0
  0
ENDBLK
  5
2D0
330
2C4
100
AcDbEntity
  8
0
100
AcDbBlockEnd
  0
BLOCK
  5
2DD
330
2D2
100
AcDbEntity
  8
0
100
AcDbBlockBegin
  2
*D17
 70
     1
 10
0.0
 20
0.0
 30
0.0
  3
*D17
  1

  0
LINE
  5
2D3
330
2D2
100
AcDbEntity
  8
0
 62
     0
100
AcDbLine
 10
286.7705672638286
 20
34.28044992219091
 30
0.0
 11
287.9559910417674
 21
34.28044992219091
 31
0.0
  0
LINE
  5
2D4
330
2D2
100
AcDbEntity
  8
0
 62
     0
100
AcDbLine
 10
287.0205672638286
 20
35.63044992219091
 30
0.0
 11
287.9559910417674
 21
35.63044992219091
 31
0.0
  0
LINE
  5
2D5
330
2D2
100
AcDbEntity
  8
0
 62
     0
100
AcDbLine
 10
287.7759910417673
 20
34.46044992219091
 30
0.0
 11
287.7759910417673
 21
34.77544992219091
 31
0.0
  0
LINE
  5
2D6
330
2D2
100
AcDbEntity
  8
0
 62
     0
100
AcDbLine
 10
287.7759910417673
 20
35.45044992219091
 30
0.0
 11
287.7759910417673
 21
35.13544992219091
 31
0.0
  0
SOLID
  5
2D7
330
2D2
100
AcDbEntity
  8
0
 62
     0
100
AcDbTrace
 10
287.7459910417674
 20
34.46044992219091
 30
0.0
 11
287.8059910417673
 21
34.46044992219091
 31
0.0
 12
287.7759910417673
 22
34.28044992219091
 32
0.0
 13
287.7759910417673
 23
34.28044992219091
 33
0.0
  0
SOLID
  5
2D8
330
2D2
100
AcDbEntity
  8
0
 62
     0
100
AcDbTrace
 10
287.7459910417674
 20
35.45044992219091
 30
0.0
 11
287.8059910417673
 21
35.45044992219091
 31
0.0
 12
287.7759910417673
 22
35.63044992219091
 32
0.0
 13
287.7759910417673
 23
35.63044992219091
 33
0.0
  0
MTEXT
  5
2D9
330
2D2
100
AcDbEntity
  8
0
 62
     0
100
AcDbMText
 10
287.7759910417673
 20
34.95544992219096
 30
0.0
 40
0.18
 41
0.0
 71
     5
 72
     1
  1
\A1;1.3500
1001
ACAD
1000
MTEXTBEGIN
1070
    73
1070
     1
1070
    44
1040
1.0
1070
    74
1070
     0
1000
MTEXTEND
  0
POINT
  5
2DA
330
2D2
100
AcDbEntity
  8
DEFPOINTS
 62
     0
100
AcDbPoint
 10
286.7080672638286
 20
34.28044992219091
 30
0.0
  0
POINT
  5
2DB
330
2D2
100
AcDbEntity
  8
DEFPOINTS
 62
     0
100
AcDbPoint
 10
286.9580672638286
 20
35.63044992219091
 30
0.0
  0
POINT
  5
2DC
330
2D2
100
AcDbEntity
  8
DEFPOINTS
 62
     0
100
AcDbPoint
 10
287.7759910417673
 20
35.63044992219091
 30
0.0
  0
ENDBLK
  5
2DE
330
2D2
100
AcDbEntity
  8
0
100
AcDbBlockEnd
  0
BLOCK
  5
2EC
330
2E0
100
AcDbEntity
  8
0
100
AcDbBlockBegin
  2
*D18
 70
     1
 10
0.0
 20
0.0
 30
0.0
  3
*D18
  1

  0
LINE
  5
2E1
330
2E0
100
AcDbEntity
  8
0
 62
     0
100
AcDbLine
 10
287.0205672638286
 20
35.63044992219091
 30
0.0
 11
287.9559910417674
 21
35.63044992219091
 31
0.0
  0
LINE
  5
2E2
330
2E0
100
AcDbEntity
  8
0
 62
     0
100
AcDbLine
 10
286.2705672638286
 20
36.38044992219088
 30
0.0
 11
287.9559910417674
 21
36.38044992219088
 31
0.0
  0
LINE
  5
2E3
330
2E0
100
AcDbEntity
  8
0
 62
     0
100
AcDbLine
 10
287.7759910417673
 20
35.81044992219091
 30
0.0
 11
287.7759910417673
 21
36.20044992219087
 31
0.0
  0
LINE
  5
2E4
330
2E0
100
AcDbEntity
  8
0
 62
     0
100
AcDbLine
 10
287.7759910417673
 20
36.38044992219088
 30
0.0
 11
287.7759910417673
 21
36.56044992219087
 31
0.0
  0
LINE
  5
2E5
330
2E0
100
AcDbEntity
  8
0
 62
     0
100
AcDbLine
 10
287.7759910417673
 20
36.56044992219087
 30
0.0
 11
287.9559910417674
 21
36.56044992219087
 31
0.0
  0
SOLID
  5
2E6
330
2E0
100
AcDbEntity
  8
0
 62
     0
100
AcDbTrace
 10
287.7459910417674
 20
35.81044992219091
 30
0.0
 11
287.8059910417673
 21
35.81044992219091
 31
0.0
 12
287.7759910417673
 22
35.63044992219091
 32
0.0
 13
287.7759910417673
 23
35.63044992219091
 33
0.0
  0
SOLID
  5
2E7
330
2E0
100
AcDbEntity
  8
0
 62
     0
100
AcDbTrace
 10
287.7459910417674
 20
36.20044992219087
 30
0.0
 11
287.8059910417673
 21
36.20044992219087
 31
0.0
 12
287.7759910417673
 22
36.38044992219088
 32
0.0
 13
287.7759910417673
 23
36.38044992219088
 33
0.0
  0
MTEXT
  5
2E8
330
2E0
100
AcDbEntity
  8
0
 62
     0
100
AcDbMText
 10
288.4509910417674
 20
36.56044992219092
 30
0.0
 40
0.18
 41
0.0
 71
     5
 72
     1
  1
\A1;0.7500
1001
ACAD
1000
MTEXTBEGIN
1070
    73
1070
     1
1070
    44
1040
1.0
1070
    74
1070
     0
1000
MTEXTEND
  0
POINT
  5
2E9
330
2E0
100
AcDbEntity
  8
DEFPOINTS
 62
     0
100
AcDbPoint
 10
286.9580672638286
 20
35.63044992219091
 30
0.0
  0
POINT
  5
2EA
330
2E0
100
AcDbEntity
  8
DEFPOINTS
 62
     0
100
AcDbPoint
 10
286.2080672638286
 20
36.38044992219088
 30
0.0
  0
POINT
  5
2EB
330
2E0
100
AcDbEntity
  8
DEFPOINTS
 62
     0
100
AcDbPoint
 10
287.7759910417673
 20
36.38044992219088
 30
0.0
  0
ENDBLK
  5
2ED
330
2E0
100
AcDbEntity
  8
0
100
AcDbBlockEnd
  0
BLOCK
  5
2FA
330
2EF
100
AcDbEntity
  8
0
100
AcDbBlockBegin
  2
*D19
 70
     1
 10
0.0
 20
0.0
 30
0.0
  3
*D19
  1

  0
LINE
  5
2F0
330
2EF
100
AcDbEntity
  8
0
 62
     0
100
AcDbLine
 10
285.4580672638286
 20
35.69294992219089
 30
0.0
 11
285.4580672638286
 21
36.92575830282208
 31
0.0
  0
LINE
  5
2F1
330
2EF
100
AcDbEntity
  8
0
 62
     0
100
AcDbLine
 10
286.9580672638286
 20
35.69294992219091
 30
0.0
 11
286.9580672638286
 21
36.92575830282208
 31
0.0
  0
LINE
  5
2F2
330
2EF
100
AcDbEntity
  8
0
 62
     0
100
AcDbLine
 10
285.6380672638286
 20
36.74575830282209
 30
0.0
 11
285.7430672638286
 21
36.74575830282209
 31
0.0
  0
LINE
  5
2F3
330
2EF
100
AcDbEntity
  8
0
 62
     0
100
AcDbLine
 10
286.7780672638286
 20
36.74575830282209
 30
0.0
 11
286.6730672638286
 21
36.74575830282209
 31
0.0
  0
SOLID
  5
2F4
330
2EF
100
AcDbEntity
  8
0
 62
     0
100
AcDbTrace
 10
285.6380672638286
 20
36.77575830282209
 30
0.0
 11
285.6380672638286
 21
36.71575830282209
 31
0.0
 12
285.4580672638286
 22
36.74575830282209
 32
0.0
 13
285.4580672638286
 23
36.74575830282209
 33
0.0
  0
SOLID
  5
2F5
330
2EF
100
AcDbEntity
  8
0
 62
     0
100
AcDbTrace
 10
286.7780672638286
 20
36.77575830282209
 30
0.0
 11
286.7780672638286
 21
36.71575830282209
 31
0.0
 12
286.9580672638286
 22
36.74575830282209
 32
0.0
 13
286.9580672638286
 23
36.74575830282209
 33
0.0
  0
MTEXT
  5
2F6
330
2EF
100
AcDbEntity
  8
0
 62
     0
100
AcDbMText
 10
286.2080672638286
 20
36.74575830282209
 30
0.0
 40
0.18
 41
0.0
 71
     5
 72
     1
  1
\A1;1.5000
1001
ACAD
1000
MTEXTBEGIN
1070
    73
1070
     1
1070
    44
1040
1.0
1070
    74
1070
     0
1000
MTEXTEND
  0
POINT
  5
2F7
330
2EF
100
AcDbEntity
  8
DEFPOINTS
 62
     0
100
AcDbPoint
 10
285.4580672638286
 20
35.63044992219089
 30
0.0
  0
POINT
  5
2F8
330
2EF
100
AcDbEntity
  8
DEFPOINTS
 62
     0
100
AcDbPoint
 10
286.9580672638286
 20
35.63044992219091
 30
0.0
  0
POINT
  5
2F9
330
2EF
100
AcDbEntity
  8
DEFPOINTS
 62
     0
100
AcDbPoint
 10
286.9580672638286
 20
36.74575830282209
 30
0.0
  0
ENDBLK
  5
2FB
330
2EF
100
AcDbEntity
  8
0
100
AcDbBlockEnd
  0
BLOCK
  5
308
330
2FD
100
AcDbEntity
  8
0
100
AcDbBlockBegin
  2
*D20
 70
     1
 10
0.0
 20
0.0
 30
0.0
  3
*D20
  1

  0
LINE
  5
2FE
330
2FD
100
AcDbEntity
  8
0
 62
     0
100
AcDbLine
 10
285.7080672638286
 20
34.21794992219091
 30
0.0
 11
285.7080672638286
 21
33.04756070749436
 31
0.0
  0
LINE
  5
2FF
330
2FD
100
AcDbEntity
  8
0
 62
     0
100
AcDbLine
 10
286.7080672638286
 20
34.21794992219091
 30
0.0
 11
286.7080672638286
 21
33.04756070749436
 31
0.0
  0
LINE
  5
300
330
2FD
100
AcDbEntity
  8
0
 62
     0
100
AcDbLine
 10
285.5280672638286
 20
33.22756070749436
 30
0.0
 11
285.3480672638286
 21
33.22756070749436
 31
0.0
  0
LINE
  5
301
330
2FD
100
AcDbEntity
  8
0
 62
     0
100
AcDbLine
 10
286.8880672638286
 20
33.22756070749436
 30
0.0
 11
287.0680672638286
 21
33.22756070749436
 31
0.0
  0
SOLID
  5
302
330
2FD
100
AcDbEntity
  8
0
 62
     0
100
AcDbTrace
 10
285.5280672638286
 20
33.25756070749436
 30
0.0
 11
285.5280672638286
 21
33.19756070749436
 31
0.0
 12
285.7080672638286
 22
33.22756070749436
 32
0.0
 13
285.7080672638286
 23
33.22756070749436
 33
0.0
  0
SOLID
  5
303
330
2FD
100
AcDbEntity
  8
0
 62
     0
100
AcDbTrace
 10
286.8880672638286
 20
33.25756070749436
 30
0.0
 11
286.8880672638286
 21
33.19756070749436
 31
0.0
 12
286.7080672638286
 22
33.22756070749436
 32
0.0
 13
286.7080672638286
 23
33.22756070749436
 33
0.0
  0
MTEXT
  5
304
330
2FD
100
AcDbEntity
  8
0
 62
     0
100
AcDbMText
 10
286.2080672638286
 20
33.22756070749436
 30
0.0
 40
0.18
 41
0.0
 71
     5
 72
     1
  1
\A1;1.0000
1001
ACAD
1000
MTEXTBEGIN
1070
    73
1070
     1
1070
    44
1040
1.0
1070
    74
1070
     0
1000
MTEXTEND
  0
POINT
  5
305
330
2FD
100
AcDbEntity
  8
DEFPOINTS
 62
     0
100
AcDbPoint
 10
285.7080672638286
 20
34.28044992219091
 30
0.0
  0
POINT
  5
306
330
2FD
100
AcDbEntity
  8
DEFPOINTS
 62
     0
100
AcDbPoint
 10
286.7080672638286
 20
34.28044992219091
 30
0.0
  0
POINT
  5
307
330
2FD
100
AcDbEntity
  8
DEFPOINTS
 62
     0
100
AcDbPoint
 10
286.7080672638286
 20
33.22756070749436
 30
0.0
  0
ENDBLK
  5
309
330
2FD
100
AcDbEntity
  8
0
100
AcDbBlockEnd
  0
BLOCK
  5
316
330
30B
100
AcDbEntity
  8
0
100
AcDbBlockBegin
  2
*D21
 70
     1
 10
0.0
 20
0.0
 30
0.0
  3
*D21
  1

  0
LINE
  5
30C
330
30B
100
AcDbEntity
  8
0
 62
     0
100
AcDbLine
 10
286.2080672638286
 20
36.38044992219088
 30
0.0
 11
284.4466959888333
 21
36.38044992219088
 31
0.0
  0
LINE
  5
30D
330
30B
100
AcDbEntity
  8
0
 62
     0
100
AcDbLine
 10
286.2080672638286
 20
33.78044992219091
 30
0.0
 11
284.4466959888333
 21
33.78044992219091
 31
0.0
  0
LINE
  5
30E
330
30B
100
AcDbEntity
  8
0
 62
     0
100
AcDbLine
 10
284.6266959888333
 20
36.20044992219087
 30
0.0
 11
284.6266959888333
 21
35.26044992219089
 31
0.0
  0
LINE
  5
30F
330
30B
100
AcDbEntity
  8
0
 62
     0
100
AcDbLine
 10
284.6266959888333
 20
33.96044992219091
 30
0.0
 11
284.6266959888333
 21
34.90044992219089
 31
0.0
  0
SOLID
  5
310
330
30B
100
AcDbEntity
  8
0
 62
     0
100
AcDbTrace
 10
284.5966959888333
 20
36.20044992219087
 30
0.0
 11
284.6566959888333
 21
36.20044992219087
 31
0.0
 12
284.6266959888333
 22
36.38044992219088
 32
0.0
 13
284.6266959888333
 23
36.38044992219088
 33
0.0
  0
SOLID
  5
311
330
30B
100
AcDbEntity
  8
0
 62
     0
100
AcDbTrace
 10
284.5966959888333
 20
33.96044992219091
 30
0.0
 11
284.6566959888333
 21
33.96044992219091
 31
0.0
 12
284.6266959888333
 22
33.78044992219091
 32
0.0
 13
284.6266959888333
 23
33.78044992219091
 33
0.0
  0
MTEXT
  5
312
330
30B
100
AcDbEntity
  8
0
 62
     0
100
AcDbMText
 10
284.6266959888333
 20
35.08044992219094
 30
0.0
 40
0.18
 41
0.0
 71
     5
 72
     1
  1
\A1;2.6000
1001
ACAD
1000
MTEXTBEGIN
1070
    73
1070
     1
1070
    44
1040
1.0
1070
    74
1070
     0
1000
MTEXTEND
  0
POINT
  5
313
330
30B
100
AcDbEntity
  8
DEFPOINTS
 62
     0
100
AcDbPoint
 10
286.2705672638286
 20
36.38044992219088
 30
0.0
  0
POINT
  5
314
330
30B
100
AcDbEntity
  8
DEFPOINTS
 62
     0
100
AcDbPoint
 10
286.2705672638286
 20
33.78044992219091
 30
0.0
  0
POINT
  5
315
330
30B
100
AcDbEntity
  8
DEFPOINTS
 62
     0
100
AcDbPoint
 10
284.6266959888333
 20
33.78044992219091
 30
0.0
  0
ENDBLK
  5
317
330
30B
100
AcDbEntity
  8
0
100
AcDbBlockEnd
  0
BLOCK
  5
382
330
377
100
AcDbEntity
  8
0
100
AcDbBlockBegin
  2
*D22
 70
     1
 10
0.0
 20
0.0
 30
0.0
  3
*D22
  1

  0
LINE
  5
3AB
330
377
100
AcDbEntity
  8
0
 62
     0
100
AcDbLine
 10
286.8522820924244
 20
33.71061382585215
 30
0.0
 11
289.6095532685085
 21
33.71061382585215
 31
0.0
  0
LINE
  5
3AC
330
377
100
AcDbEntity
  8
0
 62
     0
100
AcDbLine
 10
286.9322820924243
 20
35.71061382585215
 30
0.0
 11
289.6095532685085
 21
35.71061382585215
 31
0.0
  0
LINE
  5
3AD
330
377
100
AcDbEntity
  8
0
 62
     0
100
AcDbLine
 10
289.4295532685085
 20
33.89061382585214
 30
0.0
 11
289.4295532685085
 21
34.53061382585215
 31
0.0
  0
LINE
  5
3AE
330
377
100
AcDbEntity
  8
0
 62
     0
100
AcDbLine
 10
289.4295532685085
 20
35.53061382585215
 30
0.0
 11
289.4295532685085
 21
34.89061382585215
 31
0.0
  0
SOLID
  5
3AF
330
377
100
AcDbEntity
  8
0
 62
     0
100
AcDbTrace
 10
289.3995532685085
 20
33.89061382585214
 30
0.0
 11
289.4595532685085
 21
33.89061382585214
 31
0.0
 12
289.4295532685085
 22
33.71061382585215
 32
0.0
 13
289.4295532685085
 23
33.71061382585215
 33
0.0
  0
SOLID
  5
3B0
330
377
100
AcDbEntity
  8
0
 62
     0
100
AcDbTrace
 10
289.3995532685085
 20
35.53061382585215
 30
0.0
 11
289.4595532685085
 21
35.53061382585215
 31
0.0
 12
289.4295532685085
 22
35.71061382585215
 32
0.0
 13
289.4295532685085
 23
35.71061382585215
 33
0.0
  0
MTEXT
  5
3B1
330
377
100
AcDbEntity
  8
0
 62
     0
100
AcDbMText
 10
289.4295532685085
 20
34.7106138258522
 30
0.0
 40
0.18
 41
0.0
 71
     5
 72
     1
  1
\A1;2.0000
1001
ACAD
1000
MTEXTBEGIN
1070
    73
1070
     1
1070
    44
1040
1.0
1070
    74
1070
     0
1000
MTEXTEND
  0
POINT
  5
3B2
330
377
100
AcDbEntity
  8
DEFPOINTS
 62
     0
100
AcDbPoint
 10
286.7897820924243
 20
33.71061382585215
 30
0.0
  0
POINT
  5
3B3
330
377
100
AcDbEntity
  8
DEFPOINTS
 62
     0
100
AcDbPoint
 10
286.8697820924243
 20
35.71061382585215
 30
0.0
  0
POINT
  5
3B4
330
377
100
AcDbEntity
  8
DEFPOINTS
 62
     0
100
AcDbPoint
 10
289.4295532685085
 20
35.71061382585215
 30
0.0
  0
ENDBLK
  5
383
330
377
100
AcDbEntity
  8
0
100
AcDbBlockEnd
  0
BLOCK
  5
391
330
385
100
AcDbEntity
  8
0
100
AcDbBlockBegin
  2
*D23
 70
     1
 10
0.0
 20
0.0
 30
0.0
  3
*D23
  1

  0
LINE
  5
386
330
385
100
AcDbEntity
  8
0
 62
     0
100
AcDbLine
 10
287.0522820924243
 20
34.06061382585216
 30
0.0
 11
288.7219315084276
 21
34.06061382585216
 31
0.0
  0
LINE
  5
387
330
385
100
AcDbEntity
  8
0
 62
     0
100
AcDbLine
 10
286.8522820924244
 20
33.71061382585215
 30
0.0
 11
288.7219315084276
 21
33.71061382585215
 31
0.0
  0
LINE
  5
388
330
385
100
AcDbEntity
  8
0
 62
     0
100
AcDbLine
 10
288.5419315084277
 20
34.24061382585215
 30
0.0
 11
288.5419315084277
 21
34.42061382585215
 31
0.0
  0
LINE
  5
389
330
385
100
AcDbEntity
  8
0
 62
     0
100
AcDbLine
 10
288.5419315084277
 20
33.53061382585215
 30
0.0
 11
288.5419315084277
 21
33.35061382585215
 31
0.0
  0
LINE
  5
38A
330
385
100
AcDbEntity
  8
0
 62
     0
100
AcDbLine
 10
288.5419315084277
 20
33.35061382585215
 30
0.0
 11
288.3619315084276
 21
33.35061382585215
 31
0.0
  0
SOLID
  5
38B
330
385
100
AcDbEntity
  8
0
 62
     0
100
AcDbTrace
 10
288.5119315084277
 20
34.24061382585215
 30
0.0
 11
288.5719315084276
 21
34.24061382585215
 31
0.0
 12
288.5419315084277
 22
34.06061382585216
 32
0.0
 13
288.5419315084277
 23
34.06061382585216
 33
0.0
  0
SOLID
  5
38C
330
385
100
AcDbEntity
  8
0
 62
     0
100
AcDbTrace
 10
288.5119315084277
 20
33.53061382585215
 30
0.0
 11
288.5719315084276
 21
33.53061382585215
 31
0.0
 12
288.5419315084277
 22
33.71061382585215
 32
0.0
 13
288.5419315084277
 23
33.71061382585215
 33
0.0
  0
MTEXT
  5
38D
330
385
100
AcDbEntity
  8
0
 62
     0
100
AcDbMText
 10
287.8669315084276
 20
33.3506138258522
 30
0.0
 40
0.18
 41
0.0
 71
     5
 72
     1
  1
\A1;0.3500
1001
ACAD
1000
MTEXTBEGIN
1070
    73
1070
     1
1070
    44
1040
1.0
1070
    74
1070
     0
1000
MTEXTEND
  0
POINT
  5
38E
330
385
100
AcDbEntity
  8
DEFPOINTS
 62
     0
100
AcDbPoint
 10
286.9897820924243
 20
34.06061382585216
 30
0.0
  0
POINT
  5
38F
330
385
100
AcDbEntity
  8
DEFPOINTS
 62
     0
100
AcDbPoint
 10
286.7897820924243
 20
33.71061382585215
 30
0.0
  0
POINT
  5
390
330
385
100
AcDbEntity
  8
DEFPOINTS
 62
     0
100
AcDbPoint
 10
288.5419315084277
 20
33.71061382585215
 30
0.0
  0
ENDBLK
  5
392
330
385
100
AcDbEntity
  8
0
100
AcDbBlockEnd
  0
BLOCK
  5
39F
330
394
100
AcDbEntity
  8
0
100
AcDbBlockBegin
  2
*D24
 70
     1
 10
0.0
 20
0.0
 30
0.0
  3
*D24
  1

  0
LINE
  5
395
330
394
100
AcDbEntity
  8
0
 62
     0
100
AcDbLine
 10
287.3822820924243
 20
34.06061382585216
 30
0.0
 11
288.7219315084276
 21
34.06061382585216
 31
0.0
  0
LINE
  5
396
330
394
100
AcDbEntity
  8
0
 62
     0
100
AcDbLine
 10
287.4322820924243
 20
35.21061382585215
 30
0.0
 11
288.7219315084276
 21
35.21061382585215
 31
0.0
  0
LINE
  5
397
330
394
100
AcDbEntity
  8
0
 62
     0
100
AcDbLine
 10
288.5419315084277
 20
34.24061382585215
 30
0.0
 11
288.5419315084277
 21
34.45561382585215
 31
0.0
  0
LINE
  5
398
330
394
100
AcDbEntity
  8
0
 62
     0
100
AcDbLine
 10
288.5419315084277
 20
35.03061382585215
 30
0.0
 11
288.5419315084277
 21
34.81561382585215
 31
0.0
  0
SOLID
  5
399
330
394
100
AcDbEntity
  8
0
 62
     0
100
AcDbTrace
 10
288.5119315084277
 20
34.24061382585215
 30
0.0
 11
288.5719315084276
 21
34.24061382585215
 31
0.0
 12
288.5419315084277
 22
34.06061382585216
 32
0.0
 13
288.5419315084277
 23
34.06061382585216
 33
0.0
  0
SOLID
  5
39A
330
394
100
AcDbEntity
  8
0
 62
     0
100
AcDbTrace
 10
288.5119315084277
 20
35.03061382585215
 30
0.0
 11
288.5719315084276
 21
35.03061382585215
 31
0.0
 12
288.5419315084277
 22
35.21061382585215
 32
0.0
 13
288.5419315084277
 23
35.21061382585215
 33
0.0
  0
MTEXT
  5
39B
330
394
100
AcDbEntity
  8
0
 62
     0
100
AcDbMText
 10
288.5419315084277
 20
34.6356138258522
 30
0.0
 40
0.18
 41
0.0
 71
     5
 72
     1
  1
\A1;1.1500
1001
ACAD
1000
MTEXTBEGIN
1070
    73
1070
     1
1070
    44
1040
1.0
1070
    74
1070
     0
1000
MTEXTEND
  0
POINT
  5
39C
330
394
100
AcDbEntity
  8
DEFPOINTS
 62
     0
100
AcDbPoint
 10
287.3197820924243
 20
34.06061382585216
 30
0.0
  0
POINT
  5
39D
330
394
100
AcDbEntity
  8
DEFPOINTS
 62
     0
100
AcDbPoint
 10
287.3697820924243
 20
35.21061382585215
 30
0.0
  0
POINT
  5
39E
330
394
100
AcDbEntity
  8
DEFPOINTS
 62
     0
100
AcDbPoint
 10
288.5419315084277
 20
35.21061382585215
 30
0.0
  0
ENDBLK
  5
3A0
330
394
100
AcDbEntity
  8
0
100
AcDbBlockEnd
  0
BLOCK
  5
3C1
330
3B6
100
AcDbEntity
  8
0
100
AcDbBlockBegin
  2
*D25
 70
     1
 10
0.0
 20
0.0
 30
0.0
  3
*D25
  1

  0
LINE
  5
3B7
330
3B6
100
AcDbEntity
  8
0
 62
     0
100
AcDbLine
 10
287.3197820924243
 20
33.99811382585216
 30
0.0
 11
287.3197820924243
 21
32.55063186106768
 31
0.0
  0
LINE
  5
3B8
330
3B6
100
AcDbEntity
  8
0
 62
     0
100
AcDbLine
 10
286.4197820924244
 20
33.99811382585216
 30
0.0
 11
286.4197820924244
 21
32.55063186106768
 31
0.0
  0
LINE
  5
3B9
330
3B6
100
AcDbEntity
  8
0
 62
     0
100
AcDbLine
 10
287.1397820924243
 20
32.73063186106768
 30
0.0
 11
286.5997820924243
 21
32.73063186106768
 31
0.0
  0
LINE
  5
3BA
330
3B6
100
AcDbEntity
  8
0
 62
     0
100
AcDbLine
 10
286.4197820924244
 20
32.73063186106768
 30
0.0
 11
286.2397820924243
 21
32.73063186106768
 31
0.0
  0
SOLID
  5
3BB
330
3B6
100
AcDbEntity
  8
0
 62
     0
100
AcDbTrace
 10
287.1397820924243
 20
32.76063186106768
 30
0.0
 11
287.1397820924243
 21
32.70063186106768
 31
0.0
 12
287.3197820924243
 22
32.73063186106768
 32
0.0
 13
287.3197820924243
 23
32.73063186106768
 33
0.0
  0
SOLID
  5
3BC
330
3B6
100
AcDbEntity
  8
0
 62
     0
100
AcDbTrace
 10
286.5997820924243
 20
32.76063186106768
 30
0.0
 11
286.5997820924243
 21
32.70063186106768
 31
0.0
 12
286.4197820924244
 22
32.73063186106768
 32
0.0
 13
286.4197820924244
 23
32.73063186106768
 33
0.0
  0
MTEXT
  5
3BD
330
3B6
100
AcDbEntity
  8
0
 62
     0
100
AcDbMText
 10
285.7597820924243
 20
32.73063186106768
 30
0.0
 40
0.18
 41
0.0
 71
     5
 72
     1
  1
\A1;0.9000
1001
ACAD
1000
MTEXTBEGIN
1070
    73
1070
     1
1070
    44
1040
1.0
1070
    74
1070
     0
1000
MTEXTEND
  0
POINT
  5
3BE
330
3B6
100
AcDbEntity
  8
DEFPOINTS
 62
     0
100
AcDbPoint
 10
287.3197820924243
 20
34.06061382585216
 30
0.0
  0
POINT
  5
3BF
330
3B6
100
AcDbEntity
  8
DEFPOINTS
 62
     0
100
AcDbPoint
 10
286.4197820924244
 20
34.06061382585216
 30
0.0
  0
POINT
  5
3C0
330
3B6
100
AcDbEntity
  8
DEFPOINTS
 62
     0
100
AcDbPoint
 10
286.4197820924244
 20
32.73063186106768
 30
0.0
  0
ENDBLK
  5
3C2
330
3B6
100
AcDbEntity
  8
0
100
AcDbBlockEnd
  0
BLOCK
  5
3CF
330
3C4
100
AcDbEntity
  8
0
100
AcDbBlockBegin
  2
*D26
 70
     1
 10
0.0
 20
0.0
 30
0.0
  3
*D26
  1

  0
LINE
  5
3C5
330
3C4
100
AcDbEntity
  8
0
 62
     0
100
AcDbLine
 10
286.5897820924244
 20
33.99811382585216
 30
0.0
 11
286.5897820924244
 21
32.87316044126316
 31
0.0
  0
LINE
  5
3C6
330
3C4
100
AcDbEntity
  8
0
 62
     0
100
AcDbLine
 10
286.9897820924243
 20
33.99811382585216
 30
0.0
 11
286.9897820924243
 21
32.87316044126316
 31
0.0
  0
LINE
  5
3C7
330
3C4
100
AcDbEntity
  8
0
 62
     0
100
AcDbLine
 10
286.4097820924243
 20
33.05316044126316
 30
0.0
 11
286.2297820924244
 21
33.05316044126316
 31
0.0
  0
LINE
  5
3C8
330
3C4
100
AcDbEntity
  8
0
 62
     0
100
AcDbLine
 10
287.1697820924243
 20
33.05316044126316
 30
0.0
 11
287.3497820924243
 21
33.05316044126316
 31
0.0
  0
SOLID
  5
3C9
330
3C4
100
AcDbEntity
  8
0
 62
     0
100
AcDbTrace
 10
286.4097820924243
 20
33.08316044126316
 30
0.0
 11
286.4097820924243
 21
33.02316044126316
 31
0.0
 12
286.5897820924244
 22
33.05316044126316
 32
0.0
 13
286.5897820924244
 23
33.05316044126316
 33
0.0
  0
SOLID
  5
3CA
330
3C4
100
AcDbEntity
  8
0
 62
     0
100
AcDbTrace
 10
287.1697820924243
 20
33.08316044126316
 30
0.0
 11
287.1697820924243
 21
33.02316044126316
 31
0.0
 12
286.9897820924243
 22
33.05316044126316
 32
0.0
 13
286.9897820924243
 23
33.05316044126316
 33
0.0
  0
MTEXT
  5
3CB
330
3C4
100
AcDbEntity
  8
0
 62
     0
100
AcDbMText
 10
287.8297820924243
 20
33.05316044126316
 30
0.0
 40
0.18
 41
0.0
 71
     5
 72
     1
  1
\A1;0.4000
1001
ACAD
1000
MTEXTBEGIN
1070
    73
1070
     1
1070
    44
1040
1.0
1070
    74
1070
     0
1000
MTEXTEND
  0
POINT
  5
3CC
330
3C4
100
AcDbEntity
  8
DEFPOINTS
 62
     0
100
AcDbPoint
 10
286.5897820924244
 20
34.06061382585216
 30
0.0
  0
POINT
  5
3CD
330
3C4
100
AcDbEntity
  8
DEFPOINTS
 62
     0
100
AcDbPoint
 10
286.9897820924243
 20
34.06061382585216
 30
0.0
  0
POINT
  5
3CE
330
3C4
100
AcDbEntity
  8
DEFPOINTS
 62
     0
100
AcDbPoint
 10
286.9897820924243
 20
33.05316044126316
 30
0.0
  0
ENDBLK
  5
3D0
330
3C4
100
AcDbEntity
  8
0
100
AcDbBlockEnd
  0
BLOCK
  5
3DD
330
3D2
100
AcDbEntity
  8
0
100
AcDbBlockBegin
  2
*D27
 70
     1
 10
0.0
 20
0.0
 30
0.0
  3
*D27
  1

  0
LINE
  5
3D3
330
3D2
100
AcDbEntity
  8
0
 62
     0
100
AcDbLine
 10
286.9897820924243
 20
33.99811382585216
 30
0.0
 11
286.9897820924243
 21
32.91276923447851
 31
0.0
  0
LINE
  5
3D4
330
3D2
100
AcDbEntity
  8
0
 62
     0
100
AcDbLine
 10
286.5897820924244
 20
33.99811382585216
 30
0.0
 11
286.5897820924244
 21
32.91276923447851
 31
0.0
  0
LINE
  5
3D5
330
3D2
100
AcDbEntity
  8
0
 62
     0
100
AcDbLine
 10
287.1697820924243
 20
33.09276923447851
 30
0.0
 11
287.3497820924244
 21
33.09276923447851
 31
0.0
  0
LINE
  5
3D6
330
3D2
100
AcDbEntity
  8
0
 62
     0
100
AcDbLine
 10
286.4097820924243
 20
33.09276923447851
 30
0.0
 11
286.2297820924244
 21
33.09276923447851
 31
0.0
  0
SOLID
  5
3D7
330
3D2
100
AcDbEntity
  8
0
 62
     0
100
AcDbTrace
 10
287.1697820924243
 20
33.12276923447851
 30
0.0
 11
287.1697820924243
 21
33.06276923447851
 31
0.0
 12
286.9897820924243
 22
33.09276923447851
 32
0.0
 13
286.9897820924243
 23
33.09276923447851
 33
0.0
  0
SOLID
  5
3D8
330
3D2
100
AcDbEntity
  8
0
 62
     0
100
AcDbTrace
 10
286.4097820924243
 20
33.12276923447851
 30
0.0
 11
286.4097820924243
 21
33.06276923447851
 31
0.0
 12
286.5897820924244
 22
33.09276923447851
 32
0.0
 13
286.5897820924244
 23
33.09276923447851
 33
0.0
  0
MTEXT
  5
3D9
330
3D2
100
AcDbEntity
  8
0
 62
     0
100
AcDbMText
 10
285.7497820924244
 20
33.09276923447851
 30
0.0
 40
0.18
 41
0.0
 71
     5
 72
     1
  1
\A1;0.4000
1001
ACAD
1000
MTEXTBEGIN
1070
    73
1070
     1
1070
    44
1040
1.0
1070
    74
1070
     0
1000
MTEXTEND
  0
POINT
  5
3DA
330
3D2
100
AcDbEntity
  8
DEFPOINTS
 62
     0
100
AcDbPoint
 10
286.9897820924243
 20
34.06061382585216
 30
0.0
  0
POINT
  5
3DB
330
3D2
100
AcDbEntity
  8
DEFPOINTS
 62
     0
100
AcDbPoint
 10
286.5897820924244
 20
34.06061382585216
 30
0.0
  0
POINT
  5
3DC
330
3D2
100
AcDbEntity
  8
DEFPOINTS
 62
     0
100
AcDbPoint
 10
286.5897820924244
 20
33.09276923447851
 30
0.0
  0
ENDBLK
  5
3DE
330
3D2
100
AcDbEntity
  8
0
100
AcDbBlockEnd
  0
BLOCK
  5
3EB
330
3E0
100
AcDbEntity
  8
0
100
AcDbBlockBegin
  2
*D28
 70
     1
 10
0.0
 20
0.0
 30
0.0
  3
*D28
  1

  0
LINE
  5
3E1
330
3E0
100
AcDbEntity
  8
0
 62
     0
100
AcDbLine
 10
287.3697820924243
 20
35.27311382585216
 30
0.0
 11
287.3697820924243
 21
36.55031877902471
 31
0.0
  0
LINE
  5
3E2
330
3E0
100
AcDbEntity
  8
0
 62
     0
100
AcDbLine
 10
286.3697820924243
 20
35.27311382585235
 30
0.0
 11
286.3697820924243
 21
36.55031877902471
 31
0.0
  0
LINE
  5
3E3
330
3E0
100
AcDbEntity
  8
0
 62
     0
100
AcDbLine
 10
287.5497820924243
 20
36.37031877902471
 30
0.0
 11
287.7297820924244
 21
36.37031877902471
 31
0.0
  0
LINE
  5
3E4
330
3E0
100
AcDbEntity
  8
0
 62
     0
100
AcDbLine
 10
286.1897820924243
 20
36.37031877902471
 30
0.0
 11
286.0097820924243
 21
36.37031877902471
 31
0.0
  0
SOLID
  5
3E5
330
3E0
100
AcDbEntity
  8
0
 62
     0
100
AcDbTrace
 10
287.5497820924243
 20
36.40031877902471
 30
0.0
 11
287.5497820924243
 21
36.34031877902471
 31
0.0
 12
287.3697820924243
 22
36.37031877902471
 32
0.0
 13
287.3697820924243
 23
36.37031877902471
 33
0.0
  0
SOLID
  5
3E6
330
3E0
100
AcDbEntity
  8
0
 62
     0
100
AcDbTrace
 10
286.1897820924243
 20
36.40031877902471
 30
0.0
 11
286.1897820924243
 21
36.34031877902471
 31
0.0
 12
286.3697820924243
 22
36.37031877902471
 32
0.0
 13
286.3697820924243
 23
36.37031877902471
 33
0.0
  0
MTEXT
  5
3E7
330
3E0
100
AcDbEntity
  8
0
 62
     0
100
AcDbMText
 10
286.8697820924243
 20
36.37031877902471
 30
0.0
 40
0.18
 41
0.0
 71
     5
 72
     1
  1
\A1;1.0000
1001
ACAD
1000
MTEXTBEGIN
1070
    73
1070
     1
1070
    44
1040
1.0
1070
    74
1070
     0
1000
MTEXTEND
  0
POINT
  5
3E8
330
3E0
100
AcDbEntity
  8
DEFPOINTS
 62
     0
100
AcDbPoint
 10
287.3697820924243
 20
35.21061382585215
 30
0.0
  0
POINT
  5
3E9
330
3E0
100
AcDbEntity
  8
DEFPOINTS
 62
     0
100
AcDbPoint
 10
286.3697820924243
 20
35.21061382585235
 30
0.0
  0
POINT
  5
3EA
330
3E0
100
AcDbEntity
  8
DEFPOINTS
 62
     0
100
AcDbPoint
 10
286.3697820924243
 20
36.37031877902471
 30
0.0
  0
ENDBLK
  5
3EC
330
3E0
100
AcDbEntity
  8
0
100
AcDbBlockEnd
  0
ENDSEC
  0
SECTION
  2
ENTITIES
  0
TEXT
  5
2C
330
1E
100
AcDbEntity
  8
0
  6
CONTINUOUS
100
AcDbText
 10
287.2805487186718
 20
41.39364127471099
 30
0.0
 40
0.1
  1
2
  7
ROMANC
100
AcDbText
  0
TEXT
  5
2D
330
1E
100
AcDbEntity
  8
0
  6
CONTINUOUS
100
AcDbText
 10
283.9259999999999
 20
41.768
 30
0.0
 40
0.3
  1
ESCALA  1:50
  7
ROMANC
100
AcDbText
  0
LWPOLYLINE
  5
2E
330
1E
100
AcDbEntity
  8
0
  6
CONTINUOUS
100
AcDbPolyline
 90
        4
 70
     1
 43
0.0
 10
281.3959999999998
 20
44.747
 10
291.8959999999998
 20
44.747
 10
291.8959999999998
 20
29.897
 10
281.3959999999998
 20
29.897
  0
TEXT
  5
34
330
1E
100
AcDbEntity
  8
0
  6
CONTINUOUS
100
AcDbText
 10
283.9259999999999
 20
42.381
 30
0.0
 40
0.3
  1
TIPUS   NT160C
  7
ROMANC
100
AcDbText
  0
TEXT
  5
3C
330
1E
100
AcDbEntity
  8
0
  6
CONTINUOUS
100
AcDbText
 10
283.9449999999999
 20
41.09899999999997
 30
0.0
 40
0.3
  1
S = 160 dm
  7
ROMANC
100
AcDbText
  0
TEXT
  5
3D
330
1E
100
AcDbEntity
  8
0
  6
CONTINUOUS
100
AcDbText
 10
283.922
 20
40.529
 30
0.0
 40
0.3
  1
P = 53 dm
  7
ROMANC
100
AcDbText
  0
LWPOLYLINE
  5
375
330
1E
100
AcDbEntity
  8
0
100
AcDbPolyline
 90
        8
 70
     1
 43
0.0
 10
286.5897820924244
 20
33.91061382585213
 42
1.000000000000088
 10
286.9897820924243
 20
33.91061382585217
 10
286.9897820924243
 20
34.06061382585216
 10
287.3197820924243
 20
34.06061382585216
 10
287.3697820924243
 20
35.21061382585215
 42
0.9999999999999861
 10
286.3697820924243
 20
35.21061382585215
 10
286.4197820924244
 20
34.06061382585216
 10
286.5897820924244
 20
34.06061382585216
  0
DIMENSION
  5
376
330
1E
100
AcDbEntity
  8
0
100
AcDbDimension
  2
*D22
 10
289.4295532685085
 20
35.71061382585215
 30
0.0
 11
289.4295532685085
 21
34.7106138258522
 31
0.0
 70
   160
  3
STANDARD
100
AcDbAlignedDimension
 13
286.7897820924243
 23
33.71061382585215
 33
0.0
 14
286.8697820924243
 24
35.71061382585215
 34
0.0
 50
90.0
100
AcDbRotatedDimension
  0
DIMENSION
  5
384
330
1E
100
AcDbEntity
  8
0
100
AcDbDimension
  2
*D23
 10
288.5419315084277
 20
33.71061382585215
 30
0.0
 11
287.8669315084276
 21
33.3506138258522
 31
0.0
 70
    32
  3
STANDARD
100
AcDbAlignedDimension
 13
286.9897820924243
 23
34.06061382585216
 33
0.0
 14
286.7897820924243
 24
33.71061382585215
 34
0.0
 50
90.0
100
AcDbRotatedDimension
  0
DIMENSION
  5
393
330
1E
100
AcDbEntity
  8
0
100
AcDbDimension
  2
*D24
 10
288.5419315084277
 20
35.21061382585215
 30
0.0
 11
288.5419315084277
 21
34.6356138258522
 31
0.0
 70
    32
  3
STANDARD
100
AcDbAlignedDimension
 13
287.3197820924243
 23
34.06061382585216
 33
0.0
 14
287.3697820924243
 24
35.21061382585215
 34
0.0
 50
90.0
100
AcDbRotatedDimension
  0
DIMENSION
  5
3B5
330
1E
100
AcDbEntity
  8
0
100
AcDbDimension
  2
*D25
 10
286.4197820924244
 20
32.73063186106768
 30
0.0
 11
285.7597820924243
 21
32.73063186106768
 31
0.0
 70
    32
  3
STANDARD
100
AcDbAlignedDimension
 13
287.3197820924243
 23
34.06061382585216
 33
0.0
 14
286.4197820924244
 24
34.06061382585216
 34
0.0
100
AcDbRotatedDimension
  0
DIMENSION
  5
3D1
330
1E
100
AcDbEntity
  8
0
100
AcDbDimension
  2
*D27
 10
286.5897820924244
 20
33.09276923447851
 30
0.0
 11
285.7497820924244
 21
33.09276923447851
 31
0.0
 70
    32
  3
STANDARD
100
AcDbAlignedDimension
 13
286.9897820924243
 23
34.06061382585216
 33
0.0
 14
286.5897820924244
 24
34.06061382585216
 34
0.0
100
AcDbRotatedDimension
  0
DIMENSION
  5
3DF
330
1E
100
AcDbEntity
  8
0
100
AcDbDimension
  2
*D28
 10
286.3697820924243
 20
36.37031877902471
 30
0.0
 11
286.8697820924243
 21
36.37031877902471
 31
0.0
 70
    32
  3
STANDARD
100
AcDbAlignedDimension
 13
287.3697820924243
 23
35.21061382585215
 33
0.0
 14
286.3697820924243
 24
35.21061382585235
 34
0.0
100
AcDbRotatedDimension
  0
LWPOLYLINE
  5
3ED
330
1E
100
AcDbEntity
  8
0
100
AcDbPolyline
 90
        8
 70
     1
 43
0.0
 10
286.5997820924243
 20
33.91061382585213
 42
1.0
 10
286.9797820924243
 20
33.91061382585219
 10
286.9797820924243
 20
34.07061382585215
 10
287.3102074276998
 20
34.07061382585215
 10
287.3597820447317
 20
35.21083001758396
 42
0.9995588897761995
 10
286.379782140117
 20
35.21083001758396
 10
286.4293567571489
 20
34.07061382585215
 10
286.5997820924243
 20
34.07061382585215
  0
LWPOLYLINE
  5
3EE
330
1E
100
AcDbEntity
  8
0
100
AcDbPolyline
 90
        8
 70
     1
 43
0.0
 10
286.5797820924244
 20
33.91061382585213
 42
1.0
 10
286.9997820924243
 20
33.91061382585219
 10
286.9997820924243
 20
34.05061382585216
 10
287.3293567571489
 20
34.05061382585216
 10
287.3797820456765
 20
35.21039546198782
 42
1.000428256079348
 10
286.3597821391721
 20
35.21039546198782
 10
286.4102074276998
 20
34.05061382585216
 10
286.5797820924244
 20
34.05061382585216
  0
VIEWPORT
  5
1D9
330
1A
100
AcDbEntity
 67
     1
  8
0
100
AcDbViewport
 10
99.98075199127198
 20
143.3935842514038
 30
0.0
 40
440.9297543499659
 41
314.237268371582
 68
     1
 69
     1
1001
ACAD
1000
MVIEW
1002
{
1070
    16
1010
0.0
1020
0.0
1030
0.0
1010
0.0
1020
0.0
1030
1.0
1040
0.0
1040
314.237268371582
1040
99.98075199127198
1040
143.3935842514038
1040
50.0
1040
0.0
1040
0.0
1070
     0
1070
   100
1070
     1
1070
     1
1070
     0
1070
     0
1070
     0
1070
     0
1040
0.0
1040
0.0
1040
0.0
1040
10.0
1040
10.0
1040
10.0
1040
10.0
1070
     0
1002
{
1002
}
1002
}
  0
VIEWPORT
  5
1DB
330
1A
100
AcDbEntity
 67
     1
  8
0
100
AcDbViewport
 10
99.98075199127198
 20
143.3935842514037
 30
0.0
 40
199.2902839821538
 41
285.8513345476648
 68
     2
 69
     2
1001
ACAD
1000
MVIEW
1002
{
1070
    16
1010
0.0
1020
0.0
1030
0.0
1010
0.0
1020
0.0
1030
1.0
1040
0.0
1040
15.39450171875232
1040
286.6488322780008
1040
37.31916769001135
1040
50.0
1040
0.0
1040
0.0
1070
     0
1070
   100
1070
     1
1070
     1
1070
     0
1070
     0
1070
     0
1070
     0
1040
0.0
1040
0.0
1040
0.0
1040
1.0
1040
1.0
1040
0.0
1040
0.0
1070
     0
1002
{
1002
}
1002
}
  0
ENDSEC
  0
SECTION
  2
OBJECTS
  0
DICTIONARY
  5
C
330
0
100
AcDbDictionary
  3
ACAD_GROUP
350
D
  3
ACAD_LAYOUT
350
19
  3
ACAD_MLINESTYLE
350
16
  3
ACAD_PLOTSETTINGS
350
18
  3
ACAD_PLOTSTYLENAME
350
E
  3
ACDBHEADERROUNDTRIPXREC
350
413
  0
DICTIONARY
  5
1AC
330
1E
100
AcDbDictionary
280
     1
  3
ACAD_LAYOUTSELFREF
360
434
  0
DICTIONARY
  5
1AA
330
1A
100
AcDbDictionary
280
     1
  3
ACAD_LAYOUTSELFREF
360
433
  0
DICTIONARY
  5
D
102
{ACAD_REACTORS
330
C
102
}
330
C
100
AcDbDictionary
  0
DICTIONARY
  5
19
102
{ACAD_REACTORS
330
C
102
}
330
C
100
AcDbDictionary
  0
DICTIONARY
  5
16
102
{ACAD_REACTORS
330
C
102
}
330
C
100
AcDbDictionary
  3
STANDARD
350
17
  0
DICTIONARY
  5
18
102
{ACAD_REACTORS
330
C
102
}
330
C
100
AcDbDictionary
  0
ACDBDICTIONARYWDFLT
  5
E
102
{ACAD_REACTORS
330
C
102
}
330
C
100
AcDbDictionary
281
     1
  3
Normal
350
F
100
AcDbDictionaryWithDefault
340
F
  0
DICTIONARY
  5
413
102
{ACAD_REACTORS
330
C
102
}
330
C
100
AcDbDictionary
  3
TSTACKALIGN
350
414
  3
TSTACKSIZE
350
415
  3
HYPERLINKBASE
350
416
  3
STYLESHEET
350
417
  3
LAYOUTDICT
350
418
  3
PLOTSETDICT
350
419
  3
PLOTSTYLNAMDICT
350
41A
  3
LWETCUNION
350
41B
  3
INSUNITS
350
41C
  3
CEPSNTYPE
350
41D
  3
FINGERPRINTGUID
350
41E
  3
VERSIONGUID
350
41F
  3
PSVPSCALE
350
420
  3
PUCSORTHOREF
350
421
  3
PUCSORTHOVIEW
350
422
  3
PUCSBASE
350
423
  3
PUCSORGTOP
350
424
  3
PUCSORGBOTTOM
350
425
  3
PUCSORGLEFT
350
426
  3
PUCSORGRIGHT
350
427
  3
PUCSORGFRONT
350
428
  3
PUCSORGBACK
350
429
  3
UCSORTHOREF
350
42A
  3
UCSORTHOVIEW
350
42B
  3
UCSBASE
350
42C
  3
UCSORGTOP
350
42D
  3
UCSORGBOTTOM
350
42E
  3
UCSORGLEFT
350
42F
  3
UCSORGRIGHT
350
430
  3
UCSORGFRONT
350
431
  3
UCSORGBACK
350
432
  0
XRECORD
  5
434
102
{ACAD_REACTORS
330
1AC
102
}
330
1AC
100
AcDbXrecord
340
1E
  0
XRECORD
  5
433
102
{ACAD_REACTORS
330
1AA
102
}
330
1AA
100
AcDbXrecord
340
1A
  0
MLINESTYLE
  5
17
102
{ACAD_REACTORS
330
16
102
}
330
16
100
AcDbMlineStyle
  2
STANDARD
 70
     0
  3

 62
   256
 51
90.0
 52
90.0
 71
     2
 49
0.5
 62
   256
  6
BYLAYER
 49
-0.5
 62
   256
  6
BYLAYER
  0
ACDBPLACEHOLDER
  5
F
102
{ACAD_REACTORS
330
E
102
}
330
E
100
AcDbPlaceHolder
280
     0
  0
XRECORD
  5
414
102
{ACAD_REACTORS
330
413
102
}
330
413
100
AcDbXrecord
 90
        1
  0
XRECORD
  5
415
102
{ACAD_REACTORS
330
413
102
}
330
413
100
AcDbXrecord
 90
       70
  0
XRECORD
  5
416
102
{ACAD_REACTORS
330
413
102
}
330
413
100
AcDbXrecord
  1

  0
XRECORD
  5
417
102
{ACAD_REACTORS
330
413
102
}
330
413
100
AcDbXrecord
  1

  0
XRECORD
  5
418
102
{ACAD_REACTORS
330
413
102
}
330
413
100
AcDbXrecord
340
19
  0
XRECORD
  5
419
102
{ACAD_REACTORS
330
413
102
}
330
413
100
AcDbXrecord
340
18
  0
XRECORD
  5
41A
102
{ACAD_REACTORS
330
413
102
}
330
413
100
AcDbXrecord
340
E
  0
XRECORD
  5
41B
102
{ACAD_REACTORS
330
413
102
}
330
413
100
AcDbXrecord
 90
    10781
  0
XRECORD
  5
41C
102
{ACAD_REACTORS
330
413
102
}
330
413
100
AcDbXrecord
 90
        0
  0
XRECORD
  5
41D
102
{ACAD_REACTORS
330
413
102
}
330
413
100
AcDbXrecord
 90
        0
  0
XRECORD
  5
41E
102
{ACAD_REACTORS
330
413
102
}
330
413
100
AcDbXrecord
  1
{A09CBBB2-476A-11D4-A5CD-0008C769B1B5}
  0
XRECORD
  5
41F
102
{ACAD_REACTORS
330
413
102
}
330
413
100
AcDbXrecord
  1
{E79439DB-848B-11D4-A60F-0008C769B1B5}
  0
XRECORD
  5
420
102
{ACAD_REACTORS
330
413
102
}
330
413
100
AcDbXrecord
 40
0.0
  0
XRECORD
  5
421
102
{ACAD_REACTORS
330
413
102
}
330
413
100
AcDbXrecord
340
0
  0
XRECORD
  5
422
102
{ACAD_REACTORS
330
413
102
}
330
413
100
AcDbXrecord
 70
     0
  0
XRECORD
  5
423
102
{ACAD_REACTORS
330
413
102
}
330
413
100
AcDbXrecord
340
0
  0
XRECORD
  5
424
102
{ACAD_REACTORS
330
413
102
}
330
413
100
AcDbXrecord
 10
0.0
 20
0.0
 30
0.0
  0
XRECORD
  5
425
102
{ACAD_REACTORS
330
413
102
}
330
413
100
AcDbXrecord
 10
0.0
 20
0.0
 30
0.0
  0
XRECORD
  5
426
102
{ACAD_REACTORS
330
413
102
}
330
413
100
AcDbXrecord
 10
0.0
 20
0.0
 30
0.0
  0
XRECORD
  5
427
102
{ACAD_REACTORS
330
413
102
}
330
413
100
AcDbXrecord
 10
0.0
 20
0.0
 30
0.0
  0
XRECORD
  5
428
102
{ACAD_REACTORS
330
413
102
}
330
413
100
AcDbXrecord
 10
0.0
 20
0.0
 30
0.0
  0
XRECORD
  5
429
102
{ACAD_REACTORS
330
413
102
}
330
413
100
AcDbXrecord
 10
0.0
 20
0.0
 30
0.0
  0
XRECORD
  5
42A
102
{ACAD_REACTORS
330
413
102
}
330
413
100
AcDbXrecord
340
0
  0
XRECORD
  5
42B
102
{ACAD_REACTORS
330
413
102
}
330
413
100
AcDbXrecord
 70
     0
  0
XRECORD
  5
42C
102
{ACAD_REACTORS
330
413
102
}
330
413
100
AcDbXrecord
340
0
  0
XRECORD
  5
42D
102
{ACAD_REACTORS
330
413
102
}
330
413
100
AcDbXrecord
 10
0.0
 20
0.0
 30
0.0
  0
XRECORD
  5
42E
102
{ACAD_REACTORS
330
413
102
}
330
413
100
AcDbXrecord
 10
0.0
 20
0.0
 30
0.0
  0
XRECORD
  5
42F
102
{ACAD_REACTORS
330
413
102
}
330
413
100
AcDbXrecord
 10
0.0
 20
0.0
 30
0.0
  0
XRECORD
  5
430
102
{ACAD_REACTORS
330
413
102
}
330
413
100
AcDbXrecord
 10
0.0
 20
0.0
 30
0.0
  0
XRECORD
  5
431
102
{ACAD_REACTORS
330
413
102
}
330
413
100
AcDbXrecord
 10
0.0
 20
0.0
 30
0.0
  0
XRECORD
  5
432
102
{ACAD_REACTORS
330
413
102
}
330
413
100
AcDbXrecord
 10
0.0
 20
0.0
 30
0.0
  0
ENDSEC
  0
EOF
