  0
SECTION
  2
HEADER
  9
$ACADVER
  1
AC1015
  9
$ACADMAINTVER
 70
     6
  9
$DWGCODEPAGE
  3
ANSI_1252
  9
$INSBASE
 10
0.0
 20
0.0
 30
0.0
  9
$EXTMIN
 10
318.8923658277983
 20
29.33236764573064
 30
-0.0015258207003583
  9
$EXTMAX
 10
329.4338997865957
 20
44.19999733380973
 30
0.0000000349246037
  9
$LIMMIN
 10
0.0
 20
0.0
  9
$LIMMAX
 10
410.0
 20
287.0
  9
$ORTHOMODE
 70
     1
  9
$REGENMODE
 70
     1
  9
$FILLMODE
 70
     1
  9
$QTEXTMODE
 70
     0
  9
$MIRRTEXT
 70
     1
  9
$LTSCALE
 40
25.0
  9
$ATTMODE
 70
     1
  9
$TEXTSIZE
 40
0.1
  9
$TRACEWID
 40
1.0
  9
$TEXTSTYLE
  7
ROMANC
  9
$CLAYER
  8
0
  9
$CELTYPE
  6
BYLAYER
  9
$CECOLOR
 62
   256
  9
$CELTSCALE
 40
1.0
  9
$DISPSILH
 70
     0
  9
$DIMSCALE
 40
1.5
  9
$DIMASZ
 40
0.1
  9
$DIMEXO
 40
0.01
  9
$DIMDLI
 40
7.0
  9
$DIMRND
 40
0.0
  9
$DIMDLE
 40
0.0
  9
$DIMEXE
 40
0.01
  9
$DIMTP
 40
0.0
  9
$DIMTM
 40
0.0
  9
$DIMTXT
 40
0.05
  9
$DIMCEN
 40
0.0
  9
$DIMTSZ
 40
0.0
  9
$DIMTOL
 70
     0
  9
$DIMLIM
 70
     0
  9
$DIMTIH
 70
     0
  9
$DIMTOH
 70
     0
  9
$DIMSE1
 70
     0
  9
$DIMSE2
 70
     0
  9
$DIMTAD
 70
     1
  9
$DIMZIN
 70
     0
  9
$DIMBLK
  1

  9
$DIMASO
 70
     1
  9
$DIMSHO
 70
     0
  9
$DIMPOST
  1

  9
$DIMAPOST
  1

  9
$DIMALT
 70
     0
  9
$DIMALTD
 70
     2
  9
$DIMALTF
 40
25.4
  9
$DIMLFAC
 40
1.0
  9
$DIMTOFL
 70
     1
  9
$DIMTVP
 40
0.0
  9
$DIMTIX
 70
     1
  9
$DIMSOXD
 70
     0
  9
$DIMSAH
 70
     0
  9
$DIMBLK1
  1

  9
$DIMBLK2
  1

  9
$DIMSTYLE
  2
seccions
  9
$DIMCLRD
 70
     0
  9
$DIMCLRE
 70
     0
  9
$DIMCLRT
 70
     0
  9
$DIMTFAC
 40
70.0
  9
$DIMGAP
 40
0.025
  9
$DIMJUST
 70
     0
  9
$DIMSD1
 70
     0
  9
$DIMSD2
 70
     0
  9
$DIMTOLJ
 70
     1
  9
$DIMTZIN
 70
     0
  9
$DIMALTZ
 70
     0
  9
$DIMALTTZ
 70
     0
  9
$DIMUPT
 70
     0
  9
$DIMDEC
 70
     2
  9
$DIMTDEC
 70
     2
  9
$DIMALTU
 70
     2
  9
$DIMALTTD
 70
     2
  9
$DIMTXSTY
  7
ROMANC
  9
$DIMAUNIT
 70
     0
  9
$DIMADEC
 70
     0
  9
$DIMALTRND
 40
0.0
  9
$DIMAZIN
 70
     0
  9
$DIMDSEP
 70
    46
  9
$DIMATFIT
 70
     3
  9
$DIMFRAC
 70
     0
  9
$DIMLDRBLK
  1

  9
$DIMLUNIT
 70
     2
  9
$DIMLWD
 70
    -2
  9
$DIMLWE
 70
    -2
  9
$DIMTMOVE
 70
     2
  9
$LUNITS
 70
     2
  9
$LUPREC
 70
     2
  9
$SKETCHINC
 40
1.0
  9
$FILLETRAD
 40
0.0
  9
$AUNITS
 70
     0
  9
$AUPREC
 70
     0
  9
$MENU
  1
acad
  9
$ELEVATION
 40
0.0
  9
$PELEVATION
 40
0.0
  9
$THICKNESS
 40
0.0
  9
$LIMCHECK
 70
     0
  9
$CHAMFERA
 40
0.0
  9
$CHAMFERB
 40
0.0
  9
$CHAMFERC
 40
0.0
  9
$CHAMFERD
 40
0.0
  9
$SKPOLY
 70
     0
  9
$TDCREATE
 40
2450927.461950000
  9
$TDUCREATE
 40
2450927.420283333
  9
$TDUPDATE
 40
2451569.480004455
  9
$TDUUPDATE
 40
2451569.438337789
  9
$TDINDWG
 40
0.2636568287
  9
$TDUSRTIMER
 40
0.2636568287
  9
$USRTIMER
 70
     1
  9
$ANGBASE
 50
0.0
  9
$ANGDIR
 70
     0
  9
$PDMODE
 70
     0
  9
$PDSIZE
 40
0.0
  9
$PLINEWID
 40
0.0
  9
$SPLFRAME
 70
     0
  9
$SPLINETYPE
 70
     6
  9
$SPLINESEGS
 70
     8
  9
$HANDSEED
  5
11D9
  9
$SURFTAB1
 70
     6
  9
$SURFTAB2
 70
     6
  9
$SURFTYPE
 70
     6
  9
$SURFU
 70
     6
  9
$SURFV
 70
     6
  9
$UCSBASE
  2

  9
$UCSNAME
  2

  9
$UCSORG
 10
0.0
 20
0.0
 30
0.0
  9
$UCSXDIR
 10
1.0
 20
0.0
 30
0.0
  9
$UCSYDIR
 10
0.0
 20
1.0
 30
0.0
  9
$UCSORTHOREF
  2

  9
$UCSORTHOVIEW
 70
     0
  9
$UCSORGTOP
 10
0.0
 20
0.0
 30
0.0
  9
$UCSORGBOTTOM
 10
0.0
 20
0.0
 30
0.0
  9
$UCSORGLEFT
 10
0.0
 20
0.0
 30
0.0
  9
$UCSORGRIGHT
 10
0.0
 20
0.0
 30
0.0
  9
$UCSORGFRONT
 10
0.0
 20
0.0
 30
0.0
  9
$UCSORGBACK
 10
0.0
 20
0.0
 30
0.0
  9
$PUCSBASE
  2

  9
$PUCSNAME
  2

  9
$PUCSORG
 10
0.0
 20
0.0
 30
0.0
  9
$PUCSXDIR
 10
1.0
 20
0.0
 30
0.0
  9
$PUCSYDIR
 10
0.0
 20
1.0
 30
0.0
  9
$PUCSORTHOREF
  2

  9
$PUCSORTHOVIEW
 70
     0
  9
$PUCSORGTOP
 10
0.0
 20
0.0
 30
0.0
  9
$PUCSORGBOTTOM
 10
0.0
 20
0.0
 30
0.0
  9
$PUCSORGLEFT
 10
0.0
 20
0.0
 30
0.0
  9
$PUCSORGRIGHT
 10
0.0
 20
0.0
 30
0.0
  9
$PUCSORGFRONT
 10
0.0
 20
0.0
 30
0.0
  9
$PUCSORGBACK
 10
0.0
 20
0.0
 30
0.0
  9
$USERI1
 70
     0
  9
$USERI2
 70
     0
  9
$USERI3
 70
     0
  9
$USERI4
 70
     0
  9
$USERI5
 70
     0
  9
$USERR1
 40
0.0
  9
$USERR2
 40
0.0
  9
$USERR3
 40
0.0
  9
$USERR4
 40
0.0
  9
$USERR5
 40
0.0
  9
$WORLDVIEW
 70
     1
  9
$SHADEDGE
 70
     3
  9
$SHADEDIF
 70
    70
  9
$TILEMODE
 70
     1
  9
$MAXACTVP
 70
    16
  9
$PINSBASE
 10
0.0
 20
0.0
 30
0.0
  9
$PLIMCHECK
 70
     0
  9
$PEXTMIN
 10
1.122750045746329
 20
0.7724166329451432
 30
0.0
  9
$PEXTMAX
 10
8.834821200449638
 20
11.99449353678129
 30
0.0
  9
$PLIMMIN
 10
-0.3021541595458984
 20
-1.836020708084106
  9
$PLIMMAX
 10
10.20074577331543
 20
13.01027903556823
  9
$UNITMODE
 70
     0
  9
$VISRETAIN
 70
     0
  9
$PLINEGEN
 70
     0
  9
$PSLTSCALE
 70
     0
  9
$TREEDEPTH
 70
  3020
  9
$CMLSTYLE
  2
STANDARD
  9
$CMLJUST
 70
     0
  9
$CMLSCALE
 40
1.0
  9
$PROXYGRAPHICS
 70
     1
  9
$MEASUREMENT
 70
     0
  9
$CELWEIGHT
370
    -1
  9
$ENDCAPS
280
     0
  9
$JOINSTYLE
280
     0
  9
$LWDISPLAY
290
     0
  9
$INSUNITS
 70
     0
  9
$HYPERLINKBASE
  1

  9
$STYLESHEET
  1

  9
$XEDIT
290
     1
  9
$CEPSNTYPE
380
     0
  9
$PSTYLEMODE
290
     1
  9
$FINGERPRINTGUID
  2
{0874B2C8-D2FB-11D3-A52C-0008C769B1B5}
  9
$VERSIONGUID
  2
{0874B2DE-D2FB-11D3-A52C-0008C769B1B5}
  9
$EXTNAMES
290
     1
  9
$PSVPSCALE
 40
0.0
  9
$OLESTARTUP
290
     0
  0
ENDSEC
  0
SECTION
  2
CLASSES
  0
CLASS
  1
DICTIONARYVAR
  2
AcDbDictionaryVar
  3
AutoCAD 2000
 90
        0
280
     0
281
     0
  0
CLASS
  1
LWPOLYLINE
  2
AcDbPolyline
  3
AutoCAD 2000
 90
    32768
280
     0
281
     1
  0
CLASS
  1
ACDBDICTIONARYWDFLT
  2
AcDbDictionaryWithDefault
  3
AutoCAD 2000
 90
        0
280
     0
281
     0
  0
CLASS
  1
ACDBPLACEHOLDER
  2
AcDbPlaceHolder
  3
AutoCAD 2000
 90
        0
280
     0
281
     0
  0
CLASS
  1
LAYOUT
  2
AcDbLayout
  3
AutoCAD 2000
 90
        0
280
     0
281
     0
  0
CLASS
  1
PLOTSETTINGS
  2
AcDbPlotSettings
  3
AutoCAD 2000
 90
        0
280
     0
281
     0
  0
ENDSEC
  0
SECTION
  2
TABLES
  0
TABLE
  2
VPORT
  5
8
330
0
100
AcDbSymbolTable
 70
    17
  0
VPORT
  5
11D8
330
8
100
AcDbSymbolTableRecord
100
AcDbViewportTableRecord
  2
*Active
 70
     0
 10
0.0
 20
0.0
 11
1.0
 21
1.0
 12
324.163132807197
 22
36.76618248977018
 13
0.0
 23
0.0
 14
1.0
 24
1.0
 15
10.0
 25
10.0
 16
0.0
 26
0.0
 36
1.0
 17
0.0
 27
0.0
 37
0.0
 40
15.0001791355211
 41
1.706845238095238
 42
50.0
 43
0.0
 44
0.0
 50
0.0
 51
0.0
 71
     0
 72
   100
 73
     1
 74
     0
 75
     0
 76
     0
 77
     0
 78
     1
281
     0
 65
     1
110
0.0
120
0.0
130
0.0
111
1.0
121
0.0
131
0.0
112
0.0
122
1.0
132
0.0
 79
     0
146
0.0
  0
ENDTAB
  0
TABLE
  2
LTYPE
  5
5
330
0
100
AcDbSymbolTable
 70
     1
  0
LTYPE
  5
11
330
5
100
AcDbSymbolTableRecord
100
AcDbLinetypeTableRecord
  2
BYBLOCK
 70
     0
  3

 72
    65
 73
     0
 40
0.0
  0
LTYPE
  5
12
330
5
100
AcDbSymbolTableRecord
100
AcDbLinetypeTableRecord
  2
BYLAYER
 70
     0
  3

 72
    65
 73
     0
 40
0.0
  0
LTYPE
  5
13
330
5
100
AcDbSymbolTableRecord
100
AcDbLinetypeTableRecord
  2
CONTINUOUS
 70
     0
  3
Solid line
 72
    65
 73
     0
 40
0.0
  0
ENDTAB
  0
TABLE
  2
LAYER
  5
2
330
0
100
AcDbSymbolTable
 70
     8
  0
LAYER
  5
E
330
2
100
AcDbSymbolTableRecord
100
AcDbLayerTableRecord
  2
0
 70
     0
 62
     7
  6
CONTINUOUS
370
    -3
390
FBF
  0
LAYER
  5
70C
330
2
100
AcDbSymbolTableRecord
100
AcDbLayerTableRecord
  2
DEFPOINTS
 70
     0
 62
     7
  6
CONTINUOUS
290
     0
370
    -3
390
FBF
  0
LAYER
  5
908
330
2
100
AcDbSymbolTableRecord
100
AcDbLayerTableRecord
  2
COTES
 70
     0
 62
     4
  6
CONTINUOUS
370
    -3
390
FBF
  0
LAYER
  5
909
330
2
100
AcDbSymbolTableRecord
100
AcDbLayerTableRecord
  2
SECCIO
 70
     0
 62
    30
  6
CONTINUOUS
370
    -3
390
FBF
  0
LAYER
  5
FC8
330
2
100
AcDbSymbolTableRecord
100
AcDbLayerTableRecord
  2
MESURA
 70
     0
 62
     7
  6
CONTINUOUS
370
    -3
390
FBF
  0
LAYER
  5
FC9
330
2
100
AcDbSymbolTableRecord
100
AcDbLayerTableRecord
  2
TEXTEP
 70
     0
 62
     7
  6
CONTINUOUS
370
    -3
390
FBF
  0
LAYER
  5
FCA
330
2
100
AcDbSymbolTableRecord
100
AcDbLayerTableRecord
  2
TEXTEG
 70
     0
 62
     7
  6
CONTINUOUS
370
    -3
390
FBF
  0
LAYER
  5
1137
330
2
100
AcDbSymbolTableRecord
100
AcDbLayerTableRecord
  2
AUX
 70
     0
 62
     7
  6
CONTINUOUS
290
     0
370
    -3
390
FBF
  0
ENDTAB
  0
TABLE
  2
STYLE
  5
3
330
0
100
AcDbSymbolTable
 70
     2
  0
STYLE
  5
F
330
3
100
AcDbSymbolTableRecord
100
AcDbTextStyleTableRecord
  2
STANDARD
 70
     0
 40
0.0
 41
1.0
 50
0.0
 71
     0
 42
0.1
  3
txt
  4

  0
STYLE
  5
1C
330
3
100
AcDbSymbolTableRecord
100
AcDbTextStyleTableRecord
  2
ROMANC
 70
     0
 40
0.0
 41
1.0
 50
0.0
 71
     0
 42
0.1
  3
romanc
  4

  0
ENDTAB
  0
TABLE
  2
VIEW
  5
6
330
0
100
AcDbSymbolTable
 70
     0
  0
ENDTAB
  0
TABLE
  2
UCS
  5
7
330
0
100
AcDbSymbolTable
 70
     0
  0
ENDTAB
  0
TABLE
  2
APPID
  5
9
330
0
100
AcDbSymbolTable
 70
     1
  0
APPID
  5
10
330
9
100
AcDbSymbolTableRecord
100
AcDbRegAppTableRecord
  2
ACAD
 70
     0
  0
ENDTAB
  0
TABLE
  2
DIMSTYLE
  5
A
330
0
100
AcDbSymbolTable
 70
     3
100
AcDbDimStyleTable
 71
     3
340
FC7
340
1F
340
90A
  0
DIMSTYLE
105
1F
102
{ACAD_REACTORS
330
FAF
330
FA2
102
}
330
A
100
AcDbSymbolTableRecord
100
AcDbDimStyleTableRecord
  2
MERITXELL
 70
     0
 40
1.5
 41
0.1
 42
0.01
 43
7.0
 44
0.01
 73
     0
 74
     0
 77
     1
140
0.05
141
0.1
146
70.0
172
     1
174
     1
271
     2
272
     2
279
     2
340
1C
  0
DIMSTYLE
105
90A
102
{ACAD_REACTORS
330
91D
330
91C
330
91B
330
91A
330
910
330
90F
330
90E
330
90D
330
90C
330
919
330
918
330
92B
330
92A
330
929
330
928
330
927
330
926
330
925
330
924
330
923
330
922
330
921
102
}
330
A
100
AcDbSymbolTableRecord
100
AcDbDimStyleTableRecord
  2
STANDARD
 70
     0
 41
0.05
 42
0.08
 43
0.08
 44
0.08
 46
1.25
 73
     0
 74
     0
140
0.08
141
-0.08
143
0.039
145
1.0
147
0.08
176
    71
177
    71
178
     7
271
     2
272
     2
279
     2
340
F
341
386
342
386
  0
DIMSTYLE
105
FC7
102
{ACAD_REACTORS
330
10C2
330
10B5
330
1096
330
1089
330
104F
330
1042
330
1035
330
1028
102
}
330
A
100
AcDbSymbolTableRecord
100
AcDbDimStyleTableRecord
  2
seccions
 70
     0
 40
1.5
 41
0.1
 42
0.01
 43
7.0
 44
0.01
 73
     0
 74
     0
 77
     1
140
0.05
141
0.0
146
70.0
147
0.025
172
     1
174
     1
271
     2
272
     2
279
     2
340
1C
  0
ENDTAB
  0
TABLE
  2
BLOCK_RECORD
  5
1
330
0
100
AcDbSymbolTable
 70
    35
  0
BLOCK_RECORD
  5
17
330
1
100
AcDbSymbolTableRecord
100
AcDbBlockTableRecord
  2
*MODEL_SPACE
340
FC2
  0
BLOCK_RECORD
  5
14
330
1
100
AcDbSymbolTableRecord
100
AcDbBlockTableRecord
  2
*PAPER_SPACE
340
FC3
  0
BLOCK_RECORD
  5
386
330
1
100
AcDbSymbolTableRecord
100
AcDbBlockTableRecord
  2
TICK
340
0
102
{BLKREFS
331
803
331
804
331
80F
331
810
331
81A
331
825
331
826
331
832
331
833
331
83E
331
83F
331
84A
331
84B
331
856
331
857
331
863
331
864
331
86F
331
870
331
87C
331
87D
331
888
331
889
331
894
331
895
331
8A0
331
8A1
331
8AD
331
8AE
331
8B9
331
8BA
331
8C6
331
8C7
331
8D2
331
8D3
331
8DE
331
8DF
331
8EA
331
8EB
331
8F7
331
8F8
331
902
102
}
  0
BLOCK_RECORD
  5
7FF
330
1
100
AcDbSymbolTableRecord
100
AcDbBlockTableRecord
  2
*D1
340
0
  0
BLOCK_RECORD
  5
80B
330
1
100
AcDbSymbolTableRecord
100
AcDbBlockTableRecord
  2
*D2
340
0
  0
BLOCK_RECORD
  5
817
330
1
100
AcDbSymbolTableRecord
100
AcDbBlockTableRecord
  2
*D3
340
0
  0
BLOCK_RECORD
  5
820
330
1
100
AcDbSymbolTableRecord
100
AcDbBlockTableRecord
  2
*D4
340
0
  0
BLOCK_RECORD
  5
82D
330
1
100
AcDbSymbolTableRecord
100
AcDbBlockTableRecord
  2
*D5
340
0
  0
BLOCK_RECORD
  5
83A
330
1
100
AcDbSymbolTableRecord
100
AcDbBlockTableRecord
  2
*D6
340
0
  0
BLOCK_RECORD
  5
846
330
1
100
AcDbSymbolTableRecord
100
AcDbBlockTableRecord
  2
*D7
340
0
  0
BLOCK_RECORD
  5
852
330
1
100
AcDbSymbolTableRecord
100
AcDbBlockTableRecord
  2
*D8
340
0
  0
BLOCK_RECORD
  5
85E
330
1
100
AcDbSymbolTableRecord
100
AcDbBlockTableRecord
  2
*D9
340
0
  0
BLOCK_RECORD
  5
86B
330
1
100
AcDbSymbolTableRecord
100
AcDbBlockTableRecord
  2
*D10
340
0
  0
BLOCK_RECORD
  5
877
330
1
100
AcDbSymbolTableRecord
100
AcDbBlockTableRecord
  2
*D11
340
0
  0
BLOCK_RECORD
  5
884
330
1
100
AcDbSymbolTableRecord
100
AcDbBlockTableRecord
  2
*D12
340
0
  0
BLOCK_RECORD
  5
890
330
1
100
AcDbSymbolTableRecord
100
AcDbBlockTableRecord
  2
*D13
340
0
  0
BLOCK_RECORD
  5
89C
330
1
100
AcDbSymbolTableRecord
100
AcDbBlockTableRecord
  2
*D14
340
0
  0
BLOCK_RECORD
  5
8A8
330
1
100
AcDbSymbolTableRecord
100
AcDbBlockTableRecord
  2
*D15
340
0
  0
BLOCK_RECORD
  5
8B5
330
1
100
AcDbSymbolTableRecord
100
AcDbBlockTableRecord
  2
*D16
340
0
  0
BLOCK_RECORD
  5
8C1
330
1
100
AcDbSymbolTableRecord
100
AcDbBlockTableRecord
  2
*D17
340
0
  0
BLOCK_RECORD
  5
8CE
330
1
100
AcDbSymbolTableRecord
100
AcDbBlockTableRecord
  2
*D18
340
0
  0
BLOCK_RECORD
  5
8DA
330
1
100
AcDbSymbolTableRecord
100
AcDbBlockTableRecord
  2
*D19
340
0
  0
BLOCK_RECORD
  5
8E6
330
1
100
AcDbSymbolTableRecord
100
AcDbBlockTableRecord
  2
*D20
340
0
  0
BLOCK_RECORD
  5
8F2
330
1
100
AcDbSymbolTableRecord
100
AcDbBlockTableRecord
  2
*D21
340
0
  0
BLOCK_RECORD
  5
8FF
330
1
100
AcDbSymbolTableRecord
100
AcDbBlockTableRecord
  2
*D22
340
0
  0
BLOCK_RECORD
  5
90B
330
1
100
AcDbSymbolTableRecord
100
AcDbBlockTableRecord
  2
VILADOMAT
340
0
  0
BLOCK_RECORD
  5
F96
330
1
100
AcDbSymbolTableRecord
100
AcDbBlockTableRecord
  2
*D24
340
0
  0
BLOCK_RECORD
  5
FA3
330
1
100
AcDbSymbolTableRecord
100
AcDbBlockTableRecord
  2
*D25
340
0
  0
BLOCK_RECORD
  5
FCB
330
1
100
AcDbSymbolTableRecord
100
AcDbBlockTableRecord
  2
NT1540
340
0
102
{BLKREFS
331
FFA
102
}
  0
BLOCK_RECORD
  5
1029
330
1
100
AcDbSymbolTableRecord
100
AcDbBlockTableRecord
  2
*D27
340
0
  0
BLOCK_RECORD
  5
1036
330
1
100
AcDbSymbolTableRecord
100
AcDbBlockTableRecord
  2
*D28
340
0
  0
BLOCK_RECORD
  5
1043
330
1
100
AcDbSymbolTableRecord
100
AcDbBlockTableRecord
  2
*D29
340
0
  0
BLOCK_RECORD
  5
1050
330
1
100
AcDbSymbolTableRecord
100
AcDbBlockTableRecord
  2
*D30
340
0
  0
BLOCK_RECORD
  5
108A
330
1
100
AcDbSymbolTableRecord
100
AcDbBlockTableRecord
  2
*D31
340
0
  0
BLOCK_RECORD
  5
1097
330
1
100
AcDbSymbolTableRecord
100
AcDbBlockTableRecord
  2
*D32
340
0
  0
BLOCK_RECORD
  5
10B6
330
1
100
AcDbSymbolTableRecord
100
AcDbBlockTableRecord
  2
*D33
340
0
  0
BLOCK_RECORD
  5
10C3
330
1
100
AcDbSymbolTableRecord
100
AcDbBlockTableRecord
  2
*D34
340
0
  0
ENDTAB
  0
ENDSEC
  0
SECTION
  2
BLOCKS
  0
BLOCK
  5
23
330
17
100
AcDbEntity
  8
0
100
AcDbBlockBegin
  2
*MODEL_SPACE
 70
     0
 10
0.0
 20
0.0
 30
0.0
  3
*MODEL_SPACE
  1

  0
ENDBLK
  5
24
330
17
100
AcDbEntity
  8
0
100
AcDbBlockEnd
  0
BLOCK
  5
21
330
14
100
AcDbEntity
 67
     1
  8
0
100
AcDbBlockBegin
  2
*PAPER_SPACE
 70
     0
 10
0.0
 20
0.0
 30
0.0
  3
*PAPER_SPACE
  1

  0
ENDBLK
  5
22
330
14
100
AcDbEntity
 67
     1
  8
0
100
AcDbBlockEnd
  0
BLOCK
  5
389
330
386
100
AcDbEntity
  8
0
100
AcDbBlockBegin
  2
TICK
 70
     0
 10
0.0
 20
0.0
 30
0.0
  3
TICK
  1

  0
LINE
  5
387
330
386
100
AcDbEntity
  8
0
  6
ByBlock
 62
     6
100
AcDbLine
 10
-1.0
 20
-1.0
 30
0.0
 11
1.0
 21
1.0
 31
0.0
  0
LINE
  5
388
330
386
100
AcDbEntity
  8
0
  6
ByBlock
 62
    71
100
AcDbLine
 10
0.0
 20
0.0
 30
0.0
 11
-1.0
 21
0.0
 31
0.0
  0
ENDBLK
  5
38A
330
386
100
AcDbEntity
  8
0
100
AcDbBlockEnd
  0
BLOCK
  5
809
330
7FF
100
AcDbEntity
  8
0
100
AcDbBlockBegin
  2
*D1
 70
     1
 10
0.0
 20
0.0
 30
0.0
  3
*D1
  1

  0
LINE
  5
800
330
7FF
100
AcDbEntity
  8
0
  6
ByBlock
 62
    71
100
AcDbLine
 10
142.0564547008901
 20
122.7782171102962
 30
0.0
 11
142.0564547008901
 21
123.0022307698278
 31
0.0
  0
LINE
  5
801
330
7FF
100
AcDbEntity
  8
0
  6
ByBlock
 62
    71
100
AcDbLine
 10
143.0564547008901
 20
122.7782171102962
 30
0.0
 11
143.0564547008901
 21
123.0022307698278
 31
0.0
  0
LINE
  5
802
330
7FF
100
AcDbEntity
  8
0
  6
ByBlock
 62
    71
100
AcDbLine
 10
142.1064547008901
 20
122.9222307698278
 30
0.0
 11
143.0064547008901
 21
122.9222307698278
 31
0.0
  0
INSERT
  5
803
330
7FF
100
AcDbEntity
  8
0
  6
ByBlock
 62
    71
100
AcDbBlockReference
  2
TICK
 10
142.0564547008901
 20
122.9222307698278
 30
0.0
 41
0.05
 42
0.05
 43
0.05
 50
180.0
  0
INSERT
  5
804
330
7FF
100
AcDbEntity
  8
0
  6
ByBlock
 62
    71
100
AcDbBlockReference
  2
TICK
 10
143.0564547008901
 20
122.9222307698278
 30
0.0
 41
0.05
 42
0.05
 43
0.05
  0
TEXT
  5
805
330
7FF
100
AcDbEntity
  8
0
  6
ByBlock
 62
     7
100
AcDbText
 10
142.4631213675568
 20
122.9622307698278
 30
0.0
 40
0.08
  1
1.00
 72
     1
 11
142.5564547008901
 21
123.0022307698278
 31
0.0
100
AcDbText
 73
     2
  0
POINT
  5
806
330
7FF
100
AcDbEntity
  8
DEFPOINTS
  6
ByBlock
 62
     0
100
AcDbPoint
 10
142.0564547008901
 20
122.6982171102962
 30
0.0
  0
POINT
  5
807
330
7FF
100
AcDbEntity
  8
DEFPOINTS
  6
ByBlock
 62
     0
100
AcDbPoint
 10
143.0564547008901
 20
122.6982171102962
 30
0.0
  0
POINT
  5
808
330
7FF
100
AcDbEntity
  8
DEFPOINTS
  6
ByBlock
 62
     0
100
AcDbPoint
 10
143.0564547008901
 20
122.9222307698278
 30
0.0
  0
ENDBLK
  5
80A
330
7FF
100
AcDbEntity
  8
0
100
AcDbBlockEnd
  0
BLOCK
  5
815
330
80B
100
AcDbEntity
  8
0
100
AcDbBlockBegin
  2
*D2
 70
     1
 10
0.0
 20
0.0
 30
0.0
  3
*D2
  1

  0
LINE
  5
80C
330
80B
100
AcDbEntity
  8
0
  6
ByBlock
 62
    71
100
AcDbLine
 10
143.0564547008901
 20
122.7782171102962
 30
0.0
 11
143.0564547008901
 21
123.0022307698278
 31
0.0
  0
LINE
  5
80D
330
80B
100
AcDbEntity
  8
0
  6
ByBlock
 62
    71
100
AcDbLine
 10
144.0564547008901
 20
122.4782171102962
 30
0.0
 11
144.0564547008901
 21
123.0022307698278
 31
0.0
  0
LINE
  5
80E
330
80B
100
AcDbEntity
  8
0
  6
ByBlock
 62
    71
100
AcDbLine
 10
143.1064547008901
 20
122.9222307698278
 30
0.0
 11
144.0064547008901
 21
122.9222307698278
 31
0.0
  0
INSERT
  5
80F
330
80B
100
AcDbEntity
  8
0
  6
ByBlock
 62
    71
100
AcDbBlockReference
  2
TICK
 10
143.0564547008901
 20
122.9222307698278
 30
0.0
 41
0.05
 42
0.05
 43
0.05
 50
180.0
  0
INSERT
  5
810
330
80B
100
AcDbEntity
  8
0
  6
ByBlock
 62
    71
100
AcDbBlockReference
  2
TICK
 10
144.0564547008901
 20
122.9222307698278
 30
0.0
 41
0.05
 42
0.05
 43
0.05
  0
TEXT
  5
811
330
80B
100
AcDbEntity
  8
0
  6
ByBlock
 62
     7
100
AcDbText
 10
143.4631213675568
 20
122.9622307698278
 30
0.0
 40
0.08
  1
1.00
 72
     1
 11
143.5564547008901
 21
123.0022307698278
 31
0.0
100
AcDbText
 73
     2
  0
POINT
  5
812
330
80B
100
AcDbEntity
  8
DEFPOINTS
  6
ByBlock
 62
     0
100
AcDbPoint
 10
143.0564547008901
 20
122.6982171102962
 30
0.0
  0
POINT
  5
813
330
80B
100
AcDbEntity
  8
DEFPOINTS
  6
ByBlock
 62
     0
100
AcDbPoint
 10
144.0564547008901
 20
122.3982171102962
 30
0.0
  0
POINT
  5
814
330
80B
100
AcDbEntity
  8
DEFPOINTS
  6
ByBlock
 62
     0
100
AcDbPoint
 10
144.0564547008901
 20
122.9222307698278
 30
0.0
  0
ENDBLK
  5
816
330
80B
100
AcDbEntity
  8
0
100
AcDbBlockEnd
  0
BLOCK
  5
81E
330
817
100
AcDbEntity
  8
0
100
AcDbBlockBegin
  2
*D3
 70
     1
 10
0.0
 20
0.0
 30
0.0
  3
*D3
  1

  0
LINE
  5
818
330
817
100
AcDbEntity
  8
0
  6
ByBlock
 62
    71
100
AcDbLine
 10
143.0564547008901
 20
124.9482171102962
 30
0.0
 11
143.0564547008901
 21
124.5130954532914
 31
0.0
  0
LINE
  5
819
330
817
100
AcDbEntity
  8
0
  6
ByBlock
 62
    71
100
AcDbLine
 10
143.0564547008901
 20
124.5130954532914
 30
0.0
 11
143.0564547008901
 21
124.1130954532914
 31
0.0
  0
INSERT
  5
81A
330
817
100
AcDbEntity
  8
0
  6
ByBlock
 62
    71
100
AcDbBlockReference
  2
TICK
 10
143.0564547008901
 20
124.9982171102962
 30
0.0
 41
0.05
 42
0.05
 43
0.05
 50
90.0
  0
TEXT
  5
81B
330
817
100
AcDbEntity
  8
0
  6
ByBlock
 62
     7
100
AcDbText
 10
143.0164547008901
 20
124.1397621199581
 30
0.0
 40
0.08
  1
R1.00
 50
90.0
 72
     1
 11
142.9764547008901
 21
124.2730954532914
 31
0.0
100
AcDbText
 73
     2
  0
POINT
  5
81C
330
817
100
AcDbEntity
  8
DEFPOINTS
  6
ByBlock
 62
     0
100
AcDbPoint
 10
143.0564547008901
 20
124.9982171102962
 30
0.0
  0
POINT
  5
81D
330
817
100
AcDbEntity
  8
DEFPOINTS
  6
ByBlock
 62
     0
100
AcDbPoint
 10
143.0564547008901
 20
123.9982171102963
 30
0.0
  0
ENDBLK
  5
81F
330
817
100
AcDbEntity
  8
0
100
AcDbBlockEnd
  0
BLOCK
  5
82B
330
820
100
AcDbEntity
  8
0
100
AcDbBlockBegin
  2
*D4
 70
     1
 10
0.0
 20
0.0
 30
0.0
  3
*D4
  1

  0
LINE
  5
821
330
820
100
AcDbEntity
  8
0
  6
ByBlock
 62
    71
100
AcDbLine
 10
141.8064547008901
 20
122.0182171102963
 30
0.0
 11
141.8064547008901
 21
121.6547504873182
 31
0.0
  0
LINE
  5
822
330
820
100
AcDbEntity
  8
0
  6
ByBlock
 62
    71
100
AcDbLine
 10
142.0564547008901
 20
122.0164219618107
 30
0.0
 11
142.0564547008901
 21
121.6547504873182
 31
0.0
  0
LINE
  5
823
330
820
100
AcDbEntity
  8
0
  6
ByBlock
 62
    71
100
AcDbLine
 10
141.7564547008901
 20
121.7347504873182
 30
0.0
 11
141.7064547008901
 21
121.7347504873182
 31
0.0
  0
LINE
  5
824
330
820
100
AcDbEntity
  8
0
  6
ByBlock
 62
    71
100
AcDbLine
 10
142.1064547008901
 20
121.7347504873182
 30
0.0
 11
142.1564547008901
 21
121.7347504873182
 31
0.0
  0
INSERT
  5
825
330
820
100
AcDbEntity
  8
0
  6
ByBlock
 62
    71
100
AcDbBlockReference
  2
TICK
 10
141.8064547008901
 20
121.7347504873182
 30
0.0
 41
0.05
 42
0.05
 43
0.05
  0
INSERT
  5
826
330
820
100
AcDbEntity
  8
0
  6
ByBlock
 62
    71
100
AcDbBlockReference
  2
TICK
 10
142.0564547008901
 20
121.7347504873182
 30
0.0
 41
0.05
 42
0.05
 43
0.05
 50
180.0
  0
TEXT
  5
827
330
820
100
AcDbEntity
  8
0
  6
ByBlock
 62
     7
100
AcDbText
 10
141.8129072631658
 20
121.5150813509254
 30
0.0
 40
0.08
  1
0.25
 72
     1
 11
141.9262405964991
 21
121.5550813509254
 31
0.0
100
AcDbText
 73
     2
  0
POINT
  5
828
330
820
100
AcDbEntity
  8
DEFPOINTS
  6
ByBlock
 62
     0
100
AcDbPoint
 10
141.8064547008901
 20
122.0982171102963
 30
0.0
  0
POINT
  5
829
330
820
100
AcDbEntity
  8
DEFPOINTS
  6
ByBlock
 62
     0
100
AcDbPoint
 10
142.0564547008901
 20
122.0964219618106
 30
0.0
  0
POINT
  5
82A
330
820
100
AcDbEntity
  8
DEFPOINTS
  6
ByBlock
 62
     0
100
AcDbPoint
 10
142.0564547008901
 20
121.7347504873182
 30
0.0
  0
ENDBLK
  5
82C
330
820
100
AcDbEntity
  8
0
100
AcDbBlockEnd
  0
BLOCK
  5
838
330
82D
100
AcDbEntity
  8
0
100
AcDbBlockBegin
  2
*D5
 70
     1
 10
0.0
 20
0.0
 30
0.0
  3
*D5
  1

  0
LINE
  5
82E
330
82D
100
AcDbEntity
  8
0
  6
ByBlock
 62
    71
100
AcDbLine
 10
144.0564547008901
 20
122.0189400884808
 30
0.0
 11
144.0564547008901
 21
121.655684509619
 31
0.0
  0
LINE
  5
82F
330
82D
100
AcDbEntity
  8
0
  6
ByBlock
 62
    71
100
AcDbLine
 10
144.3064547008901
 20
122.0182171102963
 30
0.0
 11
144.3064547008901
 21
121.655684509619
 31
0.0
  0
LINE
  5
830
330
82D
100
AcDbEntity
  8
0
  6
ByBlock
 62
    71
100
AcDbLine
 10
144.0064547008901
 20
121.735684509619
 30
0.0
 11
143.9564547008901
 21
121.735684509619
 31
0.0
  0
LINE
  5
831
330
82D
100
AcDbEntity
  8
0
  6
ByBlock
 62
    71
100
AcDbLine
 10
144.3564547008901
 20
121.735684509619
 30
0.0
 11
144.4064547008901
 21
121.735684509619
 31
0.0
  0
INSERT
  5
832
330
82D
100
AcDbEntity
  8
0
  6
ByBlock
 62
    71
100
AcDbBlockReference
  2
TICK
 10
144.0564547008901
 20
121.735684509619
 30
0.0
 41
0.05
 42
0.05
 43
0.05
  0
INSERT
  5
833
330
82D
100
AcDbEntity
  8
0
  6
ByBlock
 62
    71
100
AcDbBlockReference
  2
TICK
 10
144.3064547008901
 20
121.735684509619
 30
0.0
 41
0.05
 42
0.05
 43
0.05
 50
180.0
  0
TEXT
  5
834
330
82D
100
AcDbEntity
  8
0
  6
ByBlock
 62
     7
100
AcDbText
 10
144.0840341345212
 20
121.5150813509254
 30
0.0
 40
0.08
  1
0.25
 72
     1
 11
144.1973674678545
 21
121.5550813509254
 31
0.0
100
AcDbText
 73
     2
  0
POINT
  5
835
330
82D
100
AcDbEntity
  8
DEFPOINTS
  6
ByBlock
 62
     0
100
AcDbPoint
 10
144.0564547008901
 20
122.0989400884808
 30
0.0
  0
POINT
  5
836
330
82D
100
AcDbEntity
  8
DEFPOINTS
  6
ByBlock
 62
     0
100
AcDbPoint
 10
144.3064547008901
 20
122.0982171102963
 30
0.0
  0
POINT
  5
837
330
82D
100
AcDbEntity
  8
DEFPOINTS
  6
ByBlock
 62
     0
100
AcDbPoint
 10
144.3064547008901
 20
121.735684509619
 30
0.0
  0
ENDBLK
  5
839
330
82D
100
AcDbEntity
  8
0
100
AcDbBlockEnd
  0
BLOCK
  5
844
330
83A
100
AcDbEntity
  8
0
100
AcDbBlockBegin
  2
*D6
 70
     1
 10
0.0
 20
0.0
 30
0.0
  3
*D6
  1

  0
LINE
  5
83B
330
83A
100
AcDbEntity
  8
0
  6
ByBlock
 62
    71
100
AcDbLine
 10
144.3864547008901
 20
122.0982171102963
 30
0.0
 11
144.9731539305435
 21
122.0982171102963
 31
0.0
  0
LINE
  5
83C
330
83A
100
AcDbEntity
  8
0
  6
ByBlock
 62
    71
100
AcDbLine
 10
144.3850215320364
 20
122.3982171102962
 30
0.0
 11
144.9731539305435
 21
122.3982171102962
 31
0.0
  0
LINE
  5
83D
330
83A
100
AcDbEntity
  8
0
  6
ByBlock
 62
    71
100
AcDbLine
 10
144.8931539305435
 20
122.1482171102963
 30
0.0
 11
144.8931539305435
 21
122.3482171102962
 31
0.0
  0
INSERT
  5
83E
330
83A
100
AcDbEntity
  8
0
  6
ByBlock
 62
    71
100
AcDbBlockReference
  2
TICK
 10
144.8931539305435
 20
122.0982171102963
 30
0.0
 41
0.05
 42
0.05
 43
0.05
 50
270.0
  0
INSERT
  5
83F
330
83A
100
AcDbEntity
  8
0
  6
ByBlock
 62
    71
100
AcDbBlockReference
  2
TICK
 10
144.8931539305435
 20
122.3982171102962
 30
0.0
 41
0.05
 42
0.05
 43
0.05
 50
90.0
  0
TEXT
  5
840
330
83A
100
AcDbEntity
  8
0
  6
ByBlock
 62
     7
100
AcDbText
 10
145.0832795267952
 20
122.1504496643212
 30
0.0
 40
0.08
  1
0.30
 50
90.0
 72
     1
 11
145.0432795267952
 21
122.2571163309879
 31
0.0
100
AcDbText
 73
     2
  0
POINT
  5
841
330
83A
100
AcDbEntity
  8
DEFPOINTS
  6
ByBlock
 62
     0
100
AcDbPoint
 10
144.3064547008901
 20
122.0982171102963
 30
0.0
  0
POINT
  5
842
330
83A
100
AcDbEntity
  8
DEFPOINTS
  6
ByBlock
 62
     0
100
AcDbPoint
 10
144.3050215320364
 20
122.3982171102962
 30
0.0
  0
POINT
  5
843
330
83A
100
AcDbEntity
  8
DEFPOINTS
  6
ByBlock
 62
     0
100
AcDbPoint
 10
144.8931539305435
 20
122.3982171102962
 30
0.0
  0
ENDBLK
  5
845
330
83A
100
AcDbEntity
  8
0
100
AcDbBlockEnd
  0
BLOCK
  5
850
330
846
100
AcDbEntity
  8
0
100
AcDbBlockBegin
  2
*D7
 70
     1
 10
0.0
 20
0.0
 30
0.0
  3
*D7
  1

  0
LINE
  5
847
330
846
100
AcDbEntity
  8
0
  6
ByBlock
 62
    71
100
AcDbLine
 10
144.3850215320364
 20
122.3982171102962
 30
0.0
 11
144.9731539305435
 21
122.3982171102962
 31
0.0
  0
LINE
  5
848
330
846
100
AcDbEntity
  8
0
  6
ByBlock
 62
    71
100
AcDbLine
 10
144.3871490056236
 20
124.0019798712444
 30
0.0
 11
144.9731539305435
 21
124.0019798712444
 31
0.0
  0
LINE
  5
849
330
846
100
AcDbEntity
  8
0
  6
ByBlock
 62
    71
100
AcDbLine
 10
144.8931539305435
 20
122.4482171102962
 30
0.0
 11
144.8931539305435
 21
123.9519798712444
 31
0.0
  0
INSERT
  5
84A
330
846
100
AcDbEntity
  8
0
  6
ByBlock
 62
    71
100
AcDbBlockReference
  2
TICK
 10
144.8931539305435
 20
122.3982171102962
 30
0.0
 41
0.05
 42
0.05
 43
0.05
 50
270.0
  0
INSERT
  5
84B
330
846
100
AcDbEntity
  8
0
  6
ByBlock
 62
    71
100
AcDbBlockReference
  2
TICK
 10
144.8931539305435
 20
124.0019798712444
 30
0.0
 41
0.05
 42
0.05
 43
0.05
 50
90.0
  0
TEXT
  5
84C
330
846
100
AcDbEntity
  8
0
  6
ByBlock
 62
     7
100
AcDbText
 10
144.8531539305435
 20
123.1000984907703
 30
0.0
 40
0.08
  1
1.60
 50
90.0
 72
     1
 11
144.8131539305435
 21
123.2000984907703
 31
0.0
100
AcDbText
 73
     2
  0
POINT
  5
84D
330
846
100
AcDbEntity
  8
DEFPOINTS
  6
ByBlock
 62
     0
100
AcDbPoint
 10
144.3050215320364
 20
122.3982171102962
 30
0.0
  0
POINT
  5
84E
330
846
100
AcDbEntity
  8
DEFPOINTS
  6
ByBlock
 62
     0
100
AcDbPoint
 10
144.3071490056236
 20
124.0019798712444
 30
0.0
  0
POINT
  5
84F
330
846
100
AcDbEntity
  8
DEFPOINTS
  6
ByBlock
 62
     0
100
AcDbPoint
 10
144.8931539305435
 20
124.0019798712444
 30
0.0
  0
ENDBLK
  5
851
330
846
100
AcDbEntity
  8
0
100
AcDbBlockEnd
  0
BLOCK
  5
85C
330
852
100
AcDbEntity
  8
0
100
AcDbBlockBegin
  2
*D8
 70
     1
 10
0.0
 20
0.0
 30
0.0
  3
*D8
  1

  0
LINE
  5
853
330
852
100
AcDbEntity
  8
0
  6
ByBlock
 62
    71
100
AcDbLine
 10
144.3850215320364
 20
124.0019798712444
 30
0.0
 11
144.9731539305435
 21
124.0019798712444
 31
0.0
  0
LINE
  5
854
330
852
100
AcDbEntity
  8
0
  6
ByBlock
 62
    71
100
AcDbLine
 10
143.9715221527215
 20
124.9982171102962
 30
0.0
 11
144.9731539305435
 21
124.9982171102962
 31
0.0
  0
LINE
  5
855
330
852
100
AcDbEntity
  8
0
  6
ByBlock
 62
    71
100
AcDbLine
 10
144.8931539305435
 20
124.0519798712444
 30
0.0
 11
144.8931539305435
 21
124.9482171102962
 31
0.0
  0
INSERT
  5
856
330
852
100
AcDbEntity
  8
0
  6
ByBlock
 62
    71
100
AcDbBlockReference
  2
TICK
 10
144.8931539305435
 20
124.0019798712444
 30
0.0
 41
0.05
 42
0.05
 43
0.05
 50
270.0
  0
INSERT
  5
857
330
852
100
AcDbEntity
  8
0
  6
ByBlock
 62
    71
100
AcDbBlockReference
  2
TICK
 10
144.8931539305435
 20
124.9982171102962
 30
0.0
 41
0.05
 42
0.05
 43
0.05
 50
90.0
  0
TEXT
  5
858
330
852
100
AcDbEntity
  8
0
  6
ByBlock
 62
     7
100
AcDbText
 10
144.8531539305435
 20
124.406765157437
 30
0.0
 40
0.08
  1
1.00
 50
90.0
 72
     1
 11
144.8131539305435
 21
124.5000984907703
 31
0.0
100
AcDbText
 73
     2
  0
POINT
  5
859
330
852
100
AcDbEntity
  8
DEFPOINTS
  6
ByBlock
 62
     0
100
AcDbPoint
 10
144.3050215320364
 20
124.0019798712444
 30
0.0
  0
POINT
  5
85A
330
852
100
AcDbEntity
  8
DEFPOINTS
  6
ByBlock
 62
     0
100
AcDbPoint
 10
143.8915221527215
 20
124.9982171102962
 30
0.0
  0
POINT
  5
85B
330
852
100
AcDbEntity
  8
DEFPOINTS
  6
ByBlock
 62
     0
100
AcDbPoint
 10
144.8931539305435
 20
124.9982171102962
 30
0.0
  0
ENDBLK
  5
85D
330
852
100
AcDbEntity
  8
0
100
AcDbBlockEnd
  0
BLOCK
  5
869
330
85E
100
AcDbEntity
  8
0
100
AcDbBlockBegin
  2
*D9
 70
     1
 10
0.0
 20
0.0
 30
0.0
  3
*D9
  1

  0
LINE
  5
85F
330
85E
100
AcDbEntity
  8
0
  6
ByBlock
 62
    71
100
AcDbLine
 10
143.884654709072
 20
124.9982171102962
 30
0.0
 11
144.9731539305435
 21
124.9982171102962
 31
0.0
  0
LINE
  5
860
330
85E
100
AcDbEntity
  8
0
  6
ByBlock
 62
    71
100
AcDbLine
 10
143.3922528000004
 20
125.2482171102962
 30
0.0
 11
144.9731539305435
 21
125.2482171102962
 31
0.0
  0
LINE
  5
861
330
85E
100
AcDbEntity
  8
0
  6
ByBlock
 62
    71
100
AcDbLine
 10
144.8931539305435
 20
124.9482171102962
 30
0.0
 11
144.8931539305435
 21
124.8982171102962
 31
0.0
  0
LINE
  5
862
330
85E
100
AcDbEntity
  8
0
  6
ByBlock
 62
    71
100
AcDbLine
 10
144.8931539305435
 20
125.2982171102962
 30
0.0
 11
144.8931539305435
 21
125.3482171102962
 31
0.0
  0
INSERT
  5
863
330
85E
100
AcDbEntity
  8
0
  6
ByBlock
 62
    71
100
AcDbBlockReference
  2
TICK
 10
144.8931539305435
 20
124.9982171102962
 30
0.0
 41
0.05
 42
0.05
 43
0.05
 50
90.0
  0
INSERT
  5
864
330
85E
100
AcDbEntity
  8
0
  6
ByBlock
 62
    71
100
AcDbBlockReference
  2
TICK
 10
144.8931539305435
 20
125.2482171102962
 30
0.0
 41
0.05
 42
0.05
 43
0.05
 50
270.0
  0
TEXT
  5
865
330
85E
100
AcDbEntity
  8
0
  6
ByBlock
 62
     7
100
AcDbText
 10
145.0764592639251
 20
125.0268973837715
 30
0.0
 40
0.08
  1
0.25
 50
90.0
 72
     1
 11
145.0364592639251
 21
125.1402307171048
 31
0.0
100
AcDbText
 73
     2
  0
POINT
  5
866
330
85E
100
AcDbEntity
  8
DEFPOINTS
  6
ByBlock
 62
     0
100
AcDbPoint
 10
143.804654709072
 20
124.9982171102962
 30
0.0
  0
POINT
  5
867
330
85E
100
AcDbEntity
  8
DEFPOINTS
  6
ByBlock
 62
     0
100
AcDbPoint
 10
143.3122528000004
 20
125.2482171102962
 30
0.0
  0
POINT
  5
868
330
85E
100
AcDbEntity
  8
DEFPOINTS
  6
ByBlock
 62
     0
100
AcDbPoint
 10
144.8931539305435
 20
125.2482171102962
 30
0.0
  0
ENDBLK
  5
86A
330
85E
100
AcDbEntity
  8
0
100
AcDbBlockEnd
  0
BLOCK
  5
875
330
86B
100
AcDbEntity
  8
0
100
AcDbBlockBegin
  2
*D10
 70
     1
 10
0.0
 20
0.0
 30
0.0
  3
*D10
  1

  0
LINE
  5
86C
330
86B
100
AcDbEntity
  8
0
  6
ByBlock
 62
    71
100
AcDbLine
 10
143.1364547008901
 20
122.3982171102962
 30
0.0
 11
143.3565591996224
 21
122.3982171102962
 31
0.0
  0
LINE
  5
86D
330
86B
100
AcDbEntity
  8
0
  6
ByBlock
 62
    71
100
AcDbLine
 10
143.1364547008901
 20
122.6982171102962
 30
0.0
 11
143.3565591996224
 21
122.6982171102962
 31
0.0
  0
LINE
  5
86E
330
86B
100
AcDbEntity
  8
0
  6
ByBlock
 62
    71
100
AcDbLine
 10
143.2765591996224
 20
122.4482171102962
 30
0.0
 11
143.2765591996224
 21
122.6482171102962
 31
0.0
  0
INSERT
  5
86F
330
86B
100
AcDbEntity
  8
0
  6
ByBlock
 62
    71
100
AcDbBlockReference
  2
TICK
 10
143.2765591996224
 20
122.3982171102962
 30
0.0
 41
0.05
 42
0.05
 43
0.05
 50
270.0
  0
INSERT
  5
870
330
86B
100
AcDbEntity
  8
0
  6
ByBlock
 62
    71
100
AcDbBlockReference
  2
TICK
 10
143.2765591996224
 20
122.6982171102962
 30
0.0
 41
0.05
 42
0.05
 43
0.05
 50
90.0
  0
TEXT
  5
871
330
86B
100
AcDbEntity
  8
0
  6
ByBlock
 62
     7
100
AcDbText
 10
143.2186731828831
 20
122.4468488754007
 30
0.0
 40
0.08
  1
0.30
 50
90.0
 72
     1
 11
143.1786731828831
 21
122.5535155420674
 31
0.0
100
AcDbText
 73
     2
  0
POINT
  5
872
330
86B
100
AcDbEntity
  8
DEFPOINTS
  6
ByBlock
 62
     0
100
AcDbPoint
 10
143.0564547008901
 20
122.3982171102962
 30
0.0
  0
POINT
  5
873
330
86B
100
AcDbEntity
  8
DEFPOINTS
  6
ByBlock
 62
     0
100
AcDbPoint
 10
143.0564547008901
 20
122.6982171102962
 30
0.0
  0
POINT
  5
874
330
86B
100
AcDbEntity
  8
DEFPOINTS
  6
ByBlock
 62
     0
100
AcDbPoint
 10
143.2765591996224
 20
122.6982171102962
 30
0.0
  0
ENDBLK
  5
876
330
86B
100
AcDbEntity
  8
0
100
AcDbBlockEnd
  0
BLOCK
  5
882
330
877
100
AcDbEntity
  8
0
100
AcDbBlockBegin
  2
*D11
 70
     1
 10
0.0
 20
0.0
 30
0.0
  3
*D11
  1

  0
LINE
  5
878
330
877
100
AcDbEntity
  8
0
  6
ByBlock
 62
    71
100
AcDbLine
 10
142.0564547008901
 20
122.0164219618107
 30
0.0
 11
142.0564547008901
 21
121.655684509619
 31
0.0
  0
LINE
  5
879
330
877
100
AcDbEntity
  8
0
  6
ByBlock
 62
    71
100
AcDbLine
 10
144.0564547008901
 20
122.0189400884808
 30
0.0
 11
144.0564547008901
 21
121.655684509619
 31
0.0
  0
LINE
  5
87A
330
877
100
AcDbEntity
  8
0
  6
ByBlock
 62
    71
100
AcDbLine
 10
142.1064547008901
 20
121.735684509619
 30
0.0
 11
142.8837700001543
 21
121.735684509619
 31
0.0
  0
LINE
  5
87B
330
877
100
AcDbEntity
  8
0
  6
ByBlock
 62
    71
100
AcDbLine
 10
144.0064547008901
 20
121.735684509619
 30
0.0
 11
143.2875795239638
 21
121.735684509619
 31
0.0
  0
INSERT
  5
87C
330
877
100
AcDbEntity
  8
0
  6
ByBlock
 62
    71
100
AcDbBlockReference
  2
TICK
 10
142.0564547008901
 20
121.735684509619
 30
0.0
 41
0.05
 42
0.05
 43
0.05
 50
180.0
  0
INSERT
  5
87D
330
877
100
AcDbEntity
  8
0
  6
ByBlock
 62
    71
100
AcDbBlockReference
  2
TICK
 10
144.0564547008901
 20
121.735684509619
 30
0.0
 41
0.05
 42
0.05
 43
0.05
  0
TEXT
  5
87E
330
877
100
AcDbEntity
  8
0
  6
ByBlock
 62
     7
100
AcDbText
 10
142.9790080953924
 20
121.6922940680803
 30
0.0
 40
0.08
  1
2.00
 72
     1
 11
143.0856747620591
 21
121.7322940680803
 31
0.0
100
AcDbText
 73
     2
  0
POINT
  5
87F
330
877
100
AcDbEntity
  8
DEFPOINTS
  6
ByBlock
 62
     0
100
AcDbPoint
 10
142.0564547008901
 20
122.0964219618106
 30
0.0
  0
POINT
  5
880
330
877
100
AcDbEntity
  8
DEFPOINTS
  6
ByBlock
 62
     0
100
AcDbPoint
 10
144.0564547008901
 20
122.0989400884808
 30
0.0
  0
POINT
  5
881
330
877
100
AcDbEntity
  8
DEFPOINTS
  6
ByBlock
 62
     0
100
AcDbPoint
 10
144.0564547008901
 20
121.735684509619
 30
0.0
  0
ENDBLK
  5
883
330
877
100
AcDbEntity
  8
0
100
AcDbBlockEnd
  0
BLOCK
  5
88E
330
884
100
AcDbEntity
  8
0
100
AcDbBlockBegin
  2
*D12
 70
     1
 10
0.0
 20
0.0
 30
0.0
  3
*D12
  1

  0
LINE
  5
885
330
884
100
AcDbEntity
  8
0
  6
ByBlock
 62
    71
100
AcDbLine
 10
153.7029679050354
 20
123.0595630964863
 30
0.0
 11
153.7029679050354
 21
123.3287794918296
 31
0.0
  0
LINE
  5
886
330
884
100
AcDbEntity
  8
0
  6
ByBlock
 62
    71
100
AcDbLine
 10
154.7029679050354
 20
123.0595630964863
 30
0.0
 11
154.7029679050354
 21
123.3287794918296
 31
0.0
  0
LINE
  5
887
330
884
100
AcDbEntity
  8
0
  6
ByBlock
 62
    71
100
AcDbLine
 10
153.7529679050354
 20
123.2487794918296
 30
0.0
 11
154.6529679050354
 21
123.2487794918296
 31
0.0
  0
INSERT
  5
888
330
884
100
AcDbEntity
  8
0
  6
ByBlock
 62
    71
100
AcDbBlockReference
  2
TICK
 10
153.7029679050354
 20
123.2487794918296
 30
0.0
 41
0.05
 42
0.05
 43
0.05
 50
180.0
  0
INSERT
  5
889
330
884
100
AcDbEntity
  8
0
  6
ByBlock
 62
    71
100
AcDbBlockReference
  2
TICK
 10
154.7029679050354
 20
123.2487794918296
 30
0.0
 41
0.05
 42
0.05
 43
0.05
  0
TEXT
  5
88A
330
884
100
AcDbEntity
  8
0
  6
ByBlock
 62
     7
100
AcDbText
 10
154.109634571702
 20
123.2887794918296
 30
0.0
 40
0.08
  1
1.00
 72
     1
 11
154.2029679050354
 21
123.3287794918296
 31
0.0
100
AcDbText
 73
     2
  0
POINT
  5
88B
330
884
100
AcDbEntity
  8
DEFPOINTS
  6
ByBlock
 62
     0
100
AcDbPoint
 10
153.7029679050354
 20
122.9795630964863
 30
0.0
  0
POINT
  5
88C
330
884
100
AcDbEntity
  8
DEFPOINTS
  6
ByBlock
 62
     0
100
AcDbPoint
 10
154.7029679050354
 20
122.9795630964862
 30
0.0
  0
POINT
  5
88D
330
884
100
AcDbEntity
  8
DEFPOINTS
  6
ByBlock
 62
     0
100
AcDbPoint
 10
154.7029679050354
 20
123.2487794918296
 30
0.0
  0
ENDBLK
  5
88F
330
884
100
AcDbEntity
  8
0
100
AcDbBlockEnd
  0
BLOCK
  5
89A
330
890
100
AcDbEntity
  8
0
100
AcDbBlockBegin
  2
*D13
 70
     1
 10
0.0
 20
0.0
 30
0.0
  3
*D13
  1

  0
LINE
  5
891
330
890
100
AcDbEntity
  8
0
  6
ByBlock
 62
    71
100
AcDbLine
 10
154.7029679050354
 20
123.0595630964863
 30
0.0
 11
154.7029679050354
 21
123.3287794918296
 31
0.0
  0
LINE
  5
892
330
890
100
AcDbEntity
  8
0
  6
ByBlock
 62
    71
100
AcDbLine
 10
155.5029679050354
 20
122.7595630964863
 30
0.0
 11
155.5029679050354
 21
123.3287794918296
 31
0.0
  0
LINE
  5
893
330
890
100
AcDbEntity
  8
0
  6
ByBlock
 62
    71
100
AcDbLine
 10
154.7529679050354
 20
123.2487794918296
 30
0.0
 11
155.4529679050354
 21
123.2487794918296
 31
0.0
  0
INSERT
  5
894
330
890
100
AcDbEntity
  8
0
  6
ByBlock
 62
    71
100
AcDbBlockReference
  2
TICK
 10
154.7029679050354
 20
123.2487794918296
 30
0.0
 41
0.05
 42
0.05
 43
0.05
 50
180.0
  0
INSERT
  5
895
330
890
100
AcDbEntity
  8
0
  6
ByBlock
 62
    71
100
AcDbBlockReference
  2
TICK
 10
155.5029679050354
 20
123.2487794918296
 30
0.0
 41
0.05
 42
0.05
 43
0.05
  0
TEXT
  5
896
330
890
100
AcDbEntity
  8
0
  6
ByBlock
 62
     7
100
AcDbText
 10
154.9963012383687
 20
123.2887794918296
 30
0.0
 40
0.08
  1
0.80
 72
     1
 11
155.1029679050354
 21
123.3287794918296
 31
0.0
100
AcDbText
 73
     2
  0
POINT
  5
897
330
890
100
AcDbEntity
  8
DEFPOINTS
  6
ByBlock
 62
     0
100
AcDbPoint
 10
154.7029679050354
 20
122.9795630964862
 30
0.0
  0
POINT
  5
898
330
890
100
AcDbEntity
  8
DEFPOINTS
  6
ByBlock
 62
     0
100
AcDbPoint
 10
155.5029679050354
 20
122.6795630964863
 30
0.0
  0
POINT
  5
899
330
890
100
AcDbEntity
  8
DEFPOINTS
  6
ByBlock
 62
     0
100
AcDbPoint
 10
155.5029679050354
 20
123.2487794918296
 30
0.0
  0
ENDBLK
  5
89B
330
890
100
AcDbEntity
  8
0
100
AcDbBlockEnd
  0
BLOCK
  5
8A6
330
89C
100
AcDbEntity
  8
0
100
AcDbBlockBegin
  2
*D14
 70
     1
 10
0.0
 20
0.0
 30
0.0
  3
*D14
  1

  0
LINE
  5
89D
330
89C
100
AcDbEntity
  8
0
  6
ByBlock
 62
    71
100
AcDbLine
 10
154.7829679050354
 20
122.6795630964863
 30
0.0
 11
155.0798494401022
 21
122.6795630964863
 31
0.0
  0
LINE
  5
89E
330
89C
100
AcDbEntity
  8
0
  6
ByBlock
 62
    71
100
AcDbLine
 10
154.7829679050354
 20
122.9795630964862
 30
0.0
 11
155.0798494401022
 21
122.9795630964862
 31
0.0
  0
LINE
  5
89F
330
89C
100
AcDbEntity
  8
0
  6
ByBlock
 62
    71
100
AcDbLine
 10
154.9998494401022
 20
122.7295630964863
 30
0.0
 11
154.9998494401022
 21
122.9295630964863
 31
0.0
  0
INSERT
  5
8A0
330
89C
100
AcDbEntity
  8
0
  6
ByBlock
 62
    71
100
AcDbBlockReference
  2
TICK
 10
154.9998494401022
 20
122.6795630964863
 30
0.0
 41
0.05
 42
0.05
 43
0.05
 50
270.0
  0
INSERT
  5
8A1
330
89C
100
AcDbEntity
  8
0
  6
ByBlock
 62
    71
100
AcDbBlockReference
  2
TICK
 10
154.9998494401022
 20
122.9795630964862
 30
0.0
 41
0.05
 42
0.05
 43
0.05
 50
90.0
  0
TEXT
  5
8A2
330
89C
100
AcDbEntity
  8
0
  6
ByBlock
 62
     7
100
AcDbText
 10
154.9598494401022
 20
122.7319089327306
 30
0.0
 40
0.08
  1
0.30
 50
90.0
 72
     1
 11
154.9198494401022
 21
122.8385755993973
 31
0.0
100
AcDbText
 73
     2
  0
POINT
  5
8A3
330
89C
100
AcDbEntity
  8
DEFPOINTS
  6
ByBlock
 62
     0
100
AcDbPoint
 10
154.7029679050354
 20
122.6795630964863
 30
0.0
  0
POINT
  5
8A4
330
89C
100
AcDbEntity
  8
DEFPOINTS
  6
ByBlock
 62
     0
100
AcDbPoint
 10
154.7029679050354
 20
122.9795630964862
 30
0.0
  0
POINT
  5
8A5
330
89C
100
AcDbEntity
  8
DEFPOINTS
  6
ByBlock
 62
     0
100
AcDbPoint
 10
154.9998494401022
 20
122.9795630964862
 30
0.0
  0
ENDBLK
  5
8A7
330
89C
100
AcDbEntity
  8
0
100
AcDbBlockEnd
  0
BLOCK
  5
8B3
330
8A8
100
AcDbEntity
  8
0
100
AcDbBlockBegin
  2
*D15
 70
     1
 10
0.0
 20
0.0
 30
0.0
  3
*D15
  1

  0
LINE
  5
8A9
330
8A8
100
AcDbEntity
  8
0
  6
ByBlock
 62
    71
100
AcDbLine
 10
153.4529679050354
 20
122.2995630964863
 30
0.0
 11
153.4529679050354
 21
121.9631349436115
 31
0.0
  0
LINE
  5
8AA
330
8A8
100
AcDbEntity
  8
0
  6
ByBlock
 62
    71
100
AcDbLine
 10
153.7029679050354
 20
122.2967412612234
 30
0.0
 11
153.7029679050354
 21
121.9631349436115
 31
0.0
  0
LINE
  5
8AB
330
8A8
100
AcDbEntity
  8
0
  6
ByBlock
 62
    71
100
AcDbLine
 10
153.4029679050354
 20
122.0431349436115
 30
0.0
 11
153.3529679050354
 21
122.0431349436115
 31
0.0
  0
LINE
  5
8AC
330
8A8
100
AcDbEntity
  8
0
  6
ByBlock
 62
    71
100
AcDbLine
 10
153.7529679050354
 20
122.0431349436115
 30
0.0
 11
153.8029679050354
 21
122.0431349436115
 31
0.0
  0
INSERT
  5
8AD
330
8A8
100
AcDbEntity
  8
0
  6
ByBlock
 62
    71
100
AcDbBlockReference
  2
TICK
 10
153.4529679050354
 20
122.0431349436115
 30
0.0
 41
0.05
 42
0.05
 43
0.05
  0
INSERT
  5
8AE
330
8A8
100
AcDbEntity
  8
0
  6
ByBlock
 62
    71
100
AcDbBlockReference
  2
TICK
 10
153.7029679050354
 20
122.0431349436115
 30
0.0
 41
0.05
 42
0.05
 43
0.05
 50
180.0
  0
TEXT
  5
8AF
330
8A8
100
AcDbEntity
  8
0
  6
ByBlock
 62
     7
100
AcDbText
 10
153.1477665491555
 20
122.0831349436115
 30
0.0
 40
0.08
  1
0.25
 72
     1
 11
153.2610998824889
 21
122.1231349436115
 31
0.0
100
AcDbText
 73
     2
  0
POINT
  5
8B0
330
8A8
100
AcDbEntity
  8
DEFPOINTS
  6
ByBlock
 62
     0
100
AcDbPoint
 10
153.4529679050354
 20
122.3795630964863
 30
0.0
  0
POINT
  5
8B1
330
8A8
100
AcDbEntity
  8
DEFPOINTS
  6
ByBlock
 62
     0
100
AcDbPoint
 10
153.7029679050354
 20
122.3767412612234
 30
0.0
  0
POINT
  5
8B2
330
8A8
100
AcDbEntity
  8
DEFPOINTS
  6
ByBlock
 62
     0
100
AcDbPoint
 10
153.7029679050354
 20
122.0431349436115
 30
0.0
  0
ENDBLK
  5
8B4
330
8A8
100
AcDbEntity
  8
0
100
AcDbBlockEnd
  0
BLOCK
  5
8BF
330
8B5
100
AcDbEntity
  8
0
100
AcDbBlockBegin
  2
*D16
 70
     1
 10
0.0
 20
0.0
 30
0.0
  3
*D16
  1

  0
LINE
  5
8B6
330
8B5
100
AcDbEntity
  8
0
  6
ByBlock
 62
    71
100
AcDbLine
 10
153.7029679050354
 20
122.2967412612234
 30
0.0
 11
153.7029679050354
 21
121.9631349436115
 31
0.0
  0
LINE
  5
8B7
330
8B5
100
AcDbEntity
  8
0
  6
ByBlock
 62
    71
100
AcDbLine
 10
155.5029679050354
 20
122.3002093719615
 30
0.0
 11
155.5029679050354
 21
121.9631349436115
 31
0.0
  0
LINE
  5
8B8
330
8B5
100
AcDbEntity
  8
0
  6
ByBlock
 62
    71
100
AcDbLine
 10
153.7529679050354
 20
122.0431349436115
 30
0.0
 11
155.4529679050354
 21
122.0431349436115
 31
0.0
  0
INSERT
  5
8B9
330
8B5
100
AcDbEntity
  8
0
  6
ByBlock
 62
    71
100
AcDbBlockReference
  2
TICK
 10
153.7029679050354
 20
122.0431349436115
 30
0.0
 41
0.05
 42
0.05
 43
0.05
 50
180.0
  0
INSERT
  5
8BA
330
8B5
100
AcDbEntity
  8
0
  6
ByBlock
 62
    71
100
AcDbBlockReference
  2
TICK
 10
155.5029679050354
 20
122.0431349436115
 30
0.0
 41
0.05
 42
0.05
 43
0.05
  0
TEXT
  5
8BB
330
8B5
100
AcDbEntity
  8
0
  6
ByBlock
 62
     7
100
AcDbText
 10
154.5029679050354
 20
122.0831349436115
 30
0.0
 40
0.08
  1
1.80
 72
     1
 11
154.6029679050354
 21
122.1231349436115
 31
0.0
100
AcDbText
 73
     2
  0
POINT
  5
8BC
330
8B5
100
AcDbEntity
  8
DEFPOINTS
  6
ByBlock
 62
     0
100
AcDbPoint
 10
153.7029679050354
 20
122.3767412612234
 30
0.0
  0
POINT
  5
8BD
330
8B5
100
AcDbEntity
  8
DEFPOINTS
  6
ByBlock
 62
     0
100
AcDbPoint
 10
155.5029679050354
 20
122.3802093719615
 30
0.0
  0
POINT
  5
8BE
330
8B5
100
AcDbEntity
  8
DEFPOINTS
  6
ByBlock
 62
     0
100
AcDbPoint
 10
155.5029679050354
 20
122.0431349436115
 30
0.0
  0
ENDBLK
  5
8C0
330
8B5
100
AcDbEntity
  8
0
100
AcDbBlockEnd
  0
BLOCK
  5
8CC
330
8C1
100
AcDbEntity
  8
0
100
AcDbBlockBegin
  2
*D17
 70
     1
 10
0.0
 20
0.0
 30
0.0
  3
*D17
  1

  0
LINE
  5
8C2
330
8C1
100
AcDbEntity
  8
0
  6
ByBlock
 62
    71
100
AcDbLine
 10
155.5029679050354
 20
122.3002093719615
 30
0.0
 11
155.5029679050354
 21
121.9631349436115
 31
0.0
  0
LINE
  5
8C3
330
8C1
100
AcDbEntity
  8
0
  6
ByBlock
 62
    71
100
AcDbLine
 10
155.7529679050354
 20
122.2995630964863
 30
0.0
 11
155.7529679050354
 21
121.9631349436115
 31
0.0
  0
LINE
  5
8C4
330
8C1
100
AcDbEntity
  8
0
  6
ByBlock
 62
    71
100
AcDbLine
 10
155.4529679050354
 20
122.0431349436115
 30
0.0
 11
155.4029679050354
 21
122.0431349436115
 31
0.0
  0
LINE
  5
8C5
330
8C1
100
AcDbEntity
  8
0
  6
ByBlock
 62
    71
100
AcDbLine
 10
155.8029679050354
 20
122.0431349436115
 30
0.0
 11
155.8529679050353
 21
122.0431349436115
 31
0.0
  0
INSERT
  5
8C6
330
8C1
100
AcDbEntity
  8
0
  6
ByBlock
 62
    71
100
AcDbBlockReference
  2
TICK
 10
155.5029679050354
 20
122.0431349436115
 30
0.0
 41
0.05
 42
0.05
 43
0.05
  0
INSERT
  5
8C7
330
8C1
100
AcDbEntity
  8
0
  6
ByBlock
 62
    71
100
AcDbBlockReference
  2
TICK
 10
155.7529679050354
 20
122.0431349436115
 30
0.0
 41
0.05
 42
0.05
 43
0.05
 50
180.0
  0
TEXT
  5
8C8
330
8C1
100
AcDbEntity
  8
0
  6
ByBlock
 62
     7
100
AcDbText
 10
155.8465484414475
 20
122.0831349436115
 30
0.0
 40
0.08
  1
0.25
 72
     1
 11
155.9598817747808
 21
122.1231349436115
 31
0.0
100
AcDbText
 73
     2
  0
POINT
  5
8C9
330
8C1
100
AcDbEntity
  8
DEFPOINTS
  6
ByBlock
 62
     0
100
AcDbPoint
 10
155.5029679050354
 20
122.3802093719615
 30
0.0
  0
POINT
  5
8CA
330
8C1
100
AcDbEntity
  8
DEFPOINTS
  6
ByBlock
 62
     0
100
AcDbPoint
 10
155.7529679050354
 20
122.3795630964863
 30
0.0
  0
POINT
  5
8CB
330
8C1
100
AcDbEntity
  8
DEFPOINTS
  6
ByBlock
 62
     0
100
AcDbPoint
 10
155.7529679050354
 20
122.0431349436115
 30
0.0
  0
ENDBLK
  5
8CD
330
8C1
100
AcDbEntity
  8
0
100
AcDbBlockEnd
  0
BLOCK
  5
8D8
330
8CE
100
AcDbEntity
  8
0
100
AcDbBlockBegin
  2
*D18
 70
     1
 10
0.0
 20
0.0
 30
0.0
  3
*D18
  1

  0
LINE
  5
8CF
330
8CE
100
AcDbEntity
  8
0
  6
ByBlock
 62
    71
100
AcDbLine
 10
155.8329679050354
 20
122.3795630964863
 30
0.0
 11
156.2310726707777
 21
122.3795630964863
 31
0.0
  0
LINE
  5
8D0
330
8CE
100
AcDbEntity
  8
0
  6
ByBlock
 62
    71
100
AcDbLine
 10
155.8338307698639
 20
122.6795630964863
 30
0.0
 11
156.2310726707777
 21
122.6795630964863
 31
0.0
  0
LINE
  5
8D1
330
8CE
100
AcDbEntity
  8
0
  6
ByBlock
 62
    71
100
AcDbLine
 10
156.1510726707777
 20
122.4295630964863
 30
0.0
 11
156.1510726707777
 21
122.6295630964863
 31
0.0
  0
INSERT
  5
8D2
330
8CE
100
AcDbEntity
  8
0
  6
ByBlock
 62
    71
100
AcDbBlockReference
  2
TICK
 10
156.1510726707777
 20
122.3795630964863
 30
0.0
 41
0.05
 42
0.05
 43
0.05
 50
270.0
  0
INSERT
  5
8D3
330
8CE
100
AcDbEntity
  8
0
  6
ByBlock
 62
    71
100
AcDbBlockReference
  2
TICK
 10
156.1510726707777
 20
122.6795630964863
 30
0.0
 41
0.05
 42
0.05
 43
0.05
 50
90.0
  0
TEXT
  5
8D4
330
8CE
100
AcDbEntity
  8
0
  6
ByBlock
 62
     7
100
AcDbText
 10
156.1110726707777
 20
122.4268636234891
 30
0.0
 40
0.08
  1
0.30
 50
90.0
 72
     1
 11
156.0710726707777
 21
122.5335302901557
 31
0.0
100
AcDbText
 73
     2
  0
POINT
  5
8D5
330
8CE
100
AcDbEntity
  8
DEFPOINTS
  6
ByBlock
 62
     0
100
AcDbPoint
 10
155.7529679050354
 20
122.3795630964863
 30
0.0
  0
POINT
  5
8D6
330
8CE
100
AcDbEntity
  8
DEFPOINTS
  6
ByBlock
 62
     0
100
AcDbPoint
 10
155.7538307698639
 20
122.6795630964863
 30
0.0
  0
POINT
  5
8D7
330
8CE
100
AcDbEntity
  8
DEFPOINTS
  6
ByBlock
 62
     0
100
AcDbPoint
 10
156.1510726707777
 20
122.6795630964863
 30
0.0
  0
ENDBLK
  5
8D9
330
8CE
100
AcDbEntity
  8
0
100
AcDbBlockEnd
  0
BLOCK
  5
8E4
330
8DA
100
AcDbEntity
  8
0
100
AcDbBlockBegin
  2
*D19
 70
     1
 10
0.0
 20
0.0
 30
0.0
  3
*D19
  1

  0
LINE
  5
8DB
330
8DA
100
AcDbEntity
  8
0
  6
ByBlock
 62
    71
100
AcDbLine
 10
155.8338307698639
 20
122.6795630964863
 30
0.0
 11
156.2310726707777
 21
122.6795630964863
 31
0.0
  0
LINE
  5
8DC
330
8DA
100
AcDbEntity
  8
0
  6
ByBlock
 62
    71
100
AcDbLine
 10
155.8338307698639
 20
123.5795630964863
 30
0.0
 11
156.2310726707777
 21
123.5795630964863
 31
0.0
  0
LINE
  5
8DD
330
8DA
100
AcDbEntity
  8
0
  6
ByBlock
 62
    71
100
AcDbLine
 10
156.1510726707777
 20
122.7295630964863
 30
0.0
 11
156.1510726707777
 21
123.5295630964863
 31
0.0
  0
INSERT
  5
8DE
330
8DA
100
AcDbEntity
  8
0
  6
ByBlock
 62
    71
100
AcDbBlockReference
  2
TICK
 10
156.1510726707777
 20
122.6795630964863
 30
0.0
 41
0.05
 42
0.05
 43
0.05
 50
270.0
  0
INSERT
  5
8DF
330
8DA
100
AcDbEntity
  8
0
  6
ByBlock
 62
    71
100
AcDbBlockReference
  2
TICK
 10
156.1510726707777
 20
123.5795630964863
 30
0.0
 41
0.05
 42
0.05
 43
0.05
 50
90.0
  0
TEXT
  5
8E0
330
8DA
100
AcDbEntity
  8
0
  6
ByBlock
 62
     7
100
AcDbText
 10
156.1110726707777
 20
123.0228964298196
 30
0.0
 40
0.08
  1
0.90
 50
90.0
 72
     1
 11
156.0710726707777
 21
123.1295630964863
 31
0.0
100
AcDbText
 73
     2
  0
POINT
  5
8E1
330
8DA
100
AcDbEntity
  8
DEFPOINTS
  6
ByBlock
 62
     0
100
AcDbPoint
 10
155.7538307698639
 20
122.6795630964863
 30
0.0
  0
POINT
  5
8E2
330
8DA
100
AcDbEntity
  8
DEFPOINTS
  6
ByBlock
 62
     0
100
AcDbPoint
 10
155.7538307698639
 20
123.5795630964863
 30
0.0
  0
POINT
  5
8E3
330
8DA
100
AcDbEntity
  8
DEFPOINTS
  6
ByBlock
 62
     0
100
AcDbPoint
 10
156.1510726707777
 20
123.5795630964863
 30
0.0
  0
ENDBLK
  5
8E5
330
8DA
100
AcDbEntity
  8
0
100
AcDbBlockEnd
  0
BLOCK
  5
8F0
330
8E6
100
AcDbEntity
  8
0
100
AcDbBlockBegin
  2
*D20
 70
     1
 10
0.0
 20
0.0
 30
0.0
  3
*D20
  1

  0
LINE
  5
8E7
330
8E6
100
AcDbEntity
  8
0
  6
ByBlock
 62
    71
100
AcDbLine
 10
155.8338307698639
 20
123.5795630964863
 30
0.0
 11
156.2310726707777
 21
123.5795630964863
 31
0.0
  0
LINE
  5
8E8
330
8E6
100
AcDbEntity
  8
0
  6
ByBlock
 62
    71
100
AcDbLine
 10
155.3982569737853
 20
124.4795630964863
 30
0.0
 11
156.2310726707777
 21
124.4795630964863
 31
0.0
  0
LINE
  5
8E9
330
8E6
100
AcDbEntity
  8
0
  6
ByBlock
 62
    71
100
AcDbLine
 10
156.1510726707777
 20
123.6295630964863
 30
0.0
 11
156.1510726707777
 21
124.4295630964863
 31
0.0
  0
INSERT
  5
8EA
330
8E6
100
AcDbEntity
  8
0
  6
ByBlock
 62
    71
100
AcDbBlockReference
  2
TICK
 10
156.1510726707777
 20
123.5795630964863
 30
0.0
 41
0.05
 42
0.05
 43
0.05
 50
270.0
  0
INSERT
  5
8EB
330
8E6
100
AcDbEntity
  8
0
  6
ByBlock
 62
    71
100
AcDbBlockReference
  2
TICK
 10
156.1510726707777
 20
124.4795630964863
 30
0.0
 41
0.05
 42
0.05
 43
0.05
 50
90.0
  0
TEXT
  5
8EC
330
8E6
100
AcDbEntity
  8
0
  6
ByBlock
 62
     7
100
AcDbText
 10
156.1110726707777
 20
123.9228964298196
 30
0.0
 40
0.08
  1
0.90
 50
90.0
 72
     1
 11
156.0710726707777
 21
124.0295630964863
 31
0.0
100
AcDbText
 73
     2
  0
POINT
  5
8ED
330
8E6
100
AcDbEntity
  8
DEFPOINTS
  6
ByBlock
 62
     0
100
AcDbPoint
 10
155.7538307698639
 20
123.5795630964863
 30
0.0
  0
POINT
  5
8EE
330
8E6
100
AcDbEntity
  8
DEFPOINTS
  6
ByBlock
 62
     0
100
AcDbPoint
 10
155.3182569737853
 20
124.4795630964863
 30
0.0
  0
POINT
  5
8EF
330
8E6
100
AcDbEntity
  8
DEFPOINTS
  6
ByBlock
 62
     0
100
AcDbPoint
 10
156.1510726707777
 20
124.4795630964863
 30
0.0
  0
ENDBLK
  5
8F1
330
8E6
100
AcDbEntity
  8
0
100
AcDbBlockEnd
  0
BLOCK
  5
8FD
330
8F2
100
AcDbEntity
  8
0
100
AcDbBlockBegin
  2
*D21
 70
     1
 10
0.0
 20
0.0
 30
0.0
  3
*D21
  1

  0
LINE
  5
8F3
330
8F2
100
AcDbEntity
  8
0
  6
ByBlock
 62
    71
100
AcDbLine
 10
155.3982569737853
 20
124.4795630964863
 30
0.0
 11
156.2310726707777
 21
124.4795630964863
 31
0.0
  0
LINE
  5
8F4
330
8F2
100
AcDbEntity
  8
0
  6
ByBlock
 62
    71
100
AcDbLine
 10
154.8518573287063
 20
124.7295630964863
 30
0.0
 11
156.2310726707777
 21
124.7295630964863
 31
0.0
  0
LINE
  5
8F5
330
8F2
100
AcDbEntity
  8
0
  6
ByBlock
 62
    71
100
AcDbLine
 10
156.1510726707777
 20
124.4295630964863
 30
0.0
 11
156.1510726707777
 21
124.3795630964863
 31
0.0
  0
LINE
  5
8F6
330
8F2
100
AcDbEntity
  8
0
  6
ByBlock
 62
    71
100
AcDbLine
 10
156.1510726707777
 20
124.7795630964863
 30
0.0
 11
156.1510726707777
 21
124.8295630964863
 31
0.0
  0
INSERT
  5
8F7
330
8F2
100
AcDbEntity
  8
0
  6
ByBlock
 62
    71
100
AcDbBlockReference
  2
TICK
 10
156.1510726707777
 20
124.4795630964863
 30
0.0
 41
0.05
 42
0.05
 43
0.05
 50
90.0
  0
INSERT
  5
8F8
330
8F2
100
AcDbEntity
  8
0
  6
ByBlock
 62
    71
100
AcDbBlockReference
  2
TICK
 10
156.1510726707777
 20
124.7295630964863
 30
0.0
 41
0.05
 42
0.05
 43
0.05
 50
270.0
  0
TEXT
  5
8F9
330
8F2
100
AcDbEntity
  8
0
  6
ByBlock
 62
     7
100
AcDbText
 10
156.1110726707777
 20
124.8315945057487
 30
0.0
 40
0.08
  1
0.25
 50
90.0
 72
     1
 11
156.0710726707777
 21
124.9449278390821
 31
0.0
100
AcDbText
 73
     2
  0
POINT
  5
8FA
330
8F2
100
AcDbEntity
  8
DEFPOINTS
  6
ByBlock
 62
     0
100
AcDbPoint
 10
155.3182569737853
 20
124.4795630964863
 30
0.0
  0
POINT
  5
8FB
330
8F2
100
AcDbEntity
  8
DEFPOINTS
  6
ByBlock
 62
     0
100
AcDbPoint
 10
154.7718573287063
 20
124.7295630964863
 30
0.0
  0
POINT
  5
8FC
330
8F2
100
AcDbEntity
  8
DEFPOINTS
  6
ByBlock
 62
     0
100
AcDbPoint
 10
156.1510726707777
 20
124.7295630964863
 30
0.0
  0
ENDBLK
  5
8FE
330
8F2
100
AcDbEntity
  8
0
100
AcDbBlockEnd
  0
BLOCK
  5
906
330
8FF
100
AcDbEntity
  8
0
100
AcDbBlockBegin
  2
*D22
 70
     1
 10
0.0
 20
0.0
 30
0.0
  3
*D22
  1

  0
LINE
  5
900
330
8FF
100
AcDbEntity
  8
0
  6
ByBlock
 62
    71
100
AcDbLine
 10
154.3990154634773
 20
124.4047318074676
 30
0.0
 11
154.5015297473135
 21
123.9899705091763
 31
0.0
  0
LINE
  5
901
330
8FF
100
AcDbEntity
  8
0
  6
ByBlock
 62
    71
100
AcDbLine
 10
154.5015297473135
 20
123.9899705091763
 30
0.0
 11
154.5975073668702
 21
123.6016558216557
 31
0.0
  0
INSERT
  5
902
330
8FF
100
AcDbEntity
  8
0
  6
ByBlock
 62
    71
100
AcDbBlockReference
  2
TICK
 10
154.3870182610327
 20
124.4532711434076
 30
0.0
 41
0.05
 42
0.05
 43
0.05
 50
103.8832381077353
  0
TEXT
  5
903
330
8FF
100
AcDbEntity
  8
0
  6
ByBlock
 62
     7
100
AcDbText
 10
154.5627559939622
 20
123.9089615107106
 30
0.0
 40
0.08
  1
R0.90
 50
283.8832381077353
 72
     1
 11
154.6367792565517
 21
123.7761772205753
 31
0.0
100
AcDbText
 73
     2
  0
POINT
  5
904
330
8FF
100
AcDbEntity
  8
DEFPOINTS
  6
ByBlock
 62
     0
100
AcDbPoint
 10
154.3870182610327
 20
124.4532711434076
 30
0.0
  0
POINT
  5
905
330
8FF
100
AcDbEntity
  8
DEFPOINTS
  6
ByBlock
 62
     0
100
AcDbPoint
 10
154.6029679050354
 20
123.5795630964863
 30
0.0
  0
ENDBLK
  5
907
330
8FF
100
AcDbEntity
  8
0
100
AcDbBlockEnd
  0
BLOCK
  5
936
330
90B
100
AcDbEntity
  8
0
100
AcDbBlockBegin
  2
VILADOMAT
 70
     0
 10
0.0
 20
0.0
 30
0.0
  3
VILADOMAT
  1

  0
DIMENSION
  5
90C
330
90B
100
AcDbEntity
  8
COTES
100
AcDbDimension
  2
*D9
 10
-5.873181786683261
 20
3.756355560202422
 30
0.0
 11
-5.729876453301642
 21
3.648369167011026
 31
0.0
 12
-150.7663357172268
 22
-121.4918615500938
 32
0.0
 70
   128
 71
     5
 42
-1.0
  3
STANDARD
100
AcDbAlignedDimension
 13
-6.961681008154783
 23
3.506355560202422
 33
0.0
 14
-7.454082917226401
 24
3.756355560202422
 34
0.0
 50
90.0
100
AcDbRotatedDimension
  0
DIMENSION
  5
90D
330
90B
100
AcDbEntity
  8
COTES
100
AcDbDimension
  2
*D8
 10
-5.873181786683261
 20
3.506355560202422
 30
0.0
 11
-5.953181786683273
 21
3.008236940676482
 31
0.0
 12
-150.7663357172268
 22
-121.4918615500938
 32
0.0
 71
     5
 42
-1.0
  3
STANDARD
100
AcDbAlignedDimension
 13
-6.461314185190389
 23
2.510118321150557
 33
0.0
 14
-6.874813564505274
 24
3.506355560202422
 34
0.0
 50
90.0
100
AcDbRotatedDimension
  0
DIMENSION
  5
90E
330
90B
100
AcDbEntity
  8
COTES
100
AcDbDimension
  2
*D7
 10
-5.873181786683261
 20
2.510118321150557
 30
0.0
 11
-5.953181786683273
 21
1.708236940676499
 31
0.0
 12
-150.7663357172268
 22
-121.4918615500938
 32
0.0
 71
     5
 42
-1.0
  3
STANDARD
100
AcDbAlignedDimension
 13
-6.461314185190389
 23
0.906355560202428
 33
0.0
 14
-6.459186711603138
 24
2.510118321150557
 34
0.0
 50
90.0
100
AcDbRotatedDimension
  0
DIMENSION
  5
90F
330
90B
100
AcDbEntity
  8
COTES
100
AcDbDimension
  2
*D6
 10
-5.873181786683261
 20
0.906355560202428
 30
0.0
 11
-5.723056190431549
 21
0.7652547808940824
 31
0.0
 12
-150.7663357172268
 22
-121.4918615500938
 32
0.0
 70
   128
 71
     5
 42
-1.0
  3
STANDARD
100
AcDbAlignedDimension
 13
-6.459881016336652
 23
0.6063555602024593
 33
0.0
 14
-6.461314185190389
 24
0.906355560202428
 34
0.0
 50
90.0
100
AcDbRotatedDimension
  0
DIMENSION
  5
910
330
90B
100
AcDbEntity
  8
COTES
100
AcDbDimension
  2
*D5
 10
-6.459881016336652
 20
0.2438229595251613
 30
0.0
 11
-6.568968249372261
 21
0.0632198008316323
 31
0.0
 12
-150.7663357172268
 22
-121.4918615500938
 32
0.0
 70
   128
 71
     5
 42
-1.0
  3
STANDARD
100
AcDbAlignedDimension
 13
-6.709881016336652
 23
0.6070785383869861
 33
0.0
 14
-6.459881016336652
 24
0.6063555602024593
 34
0.0
100
AcDbRotatedDimension
  0
ARC
  5
911
330
90B
100
AcDbEntity
  8
SECCIO
100
AcDbCircle
 10
-7.709881016336652
 20
2.506355560202422
 30
0.0
 40
1.25
100
AcDbArc
 50
0.0
 51
180.0
  0
ARC
  5
912
330
90B
100
AcDbEntity
  8
SECCIO
100
AcDbCircle
 10
-7.709881016336652
 20
2.506355560202422
 30
0.0
 40
1.0
100
AcDbArc
 50
0.0000000000007994
 51
179.9999999999992
  0
LINE
  5
913
330
90B
100
AcDbEntity
  8
SECCIO
100
AcDbLine
 10
-6.459881016336652
 20
0.6063555602024593
 30
0.0
 11
-6.459881016336652
 21
2.506355560202422
 31
0.0
  0
LINE
  5
914
330
90B
100
AcDbEntity
  8
SECCIO
100
AcDbLine
 10
-8.709881016336652
 20
2.506355560202436
 30
0.0
 11
-8.709881016336652
 21
1.206355560202425
 31
0.0
  0
LINE
  5
915
330
90B
100
AcDbEntity
  8
SECCIO
100
AcDbLine
 10
-6.709881016336652
 20
0.906355560202428
 30
0.0
 11
-6.709881016336652
 21
2.506355560202436
 31
0.0
  0
LINE
  5
916
330
90B
100
AcDbEntity
  8
SECCIO
100
AcDbLine
 10
-8.959881016336652
 20
2.506355560202422
 30
0.0
 11
-8.959881016336652
 21
0.6063555602024593
 31
0.0
  0
LINE
  5
917
330
90B
100
AcDbEntity
  8
SECCIO
100
AcDbLine
 10
-8.959881016336652
 20
0.6063555602024593
 30
0.0
 11
-6.459881016336652
 21
0.6063555602024593
 31
0.0
  0
DIMENSION
  5
918
330
90B
100
AcDbEntity
  8
COTES
100
AcDbDimension
  2
*D11
 10
-6.709881016336652
 20
0.2438229595251613
 30
0.0
 11
-7.680660955167667
 21
0.2404325179864486
 31
0.0
 12
-150.7663357172268
 22
-121.4918615500938
 32
0.0
 70
   128
 71
     5
 42
-1.0
  3
STANDARD
100
AcDbAlignedDimension
 13
-8.709881016336652
 23
0.6045604117168324
 33
0.0
 14
-6.709881016336652
 24
0.6070785383869861
 34
0.0
100
AcDbRotatedDimension
  0
DIMENSION
  5
919
330
90B
100
AcDbEntity
  8
COTES
100
AcDbDimension
  2
*D10
 10
-7.489776517604326
 20
1.206355560202425
 30
0.0
 11
-7.587662534343706
 21
1.061653991973585
 31
0.0
 12
-150.7663357172268
 22
-121.4918615500938
 32
0.0
 70
   128
 71
     5
 42
-1.0
  3
STANDARD
100
AcDbAlignedDimension
 13
-7.709881016336652
 23
0.906355560202428
 33
0.0
 14
-7.709881016336652
 24
1.206355560202425
 34
0.0
 50
90.0
100
AcDbRotatedDimension
  0
DIMENSION
  5
91A
330
90B
100
AcDbEntity
  8
COTES
100
AcDbDimension
  2
*D4
 10
-8.709881016336652
 20
0.242888937224393
 30
0.0
 11
-8.840095120727625
 21
0.0632198008316323
 31
0.0
 12
-150.7663357172268
 22
-121.4918615500938
 32
0.0
 70
   128
 71
     5
 42
-1.0
  3
STANDARD
100
AcDbAlignedDimension
 13
-8.959881016336652
 23
0.6063555602024593
 33
0.0
 14
-8.709881016336652
 24
0.6045604117168324
 34
0.0
100
AcDbRotatedDimension
  0
DIMENSION
  5
91B
330
90B
100
AcDbEntity
  8
COTES
100
AcDbDimension
  2
*D3
 10
-7.709881016336652
 20
2.506355560202436
 30
0.0
 11
-7.789881016336664
 21
2.781233903197602
 31
0.0
 12
-150.7663357172268
 22
-121.4918615500938
 32
0.0
 70
     4
 71
     5
 42
-1.0
  3
STANDARD
100
AcDbRadialDimension
 15
-7.709881016336652
 25
3.506355560202422
 35
0.0
 40
-0.4851216570048282
  0
DIMENSION
  5
91C
330
90B
100
AcDbEntity
  8
COTES
100
AcDbDimension
  2
*D2
 10
-6.709881016336652
 20
1.430369219734018
 30
0.0
 11
-7.209881016336652
 21
1.510369219734016
 31
0.0
 12
-150.7663357172268
 22
-121.4918615500938
 32
0.0
 71
     5
 42
-1.0
  3
STANDARD
100
AcDbAlignedDimension
 13
-7.709881016336652
 23
1.206355560202425
 33
0.0
 14
-6.709881016336652
 24
0.906355560202428
 34
0.0
100
AcDbRotatedDimension
  0
DIMENSION
  5
91D
330
90B
100
AcDbEntity
  8
COTES
100
AcDbDimension
  2
*D1
 10
-7.709881016336652
 20
1.430369219734018
 30
0.0
 11
-8.209881016336652
 21
1.510369219734016
 31
0.0
 12
-150.7663357172268
 22
-121.4918615500938
 32
0.0
 71
     5
 42
-1.0
  3
STANDARD
100
AcDbAlignedDimension
 13
-8.709881016336652
 23
1.206355560202425
 33
0.0
 14
-7.709881016336652
 24
1.206355560202425
 34
0.0
100
AcDbRotatedDimension
  0
LINE
  5
91E
330
90B
100
AcDbEntity
  8
SECCIO
100
AcDbLine
 10
-7.709881016336652
 20
0.9063555602024422
 30
0.0
 11
-6.709881016336652
 21
0.9063555602024138
 31
0.0
  0
LINE
  5
91F
330
90B
100
AcDbEntity
  8
SECCIO
100
AcDbLine
 10
-7.709881016336652
 20
1.206355560202425
 30
0.0
 11
-8.709881016336652
 21
1.206355560202425
 31
0.0
  0
LINE
  5
920
330
90B
100
AcDbEntity
  8
SECCIO
100
AcDbLine
 10
-7.709881016336652
 20
0.906355560202428
 30
0.0
 11
-7.709881016336652
 21
1.206355560202425
 31
0.0
  0
DIMENSION
  5
921
330
90B
100
AcDbEntity
  8
COTES
100
AcDbDimension
  2
*D22
 10
-3.301087139114883
 20
2.087701546392466
 30
0.0
 11
-3.267275787598578
 21
2.284315670481532
 31
0.0
 12
-157.9040550441503
 22
-121.4918615500938
 32
0.0
 70
     4
 71
     5
 42
-1.0
  3
STANDARD
100
AcDbRadialDimension
 15
-3.517036783117532
 25
2.961409593313831
 35
0.0
 40
-0.4772424521868897
  0
DIMENSION
  5
922
330
90B
100
AcDbEntity
  8
COTES
100
AcDbDimension
  2
*D21
 10
-1.752982373372589
 20
3.237701546392472
 30
0.0
 11
-1.832982373372601
 21
3.453066288988239
 31
0.0
 12
-157.9040550441503
 22
-121.4918615500938
 32
0.0
 70
   128
 71
     5
 42
-1.0
  3
STANDARD
100
AcDbAlignedDimension
 13
-2.585798070365001
 23
2.987701546392472
 33
0.0
 14
-3.132197715443965
 24
3.237701546392472
 34
0.0
 50
90.0
100
AcDbRotatedDimension
  0
DIMENSION
  5
923
330
90B
100
AcDbEntity
  8
COTES
100
AcDbDimension
  2
*D20
 10
-1.752982373372589
 20
2.987701546392472
 30
0.0
 11
-1.832982373372601
 21
2.537701546392469
 31
0.0
 12
-157.9040550441503
 22
-121.4918615500938
 32
0.0
 71
     5
 42
-1.0
  3
STANDARD
100
AcDbAlignedDimension
 13
-2.150224274286387
 23
2.087701546392466
 33
0.0
 14
-2.585798070365001
 24
2.987701546392472
 34
0.0
 50
90.0
100
AcDbRotatedDimension
  0
DIMENSION
  5
924
330
90B
100
AcDbEntity
  8
COTES
100
AcDbDimension
  2
*D19
 10
-1.752982373372589
 20
2.087701546392466
 30
0.0
 11
-1.832982373372601
 21
1.637701546392463
 31
0.0
 12
-157.9040550441503
 22
-121.4918615500938
 32
0.0
 71
     5
 42
-1.0
  3
STANDARD
100
AcDbAlignedDimension
 13
-2.150224274286387
 23
1.18770154639246
 33
0.0
 14
-2.150224274286387
 24
2.087701546392466
 34
0.0
 50
90.0
100
AcDbRotatedDimension
  0
DIMENSION
  5
925
330
90B
100
AcDbEntity
  8
COTES
100
AcDbDimension
  2
*D18
 10
-1.752982373372589
 20
1.18770154639246
 30
0.0
 11
-1.832982373372601
 21
1.041668740061922
 31
0.0
 12
-157.9040550441503
 22
-121.4918615500938
 32
0.0
 70
   128
 71
     5
 42
-1.0
  3
STANDARD
100
AcDbAlignedDimension
 13
-2.151087139114906
 23
0.8877015463924635
 33
0.0
 14
-2.150224274286387
 24
1.18770154639246
 34
0.0
 50
90.0
100
AcDbRotatedDimension
  0
DIMENSION
  5
926
330
90B
100
AcDbEntity
  8
COTES
100
AcDbDimension
  2
*D17
 10
-2.151087139114906
 20
0.5512733935177039
 30
0.0
 11
-1.944173269369429
 21
0.6312733935177022
 31
0.0
 12
-157.9040550441503
 22
-121.4918615500938
 32
0.0
 70
   128
 71
     5
 42
-1.0
  3
STANDARD
100
AcDbAlignedDimension
 13
-2.401087139114878
 23
0.8883478218676685
 33
0.0
 14
-2.151087139114906
 24
0.8877015463924635
 34
0.0
100
AcDbRotatedDimension
  0
DIMENSION
  5
927
330
90B
100
AcDbEntity
  8
COTES
100
AcDbDimension
  2
*D16
 10
-2.401087139114878
 20
0.5512733935177039
 30
0.0
 11
-3.301087139114883
 21
0.6312733935177022
 31
0.0
 12
-157.9040550441503
 22
-121.4918615500938
 32
0.0
 71
     5
 42
-1.0
  3
STANDARD
100
AcDbAlignedDimension
 13
-4.201087139114889
 23
0.8848797111295851
 33
0.0
 14
-2.401087139114878
 24
0.8883478218676685
 34
0.0
100
AcDbRotatedDimension
  0
DIMENSION
  5
928
330
90B
100
AcDbEntity
  8
COTES
100
AcDbDimension
  2
*D15
 10
-4.201087139114889
 20
0.5512733935177039
 30
0.0
 11
-4.642955161661376
 21
0.6312733935177022
 31
0.0
 12
-157.9040550441503
 22
-121.4918615500938
 32
0.0
 70
   128
 71
     5
 42
-1.0
  3
STANDARD
100
AcDbAlignedDimension
 13
-4.451087139114861
 23
0.8877015463924635
 33
0.0
 14
-4.201087139114889
 24
0.8848797111295851
 34
0.0
100
AcDbRotatedDimension
  0
DIMENSION
  5
929
330
90B
100
AcDbEntity
  8
COTES
100
AcDbDimension
  2
*D14
 10
-2.90420560404803
 20
1.487701546392443
 30
0.0
 11
-2.984205604048042
 21
1.346714049303471
 31
0.0
 12
-157.9040550441503
 22
-121.4918615500938
 32
0.0
 70
   128
 71
     5
 42
-1.0
  3
STANDARD
100
AcDbAlignedDimension
 13
-3.201087139114889
 23
1.18770154639246
 33
0.0
 14
-3.201087139114889
 24
1.487701546392443
 34
0.0
 50
90.0
100
AcDbRotatedDimension
  0
DIMENSION
  5
92A
330
90B
100
AcDbEntity
  8
COTES
100
AcDbDimension
  2
*D13
 10
-2.401087139114878
 20
1.756917941735778
 30
0.0
 11
-2.801087139114883
 21
1.836917941735777
 31
0.0
 12
-157.9040550441503
 22
-121.4918615500938
 32
0.0
 71
     5
 42
-1.0
  3
STANDARD
100
AcDbAlignedDimension
 13
-3.201087139114889
 23
1.487701546392443
 33
0.0
 14
-2.401087139114878
 24
1.18770154639246
 34
0.0
100
AcDbRotatedDimension
  0
DIMENSION
  5
92B
330
90B
100
AcDbEntity
  8
COTES
100
AcDbDimension
  2
*D12
 10
-3.201087139114889
 20
1.756917941735778
 30
0.0
 11
-3.701087139114889
 21
1.836917941735777
 31
0.0
 12
-157.9040550441503
 22
-121.4918615500938
 32
0.0
 71
     5
 42
-1.0
  3
STANDARD
100
AcDbAlignedDimension
 13
-4.201087139114889
 23
1.487701546392457
 33
0.0
 14
-3.201087139114889
 24
1.487701546392443
 34
0.0
100
AcDbRotatedDimension
  0
LINE
  5
92C
330
90B
100
AcDbEntity
  8
SECCIO
100
AcDbLine
 10
-3.201087139114889
 20
1.18770154639246
 30
0.0
 11
-3.201087139114889
 21
1.487701546392443
 31
0.0
  0
LINE
  5
92D
330
90B
100
AcDbEntity
  8
SECCIO
100
AcDbLine
 10
-4.201087139114889
 20
1.487701546392457
 30
0.0
 11
-3.201087139114889
 21
1.487701546392443
 31
0.0
  0
LINE
  5
92E
330
90B
100
AcDbEntity
  8
SECCIO
100
AcDbLine
 10
-4.451087139114861
 20
0.8877015463924635
 30
0.0
 11
-4.451087139114889
 21
2.087701546392466
 31
0.0
  0
ARC
  5
92F
330
90B
100
AcDbEntity
  8
SECCIO
100
AcDbCircle
 10
-3.301087139114883
 20
2.087701546392466
 30
0.0
 40
1.150000000000005
100
AcDbArc
 50
0.0
 51
180.0
  0
LINE
  5
930
330
90B
100
AcDbEntity
  8
SECCIO
100
AcDbLine
 10
-2.151087139114906
 20
0.8877015463924635
 30
0.0
 11
-2.151087139114878
 21
2.087701546392466
 31
0.0
  0
LINE
  5
931
330
90B
100
AcDbEntity
  8
SECCIO
100
AcDbLine
 10
-3.201087139114889
 20
1.18770154639246
 30
0.0
 11
-2.401087139114878
 21
1.18770154639246
 31
0.0
  0
ARC
  5
932
330
90B
100
AcDbEntity
  8
SECCIO
100
AcDbCircle
 10
-3.301087139114883
 20
2.087701546392466
 30
0.0
 40
0.9000000000000056
100
AcDbArc
 50
0.0
 51
180.0
  0
LINE
  5
933
330
90B
100
AcDbEntity
  8
SECCIO
100
AcDbLine
 10
-4.201087139114889
 20
1.487701546392457
 30
0.0
 11
-4.201087139114889
 21
2.087701546392466
 31
0.0
  0
LINE
  5
934
330
90B
100
AcDbEntity
  8
SECCIO
100
AcDbLine
 10
-2.401087139114878
 20
1.18770154639246
 30
0.0
 11
-2.401087139114878
 21
2.087701546392466
 31
0.0
  0
LINE
  5
935
330
90B
100
AcDbEntity
  8
SECCIO
100
AcDbLine
 10
-4.451087139114861
 20
0.8877015463924635
 30
0.0
 11
-2.151087139114906
 21
0.8877015463924635
 31
0.0
  0
ENDBLK
  5
937
330
90B
100
AcDbEntity
  8
0
100
AcDbBlockEnd
  0
BLOCK
  5
F97
330
F96
100
AcDbEntity
  8
0
100
AcDbBlockBegin
  2
*D24
 70
     1
 10
0.0
 20
0.0
 30
0.0
  3
*D24
  1

  0
LINE
  5
F98
330
F96
100
AcDbEntity
  8
0
  6
ByBlock
 62
     0
100
AcDbLine
 10
321.836594038224
 20
34.21322715875169
 30
0.0
 11
321.836594038224
 21
33.90191980430759
 31
0.0
  0
LINE
  5
F99
330
F96
100
AcDbEntity
  8
0
  6
ByBlock
 62
     0
100
AcDbLine
 10
324.286594038224
 20
34.21322715875169
 30
0.0
 11
324.286594038224
 21
33.90191980430759
 31
0.0
  0
LINE
  5
F9A
330
F96
100
AcDbEntity
  8
0
  6
ByBlock
 62
     0
100
AcDbLine
 10
321.986594038224
 20
33.91691980430759
 30
0.0
 11
324.1365940382241
 21
33.91691980430759
 31
0.0
  0
SOLID
  5
F9B
330
F96
100
AcDbEntity
  8
0
  6
ByBlock
 62
     0
100
AcDbTrace
 10
321.986594038224
 20
33.94191980430759
 30
0.0
 11
321.986594038224
 21
33.89191980430759
 31
0.0
 12
321.836594038224
 22
33.91691980430759
 32
0.0
 13
321.836594038224
 23
33.91691980430759
 33
0.0
  0
SOLID
  5
F9C
330
F96
100
AcDbEntity
  8
0
  6
ByBlock
 62
     0
100
AcDbTrace
 10
324.1365940382241
 20
33.94191980430759
 30
0.0
 11
324.1365940382241
 21
33.89191980430759
 31
0.0
 12
324.286594038224
 22
33.91691980430759
 32
0.0
 13
324.286594038224
 23
33.91691980430759
 33
0.0
  0
MTEXT
  5
F9D
330
F96
100
AcDbEntity
  8
0
  6
ByBlock
 62
     0
100
AcDbMText
 10
323.061594038224
 20
33.9919198043076
 30
0.0
 40
0.075
 41
0.0
 71
     5
 72
     1
  1
\A1;2.45
  7
ROMANC
 73
     1
 44
1.0
  0
POINT
  5
F9E
330
F96
100
AcDbEntity
  8
DEFPOINTS
  6
ByBlock
 62
     0
100
AcDbPoint
 10
321.836594038224
 20
34.22822715875169
 30
0.0
  0
POINT
  5
F9F
330
F96
100
AcDbEntity
  8
DEFPOINTS
  6
ByBlock
 62
     0
100
AcDbPoint
 10
324.286594038224
 20
34.22822715875169
 30
0.0
  0
POINT
  5
FA0
330
F96
100
AcDbEntity
  8
DEFPOINTS
  6
ByBlock
 62
     0
100
AcDbPoint
 10
324.286594038224
 20
33.91691980430759
 30
0.0
  0
ENDBLK
  5
FA1
330
F96
100
AcDbEntity
  8
0
100
AcDbBlockEnd
  0
BLOCK
  5
FA4
330
FA3
100
AcDbEntity
  8
0
100
AcDbBlockBegin
  2
*D25
 70
     1
 10
0.0
 20
0.0
 30
0.0
  3
*D25
  1

  0
LINE
  5
FA5
330
FA3
100
AcDbEntity
  8
0
  6
ByBlock
 62
     0
100
AcDbLine
 10
324.301594038224
 20
35.82822715875169
 30
0.0
 11
324.6146962046743
 21
35.82822715875169
 31
0.0
  0
LINE
  5
FA6
330
FA3
100
AcDbEntity
  8
0
  6
ByBlock
 62
     0
100
AcDbLine
 10
324.301594038224
 20
34.22822715875169
 30
0.0
 11
324.6146962046743
 21
34.22822715875169
 31
0.0
  0
LINE
  5
FA7
330
FA3
100
AcDbEntity
  8
0
  6
ByBlock
 62
     0
100
AcDbLine
 10
324.5996962046743
 20
35.67822715875169
 30
0.0
 11
324.5996962046743
 21
34.37822715875169
 31
0.0
  0
SOLID
  5
FA8
330
FA3
100
AcDbEntity
  8
0
  6
ByBlock
 62
     0
100
AcDbTrace
 10
324.5746962046743
 20
35.67822715875169
 30
0.0
 11
324.6246962046743
 21
35.67822715875169
 31
0.0
 12
324.5996962046743
 22
35.82822715875169
 32
0.0
 13
324.5996962046743
 23
35.82822715875169
 33
0.0
  0
SOLID
  5
FA9
330
FA3
100
AcDbEntity
  8
0
  6
ByBlock
 62
     0
100
AcDbTrace
 10
324.5746962046743
 20
34.37822715875169
 30
0.0
 11
324.6246962046743
 21
34.37822715875169
 31
0.0
 12
324.5996962046743
 22
34.22822715875169
 32
0.0
 13
324.5996962046743
 23
34.22822715875169
 33
0.0
  0
MTEXT
  5
FAA
330
FA3
100
AcDbEntity
  8
0
  6
ByBlock
 62
     0
100
AcDbMText
 10
324.5246962046743
 20
35.02822715875169
 30
0.0
 40
0.075
 41
0.0
 71
     5
 72
     1
  1
\A1;1.60
  7
ROMANC
 11
0.0000000000000001
 21
1.0
 31
0.0
 73
     1
 44
1.0
  0
POINT
  5
FAB
330
FA3
100
AcDbEntity
  8
DEFPOINTS
  6
ByBlock
 62
     0
100
AcDbPoint
 10
324.286594038224
 20
35.82822715875169
 30
0.0
  0
POINT
  5
FAC
330
FA3
100
AcDbEntity
  8
DEFPOINTS
  6
ByBlock
 62
     0
100
AcDbPoint
 10
324.286594038224
 20
34.22822715875169
 30
0.0
  0
POINT
  5
FAD
330
FA3
100
AcDbEntity
  8
DEFPOINTS
  6
ByBlock
 62
     0
100
AcDbPoint
 10
324.5996962046743
 20
34.22822715875169
 30
0.0
  0
ENDBLK
  5
FAE
330
FA3
100
AcDbEntity
  8
0
100
AcDbBlockEnd
  0
BLOCK
  5
FF8
330
FCB
100
AcDbEntity
  8
0
100
AcDbBlockBegin
  2
NT1540
 70
     0
 10
0.0
 20
0.0
 30
0.0
  3
NT1540
  1

  0
TEXT
  5
FCC
330
FCB
100
AcDbEntity
  8
0
100
AcDbText
 10
1.961193000000037
 20
10.99330800000001
 30
0.0
 40
0.3
  1
P = 159.7 dm
  7
ROMANC
100
AcDbText
  0
LINE
  5
FCD
330
FCB
100
AcDbEntity
  8
0
100
AcDbLine
 10
0.0
 20
14.84999999999999
 30
0.0
 11
0.0
 21
0.0
 31
0.0
  0
LINE
  5
FCE
330
FCB
100
AcDbEntity
  8
SECCIO
100
AcDbLine
 10
2.32834600000001
 20
4.17357400000003
 30
0.0
 11
7.512448000000006
 21
4.17357400000003
 31
0.0
  0
LINE
  5
FCF
330
FCB
100
AcDbEntity
  8
MESURA
100
AcDbLine
 10
2.353809000000012
 20
4.13854599999999
 30
0.0
 11
2.43719900000002
 21
4.199155000000018
 31
0.0
  0
LINE
  5
FD0
330
FCB
100
AcDbEntity
  8
MESURA
100
AcDbLine
 10
2.400173000000023
 20
5.373574000000019
 30
0.0
 11
2.400173000000023
 21
4.092426000000017
 31
0.0
  0
LINE
  5
FD1
330
FCB
100
AcDbEntity
  8
SECCIO
100
AcDbLine
 10
7.900173000000023
 20
7.94831400000001
 30
0.0
 11
7.900173000000023
 21
4.578732999999999
 31
0.0
  0
LINE
  5
FD2
330
FCB
100
AcDbEntity
  8
MESURA
100
AcDbLine
 10
7.864491000000015
 20
4.645912000000009
 30
0.0
 11
7.947881000000023
 21
4.706522000000006
 31
0.0
  0
LINE
  5
FD3
330
FCB
100
AcDbEntity
  8
MESURA
100
AcDbLine
 10
7.400173000000023
 20
4.67357400000003
 30
0.0
 11
8.023912999999993
 21
4.67357400000003
 31
0.0
  0
LINE
  5
FD4
330
FCB
100
AcDbEntity
  8
MESURA
100
AcDbLine
 10
7.350348000000025
 20
4.140130000000027
 30
0.0
 11
7.433738000000005
 21
4.200739999999996
 31
0.0
  0
TEXT
  5
FD5
330
FCB
100
AcDbEntity
  8
TEXTEP
100
AcDbText
 10
5.013579000000021
 20
3.992257000000023
 30
0.0
 40
0.1
  1
5.0
100
AcDbText
  0
LINE
  5
FD6
330
FCB
100
AcDbEntity
  8
MESURA
100
AcDbLine
 10
7.400173000000023
 20
4.67357400000003
 30
0.0
 11
7.400173000000023
 21
4.075626999999997
 31
0.0
  0
TEXT
  5
FD7
330
FCB
100
AcDbEntity
  8
MESURA
100
AcDbText
 10
7.961481999999989
 20
6.164557999999999
 30
0.0
 40
0.1
  1
2.9
100
AcDbText
  0
TEXT
  5
FD8
330
FCB
100
AcDbEntity
  8
TEXTEP
100
AcDbText
 10
7.949001000000038
 20
7.643172000000021
 30
0.0
 40
0.1
  1
0.3
100
AcDbText
  0
TEXT
  5
FD9
330
FCB
100
AcDbEntity
  8
TEXTEP
100
AcDbText
 10
7.021276000000028
 20
8.111324000000024
 30
0.0
 40
0.1
  1
0.5
100
AcDbText
  0
LINE
  5
FDA
330
FCB
100
AcDbEntity
  8
MESURA
100
AcDbLine
 10
6.900173000000023
 20
7.873574000000019
 30
0.0
 11
6.900173000000023
 21
8.157886000000019
 31
0.0
  0
LINE
  5
FDB
330
FCB
100
AcDbEntity
  8
MESURA
100
AcDbLine
 10
7.400173000000023
 20
7.573574000000007
 30
0.0
 11
7.400173000000023
 21
8.157886000000019
 31
0.0
  0
LINE
  5
FDC
330
FCB
100
AcDbEntity
  8
MESURA
100
AcDbLine
 10
6.854890000000011
 20
8.044422000000025
 30
0.0
 11
6.938280000000048
 21
8.105032000000022
 31
0.0
  0
LINE
  5
FDD
330
FCB
100
AcDbEntity
  8
MESURA
100
AcDbLine
 10
7.356631000000021
 20
8.04087800000002
 30
0.0
 11
7.440021000000001
 21
8.101487999999989
 31
0.0
  0
LINE
  5
FDE
330
FCB
100
AcDbEntity
  8
SECCIO
100
AcDbLine
 10
6.802856999999988
 20
8.075755000000015
 30
0.0
 11
7.476589000000018
 21
8.075755000000015
 31
0.0
  0
LINE
  5
FDF
330
FCB
100
AcDbEntity
  8
MESURA
100
AcDbLine
 10
6.900173000000023
 20
7.873574000000019
 30
0.0
 11
7.983789999999999
 21
7.873574000000019
 31
0.0
  0
LINE
  5
FE0
330
FCB
100
AcDbEntity
  8
MESURA
100
AcDbLine
 10
7.400173000000023
 20
7.573574000000007
 30
0.0
 11
7.983789999999999
 21
7.573574000000007
 31
0.0
  0
LINE
  5
FE1
330
FCB
100
AcDbEntity
  8
MESURA
100
AcDbLine
 10
7.85743000000005
 20
7.542766
 30
0.0
 11
7.94082000000003
 21
7.603376000000025
 31
0.0
  0
LINE
  5
FE2
330
FCB
100
AcDbEntity
  8
MESURA
100
AcDbLine
 10
7.859420000000028
 20
7.841816000000022
 30
0.0
 11
7.942810000000037
 21
7.902426000000019
 31
0.0
  0
TEXT
  5
FE3
330
FCB
100
AcDbEntity
  8
0
100
AcDbText
 10
1.964021000000002
 20
11.666806
 30
0.0
 40
0.3
  1
S = 1540 dm
  7
ROMANC
100
AcDbText
  0
TEXT
  5
FE4
330
FCB
100
AcDbEntity
  8
0
100
AcDbText
 10
1.992896000000001
 20
12.48591000000002
 30
0.0
 40
0.3
  1
ESCALA    1:50
  7
ROMANC
100
AcDbText
  0
TEXT
  5
FE5
330
FCB
100
AcDbEntity
  8
0
100
AcDbText
 10
1.942792000000025
 20
13.270226
 30
0.0
 40
0.3
  1
TIPUS    NT1540
  7
ROMANC
100
AcDbText
  0
TEXT
  5
FE6
330
FCB
100
AcDbEntity
  8
0
100
AcDbText
 10
5.471852000000012
 20
11.972722
 30
0.0
 40
0.1
  1
2
  7
ROMANC
100
AcDbText
  0
LINE
  5
FE7
330
FCB
100
AcDbEntity
  8
0
100
AcDbLine
 10
0.0
 20
14.84999999999999
 30
0.0
 11
10.5
 21
14.84999999999999
 31
0.0
  0
LINE
  5
FE8
330
FCB
100
AcDbEntity
  8
0
100
AcDbLine
 10
0.0
 20
0.0
 30
0.0
 11
10.5
 21
0.0
 31
0.0
  0
LINE
  5
FE9
330
FCB
100
AcDbEntity
  8
0
100
AcDbLine
 10
10.5
 20
14.84999999999999
 30
0.0
 11
10.5
 21
0.0
 31
0.0
  0
LINE
  5
FEA
330
FCB
100
AcDbEntity
  8
SECCIO
100
AcDbLine
 10
8.370923000000004
 20
7.94831400000001
 30
0.0
 11
8.370923000000004
 21
4.578732999999999
 31
0.0
  0
LINE
  5
FEB
330
FCB
100
AcDbEntity
  8
MESURA
100
AcDbLine
 10
7.870923000000004
 20
4.67357400000003
 30
0.0
 11
8.494663000000002
 21
4.67357400000003
 31
0.0
  0
LINE
  5
FEC
330
FCB
100
AcDbEntity
  8
MESURA
100
AcDbLine
 10
8.335241000000024
 20
4.645912000000009
 30
0.0
 11
8.418631000000033
 21
4.706522000000006
 31
0.0
  0
LINE
  5
FED
330
FCB
100
AcDbEntity
  8
MESURA
100
AcDbLine
 10
8.330170000000038
 20
7.841816000000022
 30
0.0
 11
8.413560000000018
 21
7.902426000000019
 31
0.0
  0
LINE
  5
FEE
330
FCB
100
AcDbEntity
  8
MESURA
100
AcDbLine
 10
7.370923000000004
 20
7.873574000000019
 30
0.0
 11
8.454540000000008
 21
7.873574000000019
 31
0.0
  0
TEXT
  5
FEF
330
FCB
100
AcDbEntity
  8
MESURA
100
AcDbText
 10
8.432231999999999
 20
6.164557999999999
 30
0.0
 40
0.1
  1
3.2
100
AcDbText
  0
LINE
  5
FF0
330
FCB
100
AcDbEntity
  8
SECCIO
100
AcDbLine
 10
2.400173000000023
 20
5.17357400000003
 30
0.0
 11
2.400173000000023
 21
7.573574000000007
 31
0.0
  0
LINE
  5
FF1
330
FCB
100
AcDbEntity
  8
SECCIO
100
AcDbLine
 10
2.400173000000023
 20
7.573574000000007
 30
0.0
 11
2.900173000000023
 21
7.873574000000019
 31
0.0
  0
LINE
  5
FF2
330
FCB
100
AcDbEntity
  8
SECCIO
100
AcDbLine
 10
2.900173000000023
 20
7.873574000000019
 30
0.0
 11
6.900173000000023
 21
7.873574000000019
 31
0.0
  0
LINE
  5
FF3
330
FCB
100
AcDbEntity
  8
SECCIO
100
AcDbLine
 10
6.900173000000023
 20
7.873574000000019
 30
0.0
 11
7.400173000000023
 21
7.573574000000007
 31
0.0
  0
LINE
  5
FF4
330
FCB
100
AcDbEntity
  8
SECCIO
100
AcDbLine
 10
7.400173000000023
 20
7.573574000000007
 30
0.0
 11
7.400173000000023
 21
4.67357400000003
 31
0.0
  0
LINE
  5
FF5
330
FCB
100
AcDbEntity
  8
SECCIO
100
AcDbLine
 10
7.400173000000023
 20
4.67357400000003
 30
0.0
 11
2.900173000000023
 21
4.673574000000058
 31
0.0
  0
LINE
  5
FF6
330
FCB
100
AcDbEntity
  8
SECCIO
100
AcDbLine
 10
2.900173000000023
 20
5.17357400000003
 30
0.0
 11
2.400173000000023
 21
5.17357400000003
 31
0.0
  0
LINE
  5
FF7
330
FCB
100
AcDbEntity
  8
SECCIO
100
AcDbLine
 10
2.900173000000023
 20
4.673574000000058
 30
0.0
 11
2.900173000000023
 21
5.17357400000003
 31
0.0
  0
ENDBLK
  5
FF9
330
FCB
100
AcDbEntity
  8
0
100
AcDbBlockEnd
  0
BLOCK
  5
1033
330
1029
100
AcDbEntity
  8
0
100
AcDbBlockBegin
  2
*D27
 70
     1
 10
0.0
 20
0.0
 30
0.0
  3
*D27
  1

  0
LINE
  5
113D
330
1029
100
AcDbEntity
  8
0
 62
     0
370
    -2
100
AcDbLine
 10
322.3879526406182
 20
33.1650889434706
 30
0.0
 11
322.3879526406182
 21
32.77344906258184
 31
0.0
  0
LINE
  5
113E
330
1029
100
AcDbEntity
  8
0
 62
     0
370
    -2
100
AcDbLine
 10
326.8879526406182
 20
33.16508894347057
 30
0.0
 11
326.8879526406182
 21
32.77344906258184
 31
0.0
  0
LINE
  5
113F
330
1029
100
AcDbEntity
  8
0
 62
     0
370
    -2
100
AcDbLine
 10
322.5379526406182
 20
32.78844906258184
 30
0.0
 11
326.7379526406183
 21
32.78844906258184
 31
0.0
  0
SOLID
  5
1140
330
1029
100
AcDbEntity
  8
0
 62
     0
100
AcDbTrace
 10
322.5379526406182
 20
32.81344906258184
 30
0.0
 11
322.5379526406182
 21
32.76344906258184
 31
0.0
 12
322.3879526406182
 22
32.78844906258184
 32
0.0
 13
322.3879526406182
 23
32.78844906258184
 33
0.0
  0
SOLID
  5
1141
330
1029
100
AcDbEntity
  8
0
 62
     0
100
AcDbTrace
 10
326.7379526406183
 20
32.81344906258184
 30
0.0
 11
326.7379526406183
 21
32.76344906258184
 31
0.0
 12
326.8879526406182
 22
32.78844906258184
 32
0.0
 13
326.8879526406182
 23
32.78844906258184
 33
0.0
  0
MTEXT
  5
1142
330
1029
100
AcDbEntity
  8
0
 62
     0
100
AcDbMText
 10
324.6379526406182
 20
32.86344906258185
 30
0.0
 40
0.075
 41
0.0
 71
     5
 72
     1
  1
\A1;4.50
  7
ROMANC
 73
     1
 44
1.0
  0
POINT
  5
1143
330
1029
100
AcDbEntity
  8
DEFPOINTS
 62
     0
100
AcDbPoint
 10
322.3879526406182
 20
33.1800889434706
 30
0.0
  0
POINT
  5
1144
330
1029
100
AcDbEntity
  8
DEFPOINTS
 62
     0
100
AcDbPoint
 10
326.8879526406182
 20
33.18008894347057
 30
0.0
  0
POINT
  5
1145
330
1029
100
AcDbEntity
  8
DEFPOINTS
 62
     0
100
AcDbPoint
 10
326.8879526406182
 20
32.78844906258184
 30
0.0
  0
ENDBLK
  5
1034
330
1029
100
AcDbEntity
  8
0
100
AcDbBlockEnd
  0
BLOCK
  5
1040
330
1036
100
AcDbEntity
  8
0
100
AcDbBlockBegin
  2
*D28
 70
     1
 10
0.0
 20
0.0
 30
0.0
  3
*D28
  1

  0
LINE
  5
117E
330
1036
100
AcDbEntity
  8
0
 62
     0
370
    -2
100
AcDbLine
 10
322.3879526406182
 20
33.66508894347057
 30
0.0
 11
322.3879526406182
 21
32.77344906258184
 31
0.0
  0
LINE
  5
117F
330
1036
100
AcDbEntity
  8
0
 62
     0
370
    -2
100
AcDbLine
 10
321.8879526406182
 20
33.66508894347057
 30
0.0
 11
321.8879526406182
 21
32.77344906258184
 31
0.0
  0
LINE
  5
1180
330
1036
100
AcDbEntity
  8
0
 62
     0
370
    -2
100
AcDbLine
 10
322.2379526406182
 20
32.78844906258184
 30
0.0
 11
322.0379526406182
 21
32.78844906258184
 31
0.0
  0
SOLID
  5
1181
330
1036
100
AcDbEntity
  8
0
 62
     0
100
AcDbTrace
 10
322.2379526406182
 20
32.81344906258184
 30
0.0
 11
322.2379526406182
 21
32.76344906258184
 31
0.0
 12
322.3879526406182
 22
32.78844906258184
 32
0.0
 13
322.3879526406182
 23
32.78844906258184
 33
0.0
  0
SOLID
  5
1182
330
1036
100
AcDbEntity
  8
0
 62
     0
100
AcDbTrace
 10
322.0379526406182
 20
32.81344906258184
 30
0.0
 11
322.0379526406182
 21
32.76344906258184
 31
0.0
 12
321.8879526406182
 22
32.78844906258184
 32
0.0
 13
321.8879526406182
 23
32.78844906258184
 33
0.0
  0
MTEXT
  5
1183
330
1036
100
AcDbEntity
  8
0
 62
     0
100
AcDbMText
 10
322.1379526406182
 20
32.86344906258185
 30
0.0
 40
0.075
 41
0.0
 71
     5
 72
     1
  1
\A1;0.50
  7
ROMANC
 73
     1
 44
1.0
  0
POINT
  5
1184
330
1036
100
AcDbEntity
  8
DEFPOINTS
 62
     0
100
AcDbPoint
 10
322.3879526406182
 20
33.68008894347057
 30
0.0
  0
POINT
  5
1185
330
1036
100
AcDbEntity
  8
DEFPOINTS
 62
     0
100
AcDbPoint
 10
321.8879526406182
 20
33.68008894347057
 30
0.0
  0
POINT
  5
1186
330
1036
100
AcDbEntity
  8
DEFPOINTS
 62
     0
100
AcDbPoint
 10
321.8879526406182
 20
32.78844906258184
 30
0.0
  0
ENDBLK
  5
1041
330
1036
100
AcDbEntity
  8
0
100
AcDbBlockEnd
  0
BLOCK
  5
104D
330
1043
100
AcDbEntity
  8
0
100
AcDbBlockBegin
  2
*D29
 70
     1
 10
0.0
 20
0.0
 30
0.0
  3
*D29
  1

  0
LINE
  5
1175
330
1043
100
AcDbEntity
  8
0
 62
     0
370
    -2
100
AcDbLine
 10
322.3729526406182
 20
33.68008894347057
 30
0.0
 11
321.5244886182457
 21
33.68008894347057
 31
0.0
  0
LINE
  5
1176
330
1043
100
AcDbEntity
  8
0
 62
     0
370
    -2
100
AcDbLine
 10
322.3729526406182
 20
33.1800889434706
 30
0.0
 11
321.5244886182457
 21
33.1800889434706
 31
0.0
  0
LINE
  5
1177
330
1043
100
AcDbEntity
  8
0
 62
     0
370
    -2
100
AcDbLine
 10
321.5394886182457
 20
33.53008894347057
 30
0.0
 11
321.5394886182457
 21
33.33008894347059
 31
0.0
  0
SOLID
  5
1178
330
1043
100
AcDbEntity
  8
0
 62
     0
100
AcDbTrace
 10
321.5144886182457
 20
33.53008894347057
 30
0.0
 11
321.5644886182457
 21
33.53008894347057
 31
0.0
 12
321.5394886182457
 22
33.68008894347057
 32
0.0
 13
321.5394886182457
 23
33.68008894347057
 33
0.0
  0
SOLID
  5
1179
330
1043
100
AcDbEntity
  8
0
 62
     0
100
AcDbTrace
 10
321.5144886182457
 20
33.33008894347059
 30
0.0
 11
321.5644886182457
 21
33.33008894347059
 31
0.0
 12
321.5394886182457
 22
33.1800889434706
 32
0.0
 13
321.5394886182457
 23
33.1800889434706
 33
0.0
  0
MTEXT
  5
117A
330
1043
100
AcDbEntity
  8
0
 62
     0
100
AcDbMText
 10
321.4644886182457
 20
33.43008894347063
 30
0.0
 40
0.075
 41
0.0
 71
     5
 72
     1
  1
\A1;0.50
  7
ROMANC
 11
0.0000000000000001
 21
1.0
 31
0.0
 73
     1
 44
1.0
  0
POINT
  5
117B
330
1043
100
AcDbEntity
  8
DEFPOINTS
 62
     0
100
AcDbPoint
 10
322.3879526406182
 20
33.68008894347057
 30
0.0
  0
POINT
  5
117C
330
1043
100
AcDbEntity
  8
DEFPOINTS
 62
     0
100
AcDbPoint
 10
322.3879526406182
 20
33.1800889434706
 30
0.0
  0
POINT
  5
117D
330
1043
100
AcDbEntity
  8
DEFPOINTS
 62
     0
100
AcDbPoint
 10
321.5394886182457
 20
33.1800889434706
 30
0.0
  0
ENDBLK
  5
104E
330
1043
100
AcDbEntity
  8
0
100
AcDbBlockEnd
  0
BLOCK
  5
105A
330
1050
100
AcDbEntity
  8
0
100
AcDbBlockBegin
  2
*D30
 70
     1
 10
0.0
 20
0.0
 30
0.0
  3
*D30
  1

  0
LINE
  5
116C
330
1050
100
AcDbEntity
  8
0
 62
     0
370
    -2
100
AcDbLine
 10
321.8729526406182
 20
33.68008894347057
 30
0.0
 11
321.5244886182457
 21
33.68008894347057
 31
0.0
  0
LINE
  5
116D
330
1050
100
AcDbEntity
  8
0
 62
     0
370
    -2
100
AcDbLine
 10
321.8729526406182
 20
36.08008894347054
 30
0.0
 11
321.5244886182457
 21
36.08008894347054
 31
0.0
  0
LINE
  5
116E
330
1050
100
AcDbEntity
  8
0
 62
     0
370
    -2
100
AcDbLine
 10
321.5394886182457
 20
33.83008894347057
 30
0.0
 11
321.5394886182457
 21
35.93008894347055
 31
0.0
  0
SOLID
  5
116F
330
1050
100
AcDbEntity
  8
0
 62
     0
100
AcDbTrace
 10
321.5144886182457
 20
33.83008894347057
 30
0.0
 11
321.5644886182457
 21
33.83008894347057
 31
0.0
 12
321.5394886182457
 22
33.68008894347057
 32
0.0
 13
321.5394886182457
 23
33.68008894347057
 33
0.0
  0
SOLID
  5
1170
330
1050
100
AcDbEntity
  8
0
 62
     0
100
AcDbTrace
 10
321.5144886182457
 20
35.93008894347055
 30
0.0
 11
321.5644886182457
 21
35.93008894347055
 31
0.0
 12
321.5394886182457
 22
36.08008894347054
 32
0.0
 13
321.5394886182457
 23
36.08008894347054
 33
0.0
  0
MTEXT
  5
1171
330
1050
100
AcDbEntity
  8
0
 62
     0
100
AcDbMText
 10
321.4644886182457
 20
34.88008894347061
 30
0.0
 40
0.075
 41
0.0
 71
     5
 72
     1
  1
\A1;2.40
  7
ROMANC
 11
0.0000000000000001
 21
1.0
 31
0.0
 73
     1
 44
1.0
  0
POINT
  5
1172
330
1050
100
AcDbEntity
  8
DEFPOINTS
 62
     0
100
AcDbPoint
 10
321.8879526406182
 20
33.68008894347057
 30
0.0
  0
POINT
  5
1173
330
1050
100
AcDbEntity
  8
DEFPOINTS
 62
     0
100
AcDbPoint
 10
321.8879526406182
 20
36.08008894347054
 30
0.0
  0
POINT
  5
1174
330
1050
100
AcDbEntity
  8
DEFPOINTS
 62
     0
100
AcDbPoint
 10
321.5394886182457
 20
36.08008894347054
 30
0.0
  0
ENDBLK
  5
105B
330
1050
100
AcDbEntity
  8
0
100
AcDbBlockEnd
  0
BLOCK
  5
1094
330
108A
100
AcDbEntity
  8
0
100
AcDbBlockBegin
  2
*D31
 70
     1
 10
0.0
 20
0.0
 30
0.0
  3
*D31
  1

  0
LINE
  5
1146
330
108A
100
AcDbEntity
  8
0
 62
     0
370
    -2
100
AcDbLine
 10
321.8879526406182
 20
33.66508894347057
 30
0.0
 11
321.8879526406182
 21
32.48744366774941
 31
0.0
  0
LINE
  5
1147
330
108A
100
AcDbEntity
  8
0
 62
     0
370
    -2
100
AcDbLine
 10
326.8879526406182
 20
33.15008894347057
 30
0.0
 11
326.8879526406182
 21
32.48744366774941
 31
0.0
  0
LINE
  5
1148
330
108A
100
AcDbEntity
  8
0
 62
     0
370
    -2
100
AcDbLine
 10
322.0379526406182
 20
32.50244366774941
 30
0.0
 11
326.7379526406183
 21
32.50244366774941
 31
0.0
  0
SOLID
  5
1149
330
108A
100
AcDbEntity
  8
0
 62
     0
100
AcDbTrace
 10
322.0379526406182
 20
32.52744366774941
 30
0.0
 11
322.0379526406182
 21
32.47744366774941
 31
0.0
 12
321.8879526406182
 22
32.50244366774941
 32
0.0
 13
321.8879526406182
 23
32.50244366774941
 33
0.0
  0
SOLID
  5
114A
330
108A
100
AcDbEntity
  8
0
 62
     0
100
AcDbTrace
 10
326.7379526406183
 20
32.52744366774941
 30
0.0
 11
326.7379526406183
 21
32.47744366774941
 31
0.0
 12
326.8879526406182
 22
32.50244366774941
 32
0.0
 13
326.8879526406182
 23
32.50244366774941
 33
0.0
  0
MTEXT
  5
114B
330
108A
100
AcDbEntity
  8
0
 62
     0
100
AcDbMText
 10
324.3879526406182
 20
32.57744366774942
 30
0.0
 40
0.075
 41
0.0
 71
     5
 72
     1
  1
\A1;5.00
  7
ROMANC
 73
     1
 44
1.0
  0
POINT
  5
114C
330
108A
100
AcDbEntity
  8
DEFPOINTS
 62
     0
100
AcDbPoint
 10
321.8879526406182
 20
33.68008894347057
 30
0.0
  0
POINT
  5
114D
330
108A
100
AcDbEntity
  8
DEFPOINTS
 62
     0
100
AcDbPoint
 10
326.8879526406182
 20
33.16508894347057
 30
0.0
  0
POINT
  5
114E
330
108A
100
AcDbEntity
  8
DEFPOINTS
 62
     0
100
AcDbPoint
 10
326.8879526406182
 20
32.50244366774941
 30
0.0
  0
ENDBLK
  5
1095
330
108A
100
AcDbEntity
  8
0
100
AcDbBlockEnd
  0
BLOCK
  5
10A1
330
1097
100
AcDbEntity
  8
0
100
AcDbBlockBegin
  2
*D32
 70
     1
 10
0.0
 20
0.0
 30
0.0
  3
*D32
  1

  0
LINE
  5
1163
330
1097
100
AcDbEntity
  8
0
 62
     0
370
    -2
100
AcDbLine
 10
322.3729526406182
 20
36.38008894347056
 30
0.0
 11
321.234733247414
 21
36.38008894347056
 31
0.0
  0
LINE
  5
1164
330
1097
100
AcDbEntity
  8
0
 62
     0
370
    -2
100
AcDbLine
 10
322.3729526406182
 20
33.1800889434706
 30
0.0
 11
321.234733247414
 21
33.1800889434706
 31
0.0
  0
LINE
  5
1165
330
1097
100
AcDbEntity
  8
0
 62
     0
370
    -2
100
AcDbLine
 10
321.2497332474139
 20
36.23008894347056
 30
0.0
 11
321.2497332474139
 21
33.33008894347059
 31
0.0
  0
SOLID
  5
1166
330
1097
100
AcDbEntity
  8
0
 62
     0
100
AcDbTrace
 10
321.224733247414
 20
36.23008894347056
 30
0.0
 11
321.2747332474139
 21
36.23008894347056
 31
0.0
 12
321.2497332474139
 22
36.38008894347056
 32
0.0
 13
321.2497332474139
 23
36.38008894347056
 33
0.0
  0
SOLID
  5
1167
330
1097
100
AcDbEntity
  8
0
 62
     0
100
AcDbTrace
 10
321.224733247414
 20
33.33008894347059
 30
0.0
 11
321.2747332474139
 21
33.33008894347059
 31
0.0
 12
321.2497332474139
 22
33.1800889434706
 32
0.0
 13
321.2497332474139
 23
33.1800889434706
 33
0.0
  0
MTEXT
  5
1168
330
1097
100
AcDbEntity
  8
0
 62
     0
100
AcDbMText
 10
321.174733247414
 20
34.78008894347063
 30
0.0
 40
0.075
 41
0.0
 71
     5
 72
     1
  1
\A1;3.20
  7
ROMANC
 11
0.0000000000000001
 21
1.0
 31
0.0
 73
     1
 44
1.0
  0
POINT
  5
1169
330
1097
100
AcDbEntity
  8
DEFPOINTS
 62
     0
100
AcDbPoint
 10
322.3879526406182
 20
36.38008894347056
 30
0.0
  0
POINT
  5
116A
330
1097
100
AcDbEntity
  8
DEFPOINTS
 62
     0
100
AcDbPoint
 10
322.3879526406182
 20
33.1800889434706
 30
0.0
  0
POINT
  5
116B
330
1097
100
AcDbEntity
  8
DEFPOINTS
 62
     0
100
AcDbPoint
 10
321.2497332474139
 20
33.1800889434706
 30
0.0
  0
ENDBLK
  5
10A2
330
1097
100
AcDbEntity
  8
0
100
AcDbBlockEnd
  0
BLOCK
  5
10C0
330
10B6
100
AcDbEntity
  8
0
100
AcDbBlockBegin
  2
*D33
 70
     1
 10
0.0
 20
0.0
 30
0.0
  3
*D33
  1

  0
LINE
  5
114F
330
10B6
100
AcDbEntity
  8
0
 62
     0
370
    -2
100
AcDbLine
 10
322.3879526406182
 20
36.39508894347056
 30
0.0
 11
322.3879526406182
 21
36.54980272125191
 31
0.0
  0
LINE
  5
1150
330
10B6
100
AcDbEntity
  8
0
 62
     0
370
    -2
100
AcDbLine
 10
321.8879526406182
 20
36.09508894347055
 30
0.0
 11
321.8879526406182
 21
36.54980272125191
 31
0.0
  0
LINE
  5
1151
330
10B6
100
AcDbEntity
  8
0
 62
     0
370
    -2
100
AcDbLine
 10
322.2379526406182
 20
36.53480272125191
 30
0.0
 11
322.0379526406182
 21
36.53480272125191
 31
0.0
  0
SOLID
  5
1152
330
10B6
100
AcDbEntity
  8
0
 62
     0
100
AcDbTrace
 10
322.2379526406182
 20
36.55980272125191
 30
0.0
 11
322.2379526406182
 21
36.50980272125191
 31
0.0
 12
322.3879526406182
 22
36.53480272125191
 32
0.0
 13
322.3879526406182
 23
36.53480272125191
 33
0.0
  0
SOLID
  5
1153
330
10B6
100
AcDbEntity
  8
0
 62
     0
100
AcDbTrace
 10
322.0379526406182
 20
36.55980272125191
 30
0.0
 11
322.0379526406182
 21
36.50980272125191
 31
0.0
 12
321.8879526406182
 22
36.53480272125191
 32
0.0
 13
321.8879526406182
 23
36.53480272125191
 33
0.0
  0
MTEXT
  5
1154
330
10B6
100
AcDbEntity
  8
0
 62
     0
100
AcDbMText
 10
322.1379526406182
 20
36.60980272125192
 30
0.0
 40
0.075
 41
0.0
 71
     5
 72
     1
  1
\A1;0.50
  7
ROMANC
 73
     1
 44
1.0
  0
POINT
  5
1155
330
10B6
100
AcDbEntity
  8
DEFPOINTS
 62
     0
100
AcDbPoint
 10
322.3879526406182
 20
36.38008894347056
 30
0.0
  0
POINT
  5
1156
330
10B6
100
AcDbEntity
  8
DEFPOINTS
 62
     0
100
AcDbPoint
 10
321.8879526406182
 20
36.08008894347054
 30
0.0
  0
POINT
  5
1157
330
10B6
100
AcDbEntity
  8
DEFPOINTS
 62
     0
100
AcDbPoint
 10
321.8879526406182
 20
36.53480272125191
 30
0.0
  0
ENDBLK
  5
10C1
330
10B6
100
AcDbEntity
  8
0
100
AcDbBlockEnd
  0
BLOCK
  5
10CF
330
10C3
100
AcDbEntity
  8
0
100
AcDbBlockBegin
  2
*D34
 70
     1
 10
0.0
 20
0.0
 30
0.0
  3
*D34
  1

  0
LINE
  5
1158
330
10C3
100
AcDbEntity
  8
0
 62
     0
370
    -2
100
AcDbLine
 10
322.3729526406182
 20
36.38008894347056
 30
0.0
 11
321.5244886182457
 21
36.38008894347056
 31
0.0
  0
LINE
  5
1159
330
10C3
100
AcDbEntity
  8
0
 62
     0
370
    -2
100
AcDbLine
 10
321.8729526406182
 20
36.08008894347054
 30
0.0
 11
321.5244886182457
 21
36.08008894347054
 31
0.0
  0
LINE
  5
115A
330
10C3
100
AcDbEntity
  8
0
 62
     0
370
    -2
100
AcDbLine
 10
321.5394886182457
 20
36.53008894347056
 30
0.0
 11
321.5394886182457
 21
36.68008894347055
 31
0.0
  0
LINE
  5
115B
330
10C3
100
AcDbEntity
  8
0
 62
     0
370
    -2
100
AcDbLine
 10
321.5394886182457
 20
35.93008894347055
 30
0.0
 11
321.5394886182457
 21
35.78008894347055
 31
0.0
  0
LINE
  5
115C
330
10C3
100
AcDbEntity
  8
0
 62
     0
370
    -2
100
AcDbLine
 10
321.5394886182457
 20
36.38008894347056
 30
0.0
 11
321.5394886182457
 21
36.08008894347054
 31
0.0
  0
SOLID
  5
115D
330
10C3
100
AcDbEntity
  8
0
 62
     0
100
AcDbTrace
 10
321.5144886182457
 20
36.53008894347056
 30
0.0
 11
321.5644886182457
 21
36.53008894347056
 31
0.0
 12
321.5394886182457
 22
36.38008894347056
 32
0.0
 13
321.5394886182457
 23
36.38008894347056
 33
0.0
  0
SOLID
  5
115E
330
10C3
100
AcDbEntity
  8
0
 62
     0
100
AcDbTrace
 10
321.5144886182457
 20
35.93008894347055
 30
0.0
 11
321.5644886182457
 21
35.93008894347055
 31
0.0
 12
321.5394886182457
 22
36.08008894347054
 32
0.0
 13
321.5394886182457
 23
36.08008894347054
 33
0.0
  0
MTEXT
  5
115F
330
10C3
100
AcDbEntity
  8
0
 62
     0
100
AcDbMText
 10
321.4644886182457
 20
36.2300889434706
 30
0.0
 40
0.075
 41
0.0
 71
     5
 72
     1
  1
\A1;0.30
  7
ROMANC
 11
0.0000000000000001
 21
1.0
 31
0.0
 73
     1
 44
1.0
  0
POINT
  5
1160
330
10C3
100
AcDbEntity
  8
DEFPOINTS
 62
     0
100
AcDbPoint
 10
322.3879526406182
 20
36.38008894347056
 30
0.0
  0
POINT
  5
1161
330
10C3
100
AcDbEntity
  8
DEFPOINTS
 62
     0
100
AcDbPoint
 10
321.8879526406182
 20
36.08008894347054
 30
0.0
  0
POINT
  5
1162
330
10C3
100
AcDbEntity
  8
DEFPOINTS
 62
     0
100
AcDbPoint
 10
321.5394886182457
 20
36.08008894347054
 30
0.0
  0
ENDBLK
  5
10D0
330
10C3
100
AcDbEntity
  8
0
100
AcDbBlockEnd
  0
ENDSEC
  0
SECTION
  2
ENTITIES
  0
TEXT
  5
2A
330
17
100
AcDbEntity
  8
0
100
AcDbText
 10
321.7731487472426
 20
42.309482
 30
0.0
 40
0.3
  1
TIPUS   NT1560A
  7
ROMANC
100
AcDbText
  0
TEXT
  5
2D
330
17
100
AcDbEntity
  8
0
100
AcDbText
 10
321.7819632635875
 20
40.49646044792456
 30
0.0
 40
0.3
  1
P = 159,7 dm
  7
ROMANC
100
AcDbText
  0
TEXT
  5
2E
330
17
100
AcDbEntity
  8
0
100
AcDbText
 10
321.760277983087
 20
41.10581332917407
 30
0.0
 40
0.3
  1
S = 1560 dm
  7
ROMANC
100
AcDbText
  0
TEXT
  5
2F
330
17
100
AcDbEntity
  8
0
100
AcDbText
 10
321.7731487472426
 20
41.70440332917407
 30
0.0
 40
0.3
  1
ESCALA  1:50
  7
ROMANC
100
AcDbText
  0
TEXT
  5
30
330
17
100
AcDbEntity
  8
0
100
AcDbText
 10
325.1852368404391
 20
41.41172932917407
 30
0.0
 40
0.1
  1
2
  7
ROMANC
100
AcDbText
  0
LINE
  5
118A
330
17
100
AcDbEntity
  8
0
100
AcDbLine
 10
318.9225929773034
 20
29.33895742172637
 30
0.0
 11
329.4225929773034
 21
29.33895742172637
 31
0.0
  0
LINE
  5
118B
330
17
100
AcDbEntity
  8
0
100
AcDbLine
 10
329.4225929773034
 20
29.33895742172637
 30
0.0
 11
329.4225929773034
 21
44.18895742172637
 31
0.0
  0
LINE
  5
118C
330
17
100
AcDbEntity
  8
0
100
AcDbLine
 10
329.4225929773034
 20
44.18895742172637
 30
0.0
 11
318.9225929773034
 21
44.18895742172637
 31
0.0
  0
LINE
  5
118D
330
17
100
AcDbEntity
  8
0
100
AcDbLine
 10
318.9225929773034
 20
44.18895742172637
 30
0.0
 11
318.9225929773034
 21
29.33895742172637
 31
0.0
  0
LINE
  5
118E
330
17
100
AcDbEntity
  8
0
100
AcDbLine
 10
322.3729526406182
 20
33.1650889434706
 30
0.0
 11
322.3729526406182
 21
33.66508894347057
 31
0.0
  0
LINE
  5
118F
330
17
100
AcDbEntity
  8
0
100
AcDbLine
 10
322.3729526406182
 20
33.66508894347057
 30
0.0
 11
321.8729526406182
 21
33.66508894347057
 31
0.0
  0
LINE
  5
1190
330
17
100
AcDbEntity
  8
0
100
AcDbLine
 10
321.8729526406182
 20
33.66508894347057
 30
0.0
 11
321.8729526406182
 21
36.08858179915508
 31
0.0
  0
LINE
  5
1191
330
17
100
AcDbEntity
  8
0
100
AcDbLine
 10
321.8729526406182
 20
36.08858179915508
 30
0.0
 11
322.383797881144
 21
36.39508894347056
 31
0.0
  0
LINE
  5
1192
330
17
100
AcDbEntity
  8
0
100
AcDbLine
 10
322.383797881144
 20
36.39508894347056
 30
0.0
 11
326.3921074000924
 21
36.39508894347056
 31
0.0
  0
LINE
  5
1193
330
17
100
AcDbEntity
  8
0
100
AcDbLine
 10
326.3921074000924
 20
36.39508894347056
 30
0.0
 11
326.9029526406182
 21
36.08858179915508
 31
0.0
  0
LINE
  5
1194
330
17
100
AcDbEntity
  8
0
100
AcDbLine
 10
326.9029526406182
 20
36.08858179915508
 30
0.0
 11
326.9029526406182
 21
33.16508894347057
 31
0.0
  0
LINE
  5
1195
330
17
100
AcDbEntity
  8
0
100
AcDbLine
 10
326.9029526406182
 20
33.16508894347057
 30
0.0
 11
322.3729526406182
 21
33.1650889434706
 31
0.0
  0
LINE
  5
1196
330
17
100
AcDbEntity
  8
0
100
AcDbLine
 10
322.3804526406182
 20
33.1725889434706
 30
0.0
 11
322.3804526406182
 21
33.67258894347057
 31
0.0
  0
LINE
  5
1197
330
17
100
AcDbEntity
  8
0
100
AcDbLine
 10
322.3804526406182
 20
33.67258894347057
 30
0.0
 11
321.8804526406182
 21
33.67258894347057
 31
0.0
  0
LINE
  5
1198
330
17
100
AcDbEntity
  8
0
100
AcDbLine
 10
321.8804526406182
 20
33.67258894347057
 30
0.0
 11
321.8804526406182
 21
36.08433537131281
 31
0.0
  0
LINE
  5
1199
330
17
100
AcDbEntity
  8
0
100
AcDbLine
 10
321.8804526406182
 20
36.08433537131281
 30
0.0
 11
322.3858752608811
 21
36.38758894347056
 31
0.0
  0
LINE
  5
119A
330
17
100
AcDbEntity
  8
0
100
AcDbLine
 10
322.3858752608811
 20
36.38758894347056
 30
0.0
 11
326.3900300203553
 21
36.38758894347056
 31
0.0
  0
LINE
  5
119B
330
17
100
AcDbEntity
  8
0
100
AcDbLine
 10
326.3900300203553
 20
36.38758894347056
 30
0.0
 11
326.8954526406182
 21
36.08433537131281
 31
0.0
  0
LINE
  5
119C
330
17
100
AcDbEntity
  8
0
100
AcDbLine
 10
326.8954526406182
 20
36.08433537131281
 30
0.0
 11
326.8954526406182
 21
33.17258894347057
 31
0.0
  0
LINE
  5
119D
330
17
100
AcDbEntity
  8
0
100
AcDbLine
 10
326.8954526406182
 20
33.17258894347057
 30
0.0
 11
322.3804526406182
 21
33.1725889434706
 31
0.0
  0
LINE
  5
119E
330
17
100
AcDbEntity
  8
0
100
AcDbLine
 10
322.3729526406182
 20
36.38008894347056
 30
0.0
 11
321.5244886182457
 21
36.38008894347056
 31
0.0
  0
LINE
  5
119F
330
17
100
AcDbEntity
  8
0
100
AcDbLine
 10
321.8729526406182
 20
36.08008894347054
 30
0.0
 11
321.5244886182457
 21
36.08008894347054
 31
0.0
  0
LINE
  5
11A0
330
17
100
AcDbEntity
  8
0
100
AcDbLine
 10
321.5394886182457
 20
36.53008894347056
 30
0.0
 11
321.5394886182457
 21
36.68008894347055
 31
0.0
  0
LINE
  5
11A1
330
17
100
AcDbEntity
  8
0
100
AcDbLine
 10
321.5394886182457
 20
35.93008894347055
 30
0.0
 11
321.5394886182457
 21
35.78008894347055
 31
0.0
  0
LINE
  5
11A2
330
17
100
AcDbEntity
  8
0
100
AcDbLine
 10
321.5394886182457
 20
36.38008894347056
 30
0.0
 11
321.5394886182457
 21
36.08008894347054
 31
0.0
  0
SOLID
  5
11A3
330
17
100
AcDbEntity
  8
0
100
AcDbTrace
 10
321.5144886182457
 20
36.53008894347056
 30
0.0
 11
321.5644886182457
 21
36.53008894347056
 31
0.0
 12
321.5394886182457
 22
36.38008894347056
 32
0.0
 13
321.5394886182457
 23
36.38008894347056
 33
0.0
  0
SOLID
  5
11A4
330
17
100
AcDbEntity
  8
0
100
AcDbTrace
 10
321.5144886182457
 20
35.93008894347055
 30
0.0
 11
321.5644886182457
 21
35.93008894347055
 31
0.0
 12
321.5394886182457
 22
36.08008894347054
 32
0.0
 13
321.5394886182457
 23
36.08008894347054
 33
0.0
  0
MTEXT
  5
11A5
330
17
100
AcDbEntity
  8
0
100
AcDbMText
 10
321.4644886182457
 20
36.2300889434706
 30
0.0
 40
0.075
 41
0.0
 71
     5
 72
     1
  1
\A1;0.30
  7
ROMANC
 11
0.0000000000000001
 21
1.0
 31
0.0
 73
     1
 44
1.0
  0
LINE
  5
11A6
330
17
100
AcDbEntity
  8
0
100
AcDbLine
 10
322.3879526406182
 20
36.39508894347056
 30
0.0
 11
322.3879526406182
 21
36.54980272125191
 31
0.0
  0
LINE
  5
11A7
330
17
100
AcDbEntity
  8
0
100
AcDbLine
 10
321.8879526406182
 20
36.09508894347055
 30
0.0
 11
321.8879526406182
 21
36.54980272125191
 31
0.0
  0
LINE
  5
11A8
330
17
100
AcDbEntity
  8
0
100
AcDbLine
 10
322.2379526406182
 20
36.53480272125191
 30
0.0
 11
322.0379526406182
 21
36.53480272125191
 31
0.0
  0
SOLID
  5
11A9
330
17
100
AcDbEntity
  8
0
100
AcDbTrace
 10
322.2379526406182
 20
36.55980272125191
 30
0.0
 11
322.2379526406182
 21
36.50980272125191
 31
0.0
 12
322.3879526406182
 22
36.53480272125191
 32
0.0
 13
322.3879526406182
 23
36.53480272125191
 33
0.0
  0
SOLID
  5
11AA
330
17
100
AcDbEntity
  8
0
100
AcDbTrace
 10
322.0379526406182
 20
36.55980272125191
 30
0.0
 11
322.0379526406182
 21
36.50980272125191
 31
0.0
 12
321.8879526406182
 22
36.53480272125191
 32
0.0
 13
321.8879526406182
 23
36.53480272125191
 33
0.0
  0
MTEXT
  5
11AB
330
17
100
AcDbEntity
  8
0
100
AcDbMText
 10
322.1379526406182
 20
36.60980272125192
 30
0.0
 40
0.075
 41
0.0
 71
     5
 72
     1
  1
\A1;0.50
  7
ROMANC
 73
     1
 44
1.0
  0
LINE
  5
11AC
330
17
100
AcDbEntity
  8
0
100
AcDbLine
 10
322.3729526406182
 20
36.38008894347056
 30
0.0
 11
321.234733247414
 21
36.38008894347056
 31
0.0
  0
LINE
  5
11AD
330
17
100
AcDbEntity
  8
0
100
AcDbLine
 10
322.3729526406182
 20
33.1800889434706
 30
0.0
 11
321.234733247414
 21
33.1800889434706
 31
0.0
  0
LINE
  5
11AE
330
17
100
AcDbEntity
  8
0
100
AcDbLine
 10
321.2497332474139
 20
36.23008894347056
 30
0.0
 11
321.2497332474139
 21
33.33008894347059
 31
0.0
  0
SOLID
  5
11AF
330
17
100
AcDbEntity
  8
0
100
AcDbTrace
 10
321.224733247414
 20
36.23008894347056
 30
0.0
 11
321.2747332474139
 21
36.23008894347056
 31
0.0
 12
321.2497332474139
 22
36.38008894347056
 32
0.0
 13
321.2497332474139
 23
36.38008894347056
 33
0.0
  0
SOLID
  5
11B0
330
17
100
AcDbEntity
  8
0
100
AcDbTrace
 10
321.224733247414
 20
33.33008894347059
 30
0.0
 11
321.2747332474139
 21
33.33008894347059
 31
0.0
 12
321.2497332474139
 22
33.1800889434706
 32
0.0
 13
321.2497332474139
 23
33.1800889434706
 33
0.0
  0
MTEXT
  5
11B1
330
17
100
AcDbEntity
  8
0
100
AcDbMText
 10
321.174733247414
 20
34.78008894347063
 30
0.0
 40
0.075
 41
0.0
 71
     5
 72
     1
  1
\A1;3.20
  7
ROMANC
 11
0.0000000000000001
 21
1.0
 31
0.0
 73
     1
 44
1.0
  0
LINE
  5
11B2
330
17
100
AcDbEntity
  8
0
100
AcDbLine
 10
321.8879526406182
 20
33.66508894347057
 30
0.0
 11
321.8879526406182
 21
32.48744366774941
 31
0.0
  0
LINE
  5
11B3
330
17
100
AcDbEntity
  8
0
100
AcDbLine
 10
326.8879526406182
 20
33.15008894347057
 30
0.0
 11
326.8879526406182
 21
32.48744366774941
 31
0.0
  0
LINE
  5
11B4
330
17
100
AcDbEntity
  8
0
100
AcDbLine
 10
322.0379526406182
 20
32.50244366774941
 30
0.0
 11
326.7379526406183
 21
32.50244366774941
 31
0.0
  0
SOLID
  5
11B5
330
17
100
AcDbEntity
  8
0
100
AcDbTrace
 10
322.0379526406182
 20
32.52744366774941
 30
0.0
 11
322.0379526406182
 21
32.47744366774941
 31
0.0
 12
321.8879526406182
 22
32.50244366774941
 32
0.0
 13
321.8879526406182
 23
32.50244366774941
 33
0.0
  0
SOLID
  5
11B6
330
17
100
AcDbEntity
  8
0
100
AcDbTrace
 10
326.7379526406183
 20
32.52744366774941
 30
0.0
 11
326.7379526406183
 21
32.47744366774941
 31
0.0
 12
326.8879526406182
 22
32.50244366774941
 32
0.0
 13
326.8879526406182
 23
32.50244366774941
 33
0.0
  0
MTEXT
  5
11B7
330
17
100
AcDbEntity
  8
0
100
AcDbMText
 10
324.3879526406182
 20
32.57744366774942
 30
0.0
 40
0.075
 41
0.0
 71
     5
 72
     1
  1
\A1;5.00
  7
ROMANC
 73
     1
 44
1.0
  0
LINE
  5
11B8
330
17
100
AcDbEntity
  8
0
100
AcDbLine
 10
321.8729526406182
 20
33.68008894347057
 30
0.0
 11
321.5244886182457
 21
33.68008894347057
 31
0.0
  0
LINE
  5
11B9
330
17
100
AcDbEntity
  8
0
100
AcDbLine
 10
321.8729526406182
 20
36.08008894347054
 30
0.0
 11
321.5244886182457
 21
36.08008894347054
 31
0.0
  0
LINE
  5
11BA
330
17
100
AcDbEntity
  8
0
100
AcDbLine
 10
321.5394886182457
 20
33.83008894347057
 30
0.0
 11
321.5394886182457
 21
35.93008894347055
 31
0.0
  0
SOLID
  5
11BB
330
17
100
AcDbEntity
  8
0
100
AcDbTrace
 10
321.5144886182457
 20
33.83008894347057
 30
0.0
 11
321.5644886182457
 21
33.83008894347057
 31
0.0
 12
321.5394886182457
 22
33.68008894347057
 32
0.0
 13
321.5394886182457
 23
33.68008894347057
 33
0.0
  0
SOLID
  5
11BC
330
17
100
AcDbEntity
  8
0
100
AcDbTrace
 10
321.5144886182457
 20
35.93008894347055
 30
0.0
 11
321.5644886182457
 21
35.93008894347055
 31
0.0
 12
321.5394886182457
 22
36.08008894347054
 32
0.0
 13
321.5394886182457
 23
36.08008894347054
 33
0.0
  0
MTEXT
  5
11BD
330
17
100
AcDbEntity
  8
0
100
AcDbMText
 10
321.4644886182457
 20
34.88008894347061
 30
0.0
 40
0.075
 41
0.0
 71
     5
 72
     1
  1
\A1;2.40
  7
ROMANC
 11
0.0000000000000001
 21
1.0
 31
0.0
 73
     1
 44
1.0
  0
LINE
  5
11BE
330
17
100
AcDbEntity
  8
0
100
AcDbLine
 10
322.3729526406182
 20
33.68008894347057
 30
0.0
 11
321.5244886182457
 21
33.68008894347057
 31
0.0
  0
LINE
  5
11BF
330
17
100
AcDbEntity
  8
0
100
AcDbLine
 10
322.3729526406182
 20
33.1800889434706
 30
0.0
 11
321.5244886182457
 21
33.1800889434706
 31
0.0
  0
LINE
  5
11C0
330
17
100
AcDbEntity
  8
0
100
AcDbLine
 10
321.5394886182457
 20
33.53008894347057
 30
0.0
 11
321.5394886182457
 21
33.33008894347059
 31
0.0
  0
SOLID
  5
11C1
330
17
100
AcDbEntity
  8
0
100
AcDbTrace
 10
321.5144886182457
 20
33.53008894347057
 30
0.0
 11
321.5644886182457
 21
33.53008894347057
 31
0.0
 12
321.5394886182457
 22
33.68008894347057
 32
0.0
 13
321.5394886182457
 23
33.68008894347057
 33
0.0
  0
SOLID
  5
11C2
330
17
100
AcDbEntity
  8
0
100
AcDbTrace
 10
321.5144886182457
 20
33.33008894347059
 30
0.0
 11
321.5644886182457
 21
33.33008894347059
 31
0.0
 12
321.5394886182457
 22
33.1800889434706
 32
0.0
 13
321.5394886182457
 23
33.1800889434706
 33
0.0
  0
MTEXT
  5
11C3
330
17
100
AcDbEntity
  8
0
100
AcDbMText
 10
321.4644886182457
 20
33.43008894347063
 30
0.0
 40
0.075
 41
0.0
 71
     5
 72
     1
  1
\A1;0.50
  7
ROMANC
 11
0.0000000000000001
 21
1.0
 31
0.0
 73
     1
 44
1.0
  0
LINE
  5
11C4
330
17
100
AcDbEntity
  8
0
100
AcDbLine
 10
322.3879526406182
 20
33.66508894347057
 30
0.0
 11
322.3879526406182
 21
32.77344906258184
 31
0.0
  0
LINE
  5
11C5
330
17
100
AcDbEntity
  8
0
100
AcDbLine
 10
321.8879526406182
 20
33.66508894347057
 30
0.0
 11
321.8879526406182
 21
32.77344906258184
 31
0.0
  0
LINE
  5
11C6
330
17
100
AcDbEntity
  8
0
100
AcDbLine
 10
322.2379526406182
 20
32.78844906258184
 30
0.0
 11
322.0379526406182
 21
32.78844906258184
 31
0.0
  0
SOLID
  5
11C7
330
17
100
AcDbEntity
  8
0
100
AcDbTrace
 10
322.2379526406182
 20
32.81344906258184
 30
0.0
 11
322.2379526406182
 21
32.76344906258184
 31
0.0
 12
322.3879526406182
 22
32.78844906258184
 32
0.0
 13
322.3879526406182
 23
32.78844906258184
 33
0.0
  0
SOLID
  5
11C8
330
17
100
AcDbEntity
  8
0
100
AcDbTrace
 10
322.0379526406182
 20
32.81344906258184
 30
0.0
 11
322.0379526406182
 21
32.76344906258184
 31
0.0
 12
321.8879526406182
 22
32.78844906258184
 32
0.0
 13
321.8879526406182
 23
32.78844906258184
 33
0.0
  0
MTEXT
  5
11C9
330
17
100
AcDbEntity
  8
0
100
AcDbMText
 10
322.1379526406182
 20
32.86344906258185
 30
0.0
 40
0.075
 41
0.0
 71
     5
 72
     1
  1
\A1;0.50
  7
ROMANC
 73
     1
 44
1.0
  0
LINE
  5
11CA
330
17
100
AcDbEntity
  8
0
100
AcDbLine
 10
322.3879526406182
 20
33.1650889434706
 30
0.0
 11
322.3879526406182
 21
32.77344906258184
 31
0.0
  0
LINE
  5
11CB
330
17
100
AcDbEntity
  8
0
100
AcDbLine
 10
326.8879526406182
 20
33.16508894347057
 30
0.0
 11
326.8879526406182
 21
32.77344906258184
 31
0.0
  0
LINE
  5
11CC
330
17
100
AcDbEntity
  8
0
100
AcDbLine
 10
322.5379526406182
 20
32.78844906258184
 30
0.0
 11
326.7379526406183
 21
32.78844906258184
 31
0.0
  0
SOLID
  5
11CD
330
17
100
AcDbEntity
  8
0
100
AcDbTrace
 10
322.5379526406182
 20
32.81344906258184
 30
0.0
 11
322.5379526406182
 21
32.76344906258184
 31
0.0
 12
322.3879526406182
 22
32.78844906258184
 32
0.0
 13
322.3879526406182
 23
32.78844906258184
 33
0.0
  0
SOLID
  5
11CE
330
17
100
AcDbEntity
  8
0
100
AcDbTrace
 10
326.7379526406183
 20
32.81344906258184
 30
0.0
 11
326.7379526406183
 21
32.76344906258184
 31
0.0
 12
326.8879526406182
 22
32.78844906258184
 32
0.0
 13
326.8879526406182
 23
32.78844906258184
 33
0.0
  0
MTEXT
  5
11CF
330
17
100
AcDbEntity
  8
0
100
AcDbMText
 10
324.6379526406182
 20
32.86344906258185
 30
0.0
 40
0.075
 41
0.0
 71
     5
 72
     1
  1
\A1;4.50
  7
ROMANC
 73
     1
 44
1.0
  0
LINE
  5
11D0
330
17
100
AcDbEntity
  8
0
100
AcDbLine
 10
322.3879526406182
 20
33.1800889434706
 30
0.0
 11
322.3879526406182
 21
33.68008894347057
 31
0.0
  0
LINE
  5
11D1
330
17
100
AcDbEntity
  8
0
100
AcDbLine
 10
322.3879526406182
 20
33.68008894347057
 30
0.0
 11
321.8879526406182
 21
33.68008894347057
 31
0.0
  0
LINE
  5
11D2
330
17
100
AcDbEntity
  8
0
100
AcDbLine
 10
321.8879526406182
 20
33.68008894347057
 30
0.0
 11
321.8879526406182
 21
36.08008894347054
 31
0.0
  0
LINE
  5
11D3
330
17
100
AcDbEntity
  8
0
100
AcDbLine
 10
321.8879526406182
 20
36.08008894347054
 30
0.0
 11
322.3879526406182
 21
36.38008894347056
 31
0.0
  0
LINE
  5
11D4
330
17
100
AcDbEntity
  8
0
100
AcDbLine
 10
322.3879526406182
 20
36.38008894347056
 30
0.0
 11
326.3879526406182
 21
36.38008894347056
 31
0.0
  0
LINE
  5
11D5
330
17
100
AcDbEntity
  8
0
100
AcDbLine
 10
326.3879526406182
 20
36.38008894347056
 30
0.0
 11
326.8879526406182
 21
36.08008894347054
 31
0.0
  0
LINE
  5
11D6
330
17
100
AcDbEntity
  8
0
100
AcDbLine
 10
326.8879526406182
 20
36.08008894347054
 30
0.0
 11
326.8879526406182
 21
33.18008894347057
 31
0.0
  0
LINE
  5
11D7
330
17
100
AcDbEntity
  8
0
100
AcDbLine
 10
326.8879526406182
 20
33.18008894347057
 30
0.0
 11
322.3879526406182
 21
33.1800889434706
 31
0.0
  0
VIEWPORT
  5
1129
330
14
100
AcDbEntity
 67
     1
  8
0
100
AcDbViewport
 10
4.978816210076253
 20
6.383624286087608
 30
0.0
 40
19.3280028724044
 41
11.32381685288208
 68
     1
 69
     1
 12
4.978816210076253
 22
6.383624286087608
 13
0.0
 23
0.0
 14
10.0
 24
10.0
 15
10.0
 25
10.0
 16
0.0
 26
0.0
 36
1.0
 17
0.0
 27
0.0
 37
0.0
 42
50.0
 43
0.0
 44
0.0
 45
11.32381685288208
 50
0.0
 51
0.0
 72
   100
 90
    32800
  1

281
     0
 71
     1
 74
     0
110
0.0
120
0.0
130
0.0
111
1.0
121
0.0
131
0.0
112
0.0
122
1.0
132
0.0
 79
     0
146
0.0
  0
VIEWPORT
  5
112B
330
14
100
AcDbEntity
 67
     1
  8
AUX
100
AcDbViewport
 10
4.978785623097984
 20
6.38345508486322
 30
0.0
 40
7.712071154703309
 41
11.22207690383615
 68
     2
 69
     2
 12
324.0223704779315
 22
37.95953423676491
 13
0.0
 23
0.0
 14
1.0
 24
1.0
 15
10.0
 25
10.0
 16
0.0
 26
0.0
 36
1.0
 17
0.0
 27
0.0
 37
0.0
 42
50.0
 43
0.0
 44
0.0
 45
11.22207690383615
 50
0.0
 51
0.0
 72
   100
 90
    36864
  1

281
     0
 71
     1
 74
     0
110
0.0
120
0.0
130
0.0
111
1.0
121
0.0
131
0.0
112
0.0
122
1.0
132
0.0
 79
     0
146
0.0
  0
ENDSEC
  0
SECTION
  2
OBJECTS
  0
DICTIONARY
  5
C
330
0
100
AcDbDictionary
281
     1
  3
ACAD_GROUP
350
D
  3
ACAD_MLINESTYLE
350
1A
  3
ACDBVARIABLEDICTIONARY
350
25
  3
ACAD_PLOTSTYLENAME
350
FBE
  3
ACAD_LAYOUT
350
FC0
  3
ACAD_PLOTSETTINGS
350
FC1
  0
DICTIONARY
  5
D
102
{ACAD_REACTORS
330
C
102
}
330
C
100
AcDbDictionary
281
     1
  0
DICTIONARY
  5
1A
102
{ACAD_REACTORS
330
C
102
}
330
C
100
AcDbDictionary
281
     1
  3
STANDARD
350
1B
  0
DICTIONARY
  5
25
102
{ACAD_REACTORS
330
C
102
}
330
C
100
AcDbDictionary
281
     1
  3
DIMADEC
350
26
  0
ACDBDICTIONARYWDFLT
  5
FBE
102
{ACAD_REACTORS
330
C
102
}
330
C
100
AcDbDictionary
281
     1
  3
Normal
350
FBF
100
AcDbDictionaryWithDefault
340
FBF
  0
DICTIONARY
  5
FC0
102
{ACAD_REACTORS
330
C
102
}
330
C
100
AcDbDictionary
281
     1
  3
Model
350
FC2
  3
Presentación1
350
FC3
  0
DICTIONARY
  5
FC1
102
{ACAD_REACTORS
330
C
102
}
330
C
100
AcDbDictionary
281
     1
  3
A4vertical
350
112C
  3
seccions
350
1130
  3
A4vertical Seccions
350
1134
  3
A4 vertical (DEI)
350
113A
  0
MLINESTYLE
  5
1B
102
{ACAD_REACTORS
330
1A
102
}
330
1A
100
AcDbMlineStyle
  2
STANDARD
 70
     0
  3

 62
   256
 51
90.0
 52
90.0
 71
     2
 49
0.5
 62
   256
  6
BYLAYER
 49
-0.5
 62
   256
  6
BYLAYER
  0
DICTIONARYVAR
  5
26
102
{ACAD_REACTORS
330
25
102
}
330
25
100
DictionaryVariables
280
     0
  1
0
  0
ACDBPLACEHOLDER
  5
FBF
102
{ACAD_REACTORS
330
FBE
102
}
330
FBE
  0
LAYOUT
  5
FC2
102
{ACAD_REACTORS
330
FC0
102
}
330
FC0
100
AcDbPlotSettings
  1

  2
\\SERVIDOR1\LS3_4DEI
  4

  6

 40
0.0
 41
0.0
 42
0.0
 43
0.0
 44
0.0
 45
0.0
 46
0.0
 47
0.0
 48
0.0
 49
0.0
140
0.0
141
0.0
142
1.0
143
1.0
 70
  1712
 72
     0
 73
     0
 74
     0
  7

 75
     0
147
1.0
148
0.0
149
0.0
100
AcDbLayout
  1
Model
 70
     1
 71
     0
 10
0.0
 20
0.0
 11
12.0
 21
9.0
 12
0.0
 22
0.0
 32
0.0
 14
0.0
 24
0.0
 34
0.0
 15
0.0
 25
0.0
 35
0.0
146
0.0
 13
0.0
 23
0.0
 33
0.0
 16
1.0
 26
0.0
 36
0.0
 17
0.0
 27
1.0
 37
0.0
 76
     0
330
17
  0
LAYOUT
  5
FC3
102
{ACAD_REACTORS
330
FC0
102
}
330
FC0
100
AcDbPlotSettings
  1
A4 vertical (DEI)
  2
\\SERVIDOR1\LS3_4DEI
  4
A4
  6

 40
6.043083190917968
 41
6.720414161682128
 42
7.821090698242187
 43
5.027069091796875
 44
210.0579986572265
 45
296.9259948730469
 46
0.0
 47
30.0
 48
0.0
 49
0.0
140
0.0
141
0.0
142
1000.0
143
50.0
 70
   160
 72
     1
 73
     0
 74
     5
  7
standard.ctb
 75
     0
147
20.0
148
0.0
149
0.0
100
AcDbLayout
  1
Presentación1
 70
     0
 71
     1
 10
-0.3021541595458984
 20
-1.836020708084106
 11
10.20074577331543
 21
13.01027903556823
 12
0.0
 22
0.0
 32
0.0
 14
1.122750045746329
 24
0.7724166329451432
 34
0.0
 15
8.834821200449638
 25
11.99449353678129
 35
0.0
146
0.0
 13
0.0
 23
0.0
 33
0.0
 16
1.0
 26
0.0
 36
0.0
 17
0.0
 27
1.0
 37
0.0
 76
     0
330
14
331
1129
  0
PLOTSETTINGS
  5
112C
102
{ACAD_REACTORS
330
FC1
102
}
330
FC1
100
AcDbPlotSettings
  1
A4vertical
  2
\\SERVIDOR1\LS3_4DEI
  4
A4
  6

 40
6.043083190917968
 41
6.720414161682128
 42
7.821090698242187
 43
5.027069091796875
 44
210.0579986572265
 45
296.9259948730469
 46
0.0
 47
0.0
 48
0.0
 49
0.0
140
0.0
141
0.0
142
1.0
143
1.0
 70
   688
 72
     0
 73
     0
 74
     5
  7

 75
    16
147
1.0
148
0.0
149
0.0
  0
PLOTSETTINGS
  5
1130
102
{ACAD_REACTORS
330
FC1
102
}
330
FC1
100
AcDbPlotSettings
  1
seccions
  2
\\SERVIDOR1\LS3_4DEI
  4
A4
  6

 40
6.043083190917968
 41
6.720414161682128
 42
7.821090698242187
 43
5.027069091796875
 44
210.0579986572265
 45
296.9259948730469
 46
21.0
 47
40.0
 48
0.0
 49
0.0
140
0.0
141
0.0
142
1000.0
143
50.0
 70
   672
 72
     1
 73
     0
 74
     1
  7
standard.ctb
 75
     0
147
20.0
148
-1.122392906315678
149
-0.7718768028384702
  0
PLOTSETTINGS
  5
1134
102
{ACAD_REACTORS
330
FC1
102
}
330
FC1
100
AcDbPlotSettings
  1
A4vertical Seccions
  2
\\SERVIDOR1\LS3_4DEI
  4
A4
  6

 40
6.043083190917968
 41
6.720414161682128
 42
7.821090698242187
 43
5.027069091796875
 44
210.0579986572265
 45
296.9259948730469
 46
21.0
 47
40.0
 48
0.0
 49
0.0
140
0.0
141
0.0
142
1000.0
143
50.0
 70
   160
 72
     1
 73
     0
 74
     1
  7
standard.ctb
 75
     0
147
20.0
148
-1.122658297528769
149
-0.7723784683321071
  0
PLOTSETTINGS
  5
113A
102
{ACAD_REACTORS
330
FC1
102
}
330
FC1
100
AcDbPlotSettings
  1
A4 vertical (DEI)
  2
\\SERVIDOR1\LS3_4DEI
  4
A4
  6

 40
6.043083190917968
 41
6.720414161682128
 42
7.821090698242187
 43
5.027069091796875
 44
210.0579986572265
 45
296.9259948730469
 46
0.0
 47
30.0
 48
0.0
 49
0.0
140
0.0
141
0.0
142
1000.0
143
50.0
 70
   160
 72
     1
 73
     0
 74
     5
  7
standard.ctb
 75
     0
147
20.0
148
0.0
149
0.0
  0
ENDSEC
  0
EOF
