  0
SECTION
  2
HEADER
  9
$ACADVER
  1
AC1009
  9
$INSBASE
 10
105.4640269999999
 20
-4.5287610000000003
 30
0.0
  9
$EXTMIN
 10
281.39579500000002
 20
29.897444
 30
0.0
  9
$EXTMAX
 10
291.89579500000002
 20
44.747444000000002
 30
0.0
  9
$LIMMIN
 10
0.0
 20
0.0
  9
$LIMMAX
 10
410.0
 20
287.0
  9
$ORTHOMODE
 70
     1
  9
$REGENMODE
 70
     1
  9
$FILLMODE
 70
     1
  9
$QTEXTMODE
 70
     0
  9
$MIRRTEXT
 70
     1
  9
$DRAGMODE
 70
     2
  9
$LTSCALE
 40
25.0
  9
$OSMODE
 70
    35
  9
$ATTMODE
 70
     1
  9
$TEXTSIZE
 40
0.1
  9
$TRACEWID
 40
1.0
  9
$TEXTSTYLE
  7
ROMANC
  9
$CLAYER
  8
0
  9
$CELTYPE
  6
BYLAYER
  9
$CECOLOR
 62
   256
  9
$DIMSCALE
 40
1.0
  9
$DIMASZ
 40
0.05
  9
$DIMEXO
 40
0.01
  9
$DIMDLI
 40
7.0
  9
$DIMRND
 40
0.0
  9
$DIMDLE
 40
0.0
  9
$DIMEXE
 40
0.01
  9
$DIMTP
 40
0.0
  9
$DIMTM
 40
0.0
  9
$DIMTXT
 40
0.05
  9
$DIMCEN
 40
0.1
  9
$DIMTSZ
 40
0.0
  9
$DIMTOL
 70
     0
  9
$DIMLIM
 70
     0
  9
$DIMTIH
 70
     0
  9
$DIMTOH
 70
     0
  9
$DIMSE1
 70
     0
  9
$DIMSE2
 70
     0
  9
$DIMTAD
 70
     0
  9
$DIMZIN
 70
     0
  9
$DIMBLK
  1

  9
$DIMASO
 70
     1
  9
$DIMSHO
 70
     0
  9
$DIMPOST
  1

  9
$DIMAPOST
  1

  9
$DIMALT
 70
     0
  9
$DIMALTD
 70
     2
  9
$DIMALTF
 40
25.399999999999999
  9
$DIMLFAC
 40
1.0
  9
$DIMTOFL
 70
     1
  9
$DIMTVP
 40
0.0
  9
$DIMTIX
 70
     1
  9
$DIMSOXD
 70
     0
  9
$DIMSAH
 70
     0
  9
$DIMBLK1
  1

  9
$DIMBLK2
  1

  9
$DIMSTYLE
  2
SILVIA
  9
$DIMCLRD
 70
     0
  9
$DIMCLRE
 70
     0
  9
$DIMCLRT
 70
     0
  9
$DIMTFAC
 40
70.0
  9
$DIMGAP
 40
0.01
  9
$LUNITS
 70
     2
  9
$LUPREC
 70
     2
  9
$SKETCHINC
 40
1.0
  9
$FILLETRAD
 40
0.0
  9
$AUNITS
 70
     0
  9
$AUPREC
 70
     0
  9
$MENU
  1
acad
  9
$ELEVATION
 40
0.0
  9
$PELEVATION
 40
0.0
  9
$THICKNESS
 40
0.0
  9
$LIMCHECK
 70
     0
  9
$BLIPMODE
 70
     0
  9
$CHAMFERA
 40
0.0
  9
$CHAMFERB
 40
0.0
  9
$SKPOLY
 70
     0
  9
$TDCREATE
 40
2450305.5545579861
  9
$TDUPDATE
 40
2455113.5181451971
  9
$TDINDWG
 40
0.234807963
  9
$TDUSRTIMER
 40
0.2348068634
  9
$USRTIMER
 70
     1
  9
$ANGBASE
 50
0.0
  9
$ANGDIR
 70
     0
  9
$PDMODE
 70
     0
  9
$PDSIZE
 40
0.0
  9
$PLINEWID
 40
0.0
  9
$COORDS
 70
     1
  9
$SPLFRAME
 70
     0
  9
$SPLINETYPE
 70
     6
  9
$SPLINESEGS
 70
     8
  9
$ATTDIA
 70
     0
  9
$ATTREQ
 70
     1
  9
$HANDLING
 70
     1
  9
$HANDSEED
  5
1F3E
  9
$SURFTAB1
 70
     6
  9
$SURFTAB2
 70
     6
  9
$SURFTYPE
 70
     6
  9
$SURFU
 70
     6
  9
$SURFV
 70
     6
  9
$UCSNAME
  2

  9
$UCSORG
 10
0.0
 20
0.0
 30
0.0
  9
$UCSXDIR
 10
1.0
 20
0.0
 30
0.0
  9
$UCSYDIR
 10
0.0
 20
1.0
 30
0.0
  9
$PUCSNAME
  2

  9
$PUCSORG
 10
0.0
 20
0.0
 30
0.0
  9
$PUCSXDIR
 10
1.0
 20
0.0
 30
0.0
  9
$PUCSYDIR
 10
0.0
 20
1.0
 30
0.0
  9
$USERI1
 70
     0
  9
$USERI2
 70
     0
  9
$USERI3
 70
     0
  9
$USERI4
 70
     0
  9
$USERI5
 70
     0
  9
$USERR1
 40
0.0
  9
$USERR2
 40
0.0
  9
$USERR3
 40
0.0
  9
$USERR4
 40
0.0
  9
$USERR5
 40
0.0
  9
$WORLDVIEW
 70
     1
  9
$SHADEDGE
 70
     3
  9
$SHADEDIF
 70
    70
  9
$TILEMODE
 70
     1
  9
$MAXACTVP
 70
    16
  9
$PLIMCHECK
 70
     0
  9
$PEXTMIN
 10
1.0000000000000000E+020
 20
1.0000000000000000E+020
 30
1.0000000000000000E+020
  9
$PEXTMAX
 10
-1.0000000000000000E+020
 20
-1.0000000000000000E+020
 30
-1.0000000000000000E+020
  9
$PLIMMIN
 10
0.0
 20
0.0
  9
$PLIMMAX
 10
12.0
 20
9.0
  9
$UNITMODE
 70
     0
  9
$VISRETAIN
 70
     0
  9
$PLINEGEN
 70
     0
  9
$PSLTSCALE
 70
     0
  0
ENDSEC
  0
SECTION
  2
TABLES
  0
TABLE
  2
VPORT
 70
     1
  0
VPORT
  2
*ACTIVE
 70
     0
 10
0.0
 20
0.0
 11
1.0
 21
1.0
 12
286.92409665300551
 22
37.079316689194528
 13
0.0
 23
0.0
 14
1.0
 24
1.0
 15
10.0
 25
10.0
 16
0.0
 26
0.0
 36
1.0
 17
0.0
 27
0.0
 37
0.0
 40
10.69073945330126
 41
1.5720207253886
 42
50.0
 43
0.0
 44
0.0
 50
0.0
 51
0.0
 71
     0
 72
   100
 73
     1
 74
     0
 75
     0
 76
     0
 77
     0
 78
     1
  0
ENDTAB
  0
TABLE
  2
LTYPE
 70
     2
  0
LTYPE
  2
CONTINUOUS
 70
     0
  3
Solid line
 72
    65
 73
     0
 40
0.0
  0
ENDTAB
  0
TABLE
  2
LAYER
 70
     3
  0
LAYER
  2
0
 70
     0
 62
     7
  6
CONTINUOUS
  0
LAYER
  2
MESURA
 70
     0
 62
     7
  6
CONTINUOUS
  0
LAYER
  2
DEFPOINTS
 70
     0
 62
     7
  6
CONTINUOUS
  0
ENDTAB
  0
TABLE
  2
STYLE
 70
     7
  0
STYLE
  2
STANDARD
 70
     0
 40
0.0
 41
1.0
 50
0.0
 71
     0
 42
0.1
  3
txt
  4

  0
STYLE
  2
ANNOTATIVE
 70
     0
 40
0.0
 41
1.0
 50
0.0
 71
     0
 42
0.2
  3
txt
  4

  0
STYLE
  2
ROMANC
 70
     0
 40
0.0
 41
1.0
 50
0.0
 71
     0
 42
0.1
  3
romanc
  4

  0
STYLE
  2
LEGEND
 70
     0
 40
0.0
 41
1.0
 50
0.0
 71
     0
 42
0.1
  3
txt
  4

  0
ENDTAB
  0
TABLE
  2
VIEW
 70
     0
  0
ENDTAB
  0
TABLE
  2
UCS
 70
     0
  0
ENDTAB
  0
TABLE
  2
APPID
 70
    12
  0
APPID
  2
ACAD
 70
     0
  0
APPID
  2
ACADANNOTATIVE
 70
     0
  0
APPID
  2
ACAD_MLEADERVER
 70
     0
  0
APPID
  2
ACAD_EXEMPT_FROM_CAD_STANDARDS
 70
     0
  0
APPID
  2
ACMAPDMDISPLAYSTYLEREGAPP
 70
     0
  0
APPID
  2
AECCLAND60
 70
     0
  0
APPID
  2
ACAD_DSTYLE_DIMJAG
 70
     0
  0
APPID
  2
ACAD_DSTYLE_DIMTALN
 70
     0
  0
APPID
  2
ADE
 70
     0
  0
APPID
  2
MAPGWS
 70
     0
  0
APPID
  2
DCO15
 70
     0
  0
APPID
  2
ACAD_PSEXT
 70
     0
  0
ENDTAB
  0
TABLE
  2
DIMSTYLE
 70
     7
  0
DIMSTYLE
  2
STANDARD
 70
     0
  3

  4

  5

  6

  7

 40
1.0
 41
0.18
 42
0.0625
 43
0.38
 44
0.18
 45
0.0
 46
0.0
 47
0.0
 48
0.0
140
0.18
141
0.09
142
0.0
143
25.399999999999999
144
1.0
145
0.0
146
1.0
147
0.09
 71
     0
 72
     0
 73
     1
 74
     1
 75
     0
 76
     0
 77
     0
 78
     0
170
     0
171
     2
172
     0
173
     0
174
     0
175
     0
176
     0
177
     0
178
     0
  0
DIMSTYLE
  2
ANNOTATIVE
 70
     0
  3

  4

  5

  6

  7

 40
1.0
 41
0.18
 42
0.0625
 43
0.38
 44
0.18
 45
0.0
 46
0.0
 47
0.0
 48
0.0
140
0.18
141
0.09
142
0.0
143
25.399999999999999
144
1.0
145
0.0
146
1.0
147
0.09
 71
     0
 72
     0
 73
     1
 74
     1
 75
     0
 76
     0
 77
     0
 78
     0
170
     0
171
     2
172
     0
173
     0
174
     0
175
     0
176
     0
177
     0
178
     0
  0
DIMSTYLE
  2
SILVIA
 70
     0
  3

  4

  5

  6

  7

 40
1.5
 41
0.1
 42
0.01
 43
7.0
 44
0.01
 45
0.0
 46
0.0
 47
0.0
 48
0.0
140
0.05
141
0.1
142
0.0
143
25.399999999999999
144
1.0
145
0.0
146
70.0
147
0.09
 71
     0
 72
     0
 73
     0
 74
     0
 75
     0
 76
     0
 77
     1
 78
     0
170
     0
171
     2
172
     1
173
     0
174
     1
175
     0
176
     0
177
     0
178
     0
  0
ENDTAB
  0
ENDSEC
  0
SECTION
  2
BLOCKS
  0
BLOCK
  8
0
  2
$MODEL_SPACE
 70
     0
 10
0.0
 20
0.0
 30
0.0
  3
$MODEL_SPACE
  1

  0
ENDBLK
  5
D46
  8
0
  0
BLOCK
 67
     1
  8
0
  2
$PAPER_SPACE
 70
     0
 10
0.0
 20
0.0
 30
0.0
  3
$PAPER_SPACE
  1

  0
ENDBLK
  5
D42
 67
     1
  8
0
  0
BLOCK
  8
0
  2
*D2
 70
     1
 10
0.0
 20
0.0
 30
0.0
  3
*D2
  1

  0
LINE
  5
8B4
  8
0
  6
BYBLOCK
 62
     0
 10
285.05660799999981
 20
35.789380999999999
 30
0.0
 11
285.05660799999981
 21
35.789380999999999
 31
0.0
  0
LINE
  5
8B5
  8
0
  6
BYBLOCK
 62
     0
 10
286.20660800000002
 20
35.789380999999999
 30
0.0
 11
286.20660800000002
 21
35.789380999999999
 31
0.0
  0
LINE
  5
8B6
  8
0
  6
BYBLOCK
 62
     0
 10
285.20660800000002
 20
35.774380999999998
 30
0.0
 11
286.05660799999981
 21
35.774380999999998
 31
0.0
  0
SOLID
  5
8B7
  8
0
  6
BYBLOCK
 62
     0
 10
285.20660800000002
 20
35.79938099999999
 30
0.0
 11
285.20660800000002
 21
35.749381
 31
0.0
 12
285.05660799999981
 22
35.774380999999998
 32
0.0
 13
285.05660799999981
 23
35.774380999999998
 33
0.0
  0
SOLID
  5
8B8
  8
0
  6
BYBLOCK
 62
     0
 10
286.05660799999981
 20
35.79938099999999
 30
0.0
 11
286.05660799999981
 21
35.749381
 31
0.0
 12
286.20660800000002
 22
35.774380999999998
 32
0.0
 13
286.20660800000002
 23
35.774380999999998
 33
0.0
  0
TEXT
  5
8B9
  8
0
  6
BYBLOCK
 62
     0
 10
285.51732228571439
 20
35.811881
 30
0.0
 40
0.075
  1
1.15
  7
ROMANC
 72
     1
 11
285.63160800000009
 21
35.849381000000001
 31
0.0
 73
     2
  0
POINT
  5
8BA
  8
DEFPOINTS
  6
BYBLOCK
 62
     0
 10
285.05660799999981
 20
35.774380999999998
 30
0.0
  0
POINT
  5
8BB
  8
DEFPOINTS
  6
BYBLOCK
 62
     0
 10
286.20660800000002
 20
35.774380999999998
 30
0.0
  0
POINT
  5
8BC
  8
DEFPOINTS
  6
BYBLOCK
 62
     0
 10
286.20660800000002
 20
35.774380999999998
 30
0.0
  0
ENDBLK
  5
8BD
  8
0
  0
BLOCK
  8
0
  2
*D3
 70
     1
 10
0.0
 20
0.0
 30
0.0
  3
*D3
  1

  0
LINE
  5
8C0
  8
0
  6
BYBLOCK
 62
     0
 10
285.43160799999981
 20
34.859380999999999
 30
0.0
 11
285.43160799999981
 21
34.451529000000001
 31
0.0
  0
LINE
  5
8C1
  8
0
  6
BYBLOCK
 62
     0
 10
285.83160800000002
 20
34.859380999999999
 30
0.0
 11
285.83160800000002
 21
34.451529000000001
 31
0.0
  0
LINE
  5
8C2
  8
0
  6
BYBLOCK
 62
     0
 10
285.28160800000001
 20
34.466529000000001
 30
0.0
 11
285.13160800000009
 21
34.466529000000001
 31
0.0
  0
LINE
  5
8C3
  8
0
  6
BYBLOCK
 62
     0
 10
285.98160799999982
 20
34.466529000000001
 30
0.0
 11
286.13160800000009
 21
34.466529000000001
 31
0.0
  0
SOLID
  5
8C4
  8
0
  6
BYBLOCK
 62
     0
 10
285.28160800000001
 20
34.491529
 30
0.0
 11
285.28160800000001
 21
34.441528999999981
 31
0.0
 12
285.43160799999981
 22
34.466529000000001
 32
0.0
 13
285.43160799999981
 23
34.466529000000001
 33
0.0
  0
SOLID
  5
8C5
  8
0
  6
BYBLOCK
 62
     0
 10
285.98160799999982
 20
34.491529
 30
0.0
 11
285.98160799999982
 21
34.441528999999981
 31
0.0
 12
285.83160800000002
 22
34.466529000000001
 32
0.0
 13
285.83160800000002
 23
34.466529000000001
 33
0.0
  0
LINE
  5
8C6
  8
0
  6
BYBLOCK
 62
     0
 10
285.43160799999981
 20
34.466529000000001
 30
0.0
 11
285.83160800000002
 21
34.466529000000001
 31
0.0
  0
TEXT
  5
8C7
  8
0
  6
BYBLOCK
 62
     0
 10
285.50660800000009
 20
34.504028999999989
 30
0.0
 40
0.075
  1
0.40
  7
ROMANC
 72
     1
 11
285.63160800000009
 21
34.54152899999999
 31
0.0
 73
     2
  0
POINT
  5
8C8
  8
DEFPOINTS
  6
BYBLOCK
 62
     0
 10
285.43160799999981
 20
34.874381
 30
0.0
  0
POINT
  5
8C9
  8
DEFPOINTS
  6
BYBLOCK
 62
     0
 10
285.83160800000002
 20
34.874381
 30
0.0
  0
POINT
  5
8CA
  8
DEFPOINTS
  6
BYBLOCK
 62
     0
 10
285.83160800000002
 20
34.466529000000001
 30
0.0
  0
ENDBLK
  5
8CB
  8
0
  0
BLOCK
  8
0
  2
*D4
 70
     1
 10
0.0
 20
0.0
 30
0.0
  3
*D4
  1

  0
LINE
  5
8CE
  8
0
  6
BYBLOCK
 62
     0
 10
285.08160800000002
 20
34.859380999999999
 30
0.0
 11
285.08160800000002
 21
34.216813000000002
 31
0.0
  0
LINE
  5
8CF
  8
0
  6
BYBLOCK
 62
     0
 10
286.18160799999998
 20
34.859380999999999
 30
0.0
 11
286.18160799999998
 21
34.216813000000002
 31
0.0
  0
LINE
  5
8D0
  8
0
  6
BYBLOCK
 62
     0
 10
285.23160799999982
 20
34.231813000000002
 30
0.0
 11
286.03160800000001
 21
34.231813000000002
 31
0.0
  0
SOLID
  5
8D1
  8
0
  6
BYBLOCK
 62
     0
 10
285.23160799999982
 20
34.256813000000001
 30
0.0
 11
285.23160799999982
 21
34.206812999999997
 31
0.0
 12
285.08160800000002
 22
34.231813000000002
 32
0.0
 13
285.08160800000002
 23
34.231813000000002
 33
0.0
  0
SOLID
  5
8D2
  8
0
  6
BYBLOCK
 62
     0
 10
286.03160800000001
 20
34.256813000000001
 30
0.0
 11
286.03160800000001
 21
34.206812999999997
 31
0.0
 12
286.18160799999998
 22
34.231813000000002
 32
0.0
 13
286.18160799999998
 23
34.231813000000002
 33
0.0
  0
TEXT
  5
8D3
  8
0
  6
BYBLOCK
 62
     0
 10
285.51732228571439
 20
34.26931299999999
 30
0.0
 40
0.075
  1
1.10
  7
ROMANC
 72
     1
 11
285.63160800000009
 21
34.306812999999991
 31
0.0
 73
     2
  0
POINT
  5
8D4
  8
DEFPOINTS
  6
BYBLOCK
 62
     0
 10
285.08160800000002
 20
34.874381
 30
0.0
  0
POINT
  5
8D5
  8
DEFPOINTS
  6
BYBLOCK
 62
     0
 10
286.18160799999998
 20
34.874381
 30
0.0
  0
POINT
  5
8D6
  8
DEFPOINTS
  6
BYBLOCK
 62
     0
 10
286.18160799999998
 20
34.231813000000002
 30
0.0
  0
ENDBLK
  5
8D7
  8
0
  0
BLOCK
  8
0
  2
*D5
 70
     1
 10
0.0
 20
0.0
 30
0.0
  3
*D5
  1

  0
LINE
  5
8DA
  8
0
  6
BYBLOCK
 62
     0
 10
285.64660800000001
 20
34.674380999999983
 30
0.0
 11
286.46768600000001
 21
34.674380999999983
 31
0.0
  0
LINE
  5
8DB
  8
0
  6
BYBLOCK
 62
     0
 10
285.84660799999989
 20
34.874381
 30
0.0
 11
286.46768600000001
 21
34.874381
 31
0.0
  0
LINE
  5
8DC
  8
0
  6
BYBLOCK
 62
     0
 10
286.4526859999998
 20
34.524380999999998
 30
0.0
 11
286.4526859999998
 21
34.374381
 31
0.0
  0
LINE
  5
8DD
  8
0
  6
BYBLOCK
 62
     0
 10
286.4526859999998
 20
35.024380999999991
 30
0.0
 11
286.4526859999998
 21
35.17438099999999
 31
0.0
  0
SOLID
  5
8DE
  8
0
  6
BYBLOCK
 62
     0
 10
286.42768599999999
 20
34.524380999999998
 30
0.0
 11
286.47768600000001
 21
34.524380999999998
 31
0.0
 12
286.4526859999998
 22
34.674380999999983
 32
0.0
 13
286.4526859999998
 23
34.674380999999983
 33
0.0
  0
SOLID
  5
8DF
  8
0
  6
BYBLOCK
 62
     0
 10
286.42768599999999
 20
35.024380999999991
 30
0.0
 11
286.47768600000001
 21
35.024380999999991
 31
0.0
 12
286.4526859999998
 22
34.874381
 32
0.0
 13
286.4526859999998
 23
34.874381
 33
0.0
  0
LINE
  5
8E0
  8
0
  6
BYBLOCK
 62
     0
 10
286.4526859999998
 20
34.674380999999983
 30
0.0
 11
286.4526859999998
 21
34.874381
 31
0.0
  0
TEXT
  5
8E1
  8
0
  6
BYBLOCK
 62
     0
 10
286.41518599999972
 20
34.38325600000001
 30
0.0
 40
0.075
  1
0.20
 50
90.0
  7
ROMANC
 72
     1
 11
286.3776859999997
 21
34.508256000000003
 31
0.0
 73
     2
  0
POINT
  5
8E2
  8
DEFPOINTS
  6
BYBLOCK
 62
     0
 10
285.63160800000009
 20
34.674380999999983
 30
0.0
  0
POINT
  5
8E3
  8
DEFPOINTS
  6
BYBLOCK
 62
     0
 10
285.83160800000002
 20
34.874381
 30
0.0
  0
POINT
  5
8E4
  8
DEFPOINTS
  6
BYBLOCK
 62
     0
 10
286.4526859999998
 20
34.874381
 30
0.0
  0
ENDBLK
  5
8E5
  8
0
  0
BLOCK
  8
0
  2
*D6
 70
     1
 10
0.0
 20
0.0
 30
0.0
  3
*D6
  1

  0
LINE
  5
8E8
  8
0
  6
BYBLOCK
 62
     0
 10
286.19660800000008
 20
34.874381
 30
0.0
 11
286.46768600000001
 21
34.874381
 31
0.0
  0
LINE
  5
8E9
  8
0
  6
BYBLOCK
 62
     0
 10
286.22160799999989
 20
35.774380999999998
 30
0.0
 11
286.46768600000001
 21
35.774380999999998
 31
0.0
  0
LINE
  5
8EA
  8
0
  6
BYBLOCK
 62
     0
 10
286.4526859999998
 20
35.024380999999991
 30
0.0
 11
286.4526859999998
 21
35.624381
 31
0.0
  0
SOLID
  5
8EB
  8
0
  6
BYBLOCK
 62
     0
 10
286.42768599999999
 20
35.024380999999991
 30
0.0
 11
286.47768600000001
 21
35.024380999999991
 31
0.0
 12
286.4526859999998
 22
34.874381
 32
0.0
 13
286.4526859999998
 23
34.874381
 33
0.0
  0
SOLID
  5
8EC
  8
0
  6
BYBLOCK
 62
     0
 10
286.42768599999999
 20
35.624381
 30
0.0
 11
286.47768600000001
 21
35.624381
 31
0.0
 12
286.4526859999998
 22
35.774380999999998
 32
0.0
 13
286.4526859999998
 23
35.774380999999998
 33
0.0
  0
TEXT
  5
8ED
  8
0
  6
BYBLOCK
 62
     0
 10
286.41518599999972
 20
35.199381000000002
 30
0.0
 40
0.075
  1
0.90
 50
90.0
  7
ROMANC
 72
     1
 11
286.3776859999997
 21
35.324381000000002
 31
0.0
 73
     2
  0
POINT
  5
8EE
  8
DEFPOINTS
  6
BYBLOCK
 62
     0
 10
286.18160799999998
 20
34.874381
 30
0.0
  0
POINT
  5
8EF
  8
DEFPOINTS
  6
BYBLOCK
 62
     0
 10
286.20660800000002
 20
35.774380999999998
 30
0.0
  0
POINT
  5
8F0
  8
DEFPOINTS
  6
BYBLOCK
 62
     0
 10
286.4526859999998
 20
35.774380999999998
 30
0.0
  0
ENDBLK
  5
8F1
  8
0
  0
BLOCK
  8
0
  2
*D7
 70
     1
 10
0.0
 20
0.0
 30
0.0
  3
*D7
  1

  0
LINE
  5
8F4
  8
0
  6
BYBLOCK
 62
     0
 10
285.64660800000001
 20
34.674380999999983
 30
0.0
 11
286.78080999999992
 21
34.674380999999983
 31
0.0
  0
LINE
  5
8F5
  8
0
  6
BYBLOCK
 62
     0
 10
285.64660800000001
 20
36.349381000000001
 30
0.0
 11
286.78080999999992
 21
36.349381000000001
 31
0.0
  0
LINE
  5
8F6
  8
0
  6
BYBLOCK
 62
     0
 10
286.76580999999982
 20
34.824381000000002
 30
0.0
 11
286.76580999999982
 21
36.19938100000001
 31
0.0
  0
SOLID
  5
8F7
  8
0
  6
BYBLOCK
 62
     0
 10
286.74081000000001
 20
34.824381000000002
 30
0.0
 11
286.79081000000002
 21
34.824381000000002
 31
0.0
 12
286.76580999999982
 22
34.674380999999983
 32
0.0
 13
286.76580999999982
 23
34.674380999999983
 33
0.0
  0
SOLID
  5
8F8
  8
0
  6
BYBLOCK
 62
     0
 10
286.74081000000001
 20
36.19938100000001
 30
0.0
 11
286.79081000000002
 21
36.19938100000001
 31
0.0
 12
286.76580999999982
 22
36.349381000000001
 32
0.0
 13
286.76580999999982
 23
36.349381000000001
 33
0.0
  0
TEXT
  5
8F9
  8
0
  6
BYBLOCK
 62
     0
 10
286.72830999999979
 20
35.392238142857153
 30
0.0
 40
0.075
  1
1.67
 50
90.0
  7
ROMANC
 72
     1
 11
286.69080999999971
 21
35.511881000000002
 31
0.0
 73
     2
  0
POINT
  5
8FA
  8
DEFPOINTS
  6
BYBLOCK
 62
     0
 10
285.63160800000009
 20
34.674380999999983
 30
0.0
  0
POINT
  5
8FB
  8
DEFPOINTS
  6
BYBLOCK
 62
     0
 10
285.63160800000009
 20
36.349381000000001
 30
0.0
  0
POINT
  5
8FC
  8
DEFPOINTS
  6
BYBLOCK
 62
     0
 10
286.76580999999982
 20
36.349381000000001
 30
0.0
  0
ENDBLK
  5
8FD
  8
0
  0
BLOCK
  8
0
  2
*D8
 70
     1
 10
0.0
 20
0.0
 30
0.0
  3
*D8
  1

  0
LINE
  5
900
  8
0
  6
BYBLOCK
 62
     0
 10
285.10660799999982
 20
35.889381
 30
0.0
 11
285.10660799999982
 21
35.889381
 31
0.0
  0
LINE
  5
901
  8
0
  6
BYBLOCK
 62
     0
 10
286.15660800000001
 20
35.889381
 30
0.0
 11
286.15660800000001
 21
35.889381
 31
0.0
  0
LINE
  5
902
  8
0
  6
BYBLOCK
 62
     0
 10
285.25660800000009
 20
35.874380999999993
 30
0.0
 11
286.00660800000009
 21
35.874380999999993
 31
0.0
  0
SOLID
  5
903
  8
0
  6
BYBLOCK
 62
     0
 10
285.25660800000009
 20
35.899380999999991
 30
0.0
 11
285.25660800000009
 21
35.849381000000001
 31
0.0
 12
285.10660799999982
 22
35.874380999999993
 32
0.0
 13
285.10660799999982
 23
35.874380999999993
 33
0.0
  0
SOLID
  5
904
  8
0
  6
BYBLOCK
 62
     0
 10
286.00660800000009
 20
35.899380999999991
 30
0.0
 11
286.00660800000009
 21
35.849381000000001
 31
0.0
 12
286.15660800000001
 22
35.874380999999993
 32
0.0
 13
286.15660800000001
 23
35.874380999999993
 33
0.0
  0
TEXT
  5
905
  8
0
  6
BYBLOCK
 62
     0
 10
285.51196514285721
 20
35.911881000000001
 30
0.0
 40
0.075
  1
1.05
  7
ROMANC
 72
     1
 11
285.63160800000009
 21
35.949381000000002
 31
0.0
 73
     2
  0
POINT
  5
906
  8
DEFPOINTS
  6
BYBLOCK
 62
     0
 10
285.10660799999982
 20
35.874380999999993
 30
0.0
  0
POINT
  5
907
  8
DEFPOINTS
  6
BYBLOCK
 62
     0
 10
286.15660800000001
 20
35.874380999999993
 30
0.0
  0
POINT
  5
908
  8
DEFPOINTS
  6
BYBLOCK
 62
     0
 10
286.15660800000001
 20
35.874380999999993
 30
0.0
  0
ENDBLK
  5
909
  8
0
  0
BLOCK
  8
0
  2
*D9
 70
     1
 10
0.0
 20
0.0
 30
0.0
  3
*D9
  1

  0
LINE
  5
90C
  8
0
  6
BYBLOCK
 62
     0
 10
285.43160799999981
 20
34.859380999999999
 30
0.0
 11
285.43160799999981
 21
34.31059699999998
 31
0.0
  0
LINE
  5
90D
  8
0
  6
BYBLOCK
 62
     0
 10
285.83160800000002
 20
34.859380999999999
 30
0.0
 11
285.83160800000002
 21
34.31059699999998
 31
0.0
  0
LINE
  5
90E
  8
0
  6
BYBLOCK
 62
     0
 10
285.28160800000001
 20
34.325596999999981
 30
0.0
 11
285.13160800000009
 21
34.325596999999981
 31
0.0
  0
LINE
  5
90F
  8
0
  6
BYBLOCK
 62
     0
 10
285.98160799999982
 20
34.325596999999981
 30
0.0
 11
286.13160800000009
 21
34.325596999999981
 31
0.0
  0
SOLID
  5
910
  8
0
  6
BYBLOCK
 62
     0
 10
285.28160800000001
 20
34.350597
 30
0.0
 11
285.28160800000001
 21
34.300596999999989
 31
0.0
 12
285.43160799999981
 22
34.325596999999981
 32
0.0
 13
285.43160799999981
 23
34.325596999999981
 33
0.0
  0
SOLID
  5
911
  8
0
  6
BYBLOCK
 62
     0
 10
285.98160799999982
 20
34.350597
 30
0.0
 11
285.98160799999982
 21
34.300596999999989
 31
0.0
 12
285.83160800000002
 22
34.325596999999981
 32
0.0
 13
285.83160800000002
 23
34.325596999999981
 33
0.0
  0
LINE
  5
912
  8
0
  6
BYBLOCK
 62
     0
 10
285.43160799999981
 20
34.325596999999981
 30
0.0
 11
285.83160800000002
 21
34.325596999999981
 31
0.0
  0
TEXT
  5
913
  8
0
  6
BYBLOCK
 62
     0
 10
285.50660800000009
 20
34.363096999999989
 30
0.0
 40
0.075
  1
0.40
  7
ROMANC
 72
     1
 11
285.63160800000009
 21
34.400596999999991
 31
0.0
 73
     2
  0
POINT
  5
914
  8
DEFPOINTS
  6
BYBLOCK
 62
     0
 10
285.43160799999981
 20
34.874381
 30
0.0
  0
POINT
  5
915
  8
DEFPOINTS
  6
BYBLOCK
 62
     0
 10
285.83160800000002
 20
34.874381
 30
0.0
  0
POINT
  5
916
  8
DEFPOINTS
  6
BYBLOCK
 62
     0
 10
285.83160800000002
 20
34.325596999999981
 30
0.0
  0
ENDBLK
  5
917
  8
0
  0
BLOCK
  8
0
  2
*D10
 70
     1
 10
0.0
 20
0.0
 30
0.0
  3
*D10
  1

  0
LINE
  5
91A
  8
0
  6
BYBLOCK
 62
     0
 10
285.13160800000009
 20
34.859380999999999
 30
0.0
 11
285.13160800000009
 21
33.99951699999999
 31
0.0
  0
LINE
  5
91B
  8
0
  6
BYBLOCK
 62
     0
 10
286.13160800000009
 20
34.859380999999999
 30
0.0
 11
286.13160800000009
 21
33.99951699999999
 31
0.0
  0
LINE
  5
91C
  8
0
  6
BYBLOCK
 62
     0
 10
285.28160800000001
 20
34.014516999999991
 30
0.0
 11
285.98160799999982
 21
34.014516999999991
 31
0.0
  0
SOLID
  5
91D
  8
0
  6
BYBLOCK
 62
     0
 10
285.28160800000001
 20
34.039516999999989
 30
0.0
 11
285.28160800000001
 21
33.989516999999999
 31
0.0
 12
285.13160800000009
 22
34.014516999999991
 32
0.0
 13
285.13160800000009
 23
34.014516999999991
 33
0.0
  0
SOLID
  5
91E
  8
0
  6
BYBLOCK
 62
     0
 10
285.98160799999982
 20
34.039516999999989
 30
0.0
 11
285.98160799999982
 21
33.989516999999999
 31
0.0
 12
286.13160800000009
 22
34.014516999999991
 32
0.0
 13
286.13160800000009
 23
34.014516999999991
 33
0.0
  0
TEXT
  5
91F
  8
0
  6
BYBLOCK
 62
     0
 10
285.51196514285721
 20
34.052016999999999
 30
0.0
 40
0.075
  1
1.00
  7
ROMANC
 72
     1
 11
285.63160800000009
 21
34.089517000000001
 31
0.0
 73
     2
  0
POINT
  5
920
  8
DEFPOINTS
  6
BYBLOCK
 62
     0
 10
285.13160800000009
 20
34.874381
 30
0.0
  0
POINT
  5
921
  8
DEFPOINTS
  6
BYBLOCK
 62
     0
 10
286.13160800000009
 20
34.874381
 30
0.0
  0
POINT
  5
922
  8
DEFPOINTS
  6
BYBLOCK
 62
     0
 10
286.13160800000009
 20
34.014516999999991
 30
0.0
  0
ENDBLK
  5
923
  8
0
  0
BLOCK
  8
0
  2
*D11
 70
     1
 10
0.0
 20
0.0
 30
0.0
  3
*D11
  1

  0
LINE
  5
926
  8
0
  6
BYBLOCK
 62
     0
 10
285.64660800000001
 20
34.574381000000002
 30
0.0
 11
286.47218900000001
 21
34.574381000000002
 31
0.0
  0
LINE
  5
927
  8
0
  6
BYBLOCK
 62
     0
 10
285.84660799999989
 20
34.874381
 30
0.0
 11
286.47218900000001
 21
34.874381
 31
0.0
  0
LINE
  5
928
  8
0
  6
BYBLOCK
 62
     0
 10
286.45718900000008
 20
34.42438099999999
 30
0.0
 11
286.45718900000008
 21
34.274380999999991
 31
0.0
  0
LINE
  5
929
  8
0
  6
BYBLOCK
 62
     0
 10
286.45718900000008
 20
35.024380999999991
 30
0.0
 11
286.45718900000008
 21
35.17438099999999
 31
0.0
  0
SOLID
  5
92A
  8
0
  6
BYBLOCK
 62
     0
 10
286.43218899999988
 20
34.42438099999999
 30
0.0
 11
286.48218899999989
 21
34.42438099999999
 31
0.0
 12
286.45718900000008
 22
34.574381000000002
 32
0.0
 13
286.45718900000008
 23
34.574381000000002
 33
0.0
  0
SOLID
  5
92B
  8
0
  6
BYBLOCK
 62
     0
 10
286.43218899999988
 20
35.024380999999991
 30
0.0
 11
286.48218899999989
 21
35.024380999999991
 31
0.0
 12
286.45718900000008
 22
34.874381
 32
0.0
 13
286.45718900000008
 23
34.874381
 33
0.0
  0
LINE
  5
92C
  8
0
  6
BYBLOCK
 62
     0
 10
286.45718900000008
 20
34.574381000000002
 30
0.0
 11
286.45718900000008
 21
34.874381
 31
0.0
  0
TEXT
  5
92D
  8
0
  6
BYBLOCK
 62
     0
 10
286.41968900000001
 20
34.599381000000001
 30
0.0
 40
0.075
  1
0.30
 50
90.0
  7
ROMANC
 72
     1
 11
286.38218899999998
 21
34.724381000000001
 31
0.0
 73
     2
  0
POINT
  5
92E
  8
DEFPOINTS
  6
BYBLOCK
 62
     0
 10
285.63160800000009
 20
34.574381000000002
 30
0.0
  0
POINT
  5
92F
  8
DEFPOINTS
  6
BYBLOCK
 62
     0
 10
285.83160800000002
 20
34.874381
 30
0.0
  0
POINT
  5
930
  8
DEFPOINTS
  6
BYBLOCK
 62
     0
 10
286.45718900000008
 20
34.874381
 30
0.0
  0
ENDBLK
  5
931
  8
0
  0
BLOCK
  8
0
  2
*D12
 70
     1
 10
0.0
 20
0.0
 30
0.0
  3
*D12
  1

  0
LINE
  5
934
  8
0
  6
BYBLOCK
 62
     0
 10
286.1466079999999
 20
34.874381
 30
0.0
 11
286.47218900000001
 21
34.874381
 31
0.0
  0
LINE
  5
935
  8
0
  6
BYBLOCK
 62
     0
 10
286.17160799999982
 20
35.874380999999993
 30
0.0
 11
286.47218900000001
 21
35.874380999999993
 31
0.0
  0
LINE
  5
936
  8
0
  6
BYBLOCK
 62
     0
 10
286.45718900000008
 20
35.024380999999991
 30
0.0
 11
286.45718900000008
 21
35.724381000000001
 31
0.0
  0
SOLID
  5
937
  8
0
  6
BYBLOCK
 62
     0
 10
286.43218899999988
 20
35.024380999999991
 30
0.0
 11
286.48218899999989
 21
35.024380999999991
 31
0.0
 12
286.45718900000008
 22
34.874381
 32
0.0
 13
286.45718900000008
 23
34.874381
 33
0.0
  0
SOLID
  5
938
  8
0
  6
BYBLOCK
 62
     0
 10
286.43218899999988
 20
35.724381000000001
 30
0.0
 11
286.48218899999989
 21
35.724381000000001
 31
0.0
 12
286.45718900000008
 22
35.874380999999993
 32
0.0
 13
286.45718900000008
 23
35.874380999999993
 33
0.0
  0
TEXT
  5
939
  8
0
  6
BYBLOCK
 62
     0
 10
286.41968900000001
 20
35.254738142857143
 30
0.0
 40
0.075
  1
1.00
 50
90.0
  7
ROMANC
 72
     1
 11
286.38218899999998
 21
35.374381
 31
0.0
 73
     2
  0
POINT
  5
93A
  8
DEFPOINTS
  6
BYBLOCK
 62
     0
 10
286.13160800000009
 20
34.874381
 30
0.0
  0
POINT
  5
93B
  8
DEFPOINTS
  6
BYBLOCK
 62
     0
 10
286.15660800000001
 20
35.874380999999993
 30
0.0
  0
POINT
  5
93C
  8
DEFPOINTS
  6
BYBLOCK
 62
     0
 10
286.45718900000008
 20
35.874380999999993
 30
0.0
  0
ENDBLK
  5
93D
  8
0
  0
BLOCK
  8
0
  2
*D13
 70
     1
 10
0.0
 20
0.0
 30
0.0
  3
*D13
  1

  0
LINE
  5
940
  8
0
  6
BYBLOCK
 62
     0
 10
285.64660800000001
 20
34.574381000000002
 30
0.0
 11
286.770645
 21
34.574381000000002
 31
0.0
  0
LINE
  5
941
  8
0
  6
BYBLOCK
 62
     0
 10
285.64660800000001
 20
36.324381000000002
 30
0.0
 11
286.770645
 21
36.324381000000002
 31
0.0
  0
LINE
  5
942
  8
0
  6
BYBLOCK
 62
     0
 10
286.75564500000002
 20
34.724381000000001
 30
0.0
 11
286.75564500000002
 21
36.17438099999999
 31
0.0
  0
SOLID
  5
943
  8
0
  6
BYBLOCK
 62
     0
 10
286.73064499999998
 20
34.724381000000001
 30
0.0
 11
286.78064499999982
 21
34.724381000000001
 31
0.0
 12
286.75564500000002
 22
34.574381000000002
 32
0.0
 13
286.75564500000002
 23
34.574381000000002
 33
0.0
  0
SOLID
  5
944
  8
0
  6
BYBLOCK
 62
     0
 10
286.73064499999998
 20
36.17438099999999
 30
0.0
 11
286.78064499999982
 21
36.17438099999999
 31
0.0
 12
286.75564500000002
 22
36.324381000000002
 32
0.0
 13
286.75564500000002
 23
36.324381000000002
 33
0.0
  0
TEXT
  5
945
  8
0
  6
BYBLOCK
 62
     0
 10
286.71814500000011
 20
35.329738142857138
 30
0.0
 40
0.075
  1
1.75
 50
90.0
  7
ROMANC
 72
     1
 11
286.68064500000008
 21
35.449381000000002
 31
0.0
 73
     2
  0
POINT
  5
946
  8
DEFPOINTS
  6
BYBLOCK
 62
     0
 10
285.63160800000009
 20
34.574381000000002
 30
0.0
  0
POINT
  5
947
  8
DEFPOINTS
  6
BYBLOCK
 62
     0
 10
285.63160800000009
 20
36.324381000000002
 30
0.0
  0
POINT
  5
948
  8
DEFPOINTS
  6
BYBLOCK
 62
     0
 10
286.75564500000002
 20
36.324381000000002
 30
0.0
  0
ENDBLK
  5
949
  8
0
  0
BLOCK
  8
0
  2
*D14
 70
     1
 10
0.0
 20
0.0
 30
0.0
  3
*D14
  1

  0
LINE
  5
94C
  8
0
 62
     0
 10
286.277809396419
 20
37.347270514292582
 30
0.0
 11
286.277809396419
 21
37.51154055639843
 31
0.0
  0
LINE
  5
94D
  8
0
 62
     0
 10
287.27780939641889
 20
37.347270514292582
 30
0.0
 11
287.27780939641889
 21
37.51154055639843
 31
0.0
  0
LINE
  5
94E
  8
0
 62
     0
 10
286.42780939641881
 20
37.496540556398408
 30
0.0
 11
287.12780939641908
 21
37.496540556398408
 31
0.0
  0
SOLID
  5
94F
  8
0
 62
     0
 10
286.42780939641881
 20
37.521540556398413
 30
0.0
 11
286.42780939641881
 21
37.471540556398431
 31
0.0
 12
286.277809396419
 22
37.496540556398408
 32
0.0
 13
286.277809396419
 23
37.496540556398408
 33
0.0
  0
SOLID
  5
950
  8
0
 62
     0
 10
287.12780939641908
 20
37.521540556398413
 30
0.0
 11
287.12780939641908
 21
37.471540556398431
 31
0.0
 12
287.27780939641889
 22
37.496540556398408
 32
0.0
 13
287.27780939641889
 23
37.496540556398408
 33
0.0
  0
TEXT
  5
951
  8
0
 62
     0
 10
286.62780939641908
 20
37.63154055639842
 30
0.0
 40
0.075
  1
1.0000
  0
POINT
  5
952
  8
DEFPOINTS
 62
     0
 10
286.277809396419
 20
37.332270514292581
 30
0.0
  0
POINT
  5
953
  8
DEFPOINTS
 62
     0
 10
287.27780939641889
 20
37.332270514292581
 30
0.0
  0
POINT
  5
954
  8
DEFPOINTS
 62
     0
 10
287.27780939641889
 20
37.496540556398408
 30
0.0
  0
ENDBLK
  5
955
  8
0
  0
BLOCK
  8
0
  2
*D15
 70
     1
 10
0.0
 20
0.0
 30
0.0
  3
*D15
  1

  0
LINE
  5
958
  8
0
 62
     0
 10
285.14218075414652
 20
37.32227051429259
 30
0.0
 11
284.82108842917512
 21
37.32227051429259
 31
0.0
  0
LINE
  5
959
  8
0
 62
     0
 10
285.1321807541467
 20
35.972270514292603
 30
0.0
 11
284.82108842917512
 21
35.972270514292603
 31
0.0
  0
LINE
  5
95A
  8
0
 62
     0
 10
284.83608842917488
 20
37.172270514292592
 30
0.0
 11
284.83608842917488
 21
36.12227051429258
 31
0.0
  0
SOLID
  5
95B
  8
0
 62
     0
 10
284.81108842917507
 20
37.172270514292592
 30
0.0
 11
284.86108842917508
 21
37.172270514292592
 31
0.0
 12
284.83608842917488
 22
37.32227051429259
 32
0.0
 13
284.83608842917488
 23
37.32227051429259
 33
0.0
  0
SOLID
  5
95C
  8
0
 62
     0
 10
284.81108842917507
 20
36.12227051429258
 30
0.0
 11
284.86108842917508
 21
36.12227051429258
 31
0.0
 12
284.83608842917488
 22
35.972270514292603
 32
0.0
 13
284.83608842917488
 23
35.972270514292603
 33
0.0
  0
TEXT
  5
95D
  8
0
 62
     0
 10
284.70108842917512
 20
36.484770514292642
 30
0.0
 40
0.075
  1
1.3500
 50
90.0
  0
POINT
  5
95E
  8
DEFPOINTS
 62
     0
 10
285.15718075414662
 20
37.32227051429259
 30
0.0
  0
POINT
  5
95F
  8
DEFPOINTS
 62
     0
 10
285.14718075414669
 20
35.972270514292603
 30
0.0
  0
POINT
  5
960
  8
DEFPOINTS
 62
     0
 10
284.83608842917488
 20
35.972270514292603
 30
0.0
  0
ENDBLK
  5
961
  8
0
  0
BLOCK
  8
0
  2
*D16
 70
     1
 10
0.0
 20
0.0
 30
0.0
  3
*D16
  1

  0
LINE
  5
964
  8
0
 62
     0
 10
286.277809396419
 20
35.957270514292603
 30
0.0
 11
286.277809396419
 21
35.06902228650506
 31
0.0
  0
LINE
  5
965
  8
0
 62
     0
 10
286.30280939641892
 20
35.957270514292603
 30
0.0
 11
286.30280939641892
 21
35.06902228650506
 31
0.0
  0
LINE
  5
966
  8
0
 62
     0
 10
286.45280939641901
 20
35.084022286505061
 30
0.0
 11
286.60280939641888
 21
35.084022286505061
 31
0.0
  0
LINE
  5
967
  8
0
 62
     0
 10
286.12780939641908
 20
35.084022286505061
 30
0.0
 11
285.47530939641911
 21
35.084022286505061
 31
0.0
  0
LINE
  5
968
  8
0
 62
     0
 10
286.30280939641892
 20
35.084022286505061
 30
0.0
 11
286.277809396419
 21
35.084022286505061
 31
0.0
  0
SOLID
  5
969
  8
0
 62
     0
 10
286.45280939641901
 20
35.109022286505052
 30
0.0
 11
286.45280939641901
 21
35.059022286505062
 31
0.0
 12
286.30280939641892
 22
35.084022286505061
 32
0.0
 13
286.30280939641892
 23
35.084022286505061
 33
0.0
  0
SOLID
  5
96A
  8
0
 62
     0
 10
286.12780939641908
 20
35.109022286505052
 30
0.0
 11
286.12780939641908
 21
35.059022286505062
 31
0.0
 12
286.277809396419
 22
35.084022286505061
 32
0.0
 13
286.277809396419
 23
35.084022286505061
 33
0.0
  0
TEXT
  5
96B
  8
0
 62
     0
 10
285.50530939641908
 20
35.114022286505062
 30
0.0
 40
0.075
  1
0.0250
  0
POINT
  5
96C
  8
DEFPOINTS
 62
     0
 10
286.277809396419
 20
35.972270514292603
 30
0.0
  0
POINT
  5
96D
  8
DEFPOINTS
 62
     0
 10
286.30280939641892
 20
35.972270514292603
 30
0.0
  0
POINT
  5
96E
  8
DEFPOINTS
 62
     0
 10
286.30280939641892
 20
35.084022286505061
 30
0.0
  0
ENDBLK
  5
96F
  8
0
  0
BLOCK
  8
0
  2
*D17
 70
     1
 10
0.0
 20
0.0
 30
0.0
  3
*D17
  1

  0
LINE
  5
972
  8
0
 62
     0
 10
286.28780939641888
 20
35.972270514292603
 30
0.0
 11
285.91644231266321
 21
35.972270514292603
 31
0.0
  0
LINE
  5
973
  8
0
 62
     0
 10
286.28780939641888
 20
35.73227051429258
 30
0.0
 11
285.91644231266321
 21
35.73227051429258
 31
0.0
  0
LINE
  5
974
  8
0
 62
     0
 10
285.93144231266319
 20
36.12227051429258
 30
0.0
 11
285.93144231266319
 21
36.272270514292593
 31
0.0
  0
LINE
  5
975
  8
0
 62
     0
 10
285.93144231266319
 20
35.582270514292581
 30
0.0
 11
285.93144231266319
 21
35.43227051429259
 31
0.0
  0
LINE
  5
976
  8
0
 62
     0
 10
285.93144231266319
 20
35.972270514292603
 30
0.0
 11
285.93144231266319
 21
35.73227051429258
 31
0.0
  0
SOLID
  5
977
  8
0
 62
     0
 10
285.90644231266322
 20
36.12227051429258
 30
0.0
 11
285.95644231266328
 21
36.12227051429258
 31
0.0
 12
285.93144231266319
 22
35.972270514292603
 32
0.0
 13
285.93144231266319
 23
35.972270514292603
 33
0.0
  0
SOLID
  5
978
  8
0
 62
     0
 10
285.90644231266322
 20
35.582270514292581
 30
0.0
 11
285.95644231266328
 21
35.582270514292581
 31
0.0
 12
285.93144231266319
 22
35.73227051429258
 32
0.0
 13
285.93144231266319
 23
35.73227051429258
 33
0.0
  0
TEXT
  5
979
  8
0
 62
     0
 10
285.7964423126632
 20
35.683520514292631
 30
0.0
 40
0.075
  1
0.2400
 50
90.0
  0
POINT
  5
97A
  8
DEFPOINTS
 62
     0
 10
286.30280939641892
 20
35.972270514292603
 30
0.0
  0
POINT
  5
97B
  8
DEFPOINTS
 62
     0
 10
286.30280939641892
 20
35.73227051429258
 30
0.0
  0
POINT
  5
97C
  8
DEFPOINTS
 62
     0
 10
285.93144231266319
 20
35.73227051429258
 30
0.0
  0
ENDBLK
  5
97D
  8
0
  0
BLOCK
  8
0
  2
*D18
 70
     1
 10
0.0
 20
0.0
 30
0.0
  3
*D18
  1

  0
LINE
  5
980
  8
0
 62
     0
 10
286.26280939641907
 20
37.332270514292581
 30
0.0
 11
286.0115373727208
 21
37.332270514292581
 31
0.0
  0
LINE
  5
981
  8
0
 62
     0
 10
286.26280939641907
 20
35.972270514292603
 30
0.0
 11
286.0115373727208
 21
35.972270514292603
 31
0.0
  0
LINE
  5
982
  8
0
 62
     0
 10
286.02653737272078
 20
37.182270514292568
 30
0.0
 11
286.02653737272078
 21
36.12227051429258
 31
0.0
  0
SOLID
  5
983
  8
0
 62
     0
 10
286.0015373727208
 20
37.182270514292568
 30
0.0
 11
286.05153737272082
 21
37.182270514292568
 31
0.0
 12
286.02653737272078
 22
37.332270514292581
 32
0.0
 13
286.02653737272078
 23
37.332270514292581
 33
0.0
  0
SOLID
  5
984
  8
0
 62
     0
 10
286.0015373727208
 20
36.12227051429258
 30
0.0
 11
286.05153737272082
 21
36.12227051429258
 31
0.0
 12
286.02653737272078
 22
35.972270514292603
 32
0.0
 13
286.02653737272078
 23
35.972270514292603
 33
0.0
  0
TEXT
  5
985
  8
0
 62
     0
 10
285.89153737272079
 20
36.48977051429263
 30
0.0
 40
0.075
  1
1.3600
 50
90.0
  0
POINT
  5
986
  8
DEFPOINTS
 62
     0
 10
286.277809396419
 20
37.332270514292581
 30
0.0
  0
POINT
  5
987
  8
DEFPOINTS
 62
     0
 10
286.277809396419
 20
35.972270514292603
 30
0.0
  0
POINT
  5
988
  8
DEFPOINTS
 62
     0
 10
286.02653737272078
 20
35.972270514292603
 30
0.0
  0
ENDBLK
  5
989
  8
0
  0
BLOCK
  8
0
  2
*D19
 70
     1
 10
0.0
 20
0.0
 30
0.0
  3
*D19
  1

  0
LINE
  5
98C
  8
0
 62
     0
 10
286.30280939641892
 20
35.717270514292579
 30
0.0
 11
286.30280939641892
 21
35.447023658021493
 31
0.0
  0
LINE
  5
98D
  8
0
 62
     0
 10
286.80280939641898
 20
35.717270514292601
 30
0.0
 11
286.80280939641898
 21
35.447023658021493
 31
0.0
  0
LINE
  5
98E
  8
0
 62
     0
 10
286.152809396419
 20
35.462023658021486
 30
0.0
 11
286.00280939641908
 21
35.462023658021486
 31
0.0
  0
LINE
  5
98F
  8
0
 62
     0
 10
286.95280939641918
 20
35.462023658021486
 30
0.0
 11
287.1028093964191
 21
35.462023658021486
 31
0.0
  0
LINE
  5
990
  8
0
 62
     0
 10
286.30280939641892
 20
35.462023658021486
 30
0.0
 11
286.80280939641898
 21
35.462023658021486
 31
0.0
  0
SOLID
  5
991
  8
0
 62
     0
 10
286.152809396419
 20
35.487023658021492
 30
0.0
 11
286.152809396419
 21
35.437023658021502
 31
0.0
 12
286.30280939641892
 22
35.462023658021486
 32
0.0
 13
286.30280939641892
 23
35.462023658021486
 33
0.0
  0
SOLID
  5
992
  8
0
 62
     0
 10
286.95280939641918
 20
35.487023658021492
 30
0.0
 11
286.95280939641918
 21
35.437023658021502
 31
0.0
 12
286.80280939641898
 22
35.462023658021486
 32
0.0
 13
286.80280939641898
 23
35.462023658021486
 33
0.0
  0
TEXT
  5
993
  8
0
 62
     0
 10
286.39030939641901
 20
35.597023658021492
 30
0.0
 40
0.075
  1
0.5000
  0
POINT
  5
994
  8
DEFPOINTS
 62
     0
 10
286.30280939641892
 20
35.73227051429258
 30
0.0
  0
POINT
  5
995
  8
DEFPOINTS
 62
     0
 10
286.80280939641898
 20
35.732270514292601
 30
0.0
  0
POINT
  5
996
  8
DEFPOINTS
 62
     0
 10
286.80280939641898
 20
35.462023658021486
 30
0.0
  0
ENDBLK
  5
997
  8
0
  0
BLOCK
  8
0
  2
*D20
 70
     1
 10
0.0
 20
0.0
 30
0.0
  3
*D20
  1

  0
LINE
  5
99A
  8
0
 62
     0
 10
286.80280939641898
 20
35.717270514292601
 30
0.0
 11
286.80280939641898
 21
35.186764790863251
 31
0.0
  0
LINE
  5
99B
  8
0
 62
     0
 10
287.13280939641908
 20
35.717270514292579
 30
0.0
 11
287.13280939641908
 21
35.186764790863251
 31
0.0
  0
LINE
  5
99C
  8
0
 62
     0
 10
286.65280939641912
 20
35.201764790863251
 30
0.0
 11
286.50280939641908
 21
35.201764790863251
 31
0.0
  0
LINE
  5
99D
  8
0
 62
     0
 10
287.28280939641888
 20
35.201764790863251
 30
0.0
 11
287.93530939641892
 21
35.201764790863251
 31
0.0
  0
LINE
  5
99E
  8
0
 62
     0
 10
286.80280939641898
 20
35.201764790863251
 30
0.0
 11
287.13280939641908
 21
35.201764790863251
 31
0.0
  0
SOLID
  5
99F
  8
0
 62
     0
 10
286.65280939641912
 20
35.226764790863243
 30
0.0
 11
286.65280939641912
 21
35.176764790863253
 31
0.0
 12
286.80280939641898
 22
35.201764790863251
 32
0.0
 13
286.80280939641898
 23
35.201764790863251
 33
0.0
  0
SOLID
  5
9A0
  8
0
 62
     0
 10
287.28280939641888
 20
35.226764790863243
 30
0.0
 11
287.28280939641888
 21
35.176764790863253
 31
0.0
 12
287.13280939641908
 22
35.201764790863251
 32
0.0
 13
287.13280939641908
 23
35.201764790863251
 33
0.0
  0
TEXT
  5
9A1
  8
0
 62
     0
 10
287.56780939641908
 20
35.231764790863259
 30
0.0
 40
0.075
  1
0.3300
  0
POINT
  5
9A2
  8
DEFPOINTS
 62
     0
 10
286.80280939641898
 20
35.732270514292601
 30
0.0
  0
POINT
  5
9A3
  8
DEFPOINTS
 62
     0
 10
287.13280939641908
 20
35.73227051429258
 30
0.0
  0
POINT
  5
9A4
  8
DEFPOINTS
 62
     0
 10
287.13280939641908
 20
35.201764790863251
 30
0.0
  0
ENDBLK
  5
9A5
  8
0
  0
BLOCK
  8
0
  2
*D21
 70
     1
 10
0.0
 20
0.0
 30
0.0
  3
*D21
  1

  0
LINE
  5
9A8
  8
0
 62
     0
 10
287.13280939641908
 20
35.717270514292579
 30
0.0
 11
287.13280939641908
 21
34.859794406303131
 31
0.0
  0
LINE
  5
9A9
  8
0
 62
     0
 10
287.25280939641908
 20
35.717270514292579
 30
0.0
 11
287.25280939641908
 21
34.859794406303131
 31
0.0
  0
LINE
  5
9AA
  8
0
 62
     0
 10
286.98280939641921
 20
34.874794406303138
 30
0.0
 11
286.83280939641901
 21
34.874794406303138
 31
0.0
  0
LINE
  5
9AB
  8
0
 62
     0
 10
287.402809396419
 20
34.874794406303138
 30
0.0
 11
288.03030939641923
 21
34.874794406303138
 31
0.0
  0
LINE
  5
9AC
  8
0
 62
     0
 10
287.13280939641908
 20
34.874794406303138
 30
0.0
 11
287.25280939641908
 21
34.874794406303138
 31
0.0
  0
SOLID
  5
9AD
  8
0
 62
     0
 10
286.98280939641921
 20
34.89979440630313
 30
0.0
 11
286.98280939641921
 21
34.84979440630314
 31
0.0
 12
287.13280939641908
 22
34.874794406303138
 32
0.0
 13
287.13280939641908
 23
34.874794406303138
 33
0.0
  0
SOLID
  5
9AE
  8
0
 62
     0
 10
287.402809396419
 20
34.89979440630313
 30
0.0
 11
287.402809396419
 21
34.84979440630314
 31
0.0
 12
287.25280939641908
 22
34.874794406303138
 32
0.0
 13
287.25280939641908
 23
34.874794406303138
 33
0.0
  0
TEXT
  5
9AF
  8
0
 62
     0
 10
287.68780939641908
 20
34.904794406303139
 30
0.0
 40
0.075
  1
0.1200
  0
POINT
  5
9B0
  8
DEFPOINTS
 62
     0
 10
287.13280939641908
 20
35.73227051429258
 30
0.0
  0
POINT
  5
9B1
  8
DEFPOINTS
 62
     0
 10
287.25280939641908
 20
35.73227051429258
 30
0.0
  0
POINT
  5
9B2
  8
DEFPOINTS
 62
     0
 10
287.25280939641908
 20
34.874794406303138
 30
0.0
  0
ENDBLK
  5
9B3
  8
0
  0
BLOCK
  8
0
  2
*D22
 70
     1
 10
0.0
 20
0.0
 30
0.0
  3
*D22
  1

  0
LINE
  5
9B6
  8
0
 62
     0
 10
287.25280939641908
 20
35.957270514292603
 30
0.0
 11
287.25280939641908
 21
35.448475649889261
 31
0.0
  0
LINE
  5
9B7
  8
0
 62
     0
 10
287.27780939641889
 20
35.957270514292603
 30
0.0
 11
287.27780939641889
 21
35.448475649889261
 31
0.0
  0
LINE
  5
9B8
  8
0
 62
     0
 10
287.1028093964191
 20
35.463475649889261
 30
0.0
 11
286.95280939641901
 21
35.463475649889261
 31
0.0
  0
LINE
  5
9B9
  8
0
 62
     0
 10
287.42780939641892
 20
35.463475649889261
 30
0.0
 11
288.0803093964189
 21
35.463475649889261
 31
0.0
  0
LINE
  5
9BA
  8
0
 62
     0
 10
287.25280939641908
 20
35.463475649889261
 30
0.0
 11
287.27780939641889
 21
35.463475649889261
 31
0.0
  0
SOLID
  5
9BB
  8
0
 62
     0
 10
287.1028093964191
 20
35.48847564988926
 30
0.0
 11
287.1028093964191
 21
35.438475649889263
 31
0.0
 12
287.25280939641908
 22
35.463475649889261
 32
0.0
 13
287.25280939641908
 23
35.463475649889261
 33
0.0
  0
SOLID
  5
9BC
  8
0
 62
     0
 10
287.42780939641892
 20
35.48847564988926
 30
0.0
 11
287.42780939641892
 21
35.438475649889263
 31
0.0
 12
287.27780939641889
 22
35.463475649889261
 32
0.0
 13
287.27780939641889
 23
35.463475649889261
 33
0.0
  0
TEXT
  5
9BD
  8
0
 62
     0
 10
287.712809396419
 20
35.493475649889263
 30
0.0
 40
0.075
  1
0.0250
  0
POINT
  5
9BE
  8
DEFPOINTS
 62
     0
 10
287.25280939641908
 20
35.972270514292603
 30
0.0
  0
POINT
  5
9BF
  8
DEFPOINTS
 62
     0
 10
287.27780939641889
 20
35.972270514292603
 30
0.0
  0
POINT
  5
9C0
  8
DEFPOINTS
 62
     0
 10
287.27780939641889
 20
35.463475649889261
 30
0.0
  0
ENDBLK
  5
9C1
  8
0
  0
BLOCK
  8
0
  2
*D23
 70
     1
 10
0.0
 20
0.0
 30
0.0
  3
*D23
  1

  0
LINE
  5
C93
  8
0
 62
     0
 10
286.050027530026
 20
37.17027360069671
 30
0.0
 11
286.050027530026
 21
37.319410782517423
 31
0.0
  0
LINE
  5
C94
  8
0
 62
     0
 10
287.050027530026
 20
37.17027360069671
 30
0.0
 11
287.050027530026
 21
37.319410782517423
 31
0.0
  0
LINE
  5
C95
  8
0
 62
     0
 10
286.20002753002598
 20
37.304410782517422
 30
0.0
 11
286.90002753002608
 21
37.304410782517422
 31
0.0
  0
SOLID
  5
C96
  8
0
 62
     0
 10
286.20002753002598
 20
37.329410782517421
 30
0.0
 11
286.20002753002598
 21
37.279410782517417
 31
0.0
 12
286.050027530026
 22
37.304410782517422
 32
0.0
 13
286.050027530026
 23
37.304410782517422
 33
0.0
  0
SOLID
  5
C97
  8
0
 62
     0
 10
286.90002753002608
 20
37.329410782517421
 30
0.0
 11
286.90002753002608
 21
37.279410782517417
 31
0.0
 12
287.050027530026
 22
37.304410782517422
 32
0.0
 13
287.050027530026
 23
37.304410782517422
 33
0.0
  0
TEXT
  5
CDC
  8
0
 62
     0
 10
286.39999999999998
 20
37.239199999999997
 30
0.0
 40
0.075
  1
1.0000
  0
POINT
  5
C99
  8
DEFPOINTS
 62
     0
 10
286.050027530026
 20
37.155273600696709
 30
0.0
  0
POINT
  5
C9A
  8
DEFPOINTS
 62
     0
 10
287.050027530026
 20
37.155273600696709
 30
0.0
  0
POINT
  5
C9B
  8
DEFPOINTS
 62
     0
 10
287.050027530026
 20
37.304410782517422
 30
0.0
  0
ENDBLK
  5
A24
  8
0
  0
BLOCK
  8
0
  2
*D24
 70
     1
 10
0.0
 20
0.0
 30
0.0
  3
*D24
  1

  0
LINE
  5
A78
  8
0
 62
     0
 10
286.050027530026
 20
35.930273600696708
 30
0.0
 11
286.050027530026
 21
35.568391714072483
 31
0.0
  0
LINE
  5
A79
  8
0
 62
     0
 10
286.09002753002608
 20
35.930273600696708
 30
0.0
 11
286.09002753002608
 21
35.568391714072483
 31
0.0
  0
LINE
  5
A7A
  8
0
 62
     0
 10
285.90002753002608
 20
35.583391714072476
 30
0.0
 11
285.7500275300261
 21
35.583391714072476
 31
0.0
  0
LINE
  5
A7B
  8
0
 62
     0
 10
286.240027530026
 20
35.583391714072476
 30
0.0
 11
286.77502753002608
 21
35.583391714072476
 31
0.0
  0
LINE
  5
A7C
  8
0
 62
     0
 10
286.050027530026
 20
35.583391714072476
 30
0.0
 11
286.09002753002608
 21
35.583391714072476
 31
0.0
  0
SOLID
  5
A7D
  8
0
 62
     0
 10
285.90002753002608
 20
35.608391714072482
 30
0.0
 11
285.90002753002608
 21
35.558391714072478
 31
0.0
 12
286.050027530026
 22
35.583391714072476
 32
0.0
 13
286.050027530026
 23
35.583391714072476
 33
0.0
  0
SOLID
  5
A7E
  8
0
 62
     0
 10
286.240027530026
 20
35.608391714072482
 30
0.0
 11
286.240027530026
 21
35.558391714072478
 31
0.0
 12
286.09002753002608
 22
35.583391714072476
 32
0.0
 13
286.09002753002608
 23
35.583391714072476
 33
0.0
  0
TEXT
  5
A7F
  8
0
 62
     0
 10
286.42002753002612
 20
35.598391714072477
 30
0.0
 40
0.075
  1
0.0400
  0
POINT
  5
A80
  8
DEFPOINTS
 62
     0
 10
286.050027530026
 20
35.945273600696709
 30
0.0
  0
POINT
  5
A81
  8
DEFPOINTS
 62
     0
 10
286.09002753002608
 20
35.945273600696709
 30
0.0
  0
POINT
  5
A82
  8
DEFPOINTS
 62
     0
 10
286.09002753002608
 20
35.583391714072476
 30
0.0
  0
ENDBLK
  5
A3C
  8
0
  0
BLOCK
  8
0
  2
*D25
 70
     1
 10
0.0
 20
0.0
 30
0.0
  3
*D25
  1

  0
LINE
  5
ADF
  8
0
 62
     0
 10
286.050027530026
 20
35.930273600696708
 30
0.0
 11
286.050027530026
 21
35.551280899805292
 31
0.0
  0
LINE
  5
AE0
  8
0
 62
     0
 10
286.09002753002608
 20
35.930273600696708
 30
0.0
 11
286.09002753002608
 21
35.551280899805292
 31
0.0
  0
LINE
  5
AE1
  8
0
 62
     0
 10
285.90002753002608
 20
35.566280899805292
 30
0.0
 11
285.7500275300261
 21
35.566280899805292
 31
0.0
  0
LINE
  5
AE2
  8
0
 62
     0
 10
286.240027530026
 20
35.566280899805292
 30
0.0
 11
286.39002753002598
 21
35.566280899805292
 31
0.0
  0
LINE
  5
AE3
  8
0
 62
     0
 10
286.050027530026
 20
35.566280899805292
 30
0.0
 11
286.09002753002608
 21
35.566280899805292
 31
0.0
  0
SOLID
  5
AE4
  8
0
 62
     0
 10
285.90002753002608
 20
35.591280899805291
 30
0.0
 11
285.90002753002608
 21
35.541280899805287
 31
0.0
 12
286.050027530026
 22
35.566280899805292
 32
0.0
 13
286.050027530026
 23
35.566280899805292
 33
0.0
  0
SOLID
  5
AE5
  8
0
 62
     0
 10
286.240027530026
 20
35.591280899805291
 30
0.0
 11
286.240027530026
 21
35.541280899805287
 31
0.0
 12
286.09002753002608
 22
35.566280899805292
 32
0.0
 13
286.09002753002608
 23
35.566280899805292
 33
0.0
  0
TEXT
  5
AE6
  8
0
 62
     0
 10
285.90752753002602
 20
35.528780899805291
 30
0.0
 40
0.075
  1
0.0400
  0
POINT
  5
AE7
  8
DEFPOINTS
 62
     0
 10
286.050027530026
 20
35.945273600696709
 30
0.0
  0
POINT
  5
AE8
  8
DEFPOINTS
 62
     0
 10
286.09002753002608
 20
35.945273600696709
 30
0.0
  0
POINT
  5
AE9
  8
DEFPOINTS
 62
     0
 10
286.09002753002608
 20
35.566280899805292
 30
0.0
  0
ENDBLK
  5
A91
  8
0
  0
BLOCK
  8
0
  2
*D26
 70
     1
 10
0.0
 20
0.0
 30
0.0
  3
*D26
  1

  0
LINE
  5
C9C
  8
0
 62
     0
 10
286.050027530026
 20
35.930273600696708
 30
0.0
 11
286.050027530026
 21
35.286610299966469
 31
0.0
  0
LINE
  5
C9D
  8
0
 62
     0
 10
286.09002753002608
 20
35.930273600696708
 30
0.0
 11
286.09002753002608
 21
35.286610299966469
 31
0.0
  0
LINE
  5
C9E
  8
0
 62
     0
 10
286.240027530026
 20
35.30161029996647
 30
0.0
 11
286.39002753002598
 21
35.30161029996647
 31
0.0
  0
LINE
  5
C9F
  8
0
 62
     0
 10
285.90002753002608
 20
35.30161029996647
 30
0.0
 11
285.365027530026
 21
35.30161029996647
 31
0.0
  0
LINE
  5
CA0
  8
0
 62
     0
 10
286.09002753002608
 20
35.30161029996647
 30
0.0
 11
286.050027530026
 21
35.30161029996647
 31
0.0
  0
SOLID
  5
CA1
  8
0
 62
     0
 10
286.240027530026
 20
35.326610299966461
 30
0.0
 11
286.240027530026
 21
35.276610299966457
 31
0.0
 12
286.09002753002608
 22
35.30161029996647
 32
0.0
 13
286.09002753002608
 23
35.30161029996647
 33
0.0
  0
SOLID
  5
CA2
  8
0
 62
     0
 10
285.90002753002608
 20
35.326610299966461
 30
0.0
 11
285.90002753002608
 21
35.276610299966457
 31
0.0
 12
286.050027530026
 22
35.30161029996647
 32
0.0
 13
286.050027530026
 23
35.30161029996647
 33
0.0
  0
TEXT
  5
CDD
  8
0
 62
     0
 10
285.40800000000002
 20
35.236400000000003
 30
0.0
 40
0.075
  1
0.0400
  0
POINT
  5
CA4
  8
DEFPOINTS
 62
     0
 10
286.050027530026
 20
35.945273600696709
 30
0.0
  0
POINT
  5
CA5
  8
DEFPOINTS
 62
     0
 10
286.09002753002608
 20
35.945273600696709
 30
0.0
  0
POINT
  5
CA6
  8
DEFPOINTS
 62
     0
 10
286.09002753002608
 20
35.30161029996647
 30
0.0
  0
ENDBLK
  5
AF8
  8
0
  0
BLOCK
  8
0
  2
*D27
 70
     1
 10
0.0
 20
0.0
 30
0.0
  3
*D27
  1

  0
LINE
  5
CA7
  8
0
 62
     0
 10
286.09002753002608
 20
35.690273600696699
 30
0.0
 11
286.09002753002608
 21
35.14094642255624
 31
0.0
  0
LINE
  5
CA8
  8
0
 62
     0
 10
286.59002753002608
 20
35.690273600696699
 30
0.0
 11
286.59002753002608
 21
35.14094642255624
 31
0.0
  0
LINE
  5
CA9
  8
0
 62
     0
 10
286.240027530026
 20
35.155946422556241
 30
0.0
 11
286.44002753002621
 21
35.155946422556241
 31
0.0
  0
SOLID
  5
CAA
  8
0
 62
     0
 10
286.240027530026
 20
35.180946422556239
 30
0.0
 11
286.240027530026
 21
35.130946422556249
 31
0.0
 12
286.09002753002608
 22
35.155946422556241
 32
0.0
 13
286.09002753002608
 23
35.155946422556241
 33
0.0
  0
SOLID
  5
CAB
  8
0
 62
     0
 10
286.44002753002621
 20
35.180946422556239
 30
0.0
 11
286.44002753002621
 21
35.130946422556249
 31
0.0
 12
286.59002753002608
 22
35.155946422556241
 32
0.0
 13
286.59002753002608
 23
35.155946422556241
 33
0.0
  0
TEXT
  5
CDE
  8
0
 62
     0
 10
286.19
 20
35.090699999999998
 30
0.0
 40
0.075
  1
0.5000
  0
POINT
  5
CAD
  8
DEFPOINTS
 62
     0
 10
286.09002753002608
 20
35.7052736006967
 30
0.0
  0
POINT
  5
CAE
  8
DEFPOINTS
 62
     0
 10
286.59002753002608
 20
35.7052736006967
 30
0.0
  0
POINT
  5
CAF
  8
DEFPOINTS
 62
     0
 10
286.59002753002608
 20
35.155946422556241
 30
0.0
  0
ENDBLK
  5
B1D
  8
0
  0
BLOCK
  8
0
  2
*D28
 70
     1
 10
0.0
 20
0.0
 30
0.0
  3
*D28
  1

  0
LINE
  5
CB0
  8
0
 62
     0
 10
286.59002753002608
 20
35.690273600696699
 30
0.0
 11
286.59002753002608
 21
34.914209942245982
 31
0.0
  0
LINE
  5
CB1
  8
0
 62
     0
 10
286.8900275300262
 20
35.690273600696727
 30
0.0
 11
286.8900275300262
 21
34.914209942245982
 31
0.0
  0
LINE
  5
CB2
  8
0
 62
     0
 10
286.44002753002621
 20
34.929209942245983
 30
0.0
 11
286.29002753002601
 21
34.929209942245983
 31
0.0
  0
LINE
  5
CB3
  8
0
 62
     0
 10
287.04002753002612
 20
34.929209942245983
 30
0.0
 11
287.19002753002621
 21
34.929209942245983
 31
0.0
  0
LINE
  5
CB4
  8
0
 62
     0
 10
286.59002753002608
 20
34.929209942245983
 30
0.0
 11
286.8900275300262
 21
34.929209942245983
 31
0.0
  0
SOLID
  5
CB5
  8
0
 62
     0
 10
286.44002753002621
 20
34.954209942245981
 30
0.0
 11
286.44002753002621
 21
34.904209942245977
 31
0.0
 12
286.59002753002608
 22
34.929209942245983
 32
0.0
 13
286.59002753002608
 23
34.929209942245983
 33
0.0
  0
SOLID
  5
CB6
  8
0
 62
     0
 10
287.04002753002612
 20
34.954209942245981
 30
0.0
 11
287.04002753002612
 21
34.904209942245977
 31
0.0
 12
286.8900275300262
 22
34.929209942245983
 32
0.0
 13
286.8900275300262
 23
34.929209942245983
 33
0.0
  0
TEXT
  5
CDF
  8
0
 62
     0
 10
286.58999999999997
 20
34.863999999999997
 30
0.0
 40
0.075
  1
0.3000
  0
POINT
  5
CB8
  8
DEFPOINTS
 62
     0
 10
286.59002753002608
 20
35.7052736006967
 30
0.0
  0
POINT
  5
CB9
  8
DEFPOINTS
 62
     0
 10
286.8900275300262
 20
35.705273600696728
 30
0.0
  0
POINT
  5
CBA
  8
DEFPOINTS
 62
     0
 10
286.8900275300262
 20
34.929209942245983
 30
0.0
  0
ENDBLK
  5
B35
  8
0
  0
BLOCK
  8
0
  2
*D29
 70
     1
 10
0.0
 20
0.0
 30
0.0
  3
*D29
  1

  0
LINE
  5
CBB
  8
0
 62
     0
 10
286.8900275300262
 20
35.656107866915299
 30
0.0
 11
286.8900275300262
 21
35.1129796848385
 31
0.0
  0
LINE
  5
CBC
  8
0
 62
     0
 10
287.01002753002598
 20
35.656107866915271
 30
0.0
 11
287.01002753002598
 21
35.1129796848385
 31
0.0
  0
LINE
  5
CBD
  8
0
 62
     0
 10
286.74002753002623
 20
35.1279796848385
 30
0.0
 11
286.59002753002619
 21
35.1279796848385
 31
0.0
  0
LINE
  5
CBE
  8
0
 62
     0
 10
287.16002753002601
 20
35.1279796848385
 30
0.0
 11
287.68252753002599
 21
35.1279796848385
 31
0.0
  0
LINE
  5
CBF
  8
0
 62
     0
 10
286.8900275300262
 20
35.1279796848385
 30
0.0
 11
287.01002753002598
 21
35.1279796848385
 31
0.0
  0
SOLID
  5
CC0
  8
0
 62
     0
 10
286.74002753002623
 20
35.152979684838492
 30
0.0
 11
286.74002753002623
 21
35.102979684838502
 31
0.0
 12
286.8900275300262
 22
35.1279796848385
 32
0.0
 13
286.8900275300262
 23
35.1279796848385
 33
0.0
  0
SOLID
  5
CC1
  8
0
 62
     0
 10
287.16002753002601
 20
35.152979684838492
 30
0.0
 11
287.16002753002601
 21
35.102979684838502
 31
0.0
 12
287.01002753002598
 22
35.1279796848385
 32
0.0
 13
287.01002753002598
 23
35.1279796848385
 33
0.0
  0
TEXT
  5
CE0
  8
0
 62
     0
 10
287.346
 20
35.0627
 30
0.0
 40
0.075
  1
0.1200
  0
POINT
  5
CC3
  8
DEFPOINTS
 62
     0
 10
286.8900275300262
 20
35.6711078669153
 30
0.0
  0
POINT
  5
CC4
  8
DEFPOINTS
 62
     0
 10
287.01002753002598
 20
35.671107866915271
 30
0.0
  0
POINT
  5
CC5
  8
DEFPOINTS
 62
     0
 10
287.01002753002598
 20
35.1279796848385
 30
0.0
  0
ENDBLK
  5
B65
  8
0
  0
BLOCK
  8
0
  2
*D30
 70
     1
 10
0.0
 20
0.0
 30
0.0
  3
*D30
  1

  0
LINE
  5
CC6
  8
0
 62
     0
 10
287.01002753002598
 20
35.930273600696708
 30
0.0
 11
287.01002753002598
 21
35.262056991782892
 31
0.0
  0
LINE
  5
CC7
  8
0
 62
     0
 10
287.050027530026
 20
35.930273600696708
 30
0.0
 11
287.050027530026
 21
35.262056991782892
 31
0.0
  0
LINE
  5
CC8
  8
0
 62
     0
 10
286.86002753002612
 20
35.277056991782892
 30
0.0
 11
286.71002753002608
 21
35.277056991782892
 31
0.0
  0
LINE
  5
CC9
  8
0
 62
     0
 10
287.20002753002598
 20
35.277056991782892
 30
0.0
 11
287.84002753002608
 21
35.277056991782892
 31
0.0
  0
LINE
  5
CCA
  8
0
 62
     0
 10
287.01002753002598
 20
35.277056991782892
 30
0.0
 11
287.050027530026
 21
35.277056991782892
 31
0.0
  0
SOLID
  5
CCB
  8
0
 62
     0
 10
286.86002753002612
 20
35.302056991782891
 30
0.0
 11
286.86002753002612
 21
35.252056991782887
 31
0.0
 12
287.01002753002598
 22
35.277056991782892
 32
0.0
 13
287.01002753002598
 23
35.277056991782892
 33
0.0
  0
SOLID
  5
CCC
  8
0
 62
     0
 10
287.20002753002598
 20
35.302056991782891
 30
0.0
 11
287.20002753002598
 21
35.252056991782887
 31
0.0
 12
287.050027530026
 22
35.277056991782892
 32
0.0
 13
287.050027530026
 23
35.277056991782892
 33
0.0
  0
TEXT
  5
CE1
  8
0
 62
     0
 10
287.49799999999999
 20
35.211799999999997
 30
0.0
 40
0.075
  1
0.0400
  0
POINT
  5
CCE
  8
DEFPOINTS
 62
     0
 10
287.01002753002598
 20
35.945273600696709
 30
0.0
  0
POINT
  5
CCF
  8
DEFPOINTS
 62
     0
 10
287.050027530026
 20
35.945273600696709
 30
0.0
  0
POINT
  5
CD0
  8
DEFPOINTS
 62
     0
 10
287.050027530026
 20
35.277056991782892
 30
0.0
  0
ENDBLK
  5
B8B
  8
0
  0
BLOCK
  8
0
  2
*D31
 70
     1
 10
0.0
 20
0.0
 30
0.0
  3
*D31
  1

  0
LINE
  5
CD1
  8
0
 62
     0
 10
286.86461416064941
 20
35.555302947899108
 30
0.0
 11
285.96607551460551
 21
35.555302947899108
 31
0.0
  0
LINE
  5
CD2
  8
0
 62
     0
 10
286.861647125182
 20
35.705273600696479
 30
0.0
 11
285.96607551460551
 21
35.705273600696479
 31
0.0
  0
LINE
  5
CD3
  8
0
 62
     0
 10
285.98107551460549
 20
35.405302947899109
 30
0.0
 11
285.98107551460549
 21
35.255302947899111
 31
0.0
  0
LINE
  5
CD4
  8
0
 62
     0
 10
285.98107551460549
 20
35.855273600696471
 30
0.0
 11
285.98107551460549
 21
36.005273600696469
 31
0.0
  0
LINE
  5
CD5
  8
0
 62
     0
 10
285.98107551460549
 20
35.555302947899108
 30
0.0
 11
285.98107551460549
 21
35.705273600696479
 31
0.0
  0
SOLID
  5
CD6
  8
0
 62
     0
 10
285.95607551460552
 20
35.405302947899109
 30
0.0
 11
286.0060755146053
 21
35.405302947899109
 31
0.0
 12
285.98107551460549
 22
35.555302947899108
 32
0.0
 13
285.98107551460549
 23
35.555302947899108
 33
0.0
  0
SOLID
  5
CD7
  8
0
 62
     0
 10
285.95607551460552
 20
35.855273600696471
 30
0.0
 11
286.0060755146053
 21
35.855273600696471
 31
0.0
 12
285.98107551460549
 22
35.705273600696479
 32
0.0
 13
285.98107551460549
 23
35.705273600696479
 33
0.0
  0
TEXT
  5
CE2
  8
0
 62
     0
 10
285.65899999999999
 20
35.497500000000002
 30
0.0
 40
0.075
  1
0.1500
  0
POINT
  5
CD9
  8
DEFPOINTS
 62
     0
 10
286.8796141606494
 20
35.555302947899108
 30
0.0
  0
POINT
  5
CDA
  8
DEFPOINTS
 62
     0
 10
286.87664712518199
 20
35.705273600696479
 30
0.0
  0
POINT
  5
CDB
  8
DEFPOINTS
 62
     0
 10
285.98107551460549
 20
35.705273600696479
 30
0.0
  0
ENDBLK
  5
BFE
  8
0
  0
BLOCK
  8
0
  2
*U32
 70
     1
 10
0.0
 20
0.0
 30
0.0
  3
*U32
  1

  0
POLYLINE
  5
13DD
  8
0
 62
    10
 66
     1
 10
0.0
 20
0.0
 30
-1.5
  0
VERTEX
  5
1B9F
  8
0
 62
    10
 10
-1.5
 20
-1.5
 30
-1.5
  0
VERTEX
  5
1BA0
  8
0
 62
    10
 10
-1.5
 20
1.5
 30
-1.5
  0
VERTEX
  5
1BA1
  8
0
 62
    10
 10
1.5
 20
1.5
 30
-1.5
  0
VERTEX
  5
1BA2
  8
0
 62
    10
 10
1.5
 20
-1.5
 30
-1.5
  0
VERTEX
  5
1BA3
  8
0
 62
    10
 10
-1.5
 20
-1.5
 30
-1.5
  0
SEQEND
  5
1BA4
  8
0
 62
    10
  0
POLYLINE
  5
13DE
  8
0
 62
     4
 66
     1
 10
0.0
 20
0.0
 30
-1.5
  0
VERTEX
  5
1BA5
  8
0
 62
     4
 10
-1.5
 20
1.5
 30
-1.5
  0
VERTEX
  5
1BA6
  8
0
 62
     4
 10
-1.5
 20
-1.5
 30
-1.5
  0
VERTEX
  5
1BA7
  8
0
 62
     4
 10
1.5
 20
-1.5
 30
-1.5
  0
VERTEX
  5
1BA8
  8
0
 62
     4
 10
1.5
 20
1.5
 30
-1.5
  0
VERTEX
  5
1BA9
  8
0
 62
     4
 10
-1.5
 20
1.5
 30
-1.5
  0
SEQEND
  5
1BAA
  8
0
 62
     4
  0
INSERT
  5
13DF
  8
0
  6
CONTINUOUS
 62
   133
  2
*U57
 10
0.0
 20
0.0
 30
0.0
1001
ACAD
1002
{
1000
R14_HATCH_DATA
1000
13DF
1011
1.0
1021
0.0
1031
0.0
1021
0.0
1031
0.0
1011
0.0
1021
0.0
1031
0.0
1021
1.0
1031
0.0
1011
0.0
1021
0.0
1031
0.0
1021
0.0
1031
1.0
1040
0.0
1010
0.0
1020
0.0
1030
1.0
1000
SOLID
1070
     1
1070
     0
1071
        2
1071
        1
1071
        3
1070
     1
1040
0.0
1040
0.0
1040
7.7500053640320274
1040
-0.1999901374336161
1070
     1
1040
7.7500053640320274
1040
-0.1999901374336161
1040
7.7500053640320274
1040
0.1999901374335877
1070
     1
1040
7.7500053640320274
1040
0.1999901374336161
1040
0.0
1040
0.0
1071
        0
1071
       33
1071
        2
1070
     1
1040
7.7500053640320274
1040
5.0000188823323981
1040
7.7500053640320274
1040
-4.9999810757581136
1070
     1
1040
7.7500053640320274
1040
0.0
1040
18.5
1040
0.0
1071
        0
1070
     0
1070
     1
1071
        1
1040
0.0
1040
0.0
1040
0.0
1002
}
  0
LINE
  5
13E0
  8
0
 62
   250
 39
0.0002
 10
0.0
 20
0.0
 30
0.0
 11
7.7500053640320274
 21
0.1999901374336161
 31
0.0
  0
LINE
  5
13E1
  8
0
 62
   250
 39
0.0002
 10
0.0
 20
0.0
 30
0.0
 11
7.7500053640320274
 21
-0.1999901374336161
 31
0.0
  0
INSERT
  5
13E2
  8
0
  6
CONTINUOUS
 62
     4
  2
*U58
 10
0.0
 20
0.0
 30
0.0
1001
ACAD
1002
{
1000
R14_HATCH_DATA
1000
13E2
1011
1.0
1021
0.0
1031
0.0
1021
0.0
1031
0.0
1011
0.0
1021
0.0
1031
0.0
1021
1.0
1031
0.0
1011
0.0
1021
0.0
1031
0.0
1021
0.0
1031
1.0
1040
0.0
1010
0.0
1020
0.0
1030
1.0
1000
SOLID
1070
     1
1070
     0
1071
        1
1071
        1
1071
        4
1070
     1
1040
-1.5
1040
-1.5
1040
-1.5
1040
1.5
1070
     1
1040
-1.5
1040
1.5
1040
1.5
1040
1.5
1070
     1
1040
1.5
1040
1.5
1040
1.5
1040
-1.5
1070
     1
1040
1.5
1040
-1.5
1040
-1.5
1040
-1.5
1071
        0
1070
     0
1070
     1
1071
        1
1040
0.0
1040
0.0
1040
0.0
1002
}
  0
INSERT
  5
13E3
  8
0
  6
CONTINUOUS
 62
    12
  2
*U59
 10
0.0
 20
0.0
 30
0.0
1001
ACAD
1002
{
1000
R14_HATCH_DATA
1000
13E3
1011
1.0
1021
0.0
1031
0.0
1021
0.0
1031
0.0
1011
0.0
1021
0.0
1031
0.0
1021
1.0
1031
0.0
1011
0.0
1021
0.0
1031
0.0
1021
0.0
1031
1.0
1040
0.0
1010
0.0
1020
0.0
1030
1.0
1000
SOLID
1070
     1
1070
     0
1071
        1
1071
        1
1071
        6
1070
     1
1040
11.204505025152359
1040
0.0
1040
11.204505025152359
1040
-3.4002521523742351
1070
     1
1040
11.204505025152359
1040
-3.4002521523742351
1040
17.000038288258029
1040
-3.4002521523742351
1070
     1
1040
17.000038288258029
1040
-3.4002521523742351
1040
17.000038288258029
1040
-4.999970053555443
1070
     1
1040
17.000038288258029
1040
-4.999970053555443
1040
18.5
1040
-4.9999810967128431
1070
     1
1040
18.5
1040
-4.9999810967128431
1040
18.5
1040
0.0
1070
     1
1040
18.5
1040
0.0
1040
11.204505025152359
1040
0.0
1071
        0
1070
     0
1070
     1
1071
        1
1040
0.0
1040
0.0
1040
0.0
1002
}
  0
INSERT
  5
13E4
  8
0
  6
CONTINUOUS
 62
    10
  2
*U60
 10
0.0
 20
0.0
 30
0.0
1001
ACAD
1002
{
1000
R14_HATCH_DATA
1000
13E4
1011
1.0
1021
0.0
1031
0.0
1021
0.0
1031
0.0
1011
0.0
1021
0.0
1031
0.0
1021
1.0
1031
0.0
1011
0.0
1021
0.0
1031
0.0
1021
0.0
1031
1.0
1040
0.0
1010
0.0
1020
0.0
1030
1.0
1000
SOLID
1070
     1
1070
     0
1071
        1
1071
        1
1071
        6
1070
     1
1040
11.204505025152359
1040
3.4002521523742351
1040
11.204505025152359
1040
0.0
1070
     1
1040
11.204505025152359
1040
0.0
1040
18.5
1040
0.0
1070
     1
1040
18.5
1040
0.0
1040
18.5
1040
5.000018903287156
1070
     1
1040
18.5
1040
5.000018903287156
1040
17.000028595028159
1040
5.000018903287156
1070
     1
1040
17.000028595028159
1040
5.000018903287156
1040
17.000028595028159
1040
3.4002521523742639
1070
     1
1040
17.000028595028159
1040
3.4002521523742351
1040
11.204505025152359
1040
3.4002521523742351
1071
        0
1070
     0
1070
     1
1071
        1
1040
0.0
1040
0.0
1040
0.0
1002
}
  0
LINE
  5
13E5
  8
0
 62
   250
 10
7.7500053640320274
 20
5.0000188823323981
 30
0.0
 11
7.7500053640320274
 21
-4.999981075758142
 31
0.0
  0
INSERT
  5
13E6
  8
0
  6
CONTINUOUS
 62
    14
  2
*U61
 10
0.0
 20
0.0
 30
0.0
1001
ACAD
1002
{
1000
R14_HATCH_DATA
1000
13E6
1011
1.0
1021
0.0
1031
0.0
1021
0.0
1031
0.0
1011
0.0
1021
0.0
1031
0.0
1021
1.0
1031
0.0
1011
0.0
1021
0.0
1031
0.0
1021
0.0
1031
1.0
1040
0.0
1010
0.0
1020
0.0
1030
1.0
1000
SOLID
1070
     1
1070
     0
1071
        1
1071
        1
1071
        4
1070
     1
1040
7.7500053640320274
1040
0.0
1040
11.204505025152359
1040
0.0
1070
     1
1040
11.204505025152359
1040
0.0
1040
11.204505025152359
1040
-3.4002521523742351
1070
     1
1040
11.204505025152359
1040
-3.4002521523742351
1040
7.7500053640320274
1040
-5.0000188823323688
1070
     1
1040
7.7500053640320274
1040
-5.0000188823323981
1040
7.7500053640320274
1040
0.0
1071
        0
1070
     0
1070
     1
1071
        1
1040
0.0
1040
0.0
1040
0.0
1002
}
  0
INSERT
  5
13E7
  8
0
  6
CONTINUOUS
 62
    22
  2
*U62
 10
0.0
 20
0.0
 30
0.0
1001
ACAD
1002
{
1000
R14_HATCH_DATA
1000
13E7
1011
1.0
1021
0.0
1031
0.0
1021
0.0
1031
0.0
1011
0.0
1021
0.0
1031
0.0
1021
1.0
1031
0.0
1011
0.0
1021
0.0
1031
0.0
1021
0.0
1031
1.0
1040
0.0
1010
0.0
1020
0.0
1030
1.0
1000
SOLID
1070
     1
1070
     0
1071
        1
1071
        1
1071
        4
1070
     1
1040
7.7500053640320274
1040
0.0
1040
7.7500053640320274
1040
5.0000188823323981
1070
     1
1040
7.7500053640320274
1040
5.0000188823323981
1040
11.204505025152359
1040
3.4002521523742639
1070
     1
1040
11.204505025152359
1040
3.4002521523742351
1040
11.204505025152359
1040
0.0
1070
     1
1040
11.204505025152359
1040
0.0
1040
7.7500053640320274
1040
0.0
1071
        0
1070
     0
1070
     1
1071
        1
1040
0.0
1040
0.0
1040
0.0
1002
}
  0
ENDBLK
  5
13DC
  8
0
  0
BLOCK
  8
0
  2
*U33
 70
     1
 10
0.0
 20
0.0
 30
0.0
  3
*U33
  1

  0
LINE
  5
13EB
  8
0
 62
   250
 39
0.01
 10
0.0
 20
0.0
 30
0.0
 11
4.0862944419833829
 21
3.6706951206524958
 31
0.0
  0
INSERT
  5
13EC
  8
0
  6
CONTINUOUS
 62
    14
  2
*U63
 10
0.0
 20
0.0
 30
0.0
1001
ACAD
1002
{
1000
R14_HATCH_DATA
1000
13EC
1011
1.0
1021
0.0
1031
0.0
1021
0.0
1031
0.0
1011
0.0
1021
0.0
1031
0.0
1021
1.0
1031
0.0
1011
0.0
1021
0.0
1031
0.0
1021
0.0
1031
1.0
1040
0.0
1010
0.0
1020
0.0
1030
1.0
1000
SOLID
1070
     1
1070
     0
1071
        1
1071
        1
1071
        3
1070
     3
1040
12.732493259273721
1040
12.73249325927371
1040
-3.509466030885604
1040
3.5094660308856032
1040
0.9207951268990203
1040
3.8941565331446721
1040
4.7123889803846897
1070
     0
1070
     1
1040
9.5009940400166073
1040
9.5009940400166073
1040
8.8222356798165649
1040
8.8222356798165578
1070
     3
1040
11.18357669303253
1040
11.220576884095181
1040
-2.387441463007915
1040
2.9368829533683818
1040
0.888109948108941
1040
1.6691094881484221
1040
2.9682647159841928
1070
     1
1071
        0
1070
     0
1070
     1
1071
        1
1040
0.0
1040
0.0
1040
0.0
1002
}
  0
INSERT
  5
13ED
  8
0
  6
CONTINUOUS
 62
    12
  2
*U64
 10
0.0
 20
0.0
 30
0.0
1001
ACAD
1002
{
1000
R14_HATCH_DATA
1000
13ED
1011
1.0
1021
0.0
1031
0.0
1021
0.0
1031
0.0
1011
0.0
1021
0.0
1031
0.0
1021
1.0
1031
0.0
1011
0.0
1021
0.0
1031
0.0
1021
0.0
1031
1.0
1040
0.0
1010
0.0
1020
0.0
1030
1.0
1000
SOLID
1070
     1
1070
     0
1071
        1
1071
        1
1071
        3
1070
     3
1040
6.752665742288996
1040
6.752665742288996
1040
3.5331082466684052
1040
-3.533108246668399
1040
0.8156215388739337
1040
5.5591787388102061
1040
7.8539816339744828
1070
     0
1070
     1
1040
3.8709865571331288
1040
3.8709865571331359
1040
6.218177794586345
1040
6.218177794586353
1070
     3
1040
8.661465634085161
1040
8.6614656340851752
1040
-2.6468557151169478
1040
2.6468557151169478
1040
0.9230906790817908
1040
1.570796326794897
1040
3.1415926535898029
1070
     1
1071
        0
1070
     0
1070
     1
1071
        1
1040
0.0
1040
0.0
1040
0.0
1002
}
  0
INSERT
  5
13EE
  8
0
  6
CONTINUOUS
 62
    14
  2
*U65
 10
0.0
 20
0.0
 30
0.0
1001
ACAD
1002
{
1000
R14_HATCH_DATA
1000
13EE
1011
1.0
1021
0.0
1031
0.0
1021
0.0
1031
0.0
1011
0.0
1021
0.0
1031
0.0
1021
1.0
1031
0.0
1011
0.0
1021
0.0
1031
0.0
1021
0.0
1031
1.0
1040
0.0
1010
0.0
1020
0.0
1030
1.0
1000
SOLID
1070
     1
1070
     0
1071
        1
1071
        1
1071
        4
1070
     1
1040
6.218177794586345
1040
6.2181777945863379
1040
8.8222356798165649
1040
8.8222356798165578
1070
     3
1040
11.18357669303253
1040
11.220576884095181
1040
-2.387441463007915
1040
2.9368829533683818
1040
0.888109948108941
1040
1.6691094881484221
1040
2.9682647159841928
1070
     1
1070
     1
1040
13.085418729976791
1040
7.9620276993582593
1040
11.30832134920211
1040
6.0146099189682181
1070
     3
1040
8.661465634085161
1040
8.6614656340851752
1040
-2.6468557151169478
1040
2.6468557151169478
1040
0.9230906790817908
1040
3.141592653589782
1040
4.7123889803846879
1070
     0
1071
        0
1070
     0
1070
     1
1071
        1
1040
0.0
1040
0.0
1040
0.0
1002
}
  0
INSERT
  5
13EF
  8
0
  6
CONTINUOUS
 62
    16
  2
*U66
 10
0.0
 20
0.0
 30
0.0
1001
ACAD
1002
{
1000
R14_HATCH_DATA
1000
13EF
1011
1.0
1021
0.0
1031
0.0
1021
0.0
1031
0.0
1011
0.0
1021
0.0
1031
0.0
1021
1.0
1031
0.0
1011
0.0
1021
0.0
1031
0.0
1021
0.0
1031
1.0
1040
0.0
1010
0.0
1020
0.0
1030
1.0
1000
SOLID
1070
     1
1070
     0
1071
        1
1071
        1
1071
        3
1070
     3
1040
13.08147545195113
1040
13.081475451951119
1040
3.5355339059327329
1040
-3.5355339059327391
1040
0.8143478515666137
1040
0.0
1040
1.5707963267948959
1070
     0
1070
     1
1040
10.20232101151389
1040
10.20232101151389
1040
9.5009940400166073
1040
9.5009940400166073
1070
     3
1040
12.732493259273699
1040
12.732493259273721
1040
-3.7694970525931439
1040
3.3228208538427091
1040
0.9091538774903961
1040
1.5136000097920581
1040
3.1806267759860058
1070
     1
1071
        0
1070
     0
1070
     1
1071
        1
1040
0.0
1040
0.0
1040
0.0
1002
}
  0
INSERT
  5
13F0
  8
0
  6
CONTINUOUS
 62
     1
  2
*U67
 10
0.0
 20
0.0
 30
0.0
1001
ACAD
1002
{
1000
R14_HATCH_DATA
1000
13F0
1011
1.0
1021
0.0
1031
0.0
1021
0.0
1031
0.0
1011
0.0
1021
0.0
1031
0.0
1021
1.0
1031
0.0
1011
0.0
1021
0.0
1031
0.0
1021
0.0
1031
1.0
1040
0.0
1010
0.0
1020
0.0
1030
1.0
1000
SOLID
1070
     1
1070
     0
1071
        1
1071
        1
1071
        1
1070
     3
1040
13.08147545195113
1040
13.081475451951119
1040
-3.5355339059327351
1040
3.5355339059327369
1040
0.814347851566614
1040
0.0
1040
6.2831853071795862
1070
     1
1071
        0
1070
     0
1070
     1
1071
        1
1040
0.0
1040
0.0
1040
0.0
1002
}
  0
INSERT
  5
13F1
  8
0
  6
CONTINUOUS
 62
     4
  2
*U68
 10
0.0
 20
0.0
 30
0.0
1001
ACAD
1002
{
1000
R14_HATCH_DATA
1000
13F1
1011
1.0
1021
0.0
1031
0.0
1021
0.0
1031
0.0
1011
0.0
1021
0.0
1031
0.0
1021
1.0
1031
0.0
1011
0.0
1021
0.0
1031
0.0
1021
0.0
1031
1.0
1040
-1.0
1010
0.0
1020
0.0
1030
1.0
1000
SOLID
1070
     1
1070
     0
1071
        1
1071
        1
1071
        4
1070
     1
1040
-1.5
1040
-1.5
1040
1.5
1040
-1.5
1070
     1
1040
1.5
1040
-1.5
1040
1.5
1040
1.5
1070
     1
1040
1.5
1040
1.5
1040
-1.5
1040
1.5
1070
     1
1040
-1.5
1040
1.5
1040
-1.5
1040
-1.5
1071
        0
1070
     0
1070
     1
1071
        1
1040
0.0
1040
0.0
1040
-1.0
1002
}
  0
INSERT
  5
13F2
  8
0
  6
CONTINUOUS
 62
   142
  2
*U69
 10
0.0
 20
0.0
 30
0.0
1001
ACAD
1002
{
1000
R14_HATCH_DATA
1000
13F2
1011
1.0
1021
0.0
1031
0.0
1021
0.0
1031
0.0
1011
0.0
1021
0.0
1031
0.0
1021
1.0
1031
0.0
1011
0.0
1021
0.0
1031
0.0
1021
0.0
1031
1.0
1040
0.0
1010
0.0
1020
0.0
1030
1.0
1000
SOLID
1070
     1
1070
     0
1071
        1
1071
        1
1071
        3
1070
     1
1040
0.0
1040
0.0
1040
3.6682976931065729
1040
4.0836255755877877
1070
     1
1040
3.6682976931065729
1040
4.0836255755877877
1040
4.0862944419833829
1040
3.6706951206524958
1070
     1
1040
4.0862944419833829
1040
3.6706951206524958
1040
0.0
1040
0.0
1071
        0
1070
     0
1070
     1
1071
        1
1040
0.0
1040
0.0
1040
0.0
1002
}
  0
LINE
  5
13F3
  8
0
 62
   250
 10
0.0
 20
0.0
 30
0.0
 11
3.6682976931065729
 21
4.0836255755877877
 31
0.0
  0
POLYLINE
  5
13F4
  8
0
 62
   250
 66
     1
 10
0.0
 20
0.0
 30
0.0
  0
VERTEX
  5
1D9A
  8
0
 62
   250
 10
-1.5
 20
-1.5
 30
0.0
  0
VERTEX
  5
1D9B
  8
0
 62
   250
 10
1.5
 20
-1.5
 30
0.0
  0
VERTEX
  5
1D9C
  8
0
 62
   250
 10
1.5
 20
1.5
 30
0.0
  0
VERTEX
  5
1D9D
  8
0
 62
   250
 10
-1.5
 20
1.5
 30
0.0
  0
VERTEX
  5
1D9E
  8
0
 62
   250
 10
-1.5
 20
-1.5
 30
0.0
  0
SEQEND
  5
1D9F
  8
0
 62
   250
  0
INSERT
  5
13F5
  8
0
  6
CONTINUOUS
 62
    14
  2
*U70
 10
0.0
 20
0.0
 30
0.0
1001
ACAD
1002
{
1000
R14_HATCH_DATA
1000
13F5
1011
1.0
1021
0.0
1031
0.0
1021
0.0
1031
0.0
1011
0.0
1021
0.0
1031
0.0
1021
1.0
1031
0.0
1011
0.0
1021
0.0
1031
0.0
1021
0.0
1031
1.0
1040
0.0
1010
0.0
1020
0.0
1030
1.0
1000
SOLID
1070
     1
1070
     0
1071
        1
1071
        1
1071
        3
1070
     3
1040
13.08147545195113
1040
13.081475451951119
1040
-3.5355339059327351
1040
3.5355339059327382
1040
0.8143478515666135
1040
0.0
1040
1.5707963267948959
1070
     1
1070
     1
1040
10.20232101151389
1040
10.20232101151389
1040
9.5009940400166073
1040
9.5009940400166073
1070
     3
1040
12.732493259273721
1040
12.73249325927371
1040
-3.3228208538427548
1040
3.7694970525930822
1040
0.9091538774903996
1040
4.6551926633818619
1040
6.3222194295758181
1070
     0
1071
        0
1070
     0
1070
     1
1071
        1
1040
0.0
1040
0.0
1040
0.0
1002
}
  0
INSERT
  5
13F6
  8
0
  6
CONTINUOUS
 62
    12
  2
*U71
 10
0.0
 20
0.0
 30
0.0
1001
ACAD
1002
{
1000
R14_HATCH_DATA
1000
13F6
1011
1.0
1021
0.0
1031
0.0
1021
0.0
1031
0.0
1011
0.0
1021
0.0
1031
0.0
1021
1.0
1031
0.0
1011
0.0
1021
0.0
1031
0.0
1021
0.0
1031
1.0
1040
0.0
1010
0.0
1020
0.0
1030
1.0
1000
SOLID
1070
     1
1070
     0
1071
        1
1071
        1
1071
        4
1070
     3
1040
8.661465634085161
1040
8.6614656340851752
1040
-2.6468557151169261
1040
2.6468557151169692
1040
0.9230906790817904
1040
4.7123889803846808
1040
6.2831853071795862
1070
     0
1070
     1
1040
6.0146099189682181
1040
11.30832134920211
1040
7.9620276993582593
1040
13.085418729976791
1070
     3
1040
11.220576884095181
1040
11.18357669303253
1040
-2.9368829533683871
1040
2.3874414630079039
1040
0.8881099481089412
1040
6.456513244785179
1040
7.755668472620953
1070
     1
1070
     1
1040
8.8222356798165649
1040
8.8222356798165578
1040
6.218177794586345
1040
6.2181777945863379
1071
        0
1070
     0
1070
     1
1071
        1
1040
0.0
1040
0.0
1040
0.0
1002
}
  0
INSERT
  5
13F7
  8
0
  6
CONTINUOUS
 62
    10
  2
*U72
 10
0.0
 20
0.0
 30
0.0
1001
ACAD
1002
{
1000
R14_HATCH_DATA
1000
13F7
1011
1.0
1021
0.0
1031
0.0
1021
0.0
1031
0.0
1011
0.0
1021
0.0
1031
0.0
1021
1.0
1031
0.0
1011
0.0
1021
0.0
1031
0.0
1021
0.0
1031
1.0
1040
0.0
1010
0.0
1020
0.0
1030
1.0
1000
SOLID
1070
     1
1070
     0
1071
        1
1071
        1
1071
        3
1070
     1
1040
3.8709865571331288
1040
3.8709865571331359
1040
6.218177794586345
1040
6.218177794586353
1070
     3
1040
8.661465634085161
1040
8.6614656340851752
1040
-2.6468557151169261
1040
2.6468557151169692
1040
0.9230906790817904
1040
4.7123889803846808
1040
6.2831853071795862
1070
     0
1070
     3
1040
6.752665742288996
1040
6.752665742288996
1040
-3.5331082466684021
1040
3.533108246668403
1040
0.8156215388739339
1040
5.5591787388102061
1040
7.8539816339744828
1070
     1
1071
        0
1070
     0
1070
     1
1071
        1
1040
0.0
1040
0.0
1040
0.0
1002
}
  0
INSERT
  5
13F8
  8
0
  6
CONTINUOUS
 62
    12
  2
*U73
 10
0.0
 20
0.0
 30
0.0
1001
ACAD
1002
{
1000
R14_HATCH_DATA
1000
13F8
1011
1.0
1021
0.0
1031
0.0
1021
0.0
1031
0.0
1011
0.0
1021
0.0
1031
0.0
1021
1.0
1031
0.0
1011
0.0
1021
0.0
1031
0.0
1021
0.0
1031
1.0
1040
0.0
1010
0.0
1020
0.0
1030
1.0
1000
SOLID
1070
     1
1070
     0
1071
        1
1071
        1
1071
        3
1070
     3
1040
12.732493259273721
1040
12.732493259273721
1040
3.5094660308855969
1040
-3.5094660308856098
1040
0.9207951268990203
1040
3.8941565331446721
1040
4.7123889803846897
1070
     1
1070
     1
1040
9.5009940400166073
1040
9.5009940400166073
1040
8.8222356798165649
1040
8.8222356798165578
1070
     3
1040
11.220576884095181
1040
11.18357669303253
1040
-2.9368829533683871
1040
2.3874414630079039
1040
0.8881099481089412
1040
-1.472483165441367
1040
-0.1733279376055938
1070
     0
1071
        0
1070
     0
1070
     1
1071
        1
1040
0.0
1040
0.0
1040
0.0
1002
}
  0
ENDBLK
  5
13EA
  8
0
  0
BLOCK
  8
0
  2
*D34
 70
     1
 10
0.0
 20
0.0
 30
0.0
  3
*D34
  1

  0
LINE
  5
152E
  8
0
 62
     0
 10
287.06002753002599
 20
37.155273600696709
 30
0.0
 11
287.65810216001557
 21
37.155273600696709
 31
0.0
  0
LINE
  5
152F
  8
0
 62
     0
 10
286.74706049455779
 20
35.555302947899108
 30
0.0
 11
287.65810216001557
 21
35.555302947899108
 31
0.0
  0
LINE
  5
1530
  8
0
 62
     0
 10
287.64810216001558
 20
37.055273600696708
 30
0.0
 11
287.64810216001558
 21
35.655302947899109
 31
0.0
  0
SOLID
  5
1531
  8
0
 62
     0
 10
287.63143549334887
 20
37.055273600696708
 30
0.0
 11
287.66476882668218
 21
37.055273600696708
 31
0.0
 12
287.64810216001558
 22
37.155273600696709
 32
0.0
 13
287.64810216001558
 23
37.155273600696709
 33
0.0
  0
SOLID
  5
1532
  8
0
 62
     0
 10
287.63143549334887
 20
35.655302947899109
 30
0.0
 11
287.66476882668218
 21
35.655302947899109
 31
0.0
 12
287.64810216001558
 22
35.555302947899108
 32
0.0
 13
287.64810216001558
 23
35.555302947899108
 33
0.0
  0
INSERT
  5
1533
  8
0
  2
*U74
 10
0.0
 20
0.0
 30
0.0
  0
POINT
  5
1534
  8
DEFPOINTS
 62
     0
 10
287.050027530026
 20
37.155273600696709
 30
0.0
  0
POINT
  5
1535
  8
DEFPOINTS
 62
     0
 10
286.7370604945578
 20
35.555302947899108
 30
0.0
  0
POINT
  5
1536
  8
DEFPOINTS
 62
     0
 10
287.64810216001558
 20
35.555302947899108
 30
0.0
  0
ENDBLK
  5
152D
  8
0
  0
BLOCK
  8
0
  2
*D35
 70
     1
 10
0.0
 20
0.0
 30
0.0
  3
*D35
  1

  0
LINE
  5
153B
  8
0
 62
     0
 10
286.050027530026
 20
35.935273600696711
 30
0.0
 11
286.050027530026
 21
35.043461806366793
 31
0.0
  0
LINE
  5
153C
  8
0
 62
     0
 10
286.09002753002608
 20
35.695273600696702
 30
0.0
 11
286.09002753002608
 21
35.043461806366793
 31
0.0
  0
LINE
  5
153D
  8
0
 62
     0
 10
285.95002753002609
 20
35.053461806366784
 30
0.0
 11
285.85002753002613
 21
35.053461806366784
 31
0.0
  0
LINE
  5
153E
  8
0
 62
     0
 10
286.1900275300261
 20
35.053461806366784
 30
0.0
 11
286.29002753002601
 21
35.053461806366784
 31
0.0
  0
LINE
  5
153F
  8
0
 62
     0
 10
286.050027530026
 20
35.053461806366784
 30
0.0
 11
286.09002753002608
 21
35.053461806366784
 31
0.0
  0
SOLID
  5
1540
  8
0
 62
     0
 10
285.95002753002609
 20
35.070128473033449
 30
0.0
 11
285.95002753002609
 21
35.036795139700118
 31
0.0
 12
286.050027530026
 22
35.053461806366784
 32
0.0
 13
286.050027530026
 23
35.053461806366784
 33
0.0
  0
SOLID
  5
1541
  8
0
 62
     0
 10
286.1900275300261
 20
35.070128473033449
 30
0.0
 11
286.1900275300261
 21
35.036795139700118
 31
0.0
 12
286.09002753002608
 22
35.053461806366784
 32
0.0
 13
286.09002753002608
 23
35.053461806366784
 33
0.0
  0
INSERT
  5
1542
  8
0
  2
*U75
 10
0.0
 20
0.0
 30
0.0
  0
POINT
  5
1543
  8
DEFPOINTS
 62
     0
 10
286.050027530026
 20
35.945273600696709
 30
0.0
  0
POINT
  5
1544
  8
DEFPOINTS
 62
     0
 10
286.09002753002608
 20
35.7052736006967
 30
0.0
  0
POINT
  5
1545
  8
DEFPOINTS
 62
     0
 10
286.09002753002608
 20
35.053461806366784
 30
0.0
  0
ENDBLK
  5
153A
  8
0
  0
BLOCK
  8
0
  2
*D36
 70
     1
 10
0.0
 20
0.0
 30
0.0
  3
*D36
  1

  0
LINE
  5
154A
  8
0
 62
     0
 10
286.09002753002608
 20
35.695273600696702
 30
0.0
 11
286.09002753002608
 21
35.043461806366793
 31
0.0
  0
LINE
  5
154B
  8
0
 62
     0
 10
286.59002753002608
 20
35.695273600696702
 30
0.0
 11
286.59002753002608
 21
35.043461806366793
 31
0.0
  0
LINE
  5
154C
  8
0
 62
     0
 10
286.1900275300261
 20
35.053461806366784
 30
0.0
 11
286.49002753002611
 21
35.053461806366784
 31
0.0
  0
SOLID
  5
154D
  8
0
 62
     0
 10
286.1900275300261
 20
35.070128473033449
 30
0.0
 11
286.1900275300261
 21
35.036795139700118
 31
0.0
 12
286.09002753002608
 22
35.053461806366784
 32
0.0
 13
286.09002753002608
 23
35.053461806366784
 33
0.0
  0
SOLID
  5
154E
  8
0
 62
     0
 10
286.49002753002611
 20
35.070128473033449
 30
0.0
 11
286.49002753002611
 21
35.036795139700118
 31
0.0
 12
286.59002753002608
 22
35.053461806366784
 32
0.0
 13
286.59002753002608
 23
35.053461806366784
 33
0.0
  0
INSERT
  5
154F
  8
0
  2
*U76
 10
0.0
 20
0.0
 30
0.0
  0
POINT
  5
1550
  8
DEFPOINTS
 62
     0
 10
286.09002753002608
 20
35.7052736006967
 30
0.0
  0
POINT
  5
1551
  8
DEFPOINTS
 62
     0
 10
286.59002753002608
 20
35.7052736006967
 30
0.0
  0
POINT
  5
1552
  8
DEFPOINTS
 62
     0
 10
286.59002753002608
 20
35.053461806366784
 30
0.0
  0
ENDBLK
  5
1549
  8
0
  0
BLOCK
  8
0
  2
*D37
 70
     1
 10
0.0
 20
0.0
 30
0.0
  3
*D37
  1

  0
LINE
  5
1557
  8
0
 62
     0
 10
286.59002753002608
 20
35.695273600696702
 30
0.0
 11
286.59002753002608
 21
35.043461806366793
 31
0.0
  0
LINE
  5
1558
  8
0
 62
     0
 10
286.8900275300262
 20
35.69527360069673
 30
0.0
 11
286.8900275300262
 21
35.043461806366793
 31
0.0
  0
LINE
  5
1559
  8
0
 62
     0
 10
286.49002753002611
 20
35.053461806366784
 30
0.0
 11
286.39002753002609
 21
35.053461806366784
 31
0.0
  0
LINE
  5
155A
  8
0
 62
     0
 10
286.99002753002623
 20
35.053461806366784
 30
0.0
 11
287.09002753002608
 21
35.053461806366784
 31
0.0
  0
LINE
  5
155B
  8
0
 62
     0
 10
286.59002753002608
 20
35.053461806366784
 30
0.0
 11
286.8900275300262
 21
35.053461806366784
 31
0.0
  0
SOLID
  5
155C
  8
0
 62
     0
 10
286.49002753002611
 20
35.070128473033449
 30
0.0
 11
286.49002753002611
 21
35.036795139700118
 31
0.0
 12
286.59002753002608
 22
35.053461806366784
 32
0.0
 13
286.59002753002608
 23
35.053461806366784
 33
0.0
  0
SOLID
  5
155D
  8
0
 62
     0
 10
286.99002753002623
 20
35.070128473033449
 30
0.0
 11
286.99002753002623
 21
35.036795139700118
 31
0.0
 12
286.8900275300262
 22
35.053461806366784
 32
0.0
 13
286.8900275300262
 23
35.053461806366784
 33
0.0
  0
INSERT
  5
155E
  8
0
  2
*U77
 10
0.0
 20
0.0
 30
0.0
  0
POINT
  5
155F
  8
DEFPOINTS
 62
     0
 10
286.59002753002608
 20
35.7052736006967
 30
0.0
  0
POINT
  5
1560
  8
DEFPOINTS
 62
     0
 10
286.8900275300262
 20
35.705273600696728
 30
0.0
  0
POINT
  5
1561
  8
DEFPOINTS
 62
     0
 10
286.8900275300262
 20
35.053461806366784
 30
0.0
  0
ENDBLK
  5
1556
  8
0
  0
BLOCK
  8
0
  2
*D38
 70
     1
 10
0.0
 20
0.0
 30
0.0
  3
*D38
  1

  0
LINE
  5
1566
  8
0
 62
     0
 10
286.8900275300262
 20
35.69527360069673
 30
0.0
 11
286.8900275300262
 21
35.043461806366793
 31
0.0
  0
LINE
  5
1567
  8
0
 62
     0
 10
287.01002753002598
 20
35.695273600696702
 30
0.0
 11
287.01002753002598
 21
35.043461806366793
 31
0.0
  0
LINE
  5
1568
  8
0
 62
     0
 10
286.79002753002612
 20
35.053461806366784
 30
0.0
 11
286.6900275300261
 21
35.053461806366784
 31
0.0
  0
LINE
  5
1569
  8
0
 62
     0
 10
287.11002753002612
 20
35.053461806366784
 30
0.0
 11
287.21002753002603
 21
35.053461806366784
 31
0.0
  0
LINE
  5
156A
  8
0
 62
     0
 10
286.8900275300262
 20
35.053461806366784
 30
0.0
 11
287.01002753002598
 21
35.053461806366784
 31
0.0
  0
SOLID
  5
156B
  8
0
 62
     0
 10
286.79002753002612
 20
35.070128473033449
 30
0.0
 11
286.79002753002612
 21
35.036795139700118
 31
0.0
 12
286.8900275300262
 22
35.053461806366784
 32
0.0
 13
286.8900275300262
 23
35.053461806366784
 33
0.0
  0
SOLID
  5
156C
  8
0
 62
     0
 10
287.11002753002612
 20
35.070128473033449
 30
0.0
 11
287.11002753002612
 21
35.036795139700118
 31
0.0
 12
287.01002753002598
 22
35.053461806366784
 32
0.0
 13
287.01002753002598
 23
35.053461806366784
 33
0.0
  0
INSERT
  5
156D
  8
0
  2
*U78
 10
0.0
 20
0.0
 30
0.0
  0
POINT
  5
156E
  8
DEFPOINTS
 62
     0
 10
286.8900275300262
 20
35.705273600696728
 30
0.0
  0
POINT
  5
156F
  8
DEFPOINTS
 62
     0
 10
287.01002753002598
 20
35.7052736006967
 30
0.0
  0
POINT
  5
1570
  8
DEFPOINTS
 62
     0
 10
287.01002753002598
 20
35.053461806366784
 30
0.0
  0
ENDBLK
  5
1565
  8
0
  0
BLOCK
  8
0
  2
*D39
 70
     1
 10
0.0
 20
0.0
 30
0.0
  3
*D39
  1

  0
LINE
  5
1575
  8
0
 62
     0
 10
287.01002753002598
 20
35.695273600696702
 30
0.0
 11
287.01002753002598
 21
35.043461806366793
 31
0.0
  0
LINE
  5
1576
  8
0
 62
     0
 10
287.050027530026
 20
35.935273600696711
 30
0.0
 11
287.050027530026
 21
35.043461806366793
 31
0.0
  0
LINE
  5
1577
  8
0
 62
     0
 10
286.91002753002601
 20
35.053461806366784
 30
0.0
 11
286.81002753002599
 21
35.053461806366784
 31
0.0
  0
LINE
  5
1578
  8
0
 62
     0
 10
287.15002753002602
 20
35.053461806366784
 30
0.0
 11
287.25002753002599
 21
35.053461806366784
 31
0.0
  0
LINE
  5
1579
  8
0
 62
     0
 10
287.01002753002598
 20
35.053461806366784
 30
0.0
 11
287.050027530026
 21
35.053461806366784
 31
0.0
  0
SOLID
  5
157A
  8
0
 62
     0
 10
286.91002753002601
 20
35.070128473033449
 30
0.0
 11
286.91002753002601
 21
35.036795139700118
 31
0.0
 12
287.01002753002598
 22
35.053461806366784
 32
0.0
 13
287.01002753002598
 23
35.053461806366784
 33
0.0
  0
SOLID
  5
157B
  8
0
 62
     0
 10
287.15002753002602
 20
35.070128473033449
 30
0.0
 11
287.15002753002602
 21
35.036795139700118
 31
0.0
 12
287.050027530026
 22
35.053461806366784
 32
0.0
 13
287.050027530026
 23
35.053461806366784
 33
0.0
  0
INSERT
  5
157C
  8
0
  2
*U79
 10
0.0
 20
0.0
 30
0.0
  0
POINT
  5
157D
  8
DEFPOINTS
 62
     0
 10
287.01002753002598
 20
35.7052736006967
 30
0.0
  0
POINT
  5
157E
  8
DEFPOINTS
 62
     0
 10
287.050027530026
 20
35.945273600696709
 30
0.0
  0
POINT
  5
157F
  8
DEFPOINTS
 62
     0
 10
287.050027530026
 20
35.053461806366784
 30
0.0
  0
ENDBLK
  5
1574
  8
0
  0
BLOCK
  8
0
  2
*D40
 70
     1
 10
0.0
 20
0.0
 30
0.0
  3
*D40
  1

  0
LINE
  5
1584
  8
0
 62
     0
 10
286.050027530026
 20
35.935273600696711
 30
0.0
 11
286.050027530026
 21
35.185638823805903
 31
0.0
  0
LINE
  5
1585
  8
0
 62
     0
 10
286.09002753002608
 20
35.695273600696702
 30
0.0
 11
286.09002753002608
 21
35.185638823805903
 31
0.0
  0
LINE
  5
1586
  8
0
 62
     0
 10
285.95002753002609
 20
35.195638823805901
 30
0.0
 11
285.85002753002613
 21
35.195638823805901
 31
0.0
  0
LINE
  5
1587
  8
0
 62
     0
 10
286.1900275300261
 20
35.195638823805901
 30
0.0
 11
286.29002753002601
 21
35.195638823805901
 31
0.0
  0
LINE
  5
1588
  8
0
 62
     0
 10
286.050027530026
 20
35.195638823805901
 30
0.0
 11
286.09002753002608
 21
35.195638823805901
 31
0.0
  0
SOLID
  5
1589
  8
0
 62
     0
 10
285.95002753002609
 20
35.212305490472559
 30
0.0
 11
285.95002753002609
 21
35.178972157139228
 31
0.0
 12
286.050027530026
 22
35.195638823805901
 32
0.0
 13
286.050027530026
 23
35.195638823805901
 33
0.0
  0
SOLID
  5
158A
  8
0
 62
     0
 10
286.1900275300261
 20
35.212305490472559
 30
0.0
 11
286.1900275300261
 21
35.178972157139228
 31
0.0
 12
286.09002753002608
 22
35.195638823805901
 32
0.0
 13
286.09002753002608
 23
35.195638823805901
 33
0.0
  0
INSERT
  5
158B
  8
0
  2
*U80
 10
0.0
 20
0.0
 30
0.0
  0
POINT
  5
158C
  8
DEFPOINTS
 62
     0
 10
286.050027530026
 20
35.945273600696709
 30
0.0
  0
POINT
  5
158D
  8
DEFPOINTS
 62
     0
 10
286.09002753002608
 20
35.7052736006967
 30
0.0
  0
POINT
  5
158E
  8
DEFPOINTS
 62
     0
 10
286.09002753002608
 20
35.195638823805901
 30
0.0
  0
ENDBLK
  5
1583
  8
0
  0
BLOCK
  8
0
  2
*D41
 70
     1
 10
0.0
 20
0.0
 30
0.0
  3
*D41
  1

  0
LINE
  5
1593
  8
0
 62
     0
 10
286.09002753002608
 20
35.695273600696702
 30
0.0
 11
286.09002753002608
 21
35.185638823805903
 31
0.0
  0
LINE
  5
1594
  8
0
 62
     0
 10
286.59002753002608
 20
35.695273600696702
 30
0.0
 11
286.59002753002608
 21
35.185638823805903
 31
0.0
  0
LINE
  5
1595
  8
0
 62
     0
 10
286.1900275300261
 20
35.195638823805901
 30
0.0
 11
286.49002753002611
 21
35.195638823805901
 31
0.0
  0
SOLID
  5
1596
  8
0
 62
     0
 10
286.1900275300261
 20
35.212305490472559
 30
0.0
 11
286.1900275300261
 21
35.178972157139228
 31
0.0
 12
286.09002753002608
 22
35.195638823805901
 32
0.0
 13
286.09002753002608
 23
35.195638823805901
 33
0.0
  0
SOLID
  5
1597
  8
0
 62
     0
 10
286.49002753002611
 20
35.212305490472559
 30
0.0
 11
286.49002753002611
 21
35.178972157139228
 31
0.0
 12
286.59002753002608
 22
35.195638823805901
 32
0.0
 13
286.59002753002608
 23
35.195638823805901
 33
0.0
  0
INSERT
  5
1598
  8
0
  2
*U81
 10
0.0
 20
0.0
 30
0.0
  0
POINT
  5
1599
  8
DEFPOINTS
 62
     0
 10
286.09002753002608
 20
35.7052736006967
 30
0.0
  0
POINT
  5
159A
  8
DEFPOINTS
 62
     0
 10
286.59002753002608
 20
35.7052736006967
 30
0.0
  0
POINT
  5
159B
  8
DEFPOINTS
 62
     0
 10
286.59002753002608
 20
35.195638823805901
 30
0.0
  0
ENDBLK
  5
1592
  8
0
  0
BLOCK
  8
0
  2
*D42
 70
     1
 10
0.0
 20
0.0
 30
0.0
  3
*D42
  1

  0
LINE
  5
15A0
  8
0
 62
     0
 10
286.59002753002608
 20
35.695273600696702
 30
0.0
 11
286.59002753002608
 21
35.185638823805903
 31
0.0
  0
LINE
  5
15A1
  8
0
 62
     0
 10
286.8900275300262
 20
35.69527360069673
 30
0.0
 11
286.8900275300262
 21
35.185638823805903
 31
0.0
  0
LINE
  5
15A2
  8
0
 62
     0
 10
286.49002753002611
 20
35.195638823805901
 30
0.0
 11
286.39002753002609
 21
35.195638823805901
 31
0.0
  0
LINE
  5
15A3
  8
0
 62
     0
 10
286.99002753002623
 20
35.195638823805901
 30
0.0
 11
287.09002753002608
 21
35.195638823805901
 31
0.0
  0
LINE
  5
15A4
  8
0
 62
     0
 10
286.59002753002608
 20
35.195638823805901
 30
0.0
 11
286.8900275300262
 21
35.195638823805901
 31
0.0
  0
SOLID
  5
15A5
  8
0
 62
     0
 10
286.49002753002611
 20
35.212305490472559
 30
0.0
 11
286.49002753002611
 21
35.178972157139228
 31
0.0
 12
286.59002753002608
 22
35.195638823805901
 32
0.0
 13
286.59002753002608
 23
35.195638823805901
 33
0.0
  0
SOLID
  5
15A6
  8
0
 62
     0
 10
286.99002753002623
 20
35.212305490472559
 30
0.0
 11
286.99002753002623
 21
35.178972157139228
 31
0.0
 12
286.8900275300262
 22
35.195638823805901
 32
0.0
 13
286.8900275300262
 23
35.195638823805901
 33
0.0
  0
INSERT
  5
15A7
  8
0
  2
*U82
 10
0.0
 20
0.0
 30
0.0
  0
POINT
  5
15A8
  8
DEFPOINTS
 62
     0
 10
286.59002753002608
 20
35.7052736006967
 30
0.0
  0
POINT
  5
15A9
  8
DEFPOINTS
 62
     0
 10
286.8900275300262
 20
35.705273600696721
 30
0.0
  0
POINT
  5
15AA
  8
DEFPOINTS
 62
     0
 10
286.8900275300262
 20
35.195638823805901
 30
0.0
  0
ENDBLK
  5
159F
  8
0
  0
BLOCK
  8
0
  2
*D43
 70
     1
 10
0.0
 20
0.0
 30
0.0
  3
*D43
  1

  0
LINE
  5
15AF
  8
0
 62
     0
 10
286.8900275300262
 20
35.69527360069673
 30
0.0
 11
286.8900275300262
 21
35.185638823805903
 31
0.0
  0
LINE
  5
15B0
  8
0
 62
     0
 10
287.01002753002598
 20
35.695273600696702
 30
0.0
 11
287.01002753002598
 21
35.185638823805903
 31
0.0
  0
LINE
  5
15B1
  8
0
 62
     0
 10
286.79002753002612
 20
35.195638823805901
 30
0.0
 11
286.6900275300261
 21
35.195638823805901
 31
0.0
  0
LINE
  5
15B2
  8
0
 62
     0
 10
287.11002753002612
 20
35.195638823805901
 30
0.0
 11
287.21002753002603
 21
35.195638823805901
 31
0.0
  0
LINE
  5
15B3
  8
0
 62
     0
 10
286.8900275300262
 20
35.195638823805901
 30
0.0
 11
287.01002753002598
 21
35.195638823805901
 31
0.0
  0
SOLID
  5
15B4
  8
0
 62
     0
 10
286.79002753002612
 20
35.212305490472559
 30
0.0
 11
286.79002753002612
 21
35.178972157139228
 31
0.0
 12
286.8900275300262
 22
35.195638823805901
 32
0.0
 13
286.8900275300262
 23
35.195638823805901
 33
0.0
  0
SOLID
  5
15B5
  8
0
 62
     0
 10
287.11002753002612
 20
35.212305490472559
 30
0.0
 11
287.11002753002612
 21
35.178972157139228
 31
0.0
 12
287.01002753002598
 22
35.195638823805901
 32
0.0
 13
287.01002753002598
 23
35.195638823805901
 33
0.0
  0
INSERT
  5
15B6
  8
0
  2
*U83
 10
0.0
 20
0.0
 30
0.0
  0
POINT
  5
15B7
  8
DEFPOINTS
 62
     0
 10
286.8900275300262
 20
35.705273600696721
 30
0.0
  0
POINT
  5
15B8
  8
DEFPOINTS
 62
     0
 10
287.01002753002598
 20
35.7052736006967
 30
0.0
  0
POINT
  5
15B9
  8
DEFPOINTS
 62
     0
 10
287.01002753002598
 20
35.195638823805901
 30
0.0
  0
ENDBLK
  5
15AE
  8
0
  0
BLOCK
  8
0
  2
*D44
 70
     1
 10
0.0
 20
0.0
 30
0.0
  3
*D44
  1

  0
LINE
  5
15BE
  8
0
 62
     0
 10
287.01002753002598
 20
35.695273600696702
 30
0.0
 11
287.01002753002598
 21
35.185638823805903
 31
0.0
  0
LINE
  5
15BF
  8
0
 62
     0
 10
287.050027530026
 20
35.935273600696711
 30
0.0
 11
287.050027530026
 21
35.185638823805903
 31
0.0
  0
LINE
  5
15C0
  8
0
 62
     0
 10
286.91002753002601
 20
35.195638823805901
 30
0.0
 11
286.81002753002599
 21
35.195638823805901
 31
0.0
  0
LINE
  5
15C1
  8
0
 62
     0
 10
287.15002753002602
 20
35.195638823805901
 30
0.0
 11
287.25002753002599
 21
35.195638823805901
 31
0.0
  0
LINE
  5
15C2
  8
0
 62
     0
 10
287.01002753002598
 20
35.195638823805901
 30
0.0
 11
287.050027530026
 21
35.195638823805901
 31
0.0
  0
SOLID
  5
15C3
  8
0
 62
     0
 10
286.91002753002601
 20
35.212305490472559
 30
0.0
 11
286.91002753002601
 21
35.178972157139228
 31
0.0
 12
287.01002753002598
 22
35.195638823805901
 32
0.0
 13
287.01002753002598
 23
35.195638823805901
 33
0.0
  0
SOLID
  5
15C4
  8
0
 62
     0
 10
287.15002753002602
 20
35.212305490472559
 30
0.0
 11
287.15002753002602
 21
35.178972157139228
 31
0.0
 12
287.050027530026
 22
35.195638823805901
 32
0.0
 13
287.050027530026
 23
35.195638823805901
 33
0.0
  0
INSERT
  5
15C5
  8
0
  2
*U84
 10
0.0
 20
0.0
 30
0.0
  0
POINT
  5
15C6
  8
DEFPOINTS
 62
     0
 10
287.01002753002598
 20
35.7052736006967
 30
0.0
  0
POINT
  5
15C7
  8
DEFPOINTS
 62
     0
 10
287.050027530026
 20
35.945273600696709
 30
0.0
  0
POINT
  5
15C8
  8
DEFPOINTS
 62
     0
 10
287.050027530026
 20
35.195638823805901
 30
0.0
  0
ENDBLK
  5
15BD
  8
0
  0
BLOCK
  8
0
  2
*D45
 70
     1
 10
0.0
 20
0.0
 30
0.0
  3
*D45
  1

  0
LINE
  5
1EE0
  8
0
 62
     0
 10
286.050027530026
 20
35.935273600696711
 30
0.0
 11
286.050027530026
 21
34.631731391445093
 31
0.0
  0
LINE
  5
1EE1
  8
0
 62
     0
 10
287.050027530026
 20
35.935273600696711
 30
0.0
 11
287.050027530026
 21
34.631731391445093
 31
0.0
  0
LINE
  5
1EE2
  8
0
 62
     0
 10
286.10002753002613
 20
34.641731391445092
 30
0.0
 11
286.48169419669267
 21
34.641731391445092
 31
0.0
  0
LINE
  5
1EE3
  8
0
 62
     0
 10
287.00002753002599
 20
34.641731391445092
 30
0.0
 11
286.61836086335933
 21
34.641731391445092
 31
0.0
  0
SOLID
  5
1EE4
  8
0
 62
     0
 10
286.10002753002613
 20
34.650064724778417
 30
0.0
 11
286.10002753002613
 21
34.633398058111759
 31
0.0
 12
286.050027530026
 22
34.641731391445092
 32
0.0
 13
286.050027530026
 23
34.641731391445092
 33
0.0
  0
SOLID
  5
1EE5
  8
0
 62
     0
 10
287.00002753002599
 20
34.650064724778417
 30
0.0
 11
287.00002753002599
 21
34.633398058111759
 31
0.0
 12
287.050027530026
 22
34.641731391445092
 32
0.0
 13
287.050027530026
 23
34.641731391445092
 33
0.0
  0
TEXT
  8
0
  40
0.05
  5
1F36
  62
0
  72
0
  71
0
 10
286.450
 20
34.5532
 30
0.000000
  1
1.00
  0
POINT
  5
1EE7
  8
DEFPOINTS
 62
     0
 10
286.050027530026
 20
35.945273600696709
 30
0.0
  0
POINT
  5
1EE8
  8
DEFPOINTS
 62
     0
 10
287.050027530026
 20
35.945273600696709
 30
0.0
  0
POINT
  5
1EE9
  8
DEFPOINTS
 62
     0
 10
287.050027530026
 20
34.641731391445092
 30
0.0
  0
ENDBLK
  5
15CE
  8
0
  0
BLOCK
  8
0
  2
*D46
 70
     1
 10
0.0
 20
0.0
 30
0.0
  3
*D46
  1

  0
LINE
  5
1EEA
  8
0
 62
     0
 10
286.75002753002622
 20
35.555273600696673
 30
0.0
 11
287.58555782391392
 21
35.555273600696673
 31
0.0
  0
LINE
  5
1EEB
  8
0
 62
     0
 10
286.56002753002599
 20
37.155273600696709
 30
0.0
 11
287.58555782391392
 21
37.155273600696709
 31
0.0
  0
LINE
  5
1EEC
  8
0
 62
     0
 10
287.57555782391393
 20
35.605273600696663
 30
0.0
 11
287.57555782391393
 21
36.282773600696693
 31
0.0
  0
LINE
  5
1EED
  8
0
 62
     0
 10
287.57555782391393
 20
37.105273600696712
 30
0.0
 11
287.57555782391393
 21
36.427773600696682
 31
0.0
  0
SOLID
  5
1EEE
  8
0
 62
     0
 10
287.56722449058049
 20
35.605273600696663
 30
0.0
 11
287.58389115724719
 21
35.605273600696663
 31
0.0
 12
287.57555782391393
 22
35.555273600696673
 32
0.0
 13
287.57555782391393
 23
35.555273600696673
 33
0.0
  0
SOLID
  5
1EEF
  8
0
 62
     0
 10
287.56722449058049
 20
37.105273600696712
 30
0.0
 11
287.58389115724719
 21
37.105273600696712
 31
0.0
 12
287.57555782391393
 22
37.155273600696709
 32
0.0
 13
287.57555782391393
 23
37.155273600696709
 33
0.0
  0
TEXT
  8
0
  40
0.05
  5
1F37
  62
0
  72
0
  71
0
 10
287.476
 20
36.2668
 30
0.000000
  1
1.60
  0
POINT
  5
1EF1
  8
DEFPOINTS
 62
     0
 10
286.74002753002623
 20
35.555273600696673
 30
0.0
  0
POINT
  5
1EF2
  8
DEFPOINTS
 62
     0
 10
286.550027530026
 20
37.155273600696709
 30
0.0
  0
POINT
  5
1EF3
  8
DEFPOINTS
 62
     0
 10
287.57555782391393
 20
37.155273600696709
 30
0.0
  0
ENDBLK
  5
15DB
  8
0
  0
BLOCK
  8
0
  2
*D47
 70
     1
 10
0.0
 20
0.0
 30
0.0
  3
*D47
  1

  0
LINE
  5
1EF4
  8
0
 62
     0
 10
286.59002753002608
 20
35.695273600696702
 30
0.0
 11
286.59002753002608
 21
35.319642466639202
 31
0.0
  0
LINE
  5
1EF5
  8
0
 62
     0
 10
286.8900275300262
 20
35.69527360069673
 30
0.0
 11
286.8900275300262
 21
35.319642466639202
 31
0.0
  0
LINE
  5
1EF6
  8
0
 62
     0
 10
286.64002753002609
 20
35.3296424666392
 30
0.0
 11
286.66336086335951
 21
35.3296424666392
 31
0.0
  0
LINE
  5
1EF7
  8
0
 62
     0
 10
286.84002753002608
 20
35.3296424666392
 30
0.0
 11
286.81669419669282
 21
35.3296424666392
 31
0.0
  0
SOLID
  5
1EF8
  8
0
 62
     0
 10
286.64002753002609
 20
35.33797579997254
 30
0.0
 11
286.64002753002609
 21
35.321309133305867
 31
0.0
 12
286.59002753002608
 22
35.3296424666392
 32
0.0
 13
286.59002753002608
 23
35.3296424666392
 33
0.0
  0
SOLID
  5
1EF9
  8
0
 62
     0
 10
286.84002753002608
 20
35.33797579997254
 30
0.0
 11
286.84002753002608
 21
35.321309133305867
 31
0.0
 12
286.8900275300262
 22
35.3296424666392
 32
0.0
 13
286.8900275300262
 23
35.3296424666392
 33
0.0
  0
TEXT
  8
0
  40
0.05
  5
1F38
  62
0
  72
0
  71
0
 10
286.640
 20
35.2411
 30
0.000000
  1
0.30
  0
POINT
  5
1EFB
  8
DEFPOINTS
 62
     0
 10
286.59002753002608
 20
35.7052736006967
 30
0.0
  0
POINT
  5
1EFC
  8
DEFPOINTS
 62
     0
 10
286.8900275300262
 20
35.705273600696721
 30
0.0
  0
POINT
  5
1EFD
  8
DEFPOINTS
 62
     0
 10
286.8900275300262
 20
35.3296424666392
 30
0.0
  0
ENDBLK
  5
15E8
  8
0
  0
BLOCK
  8
0
  2
*D48
 70
     1
 10
0.0
 20
0.0
 30
0.0
  3
*D48
  1

  0
LINE
  5
1EFE
  8
0
 62
     0
 10
286.09002753002608
 20
35.935273600696711
 30
0.0
 11
286.09002753002608
 21
34.883965582090461
 31
0.0
  0
LINE
  5
1EFF
  8
0
 62
     0
 10
287.01002753002598
 20
35.935273600696711
 30
0.0
 11
287.01002753002598
 21
34.883965582090461
 31
0.0
  0
LINE
  5
1F00
  8
0
 62
     0
 10
286.14002753002609
 20
34.893965582090459
 30
0.0
 11
286.4691941966928
 21
34.893965582090459
 31
0.0
  0
LINE
  5
1F01
  8
0
 62
     0
 10
286.96002753002603
 20
34.893965582090459
 30
0.0
 11
286.63086086335937
 21
34.893965582090459
 31
0.0
  0
SOLID
  5
1F02
  8
0
 62
     0
 10
286.14002753002609
 20
34.902298915423792
 30
0.0
 11
286.14002753002609
 21
34.885632248757133
 31
0.0
 12
286.09002753002608
 22
34.893965582090459
 32
0.0
 13
286.09002753002608
 23
34.893965582090459
 33
0.0
  0
SOLID
  5
1F03
  8
0
 62
     0
 10
286.96002753002603
 20
34.902298915423792
 30
0.0
 11
286.96002753002603
 21
34.885632248757133
 31
0.0
 12
287.01002753002598
 22
34.893965582090459
 32
0.0
 13
287.01002753002598
 23
34.893965582090459
 33
0.0
  0
TEXT
  8
0
  40
0.05
  5
1F39
  62
0
  72
0
  71
0
 10
286.450
 20
34.8055
 30
0.000000
  1
0.92
  0
POINT
  5
1F05
  8
DEFPOINTS
 62
     0
 10
286.09002753002608
 20
35.945273600696709
 30
0.0
  0
POINT
  5
1F06
  8
DEFPOINTS
 62
     0
 10
287.01002753002598
 20
35.945273600696709
 30
0.0
  0
POINT
  5
1F07
  8
DEFPOINTS
 62
     0
 10
287.01002753002598
 20
34.893965582090459
 30
0.0
  0
ENDBLK
  5
15F7
  8
0
  0
BLOCK
  8
0
  2
*D49
 70
     1
 10
0.0
 20
0.0
 30
0.0
  3
*D49
  1

  0
LINE
  5
1F08
  8
0
 62
     0
 10
286.59002753002608
 20
35.695273600696702
 30
0.0
 11
286.59002753002608
 21
35.319642466639202
 31
0.0
  0
LINE
  5
1F09
  8
0
 62
     0
 10
286.050027530026
 20
35.925273600696713
 30
0.0
 11
286.050027530026
 21
35.319642466639202
 31
0.0
  0
LINE
  5
1F0A
  8
0
 62
     0
 10
286.54002753002601
 20
35.3296424666392
 30
0.0
 11
286.40086086335941
 21
35.3296424666392
 31
0.0
  0
LINE
  5
1F0B
  8
0
 62
     0
 10
286.10002753002613
 20
35.3296424666392
 30
0.0
 11
286.23919419669278
 21
35.3296424666392
 31
0.0
  0
SOLID
  5
1F0C
  8
0
 62
     0
 10
286.54002753002601
 20
35.33797579997254
 30
0.0
 11
286.54002753002601
 21
35.321309133305867
 31
0.0
 12
286.59002753002608
 22
35.3296424666392
 32
0.0
 13
286.59002753002608
 23
35.3296424666392
 33
0.0
  0
SOLID
  5
1F0D
  8
0
 62
     0
 10
286.10002753002613
 20
35.33797579997254
 30
0.0
 11
286.10002753002613
 21
35.321309133305867
 31
0.0
 12
286.050027530026
 22
35.3296424666392
 32
0.0
 13
286.050027530026
 23
35.3296424666392
 33
0.0
  0
TEXT
  8
0
  40
0.05
  5
1F3A
  62
0
  72
0
  71
0
 10
286.220
 20
35.2411
 30
0.000000
  1
0.54
  0
POINT
  5
1F0F
  8
DEFPOINTS
 62
     0
 10
286.59002753002608
 20
35.7052736006967
 30
0.0
  0
POINT
  5
1F10
  8
DEFPOINTS
 62
     0
 10
286.050027530026
 20
35.935273600696711
 30
0.0
  0
POINT
  5
1F11
  8
DEFPOINTS
 62
     0
 10
286.050027530026
 20
35.3296424666392
 30
0.0
  0
ENDBLK
  5
160D
  8
0
  0
BLOCK
  8
0
  2
*D50
 70
     1
 10
0.0
 20
0.0
 30
0.0
  3
*D50
  1

  0
LINE
  5
1F12
  8
0
 62
     0
 10
286.8900275300262
 20
35.69527360069673
 30
0.0
 11
286.8900275300262
 21
35.319642466639202
 31
0.0
  0
LINE
  5
1F13
  8
0
 62
     0
 10
287.050027530026
 20
35.935273600696711
 30
0.0
 11
287.050027530026
 21
35.319642466639202
 31
0.0
  0
LINE
  5
1F14
  8
0
 62
     0
 10
286.84002753002608
 20
35.3296424666392
 30
0.0
 11
286.79002753002612
 21
35.3296424666392
 31
0.0
  0
LINE
  5
1F15
  8
0
 62
     0
 10
287.10002753002601
 20
35.3296424666392
 30
0.0
 11
287.15002753002602
 21
35.3296424666392
 31
0.0
  0
LINE
  5
1F16
  8
0
 62
     0
 10
286.8900275300262
 20
35.3296424666392
 30
0.0
 11
286.89752753002608
 21
35.3296424666392
 31
0.0
  0
LINE
  5
1F17
  8
0
 62
     0
 10
287.050027530026
 20
35.3296424666392
 30
0.0
 11
287.04252753002612
 21
35.3296424666392
 31
0.0
  0
SOLID
  5
1F18
  8
0
 62
     0
 10
286.84002753002608
 20
35.33797579997254
 30
0.0
 11
286.84002753002608
 21
35.321309133305867
 31
0.0
 12
286.8900275300262
 22
35.3296424666392
 32
0.0
 13
286.8900275300262
 23
35.3296424666392
 33
0.0
  0
SOLID
  5
1F19
  8
0
 62
     0
 10
287.10002753002601
 20
35.33797579997254
 30
0.0
 11
287.10002753002601
 21
35.321309133305867
 31
0.0
 12
287.050027530026
 22
35.3296424666392
 32
0.0
 13
287.050027530026
 23
35.3296424666392
 33
0.0
  0
TEXT
  8
0
  40
0.05
  5
1F3B
  62
0
  72
0
  71
0
 10
286.870
 20
35.2411
 30
0.000000
  1
0.16
  0
POINT
  5
1F1B
  8
DEFPOINTS
 62
     0
 10
286.8900275300262
 20
35.705273600696728
 30
0.0
  0
POINT
  5
1F1C
  8
DEFPOINTS
 62
     0
 10
287.050027530026
 20
35.945273600696709
 30
0.0
  0
POINT
  5
1F1D
  8
DEFPOINTS
 62
     0
 10
287.050027530026
 20
35.3296424666392
 30
0.0
  0
ENDBLK
  5
161A
  8
0
  0
BLOCK
  8
0
  2
*D51
 70
     1
 10
0.0
 20
0.0
 30
0.0
  3
*D51
  1

  0
LINE
  5
165C
  8
0
 62
     0
 10
284.25838747216483
 20
36.598460172467583
 30
0.0
 11
284.25838747216483
 21
36.004504132684303
 31
0.0
  0
LINE
  5
165D
  8
0
 62
     0
 10
284.94259462562871
 20
36.598460172467583
 30
0.0
 11
284.94259462562871
 21
36.004504132684303
 31
0.0
  0
LINE
  5
165E
  8
0
 62
     0
 10
284.30838747216478
 20
36.014504132684287
 30
0.0
 11
284.51965771556343
 21
36.014504132684287
 31
0.0
  0
LINE
  5
165F
  8
0
 62
     0
 10
284.8925946256287
 20
36.014504132684287
 30
0.0
 11
284.68132438223012
 21
36.014504132684287
 31
0.0
  0
SOLID
  5
1660
  8
0
 62
     0
 10
284.30838747216478
 20
36.022837466017627
 30
0.0
 11
284.30838747216478
 21
36.006170799350961
 31
0.0
 12
284.25838747216483
 22
36.014504132684287
 32
0.0
 13
284.25838747216483
 23
36.014504132684287
 33
0.0
  0
SOLID
  5
1661
  8
0
 62
     0
 10
284.8925946256287
 20
36.022837466017627
 30
0.0
 11
284.8925946256287
 21
36.006170799350961
 31
0.0
 12
284.94259462562871
 22
36.014504132684287
 32
0.0
 13
284.94259462562871
 23
36.014504132684287
 33
0.0
  0
INSERT
  5
1662
  8
0
  2
*U85
 10
0.0
 20
0.0
 30
0.0
  0
POINT
  5
1663
  8
DEFPOINTS
 62
     0
 10
284.25838747216483
 20
36.608460172467581
 30
0.0
  0
POINT
  5
1664
  8
DEFPOINTS
 62
     0
 10
284.94259462562871
 20
36.608460172467581
 30
0.0
  0
POINT
  5
1665
  8
DEFPOINTS
 62
     0
 10
284.94259462562871
 20
36.014504132684287
 30
0.0
  0
ENDBLK
  5
165B
  8
0
  0
BLOCK
  8
0
  2
*D52
 70
     1
 10
0.0
 20
0.0
 30
0.0
  3
*D52
  1

  0
LINE
  5
1F22
  8
0
 62
     0
 10
287.06002753002599
 20
37.155273600696709
 30
0.0
 11
287.26470454769873
 21
37.155273600696709
 31
0.0
  0
LINE
  5
1F23
  8
0
 62
     0
 10
287.06002753002599
 20
35.945273600696709
 30
0.0
 11
287.26470454769873
 21
35.945273600696709
 31
0.0
  0
LINE
  5
1F24
  8
0
 62
     0
 10
287.25470454769868
 20
37.105273600696712
 30
0.0
 11
287.25470454769868
 21
36.618606934030041
 31
0.0
  0
LINE
  5
1F25
  8
0
 62
     0
 10
287.25470454769868
 20
35.995273600696713
 30
0.0
 11
287.25470454769868
 21
36.48194026736337
 31
0.0
  0
SOLID
  5
1F26
  8
0
 62
     0
 10
287.24637121436541
 20
37.105273600696712
 30
0.0
 11
287.26303788103201
 21
37.105273600696712
 31
0.0
 12
287.25470454769868
 22
37.155273600696709
 32
0.0
 13
287.25470454769868
 23
37.155273600696709
 33
0.0
  0
SOLID
  5
1F27
  8
0
 62
     0
 10
287.24637121436541
 20
35.995273600696713
 30
0.0
 11
287.26303788103201
 21
35.995273600696713
 31
0.0
 12
287.25470454769868
 22
35.945273600696709
 32
0.0
 13
287.25470454769868
 23
35.945273600696709
 33
0.0
  0
TEXT
  8
0
  40
0.05
  5
1F3C
  62
0
  72
0
  71
0
 10
287.155
 20
36.4618
 30
0.000000
  1
1.21
  0
POINT
  5
1F29
  8
DEFPOINTS
 62
     0
 10
287.050027530026
 20
37.155273600696709
 30
0.0
  0
POINT
  5
1F2A
  8
DEFPOINTS
 62
     0
 10
287.050027530026
 20
35.945273600696709
 30
0.0
  0
POINT
  5
1F2B
  8
DEFPOINTS
 62
     0
 10
287.25470454769868
 20
35.945273600696709
 30
0.0
  0
ENDBLK
  5
16A7
  8
0
  0
BLOCK
  8
0
  2
*D53
 70
     1
 10
0.0
 20
0.0
 30
0.0
  3
*D53
  1

  0
LINE
  5
1F2C
  8
0
 62
     0
 10
287.08279267696992
 20
37.155273600696709
 30
0.0
 11
287.43483885934631
 21
37.155273600696709
 31
0.0
  0
LINE
  5
1F2D
  8
0
 62
     0
 10
287.02002753002603
 20
35.7052736006967
 30
0.0
 11
287.43483885934631
 21
35.7052736006967
 31
0.0
  0
LINE
  5
1F2E
  8
0
 62
     0
 10
287.42483885934632
 20
37.105273600696712
 30
0.0
 11
287.42483885934632
 21
36.506940267363369
 31
0.0
  0
LINE
  5
1F2F
  8
0
 62
     0
 10
287.42483885934632
 20
35.755273600696697
 30
0.0
 11
287.42483885934632
 21
36.353606934030033
 31
0.0
  0
SOLID
  5
1F30
  8
0
 62
     0
 10
287.416505526013
 20
37.105273600696712
 30
0.0
 11
287.43317219267971
 21
37.105273600696712
 31
0.0
 12
287.42483885934632
 22
37.155273600696709
 32
0.0
 13
287.42483885934632
 23
37.155273600696709
 33
0.0
  0
SOLID
  5
1F31
  8
0
 62
     0
 10
287.416505526013
 20
35.755273600696697
 30
0.0
 11
287.43317219267971
 21
35.755273600696697
 31
0.0
 12
287.42483885934632
 22
35.7052736006967
 32
0.0
 13
287.42483885934632
 23
35.7052736006967
 33
0.0
  0
TEXT
  8
0
  40
0.05
  5
1F3D
  62
0
  72
0
  71
0
 10
287.325
 20
36.3418
 30
0.000000
  1
1.45
  0
POINT
  5
1F33
  8
DEFPOINTS
 62
     0
 10
287.07279267696993
 20
37.155273600696709
 30
0.0
  0
POINT
  5
1F34
  8
DEFPOINTS
 62
     0
 10
287.01002753002598
 20
35.7052736006967
 30
0.0
  0
POINT
  5
1F35
  8
DEFPOINTS
 62
     0
 10
287.42483885934632
 20
35.7052736006967
 30
0.0
  0
ENDBLK
  5
16B5
  8
0
  0
BLOCK
  8
0
  2
*U57
 70
     1
 10
0.0
 20
0.0
 30
0.0
  3
*U57
  1

  0
SOLID
  5
1BAC
  8
0
  6
CONTINUOUS
 62
   133
 10
7.7500053640320274
 20
0.1999901374336161
 30
0.0
 11
0.0
 21
0.0
 31
0.0
 12
7.7500053640320274
 22
0.0
 32
0.0
 13
7.7500053640320274
 23
0.0
 33
0.0
210
0.0
220
0.0
230
1.0
  0
SOLID
  5
1BAD
  8
0
  6
CONTINUOUS
 62
   133
 10
0.0
 20
0.0
 30
0.0
 11
-7.7500053640320274
 21
0.0
 31
0.0
 12
-7.7500053640320274
 22
-0.1999901374336161
 32
0.0
 13
-7.7500053640320274
 23
-0.1999901374336161
 33
0.0
210
0.0
220
0.0
230
-1.0
  0
LINE
  5
1BAE
  8
0
  6
CONTINUOUS
 62
   133
 10
7.7500053640320274
 20
0.1999901374336161
 30
0.0
 11
0.0
 21
0.0
 31
0.0
  0
LINE
  5
1BAF
  8
0
  6
CONTINUOUS
 62
   133
 10
7.7500053640320274
 20
0.0
 30
0.0
 11
7.7500053640320274
 21
0.1999901374336161
 31
0.0
  0
LINE
  5
1BB0
  8
0
  6
CONTINUOUS
 62
   133
 10
7.7500053640320274
 20
0.0
 30
0.0
 11
7.7500053640320274
 21
-0.1999901374336161
 31
0.0
  0
LINE
  5
1BB1
  8
0
  6
CONTINUOUS
 62
   133
 10
7.7500053640320274
 20
-0.1999901374336161
 30
0.0
 11
0.0
 21
0.0
 31
0.0
  0
ENDBLK
  5
1BB3
  8
0
  0
BLOCK
  8
0
  2
*U58
 70
     1
 10
0.0
 20
0.0
 30
0.0
  3
*U58
  1

  0
SOLID
  5
1BB5
  8
0
  6
CONTINUOUS
 62
     4
 10
-1.5
 20
1.5
 30
0.0
 11
-1.5
 21
-1.5
 31
0.0
 12
1.5
 22
-1.5
 32
0.0
 13
1.5
 23
-1.5
 33
0.0
210
0.0
220
0.0
230
1.0
  0
SOLID
  5
1BB6
  8
0
  6
CONTINUOUS
 62
     4
 10
1.5
 20
1.5
 30
0.0
 11
-1.5
 21
1.5
 31
0.0
 12
-1.5
 22
-1.5
 32
0.0
 13
-1.5
 23
-1.5
 33
0.0
210
0.0
220
0.0
230
-1.0
  0
LINE
  5
1BB7
  8
0
  6
CONTINUOUS
 62
     4
 10
-1.5
 20
1.5
 30
0.0
 11
-1.5
 21
-1.5
 31
0.0
  0
LINE
  5
1BB8
  8
0
  6
CONTINUOUS
 62
     4
 10
1.5
 20
1.5
 30
0.0
 11
1.5
 21
-1.5
 31
0.0
  0
ENDBLK
  5
1BBA
  8
0
  0
BLOCK
  8
0
  2
*U59
 70
     1
 10
0.0
 20
0.0
 30
0.0
  3
*U59
  1

  0
SOLID
  5
1BBC
  8
0
  6
CONTINUOUS
 62
    12
 10
11.204505025152359
 20
0.0
 30
0.0
 11
11.204505025152359
 21
-3.4002521523742351
 31
0.0
 12
18.5
 22
-3.4002521523742351
 32
0.0
 13
18.5
 23
-3.4002521523742351
 33
0.0
210
0.0
220
0.0
230
1.0
  0
SOLID
  5
1BBD
  8
0
  6
CONTINUOUS
 62
    12
 10
-11.204505025152359
 20
0.0
 30
0.0
 11
-18.5
 21
0.0
 31
0.0
 12
-18.5
 22
-3.4002521523742351
 32
0.0
 13
-18.5
 23
-3.4002521523742351
 33
0.0
210
0.0
220
0.0
230
-1.0
  0
SOLID
  5
1BBE
  8
0
  6
CONTINUOUS
 62
    12
 10
-17.000038288258029
 20
-4.999970053555443
 30
0.0
 11
-18.5
 21
-4.999970053555443
 31
0.0
 12
-18.5
 22
-4.9999810967128431
 32
0.0
 13
-18.5
 23
-4.9999810967128431
 33
0.0
210
0.0
220
0.0
230
-1.0
  0
SOLID
  5
1BBF
  8
0
  6
CONTINUOUS
 62
    12
 10
17.000038288258029
 20
-3.4002521523742351
 30
0.0
 11
17.000038288258029
 21
-4.999970053555443
 31
0.0
 12
18.5
 22
-4.999970053555443
 32
0.0
 13
18.5
 23
-4.999970053555443
 33
0.0
210
0.0
220
0.0
230
1.0
  0
SOLID
  5
1BC0
  8
0
  6
CONTINUOUS
 62
    12
 10
-17.000038288258029
 20
-3.4002521523742351
 30
0.0
 11
-18.5
 21
-3.4002521523742351
 31
0.0
 12
-18.5
 22
-4.999970053555443
 32
0.0
 13
-18.5
 23
-4.999970053555443
 33
0.0
210
0.0
220
0.0
230
-1.0
  0
LINE
  5
1BC1
  8
0
  6
CONTINUOUS
 62
    12
 10
11.204505025152359
 20
0.0
 30
0.0
 11
11.204505025152359
 21
-3.4002521523742351
 31
0.0
  0
LINE
  5
1BC2
  8
0
  6
CONTINUOUS
 62
    12
 10
18.5
 20
0.0
 30
0.0
 11
18.5
 21
-3.4002521523742351
 31
0.0
  0
LINE
  5
1BC3
  8
0
  6
CONTINUOUS
 62
    12
 10
18.5
 20
-4.999970053555443
 30
0.0
 11
18.5
 21
-4.9999810967128431
 31
0.0
  0
LINE
  5
1BC4
  8
0
  6
CONTINUOUS
 62
    12
 10
18.5
 20
-4.9999810967128431
 30
0.0
 11
17.000038288258029
 21
-4.999970053555443
 31
0.0
  0
LINE
  5
1BC5
  8
0
  6
CONTINUOUS
 62
    12
 10
17.000038288258029
 20
-3.4002521523742351
 30
0.0
 11
17.000038288258029
 21
-4.999970053555443
 31
0.0
  0
LINE
  5
1BC6
  8
0
  6
CONTINUOUS
 62
    12
 10
18.5
 20
-3.4002521523742351
 30
0.0
 11
18.5
 21
-4.999970053555443
 31
0.0
  0
ENDBLK
  5
1BC8
  8
0
  0
BLOCK
  8
0
  2
*U60
 70
     1
 10
0.0
 20
0.0
 30
0.0
  3
*U60
  1

  0
SOLID
  5
1BCA
  8
0
  6
CONTINUOUS
 62
    10
 10
17.000028595028159
 20
5.000018903287156
 30
0.0
 11
17.000028595028159
 21
3.4002521523742351
 31
0.0
 12
18.5
 22
3.4002521523742351
 32
0.0
 13
18.5
 23
3.4002521523742351
 33
0.0
210
0.0
220
0.0
230
1.0
  0
SOLID
  5
1BCB
  8
0
  6
CONTINUOUS
 62
    10
 10
-17.000028595028159
 20
5.000018903287156
 30
0.0
 11
-18.5
 21
5.000018903287156
 31
0.0
 12
-18.5
 22
3.4002521523742351
 32
0.0
 13
-18.5
 23
3.4002521523742351
 33
0.0
210
0.0
220
0.0
230
-1.0
  0
SOLID
  5
1BCC
  8
0
  6
CONTINUOUS
 62
    10
 10
11.204505025152359
 20
3.4002521523742351
 30
0.0
 11
11.204505025152359
 21
0.0
 31
0.0
 12
18.5
 22
0.0
 32
0.0
 13
18.5
 23
0.0
 33
0.0
210
0.0
220
0.0
230
1.0
  0
SOLID
  5
1BCD
  8
0
  6
CONTINUOUS
 62
    10
 10
-11.204505025152359
 20
3.4002521523742351
 30
0.0
 11
-18.5
 21
3.4002521523742351
 31
0.0
 12
-18.5
 22
0.0
 32
0.0
 13
-18.5
 23
0.0
 33
0.0
210
0.0
220
0.0
230
-1.0
  0
LINE
  5
1BCE
  8
0
  6
CONTINUOUS
 62
    10
 10
17.000028595028159
 20
5.000018903287156
 30
0.0
 11
17.000028595028159
 21
3.4002521523742351
 31
0.0
  0
LINE
  5
1BCF
  8
0
  6
CONTINUOUS
 62
    10
 10
18.5
 20
5.000018903287156
 30
0.0
 11
18.5
 21
3.4002521523742351
 31
0.0
  0
LINE
  5
1BD0
  8
0
  6
CONTINUOUS
 62
    10
 10
11.204505025152359
 20
3.4002521523742351
 30
0.0
 11
11.204505025152359
 21
0.0
 31
0.0
  0
LINE
  5
1BD1
  8
0
  6
CONTINUOUS
 62
    10
 10
18.5
 20
3.4002521523742351
 30
0.0
 11
18.5
 21
0.0
 31
0.0
  0
ENDBLK
  5
1BD3
  8
0
  0
BLOCK
  8
0
  2
*U61
 70
     1
 10
0.0
 20
0.0
 30
0.0
  3
*U61
  1

  0
SOLID
  5
1BD5
  8
0
  6
CONTINUOUS
 62
    14
 10
-7.7500053640320274
 20
-3.4002521523742351
 30
0.0
 11
-11.204505025152359
 21
-3.4002521523742351
 31
0.0
 12
-7.7500053640320274
 22
-5.0000188823323981
 32
0.0
 13
-7.7500053640320274
 23
-5.0000188823323981
 33
0.0
210
0.0
220
0.0
230
-1.0
  0
SOLID
  5
1BD6
  8
0
  6
CONTINUOUS
 62
    14
 10
7.7500053640320274
 20
0.0
 30
0.0
 11
7.7500053640320274
 21
-3.4002521523742351
 31
0.0
 12
11.204505025152359
 22
-3.4002521523742351
 32
0.0
 13
11.204505025152359
 23
-3.4002521523742351
 33
0.0
210
0.0
220
0.0
230
1.0
  0
SOLID
  5
1BD7
  8
0
  6
CONTINUOUS
 62
    14
 10
-7.7500053640320274
 20
0.0
 30
0.0
 11
-11.204505025152359
 21
0.0
 31
0.0
 12
-11.204505025152359
 22
-3.4002521523742351
 32
0.0
 13
-11.204505025152359
 23
-3.4002521523742351
 33
0.0
210
0.0
220
0.0
230
-1.0
  0
LINE
  5
1BD8
  8
0
  6
CONTINUOUS
 62
    14
 10
11.204505025152359
 20
-3.4002521523742351
 30
0.0
 11
7.7500053640320274
 21
-5.0000188823323981
 31
0.0
  0
LINE
  5
1BD9
  8
0
  6
CONTINUOUS
 62
    14
 10
7.7500053640320274
 20
-5.0000188823323981
 30
0.0
 11
7.7500053640320274
 21
-3.4002521523742351
 31
0.0
  0
LINE
  5
1BDA
  8
0
  6
CONTINUOUS
 62
    14
 10
7.7500053640320274
 20
0.0
 30
0.0
 11
7.7500053640320274
 21
-3.4002521523742351
 31
0.0
  0
LINE
  5
1BDB
  8
0
  6
CONTINUOUS
 62
    14
 10
11.204505025152359
 20
0.0
 30
0.0
 11
11.204505025152359
 21
-3.4002521523742351
 31
0.0
  0
ENDBLK
  5
1BDD
  8
0
  0
BLOCK
  8
0
  2
*U62
 70
     1
 10
0.0
 20
0.0
 30
0.0
  3
*U62
  1

  0
SOLID
  5
1BDF
  8
0
  6
CONTINUOUS
 62
    22
 10
7.7500053640320274
 20
5.0000188823323981
 30
0.0
 11
7.7500053640320274
 21
3.4002521523742351
 31
0.0
 12
11.204505025152359
 22
3.4002521523742351
 32
0.0
 13
11.204505025152359
 23
3.4002521523742351
 33
0.0
  0
SOLID
  5
1BE0
  8
0
  6
CONTINUOUS
 62
    22
 10
7.7500053640320274
 20
3.4002521523742351
 30
0.0
 11
7.7500053640320274
 21
0.0
 31
0.0
 12
11.204505025152359
 22
0.0
 32
0.0
 13
11.204505025152359
 23
0.0
 33
0.0
210
0.0
220
0.0
230
1.0
  0
SOLID
  5
1BE1
  8
0
  6
CONTINUOUS
 62
    22
 10
-7.7500053640320274
 20
3.4002521523742351
 30
0.0
 11
-11.204505025152359
 21
3.4002521523742351
 31
0.0
 12
-11.204505025152359
 22
0.0
 32
0.0
 13
-11.204505025152359
 23
0.0
 33
0.0
210
0.0
220
0.0
230
-1.0
  0
LINE
  5
1BE2
  8
0
  6
CONTINUOUS
 62
    22
 10
7.7500053640320274
 20
5.0000188823323981
 30
0.0
 11
7.7500053640320274
 21
3.4002521523742351
 31
0.0
  0
LINE
  5
1BE3
  8
0
  6
CONTINUOUS
 62
    22
 10
11.204505025152359
 20
3.4002521523742351
 30
0.0
 11
7.7500053640320274
 21
5.0000188823323981
 31
0.0
  0
LINE
  5
1BE4
  8
0
  6
CONTINUOUS
 62
    22
 10
7.7500053640320274
 20
3.4002521523742351
 30
0.0
 11
7.7500053640320274
 21
0.0
 31
0.0
  0
LINE
  5
1BE5
  8
0
  6
CONTINUOUS
 62
    22
 10
11.204505025152359
 20
3.4002521523742351
 30
0.0
 11
11.204505025152359
 21
0.0
 31
0.0
  0
ENDBLK
  5
1BE7
  8
0
  0
BLOCK
  8
0
  2
*U63
 70
     1
 10
0.0
 20
0.0
 30
0.0
  3
*U63
  1

  0
SOLID
  5
1BE9
  8
0
  6
CONTINUOUS
 62
    14
 10
9.5009940400166073
 20
9.5009940400166073
 30
0.0
 11
8.9724157517266345
 21
8.9724157517266363
 31
0.0
 12
10.115919480481081
 22
8.9724157517266363
 32
0.0
 13
10.115919480481081
 23
8.9724157517266363
 33
0.0
210
0.0
220
0.0
230
1.0
  0
SOLID
  5
1BEA
  8
0
  6
CONTINUOUS
 62
    14
 10
8.9724157517266345
 20
8.9724157517266363
 30
0.0
 11
8.8222356798165613
 21
8.8222356798165631
 31
0.0
 12
10.35616193985331
 22
8.8222356798165631
 32
0.0
 13
10.35616193985331
 23
8.8222356798165631
 33
0.0
210
0.0
220
0.0
230
1.0
  0
SOLID
  5
1BEB
  8
0
  6
CONTINUOUS
 62
    14
 10
-8.9724157517266345
 20
8.9724157517266363
 30
0.0
 11
-10.115919480481081
 21
8.9724157517266363
 31
0.0
 12
-10.35616193985331
 22
8.8222356798165631
 32
0.0
 13
-10.35616193985331
 23
8.8222356798165631
 33
0.0
210
0.0
220
0.0
230
-1.0
  0
SOLID
  5
1BEC
  8
0
  6
CONTINUOUS
 62
    14
 10
8.8222356798165613
 20
8.8222356798165631
 30
0.0
 11
9.1403563887693906
 21
8.5443084716910889
 31
0.0
 12
10.800760981239449
 22
8.5443084716910889
 32
0.0
 13
10.800760981239449
 23
8.5443084716910889
 33
0.0
210
0.0
220
0.0
230
1.0
  0
SOLID
  5
1BED
  8
0
  6
CONTINUOUS
 62
    14
 10
-8.8222356798165613
 20
8.8222356798165631
 30
0.0
 11
-10.35616193985331
 21
8.8222356798165631
 31
0.0
 12
-10.800760981239449
 22
8.5443084716910889
 32
0.0
 13
-10.800760981239449
 23
8.5443084716910889
 33
0.0
210
0.0
220
0.0
230
-1.0
  0
SOLID
  5
1BEE
  8
0
  6
CONTINUOUS
 62
    14
 10
9.1403563887693906
 20
8.5443084716910889
 30
0.0
 11
9.3484568218760877
 21
8.3625008409542207
 31
0.0
 12
11.224211282405649
 22
8.3625008409542207
 32
0.0
 13
11.224211282405649
 23
8.3625008409542207
 33
0.0
210
0.0
220
0.0
230
1.0
  0
SOLID
  5
1BEF
  8
0
  6
CONTINUOUS
 62
    14
 10
-9.1403563887693906
 20
8.5443084716910889
 30
0.0
 11
-10.800760981239449
 21
8.5443084716910889
 31
0.0
 12
-11.224211282405649
 22
8.3625008409542207
 32
0.0
 13
-11.224211282405649
 23
8.3625008409542207
 33
0.0
210
0.0
220
0.0
230
-1.0
  0
SOLID
  5
1BF0
  8
0
  6
CONTINUOUS
 62
    14
 10
9.3484568218760877
 20
8.3625008409542207
 30
0.0
 11
9.5674708100706791
 21
8.2281114242291125
 31
0.0
 12
11.53721926097702
 22
8.2281114242291125
 32
0.0
 13
11.53721926097702
 23
8.2281114242291125
 33
0.0
210
0.0
220
0.0
230
1.0
  0
SOLID
  5
1BF1
  8
0
  6
CONTINUOUS
 62
    14
 10
-9.3484568218760877
 20
8.3625008409542207
 30
0.0
 11
-11.224211282405649
 21
8.3625008409542207
 31
0.0
 12
-11.53721926097702
 22
8.2281114242291125
 32
0.0
 13
-11.53721926097702
 23
8.2281114242291125
 33
0.0
210
0.0
220
0.0
230
-1.0
  0
SOLID
  5
1BF2
  8
0
  6
CONTINUOUS
 62
    14
 10
9.5674708100706791
 20
8.2281114242291125
 30
0.0
 11
9.8866271617501944
 21
8.0322735405400802
 31
0.0
 12
12.30561581419648
 22
8.0322735405400802
 32
0.0
 13
12.30561581419648
 23
8.0322735405400802
 33
0.0
210
0.0
220
0.0
230
1.0
  0
SOLID
  5
1BF3
  8
0
  6
CONTINUOUS
 62
    14
 10
-9.5674708100706791
 20
8.2281114242291125
 30
0.0
 11
-11.53721926097702
 21
8.2281114242291125
 31
0.0
 12
-12.30561581419648
 22
8.0322735405400802
 32
0.0
 13
-12.30561581419648
 23
8.0322735405400802
 33
0.0
210
0.0
220
0.0
230
-1.0
  0
SOLID
  5
1BF4
  8
0
  6
CONTINUOUS
 62
    14
 10
9.8866271617501944
 20
8.0322735405400802
 30
0.0
 11
9.9377074091940667
 21
8.0009301331315221
 31
0.0
 12
12.65356069002819
 22
8.0009301331315221
 32
0.0
 13
12.65356069002819
 23
8.0009301331315221
 33
0.0
210
0.0
220
0.0
230
1.0
  0
SOLID
  5
1BF5
  8
0
  6
CONTINUOUS
 62
    14
 10
-9.8866271617501944
 20
8.0322735405400802
 30
0.0
 11
-12.30561581419648
 21
8.0322735405400802
 31
0.0
 12
-12.65356069002819
 22
8.0009301331315221
 32
0.0
 13
-12.65356069002819
 23
8.0009301331315221
 33
0.0
210
0.0
220
0.0
230
-1.0
  0
SOLID
  5
1BF6
  8
0
  6
CONTINUOUS
 62
    14
 10
9.9377074091940667
 20
8.0009301331315221
 30
0.0
 11
10.03567206802501
 21
7.9620276993583126
 31
0.0
 12
13.0854187299768
 22
7.9620276993583126
 32
0.0
 13
13.0854187299768
 23
7.9620276993583126
 33
0.0
210
0.0
220
0.0
230
1.0
  0
SOLID
  5
1BF7
  8
0
  6
CONTINUOUS
 62
    14
 10
-9.9377074091940667
 20
8.0009301331315221
 30
0.0
 11
-12.65356069002819
 21
8.0009301331315221
 31
0.0
 12
-13.0854187299768
 22
7.9620276993583126
 32
0.0
 13
-13.0854187299768
 23
7.9620276993583126
 33
0.0
210
0.0
220
0.0
230
-1.0
  0
SOLID
  5
1BF8
  8
0
  6
CONTINUOUS
 62
    14
 10
10.03567206802501
 20
7.9620276993583126
 30
0.0
 11
10.56974890682757
 21
7.7499421462694658
 31
0.0
 12
12.56167977077588
 22
7.7499421462694658
 32
0.0
 13
12.56167977077588
 23
7.7499421462694658
 33
0.0
210
0.0
220
0.0
230
1.0
  0
SOLID
  5
1BF9
  8
0
  6
CONTINUOUS
 62
    14
 10
-10.03567206802501
 20
7.9620276993583126
 30
0.0
 11
-13.0854187299768
 21
7.9620276993583126
 31
0.0
 12
-12.56167977077588
 22
7.7499421462694658
 32
0.0
 13
-12.56167977077588
 23
7.7499421462694658
 33
0.0
210
0.0
220
0.0
230
-1.0
  0
SOLID
  5
1BFA
  8
0
  6
CONTINUOUS
 62
    14
 10
10.56974890682757
 20
7.7499421462694658
 30
0.0
 11
10.688143042523381
 21
7.7260530523303323
 31
0.0
 12
12.502686364512639
 22
7.7260530523303323
 32
0.0
 13
12.502686364512639
 23
7.7260530523303323
 33
0.0
  0
SOLID
  5
1BFB
  8
0
  6
CONTINUOUS
 62
    14
 10
-10.56974890682757
 20
7.7499421462694658
 30
0.0
 11
-12.56167977077588
 21
7.7499421462694658
 31
0.0
 12
-12.502686364512639
 22
7.7260530523303323
 32
0.0
 13
-12.502686364512639
 23
7.7260530523303323
 33
0.0
210
0.0
220
0.0
230
-1.0
  0
SOLID
  5
1BFC
  8
0
  6
CONTINUOUS
 62
    14
 10
-11.222873073477309
 20
7.6181573709567632
 30
0.0
 11
-11.918278184744491
 21
7.6181573709567632
 31
0.0
 12
-11.874647557689951
 22
7.6101021171157326
 32
0.0
 13
-11.874647557689951
 23
7.6101021171157326
 33
0.0
210
0.0
220
0.0
230
-1.0
  0
SOLID
  5
1BFD
  8
0
  6
CONTINUOUS
 62
    14
 10
10.688143042523381
 20
7.7260530523303323
 30
0.0
 11
11.222873073477309
 21
7.6181573709567632
 31
0.0
 12
11.918278184744491
 22
7.6181573709567632
 32
0.0
 13
11.918278184744491
 23
7.6181573709567632
 33
0.0
210
0.0
220
0.0
230
1.0
  0
SOLID
  5
1BFE
  8
0
  6
CONTINUOUS
 62
    14
 10
-10.688143042523381
 20
7.7260530523303323
 30
0.0
 11
-12.502686364512639
 21
7.7260530523303323
 31
0.0
 12
-11.918278184744491
 22
7.6181573709567632
 32
0.0
 13
-11.918278184744491
 23
7.6181573709567632
 33
0.0
210
0.0
220
0.0
230
-1.0
  0
LINE
  5
1BFF
  8
0
  6
CONTINUOUS
 62
    14
 10
9.5009940400166073
 20
9.5009940400166073
 30
0.0
 11
8.9724157517266345
 21
8.9724157517266363
 31
0.0
  0
LINE
  5
1C00
  8
0
  6
CONTINUOUS
 62
    14
 10
10.115919480481081
 20
8.9724157517266363
 30
0.0
 11
9.5009940400166073
 21
9.5009940400166073
 31
0.0
  0
LINE
  5
1C01
  8
0
  6
CONTINUOUS
 62
    14
 10
8.9724157517266345
 20
8.9724157517266363
 30
0.0
 11
8.8222356798165613
 21
8.8222356798165631
 31
0.0
  0
LINE
  5
1C02
  8
0
  6
CONTINUOUS
 62
    14
 10
10.115919480481081
 20
8.9724157517266363
 30
0.0
 11
10.35616193985331
 21
8.8222356798165631
 31
0.0
  0
LINE
  5
1C03
  8
0
  6
CONTINUOUS
 62
    14
 10
8.8222356798165613
 20
8.8222356798165631
 30
0.0
 11
9.1403563887693906
 21
8.5443084716910889
 31
0.0
  0
LINE
  5
1C04
  8
0
  6
CONTINUOUS
 62
    14
 10
10.35616193985331
 20
8.8222356798165631
 30
0.0
 11
10.800760981239449
 21
8.5443084716910889
 31
0.0
  0
LINE
  5
1C05
  8
0
  6
CONTINUOUS
 62
    14
 10
9.1403563887693906
 20
8.5443084716910889
 30
0.0
 11
9.3484568218760877
 21
8.3625008409542207
 31
0.0
  0
LINE
  5
1C06
  8
0
  6
CONTINUOUS
 62
    14
 10
10.800760981239449
 20
8.5443084716910889
 30
0.0
 11
11.224211282405649
 21
8.3625008409542207
 31
0.0
  0
LINE
  5
1C07
  8
0
  6
CONTINUOUS
 62
    14
 10
9.3484568218760877
 20
8.3625008409542207
 30
0.0
 11
9.5674708100706791
 21
8.2281114242291125
 31
0.0
  0
LINE
  5
1C08
  8
0
  6
CONTINUOUS
 62
    14
 10
11.224211282405649
 20
8.3625008409542207
 30
0.0
 11
11.53721926097702
 21
8.2281114242291125
 31
0.0
  0
LINE
  5
1C09
  8
0
  6
CONTINUOUS
 62
    14
 10
9.5674708100706791
 20
8.2281114242291125
 30
0.0
 11
9.8866271617501944
 21
8.0322735405400802
 31
0.0
  0
LINE
  5
1C0A
  8
0
  6
CONTINUOUS
 62
    14
 10
11.53721926097702
 20
8.2281114242291125
 30
0.0
 11
12.30561581419648
 21
8.0322735405400802
 31
0.0
  0
LINE
  5
1C0B
  8
0
  6
CONTINUOUS
 62
    14
 10
9.8866271617501944
 20
8.0322735405400802
 30
0.0
 11
9.9377074091940667
 21
8.0009301331315221
 31
0.0
  0
LINE
  5
1C0C
  8
0
  6
CONTINUOUS
 62
    14
 10
12.30561581419648
 20
8.0322735405400802
 30
0.0
 11
12.65356069002819
 21
8.0009301331315221
 31
0.0
  0
LINE
  5
1C0D
  8
0
  6
CONTINUOUS
 62
    14
 10
9.9377074091940667
 20
8.0009301331315221
 30
0.0
 11
10.03567206802501
 21
7.9620276993583126
 31
0.0
  0
LINE
  5
1C0E
  8
0
  6
CONTINUOUS
 62
    14
 10
12.65356069002819
 20
8.0009301331315221
 30
0.0
 11
13.0854187299768
 21
7.9620276993583126
 31
0.0
  0
LINE
  5
1C0F
  8
0
  6
CONTINUOUS
 62
    14
 10
10.03567206802501
 20
7.9620276993583126
 30
0.0
 11
10.56974890682757
 21
7.7499421462694658
 31
0.0
  0
LINE
  5
1C10
  8
0
  6
CONTINUOUS
 62
    14
 10
13.0854187299768
 20
7.9620276993583126
 30
0.0
 11
12.56167977077588
 21
7.7499421462694658
 31
0.0
  0
LINE
  5
1C11
  8
0
  6
CONTINUOUS
 62
    14
 10
10.56974890682757
 20
7.7499421462694658
 30
0.0
 11
10.688143042523381
 21
7.7260530523303323
 31
0.0
  0
LINE
  5
1C12
  8
0
  6
CONTINUOUS
 62
    14
 10
12.56167977077588
 20
7.7499421462694658
 30
0.0
 11
12.502686364512639
 21
7.7260530523303323
 31
0.0
  0
LINE
  5
1C13
  8
0
  6
CONTINUOUS
 62
    14
 10
11.918278184744491
 20
7.6181573709567632
 30
0.0
 11
11.874647557689951
 21
7.6101021171157326
 31
0.0
  0
LINE
  5
1C14
  8
0
  6
CONTINUOUS
 62
    14
 10
11.874647557689951
 20
7.6101021171157326
 30
0.0
 11
11.222873073477309
 21
7.6181573709567632
 31
0.0
  0
LINE
  5
1C15
  8
0
  6
CONTINUOUS
 62
    14
 10
10.688143042523381
 20
7.7260530523303323
 30
0.0
 11
11.222873073477309
 21
7.6181573709567632
 31
0.0
  0
LINE
  5
1C16
  8
0
  6
CONTINUOUS
 62
    14
 10
12.502686364512639
 20
7.7260530523303323
 30
0.0
 11
11.918278184744491
 21
7.6181573709567632
 31
0.0
  0
ENDBLK
  5
1C18
  8
0
  0
BLOCK
  8
0
  2
*U64
 70
     1
 10
0.0
 20
0.0
 30
0.0
  3
*U64
  1

  0
SOLID
  5
1C1A
  8
0
  6
CONTINUOUS
 62
    12
 10
6.2181777945863397
 20
6.2181777945863503
 30
0.0
 11
6.0146099189681808
 21
6.0146099189681914
 31
0.0
 12
6.4575146422963181
 22
6.0146099189681914
 32
0.0
 13
6.4575146422963181
 23
6.0146099189681914
 33
0.0
210
0.0
220
0.0
230
1.0
  0
SOLID
  5
1C1B
  8
0
  6
CONTINUOUS
 62
    12
 10
11.308321349202121
 20
6.0146099189681914
 30
0.0
 11
11.043541052730079
 21
5.7956751554289241
 31
0.0
 12
11.29569151105833
 22
5.7956751554289241
 32
0.0
 13
11.29569151105833
 23
5.7956751554289241
 33
0.0
210
0.0
220
0.0
230
1.0
  0
SOLID
  5
1C1C
  8
0
  6
CONTINUOUS
 62
    12
 10
6.0146099189681808
 20
6.0146099189681914
 30
0.0
 11
5.7956751554289161
 21
5.7956751554289241
 31
0.0
 12
6.7149184983836356
 22
5.7956751554289241
 32
0.0
 13
6.7149184983836356
 23
5.7956751554289241
 33
0.0
210
0.0
220
0.0
230
1.0
  0
SOLID
  5
1C1D
  8
0
  6
CONTINUOUS
 62
    12
 10
-6.0146099189681808
 20
6.0146099189681914
 30
0.0
 11
-6.4575146422963181
 21
6.0146099189681914
 31
0.0
 12
-6.7149184983836356
 22
5.7956751554289241
 32
0.0
 13
-6.7149184983836356
 23
5.7956751554289241
 33
0.0
210
0.0
220
0.0
230
-1.0
  0
SOLID
  5
1C1E
  8
0
  6
CONTINUOUS
 62
    12
 10
11.043541052730079
 20
5.7956751554289241
 30
0.0
 11
10.84383718259229
 21
5.6305491238886081
 31
0.0
 12
11.28616577372012
 22
5.6305491238886081
 32
0.0
 13
11.28616577372012
 23
5.6305491238886081
 33
0.0
210
0.0
220
0.0
230
1.0
  0
SOLID
  5
1C1F
  8
0
  6
CONTINUOUS
 62
    12
 10
-11.043541052730079
 20
5.7956751554289241
 30
0.0
 11
-11.29569151105833
 21
5.7956751554289241
 31
0.0
 12
-11.28616577372012
 22
5.6305491238886081
 32
0.0
 13
-11.28616577372012
 23
5.6305491238886081
 33
0.0
210
0.0
220
0.0
230
-1.0
  0
SOLID
  5
1C20
  8
0
  6
CONTINUOUS
 62
    12
 10
5.7956751554289161
 20
5.7956751554289241
 30
0.0
 11
5.4602481098055078
 21
5.4602481098055167
 31
0.0
 12
7.2708040518988462
 22
5.4602481098055167
 32
0.0
 13
7.2708040518988462
 23
5.4602481098055167
 33
0.0
210
0.0
220
0.0
230
1.0
  0
SOLID
  5
1C21
  8
0
  6
CONTINUOUS
 62
    12
 10
-5.7956751554289161
 20
5.7956751554289241
 30
0.0
 11
-6.7149184983836356
 21
5.7956751554289241
 31
0.0
 12
-7.2708040518988462
 22
5.4602481098055167
 32
0.0
 13
-7.2708040518988462
 23
5.4602481098055167
 33
0.0
210
0.0
220
0.0
230
-1.0
  0
SOLID
  5
1C22
  8
0
  6
CONTINUOUS
 62
    12
 10
10.84383718259229
 20
5.6305491238886081
 30
0.0
 11
10.313042760814341
 21
5.3385811932535301
 31
0.0
 12
11.26932282174902
 22
5.3385811932535301
 32
0.0
 13
11.26932282174902
 23
5.3385811932535301
 33
0.0
210
0.0
220
0.0
230
1.0
  0
SOLID
  5
1C23
  8
0
  6
CONTINUOUS
 62
    12
 10
-10.84383718259229
 20
5.6305491238886081
 30
0.0
 11
-11.28616577372012
 21
5.6305491238886081
 31
0.0
 12
-11.26932282174902
 22
5.3385811932535301
 32
0.0
 13
-11.26932282174902
 23
5.3385811932535301
 33
0.0
210
0.0
220
0.0
230
-1.0
  0
SOLID
  5
1C24
  8
0
  6
CONTINUOUS
 62
    12
 10
5.4602481098055078
 20
5.4602481098055167
 30
0.0
 11
5.2220884387631097
 21
5.2220884387631186
 31
0.0
 12
7.8689441538800731
 22
5.2220884387631186
 32
0.0
 13
7.8689441538800731
 23
5.2220884387631186
 33
0.0
210
0.0
220
0.0
230
1.0
  0
SOLID
  5
1C25
  8
0
  6
CONTINUOUS
 62
    12
 10
-5.4602481098055078
 20
5.4602481098055167
 30
0.0
 11
-7.2708040518988462
 21
5.4602481098055167
 31
0.0
 12
-7.8689441538800731
 22
5.2220884387631186
 32
0.0
 13
-7.8689441538800731
 23
5.2220884387631186
 33
0.0
210
0.0
220
0.0
230
-1.0
  0
SOLID
  5
1C26
  8
0
  6
CONTINUOUS
 62
    12
 10
10.313042760814341
 20
5.3385811932535301
 30
0.0
 11
9.8091305753009905
 21
5.1729134187847681
 31
0.0
 12
11.259765832519189
 22
5.1729134187847681
 32
0.0
 13
11.259765832519189
 23
5.1729134187847681
 33
0.0
  0
SOLID
  5
1C27
  8
0
  6
CONTINUOUS
 62
    12
 10
-10.313042760814341
 20
5.3385811932535301
 30
0.0
 11
-11.26932282174902
 21
5.3385811932535301
 31
0.0
 12
-11.259765832519189
 22
5.1729134187847681
 32
0.0
 13
-11.259765832519189
 23
5.1729134187847681
 33
0.0
210
0.0
220
0.0
230
-1.0
  0
SOLID
  5
1C28
  8
0
  6
CONTINUOUS
 62
    12
 10
9.8091305753009905
 20
5.1729134187847681
 30
0.0
 11
9.7320660037790798
 21
5.1475774248924644
 31
0.0
 12
11.252887223853129
 22
5.1475774248924644
 32
0.0
 13
11.252887223853129
 23
5.1475774248924644
 33
0.0
210
0.0
220
0.0
230
1.0
  0
SOLID
  5
1C29
  8
0
  6
CONTINUOUS
 62
    12
 10
-9.8091305753009905
 20
5.1729134187847681
 30
0.0
 11
-11.259765832519189
 21
5.1729134187847681
 31
0.0
 12
-11.252887223853129
 22
5.1475774248924644
 32
0.0
 13
-11.252887223853129
 23
5.1475774248924644
 33
0.0
210
0.0
220
0.0
230
-1.0
  0
SOLID
  5
1C2A
  8
0
  6
CONTINUOUS
 62
    12
 10
5.2220884387631097
 20
5.2220884387631186
 30
0.0
 11
5.0884325033917381
 21
5.088432503391747
 31
0.0
 12
8.4911646200021114
 22
5.088432503391747
 32
0.0
 13
8.4911646200021114
 23
5.088432503391747
 33
0.0
210
0.0
220
0.0
230
1.0
  0
SOLID
  5
1C2B
  8
0
  6
CONTINUOUS
 62
    12
 10
-5.2220884387631097
 20
5.2220884387631186
 30
0.0
 11
-7.8689441538800731
 21
5.2220884387631186
 31
0.0
 12
-8.4911646200021114
 22
5.088432503391747
 32
0.0
 13
-8.4911646200021114
 23
5.088432503391747
 33
0.0
210
0.0
220
0.0
230
-1.0
  0
SOLID
  5
1C2C
  8
0
  6
CONTINUOUS
 62
    12
 10
9.7320660037790798
 20
5.1475774248924644
 30
0.0
 11
9.1185595962605923
 21
5.0633413716544906
 31
0.0
 12
11.23001751334324
 22
5.0633413716544906
 32
0.0
 13
11.23001751334324
 23
5.0633413716544906
 33
0.0
210
0.0
220
0.0
230
1.0
  0
SOLID
  5
1C2D
  8
0
  6
CONTINUOUS
 62
    12
 10
-9.7320660037790798
 20
5.1475774248924644
 30
0.0
 11
-11.252887223853129
 21
5.1475774248924644
 31
0.0
 12
-11.23001751334324
 22
5.0633413716544906
 32
0.0
 13
-11.23001751334324
 23
5.0633413716544906
 33
0.0
210
0.0
220
0.0
230
-1.0
  0
SOLID
  5
1C2E
  8
0
  6
CONTINUOUS
 62
    12
 10
5.0884325033917381
 20
5.088432503391747
 30
0.0
 11
5.0633413716544817
 21
5.0633413716544906
 31
0.0
 12
9.1185595962605923
 22
5.0633413716544906
 32
0.0
 13
9.1185595962605923
 23
5.0633413716544906
 33
0.0
  0
SOLID
  5
1C2F
  8
0
  6
CONTINUOUS
 62
    12
 10
-5.0884325033917381
 20
5.088432503391747
 30
0.0
 11
-8.4911646200021114
 21
5.088432503391747
 31
0.0
 12
-9.1185595962605923
 22
5.0633413716544906
 32
0.0
 13
-9.1185595962605923
 23
5.0633413716544906
 33
0.0
210
0.0
220
0.0
230
-1.0
  0
SOLID
  5
1C30
  8
0
  6
CONTINUOUS
 62
    12
 10
5.0633413716544817
 20
5.0633413716544906
 30
0.0
 11
4.3888130564947812
 21
4.3888130564947883
 31
0.0
 12
11.04688610220216
 22
4.3888130564947883
 32
0.0
 13
11.04688610220216
 23
4.3888130564947883
 33
0.0
210
0.0
220
0.0
230
1.0
  0
SOLID
  5
1C31
  8
0
  6
CONTINUOUS
 62
    12
 10
-5.0633413716544817
 20
5.0633413716544906
 30
0.0
 11
-11.23001751334324
 21
5.0633413716544906
 31
0.0
 12
-11.04688610220216
 22
4.3888130564947883
 32
0.0
 13
-11.04688610220216
 23
4.3888130564947883
 33
0.0
210
0.0
220
0.0
230
-1.0
  0
SOLID
  5
1C32
  8
0
  6
CONTINUOUS
 62
    12
 10
4.3888130564947812
 20
4.3888130564947883
 30
0.0
 11
3.8709865571331288
 21
3.8709865571331359
 31
0.0
 12
10.77277438868644
 22
3.8709865571331359
 32
0.0
 13
10.77277438868644
 23
3.8709865571331359
 33
0.0
  0
SOLID
  5
1C33
  8
0
  6
CONTINUOUS
 62
    12
 10
-4.3888130564947812
 20
4.3888130564947883
 30
0.0
 11
-11.04688610220216
 21
4.3888130564947883
 31
0.0
 12
-10.77277438868644
 22
3.8709865571331359
 32
0.0
 13
-10.77277438868644
 23
3.8709865571331359
 33
0.0
210
0.0
220
0.0
230
-1.0
  0
SOLID
  5
1C34
  8
0
  6
CONTINUOUS
 62
    12
 10
3.8709865571331288
 20
3.8709865571331359
 30
0.0
 11
4.0816432237694196
 21
3.690896321362759
 31
0.0
 12
10.677443533322091
 22
3.690896321362759
 32
0.0
 13
10.677443533322091
 23
3.690896321362759
 33
0.0
  0
SOLID
  5
1C35
  8
0
  6
CONTINUOUS
 62
    12
 10
-3.8709865571331288
 20
3.8709865571331359
 30
0.0
 11
-10.77277438868644
 21
3.8709865571331359
 31
0.0
 12
-10.677443533322091
 22
3.690896321362759
 32
0.0
 13
-10.677443533322091
 23
3.690896321362759
 33
0.0
210
0.0
220
0.0
230
-1.0
  0
SOLID
  5
1C36
  8
0
  6
CONTINUOUS
 62
    12
 10
4.0816432237694196
 20
3.690896321362759
 30
0.0
 11
4.5950564115683408
 21
3.2519797491283451
 31
0.0
 12
10.293740321452191
 22
3.2519797491283451
 32
0.0
 13
10.293740321452191
 23
3.2519797491283451
 33
0.0
210
0.0
220
0.0
230
1.0
  0
SOLID
  5
1C37
  8
0
  6
CONTINUOUS
 62
    12
 10
-4.0816432237694196
 20
3.690896321362759
 30
0.0
 11
-10.677443533322091
 21
3.690896321362759
 31
0.0
 12
-10.293740321452191
 22
3.2519797491283451
 32
0.0
 13
-10.293740321452191
 23
3.2519797491283451
 33
0.0
210
0.0
220
0.0
230
-1.0
  0
SOLID
  5
1C38
  8
0
  6
CONTINUOUS
 62
    12
 10
4.5950564115683408
 20
3.2519797491283451
 30
0.0
 11
4.8358089786345291
 21
3.1046085366312761
 31
0.0
 12
10.164907620320809
 22
3.1046085366312761
 32
0.0
 13
10.164907620320809
 23
3.1046085366312761
 33
0.0
  0
SOLID
  5
1C39
  8
0
  6
CONTINUOUS
 62
    12
 10
-4.5950564115683408
 20
3.2519797491283451
 30
0.0
 11
-10.293740321452191
 21
3.2519797491283451
 31
0.0
 12
-10.164907620320809
 22
3.1046085366312761
 32
0.0
 13
-10.164907620320809
 23
3.1046085366312761
 33
0.0
210
0.0
220
0.0
230
-1.0
  0
SOLID
  5
1C3A
  8
0
  6
CONTINUOUS
 62
    12
 10
4.8358089786345291
 20
3.1046085366312761
 30
0.0
 11
5.397790473476733
 21
2.7606043363643571
 31
0.0
 12
9.6815213334919559
 22
2.7606043363643571
 32
0.0
 13
9.6815213334919559
 23
2.7606043363643571
 33
0.0
  0
SOLID
  5
1C3B
  8
0
  6
CONTINUOUS
 62
    12
 10
-4.8358089786345291
 20
3.1046085366312761
 30
0.0
 11
-10.164907620320809
 21
3.1046085366312761
 31
0.0
 12
-9.6815213334919559
 22
2.7606043363643571
 32
0.0
 13
-9.6815213334919559
 23
2.7606043363643571
 33
0.0
210
0.0
220
0.0
230
-1.0
  0
SOLID
  5
1C3C
  8
0
  6
CONTINUOUS
 62
    12
 10
5.397790473476733
 20
2.7606043363643571
 30
0.0
 11
5.6670571755101742
 21
2.6513251493196099
 31
0.0
 12
9.5279648931570726
 22
2.6513251493196099
 32
0.0
 13
9.5279648931570726
 23
2.6513251493196099
 33
0.0
210
0.0
220
0.0
230
1.0
  0
SOLID
  5
1C3D
  8
0
  6
CONTINUOUS
 62
    12
 10
-5.397790473476733
 20
2.7606043363643571
 30
0.0
 11
-9.6815213334919559
 21
2.7606043363643571
 31
0.0
 12
-9.5279648931570726
 22
2.6513251493196099
 32
0.0
 13
-9.5279648931570726
 23
2.6513251493196099
 33
0.0
210
0.0
220
0.0
230
-1.0
  0
SOLID
  5
1C3E
  8
0
  6
CONTINUOUS
 62
    12
 10
5.6670571755101742
 20
2.6513251493196099
 30
0.0
 11
6.2499218881535841
 21
2.4147753588192189
 31
0.0
 12
8.9531425981182267
 22
2.4147753588192189
 32
0.0
 13
8.9531425981182267
 23
2.4147753588192189
 33
0.0
210
0.0
220
0.0
230
1.0
  0
SOLID
  5
1C3F
  8
0
  6
CONTINUOUS
 62
    12
 10
-5.6670571755101742
 20
2.6513251493196099
 30
0.0
 11
-9.5279648931570726
 21
2.6513251493196099
 31
0.0
 12
-8.9531425981182267
 22
2.4147753588192189
 32
0.0
 13
-8.9531425981182267
 23
2.4147753588192189
 33
0.0
210
0.0
220
0.0
230
-1.0
  0
SOLID
  5
1C40
  8
0
  6
CONTINUOUS
 62
    12
 10
6.2499218881535841
 20
2.4147753588192189
 30
0.0
 11
6.5616195936739219
 21
2.347572403505378
 31
0.0
 12
8.7898376257266708
 22
2.347572403505378
 32
0.0
 13
8.7898376257266708
 23
2.347572403505378
 33
0.0
210
0.0
220
0.0
230
1.0
  0
SOLID
  5
1C41
  8
0
  6
CONTINUOUS
 62
    12
 10
-6.2499218881535841
 20
2.4147753588192189
 30
0.0
 11
-8.9531425981182267
 21
2.4147753588192189
 31
0.0
 12
-8.7898376257266708
 22
2.347572403505378
 32
0.0
 13
-8.7898376257266708
 23
2.347572403505378
 33
0.0
210
0.0
220
0.0
230
-1.0
  0
SOLID
  5
1C42
  8
0
  6
CONTINUOUS
 62
    12
 10
-7.1203828244377414
 20
2.2271013837866018
 30
0.0
 11
-8.1061327264718201
 21
2.2271013837866018
 31
0.0
 12
-7.9774371757439217
 22
2.2044248105364228
 32
0.0
 13
-7.9774371757439217
 23
2.2044248105364228
 33
0.0
210
0.0
220
0.0
230
-1.0
  0
SOLID
  5
1C43
  8
0
  6
CONTINUOUS
 62
    12
 10
6.5616195936739219
 20
2.347572403505378
 30
0.0
 11
7.1203828244377414
 21
2.2271013837866018
 31
0.0
 12
8.1061327264718201
 22
2.2271013837866018
 32
0.0
 13
8.1061327264718201
 23
2.2271013837866018
 33
0.0
210
0.0
220
0.0
230
1.0
  0
SOLID
  5
1C44
  8
0
  6
CONTINUOUS
 62
    12
 10
-6.5616195936739219
 20
2.347572403505378
 30
0.0
 11
-8.7898376257266708
 21
2.347572403505378
 31
0.0
 12
-8.1061327264718201
 22
2.2271013837866018
 32
0.0
 13
-8.1061327264718201
 23
2.2271013837866018
 33
0.0
210
0.0
220
0.0
230
-1.0
  0
LINE
  5
1C45
  8
0
  6
CONTINUOUS
 62
    12
 10
6.2181777945863397
 20
6.2181777945863503
 30
0.0
 11
6.0146099189681808
 21
6.0146099189681914
 31
0.0
  0
LINE
  5
1C46
  8
0
  6
CONTINUOUS
 62
    12
 10
6.4575146422963181
 20
6.0146099189681914
 30
0.0
 11
6.2181777945863397
 21
6.2181777945863503
 31
0.0
  0
LINE
  5
1C47
  8
0
  6
CONTINUOUS
 62
    12
 10
11.308321349202121
 20
6.0146099189681914
 30
0.0
 11
11.043541052730079
 21
5.7956751554289241
 31
0.0
  0
LINE
  5
1C48
  8
0
  6
CONTINUOUS
 62
    12
 10
11.29569151105833
 20
5.7956751554289241
 30
0.0
 11
11.308321349202121
 21
6.0146099189681914
 31
0.0
  0
LINE
  5
1C49
  8
0
  6
CONTINUOUS
 62
    12
 10
6.0146099189681808
 20
6.0146099189681914
 30
0.0
 11
5.7956751554289161
 21
5.7956751554289241
 31
0.0
  0
LINE
  5
1C4A
  8
0
  6
CONTINUOUS
 62
    12
 10
6.4575146422963181
 20
6.0146099189681914
 30
0.0
 11
6.7149184983836356
 21
5.7956751554289241
 31
0.0
  0
LINE
  5
1C4B
  8
0
  6
CONTINUOUS
 62
    12
 10
11.043541052730079
 20
5.7956751554289241
 30
0.0
 11
10.84383718259229
 21
5.6305491238886081
 31
0.0
  0
LINE
  5
1C4C
  8
0
  6
CONTINUOUS
 62
    12
 10
11.29569151105833
 20
5.7956751554289241
 30
0.0
 11
11.28616577372012
 21
5.6305491238886081
 31
0.0
  0
LINE
  5
1C4D
  8
0
  6
CONTINUOUS
 62
    12
 10
5.7956751554289161
 20
5.7956751554289241
 30
0.0
 11
5.4602481098055078
 21
5.4602481098055167
 31
0.0
  0
LINE
  5
1C4E
  8
0
  6
CONTINUOUS
 62
    12
 10
6.7149184983836356
 20
5.7956751554289241
 30
0.0
 11
7.2708040518988462
 21
5.4602481098055167
 31
0.0
  0
LINE
  5
1C4F
  8
0
  6
CONTINUOUS
 62
    12
 10
10.84383718259229
 20
5.6305491238886081
 30
0.0
 11
10.313042760814341
 21
5.3385811932535301
 31
0.0
  0
LINE
  5
1C50
  8
0
  6
CONTINUOUS
 62
    12
 10
11.28616577372012
 20
5.6305491238886081
 30
0.0
 11
11.26932282174902
 21
5.3385811932535301
 31
0.0
  0
LINE
  5
1C51
  8
0
  6
CONTINUOUS
 62
    12
 10
5.4602481098055078
 20
5.4602481098055167
 30
0.0
 11
5.2220884387631097
 21
5.2220884387631186
 31
0.0
  0
LINE
  5
1C52
  8
0
  6
CONTINUOUS
 62
    12
 10
7.2708040518988462
 20
5.4602481098055167
 30
0.0
 11
7.8689441538800731
 21
5.2220884387631186
 31
0.0
  0
LINE
  5
1C53
  8
0
  6
CONTINUOUS
 62
    12
 10
10.313042760814341
 20
5.3385811932535301
 30
0.0
 11
9.8091305753009905
 21
5.1729134187847681
 31
0.0
  0
LINE
  5
1C54
  8
0
  6
CONTINUOUS
 62
    12
 10
11.26932282174902
 20
5.3385811932535301
 30
0.0
 11
11.259765832519189
 21
5.1729134187847681
 31
0.0
  0
LINE
  5
1C55
  8
0
  6
CONTINUOUS
 62
    12
 10
9.8091305753009905
 20
5.1729134187847681
 30
0.0
 11
9.7320660037790798
 21
5.1475774248924644
 31
0.0
  0
LINE
  5
1C56
  8
0
  6
CONTINUOUS
 62
    12
 10
11.259765832519189
 20
5.1729134187847681
 30
0.0
 11
11.252887223853129
 21
5.1475774248924644
 31
0.0
  0
LINE
  5
1C57
  8
0
  6
CONTINUOUS
 62
    12
 10
5.2220884387631097
 20
5.2220884387631186
 30
0.0
 11
5.0884325033917381
 21
5.088432503391747
 31
0.0
  0
LINE
  5
1C58
  8
0
  6
CONTINUOUS
 62
    12
 10
7.8689441538800731
 20
5.2220884387631186
 30
0.0
 11
8.4911646200021114
 21
5.088432503391747
 31
0.0
  0
LINE
  5
1C59
  8
0
  6
CONTINUOUS
 62
    12
 10
9.7320660037790798
 20
5.1475774248924644
 30
0.0
 11
9.1185595962605923
 21
5.0633413716544906
 31
0.0
  0
LINE
  5
1C5A
  8
0
  6
CONTINUOUS
 62
    12
 10
11.252887223853129
 20
5.1475774248924644
 30
0.0
 11
11.23001751334324
 21
5.0633413716544906
 31
0.0
  0
LINE
  5
1C5B
  8
0
  6
CONTINUOUS
 62
    12
 10
5.0884325033917381
 20
5.088432503391747
 30
0.0
 11
5.0633413716544817
 21
5.0633413716544906
 31
0.0
  0
LINE
  5
1C5C
  8
0
  6
CONTINUOUS
 62
    12
 10
8.4911646200021114
 20
5.088432503391747
 30
0.0
 11
9.1185595962605923
 21
5.0633413716544906
 31
0.0
  0
LINE
  5
1C5D
  8
0
  6
CONTINUOUS
 62
    12
 10
5.0633413716544817
 20
5.0633413716544906
 30
0.0
 11
4.3888130564947812
 21
4.3888130564947883
 31
0.0
  0
LINE
  5
1C5E
  8
0
  6
CONTINUOUS
 62
    12
 10
11.23001751334324
 20
5.0633413716544906
 30
0.0
 11
11.04688610220216
 21
4.3888130564947883
 31
0.0
  0
LINE
  5
1C5F
  8
0
  6
CONTINUOUS
 62
    12
 10
4.3888130564947812
 20
4.3888130564947883
 30
0.0
 11
3.8709865571331288
 21
3.8709865571331359
 31
0.0
  0
LINE
  5
1C60
  8
0
  6
CONTINUOUS
 62
    12
 10
11.04688610220216
 20
4.3888130564947883
 30
0.0
 11
10.77277438868644
 21
3.8709865571331359
 31
0.0
  0
LINE
  5
1C61
  8
0
  6
CONTINUOUS
 62
    12
 10
3.8709865571331288
 20
3.8709865571331359
 30
0.0
 11
4.0816432237694196
 21
3.690896321362759
 31
0.0
  0
LINE
  5
1C62
  8
0
  6
CONTINUOUS
 62
    12
 10
10.77277438868644
 20
3.8709865571331359
 30
0.0
 11
10.677443533322091
 21
3.690896321362759
 31
0.0
  0
LINE
  5
1C63
  8
0
  6
CONTINUOUS
 62
    12
 10
4.0816432237694196
 20
3.690896321362759
 30
0.0
 11
4.5950564115683408
 21
3.2519797491283451
 31
0.0
  0
LINE
  5
1C64
  8
0
  6
CONTINUOUS
 62
    12
 10
10.677443533322091
 20
3.690896321362759
 30
0.0
 11
10.293740321452191
 21
3.2519797491283451
 31
0.0
  0
LINE
  5
1C65
  8
0
  6
CONTINUOUS
 62
    12
 10
4.5950564115683408
 20
3.2519797491283451
 30
0.0
 11
4.8358089786345291
 21
3.1046085366312761
 31
0.0
  0
LINE
  5
1C66
  8
0
  6
CONTINUOUS
 62
    12
 10
10.293740321452191
 20
3.2519797491283451
 30
0.0
 11
10.164907620320809
 21
3.1046085366312761
 31
0.0
  0
LINE
  5
1C67
  8
0
  6
CONTINUOUS
 62
    12
 10
4.8358089786345291
 20
3.1046085366312761
 30
0.0
 11
5.397790473476733
 21
2.7606043363643571
 31
0.0
  0
LINE
  5
1C68
  8
0
  6
CONTINUOUS
 62
    12
 10
10.164907620320809
 20
3.1046085366312761
 30
0.0
 11
9.6815213334919559
 21
2.7606043363643571
 31
0.0
  0
LINE
  5
1C69
  8
0
  6
CONTINUOUS
 62
    12
 10
5.397790473476733
 20
2.7606043363643571
 30
0.0
 11
5.6670571755101742
 21
2.6513251493196099
 31
0.0
  0
LINE
  5
1C6A
  8
0
  6
CONTINUOUS
 62
    12
 10
9.6815213334919559
 20
2.7606043363643571
 30
0.0
 11
9.5279648931570726
 21
2.6513251493196099
 31
0.0
  0
LINE
  5
1C6B
  8
0
  6
CONTINUOUS
 62
    12
 10
5.6670571755101742
 20
2.6513251493196099
 30
0.0
 11
6.2499218881535841
 21
2.4147753588192189
 31
0.0
  0
LINE
  5
1C6C
  8
0
  6
CONTINUOUS
 62
    12
 10
9.5279648931570726
 20
2.6513251493196099
 30
0.0
 11
8.9531425981182267
 21
2.4147753588192189
 31
0.0
  0
LINE
  5
1C6D
  8
0
  6
CONTINUOUS
 62
    12
 10
6.2499218881535841
 20
2.4147753588192189
 30
0.0
 11
6.5616195936739219
 21
2.347572403505378
 31
0.0
  0
LINE
  5
1C6E
  8
0
  6
CONTINUOUS
 62
    12
 10
8.9531425981182267
 20
2.4147753588192189
 30
0.0
 11
8.7898376257266708
 21
2.347572403505378
 31
0.0
  0
LINE
  5
1C6F
  8
0
  6
CONTINUOUS
 62
    12
 10
8.1061327264718201
 20
2.2271013837866018
 30
0.0
 11
7.9774371757439217
 21
2.2044248105364228
 31
0.0
  0
LINE
  5
1C70
  8
0
  6
CONTINUOUS
 62
    12
 10
7.9774371757439217
 20
2.2044248105364228
 30
0.0
 11
7.1203828244377414
 21
2.2271013837866018
 31
0.0
  0
LINE
  5
1C71
  8
0
  6
CONTINUOUS
 62
    12
 10
6.5616195936739219
 20
2.347572403505378
 30
0.0
 11
7.1203828244377414
 21
2.2271013837866018
 31
0.0
  0
LINE
  5
1C72
  8
0
  6
CONTINUOUS
 62
    12
 10
8.7898376257266708
 20
2.347572403505378
 30
0.0
 11
8.1061327264718201
 21
2.2271013837866018
 31
0.0
  0
ENDBLK
  5
1C74
  8
0
  0
BLOCK
  8
0
  2
*U65
 70
     1
 10
0.0
 20
0.0
 30
0.0
  3
*U65
  1

  0
SOLID
  5
1C76
  8
0
  6
CONTINUOUS
 62
    14
 10
8.8222356798165613
 20
8.8222356798165631
 30
0.0
 11
8.3625008409542207
 21
8.3625008409542207
 31
0.0
 12
9.3484568218760877
 22
8.3625008409542207
 32
0.0
 13
9.3484568218760877
 23
8.3625008409542207
 33
0.0
210
0.0
220
0.0
230
1.0
  0
SOLID
  5
1C77
  8
0
  6
CONTINUOUS
 62
    14
 10
8.3625008409542207
 20
8.3625008409542207
 30
0.0
 11
8.0009301331315221
 21
8.0009301331315221
 31
0.0
 12
9.9377074091940667
 22
8.0009301331315221
 32
0.0
 13
9.9377074091940667
 23
8.0009301331315221
 33
0.0
  0
SOLID
  5
1C78
  8
0
  6
CONTINUOUS
 62
    14
 10
-8.3625008409542207
 20
8.3625008409542207
 30
0.0
 11
-9.3484568218760877
 21
8.3625008409542207
 31
0.0
 12
-9.9377074091940667
 22
8.0009301331315221
 32
0.0
 13
-9.9377074091940667
 23
8.0009301331315221
 33
0.0
210
0.0
220
0.0
230
-1.0
  0
SOLID
  5
1C79
  8
0
  6
CONTINUOUS
 62
    14
 10
13.085418729976791
 20
7.9620276993582593
 30
0.0
 11
12.561679770775889
 21
7.7499421462694658
 31
0.0
 12
12.89188209665163
 22
7.7499421462694658
 32
0.0
 13
12.89188209665163
 23
7.7499421462694658
 33
0.0
210
0.0
220
0.0
230
1.0
  0
SOLID
  5
1C7A
  8
0
  6
CONTINUOUS
 62
    14
 10
8.0009301331315221
 20
8.0009301331315221
 30
0.0
 11
7.7499421462694684
 21
7.7499421462694658
 31
0.0
 12
10.56974890682757
 22
7.7499421462694658
 32
0.0
 13
10.56974890682757
 23
7.7499421462694658
 33
0.0
  0
SOLID
  5
1C7B
  8
0
  6
CONTINUOUS
 62
    14
 10
-8.0009301331315221
 20
8.0009301331315221
 30
0.0
 11
-9.9377074091940667
 21
8.0009301331315221
 31
0.0
 12
-10.56974890682757
 22
7.7499421462694658
 32
0.0
 13
-10.56974890682757
 23
7.7499421462694658
 33
0.0
210
0.0
220
0.0
230
-1.0
  0
SOLID
  5
1C7C
  8
0
  6
CONTINUOUS
 62
    14
 10
12.561679770775889
 20
7.7499421462694658
 30
0.0
 11
12.502686364512639
 21
7.7260530523303323
 31
0.0
 12
12.8700823335521
 22
7.7260530523303323
 32
0.0
 13
12.8700823335521
 23
7.7260530523303323
 33
0.0
  0
SOLID
  5
1C7D
  8
0
  6
CONTINUOUS
 62
    14
 10
-12.561679770775889
 20
7.7499421462694658
 30
0.0
 11
-12.89188209665163
 21
7.7499421462694658
 31
0.0
 12
-12.8700823335521
 22
7.7260530523303323
 32
0.0
 13
-12.8700823335521
 23
7.7260530523303323
 33
0.0
210
0.0
220
0.0
230
-1.0
  0
SOLID
  5
1C7E
  8
0
  6
CONTINUOUS
 62
    14
 10
7.7499421462694684
 20
7.7499421462694658
 30
0.0
 11
7.6181573709567649
 21
7.6181573709567632
 31
0.0
 12
11.222873073477309
 22
7.6181573709567632
 32
0.0
 13
11.222873073477309
 23
7.6181573709567632
 33
0.0
210
0.0
220
0.0
230
1.0
  0
SOLID
  5
1C7F
  8
0
  6
CONTINUOUS
 62
    14
 10
-7.7499421462694684
 20
7.7499421462694658
 30
0.0
 11
-10.56974890682757
 21
7.7499421462694658
 31
0.0
 12
-11.222873073477309
 22
7.6181573709567632
 32
0.0
 13
-11.222873073477309
 23
7.6181573709567632
 33
0.0
210
0.0
220
0.0
230
-1.0
  0
SOLID
  5
1C80
  8
0
  6
CONTINUOUS
 62
    14
 10
12.502686364512639
 20
7.7260530523303323
 30
0.0
 11
11.874647557689951
 21
7.6101021171157326
 31
0.0
 12
12.76427242191261
 22
7.6101021171157326
 32
0.0
 13
12.76427242191261
 23
7.6101021171157326
 33
0.0
210
0.0
220
0.0
230
1.0
  0
SOLID
  5
1C81
  8
0
  6
CONTINUOUS
 62
    14
 10
-12.502686364512639
 20
7.7260530523303323
 30
0.0
 11
-12.8700823335521
 21
7.7260530523303323
 31
0.0
 12
-12.76427242191261
 22
7.6101021171157326
 32
0.0
 13
-12.76427242191261
 23
7.6101021171157326
 33
0.0
210
0.0
220
0.0
230
-1.0
  0
SOLID
  5
1C82
  8
0
  6
CONTINUOUS
 62
    14
 10
7.6181573709567649
 20
7.6181573709567632
 30
0.0
 11
7.6101021171157353
 21
7.6101021171157326
 31
0.0
 12
11.874647557689951
 22
7.6101021171157326
 32
0.0
 13
11.874647557689951
 23
7.6101021171157326
 33
0.0
210
0.0
220
0.0
230
1.0
  0
SOLID
  5
1C83
  8
0
  6
CONTINUOUS
 62
    14
 10
-7.6181573709567649
 20
7.6181573709567632
 30
0.0
 11
-11.222873073477309
 21
7.6181573709567632
 31
0.0
 12
-11.874647557689951
 22
7.6101021171157326
 32
0.0
 13
-11.874647557689951
 23
7.6101021171157326
 33
0.0
210
0.0
220
0.0
230
-1.0
  0
SOLID
  5
1C84
  8
0
  6
CONTINUOUS
 62
    14
 10
7.6101021171157353
 20
7.6101021171157326
 30
0.0
 11
6.218177794586345
 21
6.2181777945863379
 31
0.0
 12
11.494085257806439
 22
6.2181777945863379
 32
0.0
 13
11.494085257806439
 23
6.2181777945863379
 33
0.0
210
0.0
220
0.0
230
1.0
  0
SOLID
  5
1C85
  8
0
  6
CONTINUOUS
 62
    14
 10
-7.6101021171157353
 20
7.6101021171157326
 30
0.0
 11
-12.76427242191261
 21
7.6101021171157326
 31
0.0
 12
-11.494085257806439
 22
6.2181777945863379
 32
0.0
 13
-11.494085257806439
 23
6.2181777945863379
 33
0.0
210
0.0
220
0.0
230
-1.0
  0
SOLID
  5
1C86
  8
0
  6
CONTINUOUS
 62
    14
 10
6.218177794586345
 20
6.2181777945863379
 30
0.0
 11
6.4575146422962408
 21
6.0146099189682518
 31
0.0
 12
11.30832134920213
 22
6.0146099189682518
 32
0.0
 13
11.30832134920213
 23
6.0146099189682518
 33
0.0
210
0.0
220
0.0
230
1.0
  0
SOLID
  5
1C87
  8
0
  6
CONTINUOUS
 62
    14
 10
-6.218177794586345
 20
6.2181777945863379
 30
0.0
 11
-11.494085257806439
 21
6.2181777945863379
 31
0.0
 12
-11.30832134920213
 22
6.0146099189682518
 32
0.0
 13
-11.30832134920213
 23
6.0146099189682518
 33
0.0
210
0.0
220
0.0
230
-1.0
  0
SOLID
  5
1C88
  8
0
  6
CONTINUOUS
 62
    14
 10
6.4575146422962408
 20
6.0146099189682518
 30
0.0
 11
6.7149184983836347
 21
5.7956751554289241
 31
0.0
 12
11.04354105273006
 22
5.7956751554289241
 32
0.0
 13
11.04354105273006
 23
5.7956751554289241
 33
0.0
210
0.0
220
0.0
230
1.0
  0
SOLID
  5
1C89
  8
0
  6
CONTINUOUS
 62
    14
 10
-6.4575146422962408
 20
6.0146099189682518
 30
0.0
 11
-11.30832134920213
 21
6.0146099189682518
 31
0.0
 12
-11.04354105273006
 22
5.7956751554289241
 32
0.0
 13
-11.04354105273006
 23
5.7956751554289241
 33
0.0
210
0.0
220
0.0
230
-1.0
  0
SOLID
  5
1C8A
  8
0
  6
CONTINUOUS
 62
    14
 10
6.7149184983836347
 20
5.7956751554289241
 30
0.0
 11
6.988573162312
 21
5.6305491238886081
 31
0.0
 12
10.84383718259229
 22
5.6305491238886081
 32
0.0
 13
10.84383718259229
 23
5.6305491238886081
 33
0.0
210
0.0
220
0.0
230
1.0
  0
SOLID
  5
1C8B
  8
0
  6
CONTINUOUS
 62
    14
 10
-6.7149184983836347
 20
5.7956751554289241
 30
0.0
 11
-11.04354105273006
 21
5.7956751554289241
 31
0.0
 12
-10.84383718259229
 22
5.6305491238886081
 32
0.0
 13
-10.84383718259229
 23
5.6305491238886081
 33
0.0
210
0.0
220
0.0
230
-1.0
  0
SOLID
  5
1C8C
  8
0
  6
CONTINUOUS
 62
    14
 10
6.988573162312
 20
5.6305491238886081
 30
0.0
 11
7.2708040518988462
 21
5.4602481098055149
 31
0.0
 12
10.53423184990452
 22
5.4602481098055149
 32
0.0
 13
10.53423184990452
 23
5.4602481098055149
 33
0.0
210
0.0
220
0.0
230
1.0
  0
SOLID
  5
1C8D
  8
0
  6
CONTINUOUS
 62
    14
 10
-6.988573162312
 20
5.6305491238886081
 30
0.0
 11
-10.84383718259229
 21
5.6305491238886081
 31
0.0
 12
-10.53423184990452
 22
5.4602481098055149
 32
0.0
 13
-10.53423184990452
 23
5.4602481098055149
 33
0.0
210
0.0
220
0.0
230
-1.0
  0
SOLID
  5
1C8E
  8
0
  6
CONTINUOUS
 62
    14
 10
7.2708040518988462
 20
5.4602481098055149
 30
0.0
 11
7.576371579581525
 21
5.3385811932535301
 31
0.0
 12
10.313042760814341
 22
5.3385811932535301
 32
0.0
 13
10.313042760814341
 23
5.3385811932535301
 33
0.0
  0
SOLID
  5
1C8F
  8
0
  6
CONTINUOUS
 62
    14
 10
-7.2708040518988462
 20
5.4602481098055149
 30
0.0
 11
-10.53423184990452
 21
5.4602481098055149
 31
0.0
 12
-10.313042760814341
 22
5.3385811932535301
 32
0.0
 13
-10.313042760814341
 23
5.3385811932535301
 33
0.0
210
0.0
220
0.0
230
-1.0
  0
SOLID
  5
1C90
  8
0
  6
CONTINUOUS
 62
    14
 10
7.576371579581525
 20
5.3385811932535301
 30
0.0
 11
7.8689441538800731
 21
5.2220884387631177
 31
0.0
 12
9.9587063867067602
 22
5.2220884387631177
 32
0.0
 13
9.9587063867067602
 23
5.2220884387631177
 33
0.0
210
0.0
220
0.0
230
1.0
  0
SOLID
  5
1C91
  8
0
  6
CONTINUOUS
 62
    14
 10
-7.576371579581525
 20
5.3385811932535301
 30
0.0
 11
-10.313042760814341
 21
5.3385811932535301
 31
0.0
 12
-9.9587063867067602
 22
5.2220884387631177
 32
0.0
 13
-9.9587063867067602
 23
5.2220884387631177
 33
0.0
210
0.0
220
0.0
230
-1.0
  0
SOLID
  5
1C92
  8
0
  6
CONTINUOUS
 62
    14
 10
7.8689441538800731
 20
5.2220884387631177
 30
0.0
 11
8.2158219610870873
 21
5.1475774248924644
 31
0.0
 12
9.7320660037790798
 22
5.1475774248924644
 32
0.0
 13
9.7320660037790798
 23
5.1475774248924644
 33
0.0
210
0.0
220
0.0
230
1.0
  0
SOLID
  5
1C93
  8
0
  6
CONTINUOUS
 62
    14
 10
-7.8689441538800731
 20
5.2220884387631177
 30
0.0
 11
-9.9587063867067602
 21
5.2220884387631177
 31
0.0
 12
-9.7320660037790798
 22
5.1475774248924644
 32
0.0
 13
-9.7320660037790798
 23
5.1475774248924644
 33
0.0
210
0.0
220
0.0
230
-1.0
  0
SOLID
  5
1C94
  8
0
  6
CONTINUOUS
 62
    14
 10
-8.4911646200021114
 20
5.0884325033917461
 30
0.0
 11
-9.3013028457479372
 21
5.0884325033917461
 31
0.0
 12
-9.1185595962605941
 22
5.0633413716544906
 32
0.0
 13
-9.1185595962605941
 23
5.0633413716544906
 33
0.0
210
0.0
220
0.0
230
-1.0
  0
SOLID
  5
1C95
  8
0
  6
CONTINUOUS
 62
    14
 10
8.2158219610870873
 20
5.1475774248924644
 30
0.0
 11
8.4911646200021114
 21
5.0884325033917461
 31
0.0
 12
9.3013028457479372
 22
5.0884325033917461
 32
0.0
 13
9.3013028457479372
 23
5.0884325033917461
 33
0.0
210
0.0
220
0.0
230
1.0
  0
SOLID
  5
1C96
  8
0
  6
CONTINUOUS
 62
    14
 10
-8.2158219610870873
 20
5.1475774248924644
 30
0.0
 11
-9.7320660037790798
 21
5.1475774248924644
 31
0.0
 12
-9.3013028457479372
 22
5.0884325033917461
 32
0.0
 13
-9.3013028457479372
 23
5.0884325033917461
 33
0.0
210
0.0
220
0.0
230
-1.0
  0
LINE
  5
1C97
  8
0
  6
CONTINUOUS
 62
    14
 10
8.8222356798165613
 20
8.8222356798165631
 30
0.0
 11
8.3625008409542207
 21
8.3625008409542207
 31
0.0
  0
LINE
  5
1C98
  8
0
  6
CONTINUOUS
 62
    14
 10
9.3484568218760877
 20
8.3625008409542207
 30
0.0
 11
8.8222356798165613
 21
8.8222356798165631
 31
0.0
  0
LINE
  5
1C99
  8
0
  6
CONTINUOUS
 62
    14
 10
8.3625008409542207
 20
8.3625008409542207
 30
0.0
 11
8.0009301331315221
 21
8.0009301331315221
 31
0.0
  0
LINE
  5
1C9A
  8
0
  6
CONTINUOUS
 62
    14
 10
9.3484568218760877
 20
8.3625008409542207
 30
0.0
 11
9.9377074091940667
 21
8.0009301331315221
 31
0.0
  0
LINE
  5
1C9B
  8
0
  6
CONTINUOUS
 62
    14
 10
13.085418729976791
 20
7.9620276993582593
 30
0.0
 11
12.561679770775889
 21
7.7499421462694658
 31
0.0
  0
LINE
  5
1C9C
  8
0
  6
CONTINUOUS
 62
    14
 10
12.89188209665163
 20
7.7499421462694658
 30
0.0
 11
13.085418729976791
 21
7.9620276993582593
 31
0.0
  0
LINE
  5
1C9D
  8
0
  6
CONTINUOUS
 62
    14
 10
8.0009301331315221
 20
8.0009301331315221
 30
0.0
 11
7.7499421462694684
 21
7.7499421462694658
 31
0.0
  0
LINE
  5
1C9E
  8
0
  6
CONTINUOUS
 62
    14
 10
9.9377074091940667
 20
8.0009301331315221
 30
0.0
 11
10.56974890682757
 21
7.7499421462694658
 31
0.0
  0
LINE
  5
1C9F
  8
0
  6
CONTINUOUS
 62
    14
 10
12.561679770775889
 20
7.7499421462694658
 30
0.0
 11
12.502686364512639
 21
7.7260530523303323
 31
0.0
  0
LINE
  5
1CA0
  8
0
  6
CONTINUOUS
 62
    14
 10
12.89188209665163
 20
7.7499421462694658
 30
0.0
 11
12.8700823335521
 21
7.7260530523303323
 31
0.0
  0
LINE
  5
1CA1
  8
0
  6
CONTINUOUS
 62
    14
 10
7.7499421462694684
 20
7.7499421462694658
 30
0.0
 11
7.6181573709567649
 21
7.6181573709567632
 31
0.0
  0
LINE
  5
1CA2
  8
0
  6
CONTINUOUS
 62
    14
 10
10.56974890682757
 20
7.7499421462694658
 30
0.0
 11
11.222873073477309
 21
7.6181573709567632
 31
0.0
  0
LINE
  5
1CA3
  8
0
  6
CONTINUOUS
 62
    14
 10
12.502686364512639
 20
7.7260530523303323
 30
0.0
 11
11.874647557689951
 21
7.6101021171157326
 31
0.0
  0
LINE
  5
1CA4
  8
0
  6
CONTINUOUS
 62
    14
 10
12.8700823335521
 20
7.7260530523303323
 30
0.0
 11
12.76427242191261
 21
7.6101021171157326
 31
0.0
  0
LINE
  5
1CA5
  8
0
  6
CONTINUOUS
 62
    14
 10
7.6181573709567649
 20
7.6181573709567632
 30
0.0
 11
7.6101021171157353
 21
7.6101021171157326
 31
0.0
  0
LINE
  5
1CA6
  8
0
  6
CONTINUOUS
 62
    14
 10
11.222873073477309
 20
7.6181573709567632
 30
0.0
 11
11.874647557689951
 21
7.6101021171157326
 31
0.0
  0
LINE
  5
1CA7
  8
0
  6
CONTINUOUS
 62
    14
 10
7.6101021171157353
 20
7.6101021171157326
 30
0.0
 11
6.218177794586345
 21
6.2181777945863379
 31
0.0
  0
LINE
  5
1CA8
  8
0
  6
CONTINUOUS
 62
    14
 10
12.76427242191261
 20
7.6101021171157326
 30
0.0
 11
11.494085257806439
 21
6.2181777945863379
 31
0.0
  0
LINE
  5
1CA9
  8
0
  6
CONTINUOUS
 62
    14
 10
6.218177794586345
 20
6.2181777945863379
 30
0.0
 11
6.4575146422962408
 21
6.0146099189682518
 31
0.0
  0
LINE
  5
1CAA
  8
0
  6
CONTINUOUS
 62
    14
 10
11.494085257806439
 20
6.2181777945863379
 30
0.0
 11
11.30832134920213
 21
6.0146099189682518
 31
0.0
  0
LINE
  5
1CAB
  8
0
  6
CONTINUOUS
 62
    14
 10
6.4575146422962408
 20
6.0146099189682518
 30
0.0
 11
6.7149184983836347
 21
5.7956751554289241
 31
0.0
  0
LINE
  5
1CAC
  8
0
  6
CONTINUOUS
 62
    14
 10
11.30832134920213
 20
6.0146099189682518
 30
0.0
 11
11.04354105273006
 21
5.7956751554289241
 31
0.0
  0
LINE
  5
1CAD
  8
0
  6
CONTINUOUS
 62
    14
 10
6.7149184983836347
 20
5.7956751554289241
 30
0.0
 11
6.988573162312
 21
5.6305491238886081
 31
0.0
  0
LINE
  5
1CAE
  8
0
  6
CONTINUOUS
 62
    14
 10
11.04354105273006
 20
5.7956751554289241
 30
0.0
 11
10.84383718259229
 21
5.6305491238886081
 31
0.0
  0
LINE
  5
1CAF
  8
0
  6
CONTINUOUS
 62
    14
 10
6.988573162312
 20
5.6305491238886081
 30
0.0
 11
7.2708040518988462
 21
5.4602481098055149
 31
0.0
  0
LINE
  5
1CB0
  8
0
  6
CONTINUOUS
 62
    14
 10
10.84383718259229
 20
5.6305491238886081
 30
0.0
 11
10.53423184990452
 21
5.4602481098055149
 31
0.0
  0
LINE
  5
1CB1
  8
0
  6
CONTINUOUS
 62
    14
 10
7.2708040518988462
 20
5.4602481098055149
 30
0.0
 11
7.576371579581525
 21
5.3385811932535301
 31
0.0
  0
LINE
  5
1CB2
  8
0
  6
CONTINUOUS
 62
    14
 10
10.53423184990452
 20
5.4602481098055149
 30
0.0
 11
10.313042760814341
 21
5.3385811932535301
 31
0.0
  0
LINE
  5
1CB3
  8
0
  6
CONTINUOUS
 62
    14
 10
7.576371579581525
 20
5.3385811932535301
 30
0.0
 11
7.8689441538800731
 21
5.2220884387631177
 31
0.0
  0
LINE
  5
1CB4
  8
0
  6
CONTINUOUS
 62
    14
 10
10.313042760814341
 20
5.3385811932535301
 30
0.0
 11
9.9587063867067602
 21
5.2220884387631177
 31
0.0
  0
LINE
  5
1CB5
  8
0
  6
CONTINUOUS
 62
    14
 10
7.8689441538800731
 20
5.2220884387631177
 30
0.0
 11
8.2158219610870873
 21
5.1475774248924644
 31
0.0
  0
LINE
  5
1CB6
  8
0
  6
CONTINUOUS
 62
    14
 10
9.9587063867067602
 20
5.2220884387631177
 30
0.0
 11
9.7320660037790798
 21
5.1475774248924644
 31
0.0
  0
LINE
  5
1CB7
  8
0
  6
CONTINUOUS
 62
    14
 10
9.3013028457479372
 20
5.0884325033917461
 30
0.0
 11
9.1185595962605941
 21
5.0633413716544906
 31
0.0
  0
LINE
  5
1CB8
  8
0
  6
CONTINUOUS
 62
    14
 10
9.1185595962605941
 20
5.0633413716544906
 30
0.0
 11
8.4911646200021114
 21
5.0884325033917461
 31
0.0
  0
LINE
  5
1CB9
  8
0
  6
CONTINUOUS
 62
    14
 10
8.2158219610870873
 20
5.1475774248924644
 30
0.0
 11
8.4911646200021114
 21
5.0884325033917461
 31
0.0
  0
LINE
  5
1CBA
  8
0
  6
CONTINUOUS
 62
    14
 10
9.7320660037790798
 20
5.1475774248924644
 30
0.0
 11
9.3013028457479372
 21
5.0884325033917461
 31
0.0
  0
ENDBLK
  5
1CBC
  8
0
  0
BLOCK
  8
0
  2
*U66
 70
     1
 10
0.0
 20
0.0
 30
0.0
  3
*U66
  1

  0
SOLID
  5
1CBE
  8
0
  6
CONTINUOUS
 62
    16
 10
10.20232101151389
 20
10.20232101151389
 30
0.0
 11
9.6321228170441415
 21
9.6321228170441362
 31
0.0
 12
10.860000856733871
 22
9.6321228170441362
 32
0.0
 13
10.860000856733871
 23
9.6321228170441362
 33
0.0
210
0.0
220
0.0
230
1.0
  0
SOLID
  5
1CBF
  8
0
  6
CONTINUOUS
 62
    16
 10
16.617009357883859
 20
9.5459415460183816
 30
0.0
 11
16.561241606933351
 21
9.5009940400166002
 31
0.0
 12
16.572417931430401
 22
9.5009940400166002
 32
0.0
 13
16.572417931430401
 23
9.5009940400166002
 33
0.0
  0
SOLID
  5
1CC0
  8
0
  6
CONTINUOUS
 62
    16
 10
9.6321228170441415
 20
9.6321228170441362
 30
0.0
 11
9.5009940400166037
 21
9.5009940400166002
 31
0.0
 12
11.06432724123632
 22
9.5009940400166002
 32
0.0
 13
11.06432724123632
 23
9.5009940400166002
 33
0.0
210
0.0
220
0.0
230
1.0
  0
SOLID
  5
1CC1
  8
0
  6
CONTINUOUS
 62
    16
 10
-9.6321228170441415
 20
9.6321228170441362
 30
0.0
 11
-10.860000856733871
 21
9.6321228170441362
 31
0.0
 12
-11.06432724123632
 22
9.5009940400166002
 32
0.0
 13
-11.06432724123632
 23
9.5009940400166002
 33
0.0
210
0.0
220
0.0
230
-1.0
  0
SOLID
  5
1CC2
  8
0
  6
CONTINUOUS
 62
    16
 10
9.5009940400166037
 20
9.5009940400166002
 30
0.0
 11
9.9057485983697635
 21
9.1667314569293907
 31
0.0
 12
11.585179083409139
 22
9.1667314569293907
 32
0.0
 13
11.585179083409139
 23
9.1667314569293907
 33
0.0
210
0.0
220
0.0
230
1.0
  0
SOLID
  5
1CC3
  8
0
  6
CONTINUOUS
 62
    16
 10
-9.5009940400166037
 20
9.5009940400166002
 30
0.0
 11
-11.06432724123632
 21
9.5009940400166002
 31
0.0
 12
-11.585179083409139
 22
9.1667314569293907
 32
0.0
 13
-11.585179083409139
 23
9.1667314569293907
 33
0.0
210
0.0
220
0.0
230
-1.0
  0
SOLID
  5
1CC4
  8
0
  6
CONTINUOUS
 62
    16
 10
16.561241606933351
 20
9.5009940400166002
 30
0.0
 11
16.06333673174764
 21
9.0996943285474465
 31
0.0
 12
16.174297364539211
 22
9.0996943285474465
 32
0.0
 13
16.174297364539211
 23
9.0996943285474465
 33
0.0
210
0.0
220
0.0
230
1.0
  0
SOLID
  5
1CC5
  8
0
  6
CONTINUOUS
 62
    16
 10
-16.561241606933351
 20
9.5009940400166002
 30
0.0
 11
-16.572417931430401
 21
9.5009940400166002
 31
0.0
 12
-16.174297364539211
 22
9.0996943285474465
 32
0.0
 13
-16.174297364539211
 23
9.0996943285474465
 33
0.0
210
0.0
220
0.0
230
-1.0
  0
SOLID
  5
1CC6
  8
0
  6
CONTINUOUS
 62
    16
 10
16.06333673174764
 20
9.0996943285474465
 30
0.0
 11
15.758693106110769
 21
8.9458947136586264
 31
0.0
 12
16.021716168696791
 22
8.9458947136586264
 32
0.0
 13
16.021716168696791
 23
8.9458947136586264
 33
0.0
210
0.0
220
0.0
230
1.0
  0
SOLID
  5
1CC7
  8
0
  6
CONTINUOUS
 62
    16
 10
-16.06333673174764
 20
9.0996943285474465
 30
0.0
 11
-16.174297364539211
 21
9.0996943285474465
 31
0.0
 12
-16.021716168696791
 22
8.9458947136586264
 32
0.0
 13
-16.021716168696791
 23
8.9458947136586264
 33
0.0
210
0.0
220
0.0
230
-1.0
  0
SOLID
  5
1CC8
  8
0
  6
CONTINUOUS
 62
    16
 10
9.9057485983697635
 20
9.1667314569293907
 30
0.0
 11
10.217549966827031
 21
8.9092333542404116
 31
0.0
 12
12.157967336882701
 22
8.9092333542404116
 32
0.0
 13
12.157967336882701
 23
8.9092333542404116
 33
0.0
210
0.0
220
0.0
230
1.0
  0
SOLID
  5
1CC9
  8
0
  6
CONTINUOUS
 62
    16
 10
-9.9057485983697635
 20
9.1667314569293907
 30
0.0
 11
-11.585179083409139
 21
9.1667314569293907
 31
0.0
 12
-12.157967336882701
 22
8.9092333542404116
 32
0.0
 13
-12.157967336882701
 23
8.9092333542404116
 33
0.0
210
0.0
220
0.0
230
-1.0
  0
SOLID
  5
1CCA
  8
0
  6
CONTINUOUS
 62
    16
 10
10.217549966827031
 20
8.9092333542404116
 30
0.0
 11
10.37241459348957
 21
8.8202876121473324
 31
0.0
 12
12.35582151808007
 22
8.8202876121473324
 32
0.0
 13
12.35582151808007
 23
8.8202876121473324
 33
0.0
  0
SOLID
  5
1CCB
  8
0
  6
CONTINUOUS
 62
    16
 10
-10.217549966827031
 20
8.9092333542404116
 30
0.0
 11
-12.157967336882701
 21
8.9092333542404116
 31
0.0
 12
-12.35582151808007
 22
8.8202876121473324
 32
0.0
 13
-12.35582151808007
 23
8.8202876121473324
 33
0.0
210
0.0
220
0.0
230
-1.0
  0
SOLID
  5
1CCC
  8
0
  6
CONTINUOUS
 62
    16
 10
15.758693106110769
 20
8.9458947136586264
 30
0.0
 11
15.41906175951941
 21
8.7744315156326671
 31
0.0
 12
15.7637706166231
 22
8.7744315156326671
 32
0.0
 13
15.7637706166231
 23
8.7744315156326671
 33
0.0
210
0.0
220
0.0
230
1.0
  0
SOLID
  5
1CCD
  8
0
  6
CONTINUOUS
 62
    16
 10
-15.758693106110769
 20
8.9458947136586264
 30
0.0
 11
-16.021716168696791
 21
8.9458947136586264
 31
0.0
 12
-15.7637706166231
 22
8.7744315156326671
 32
0.0
 13
-15.7637706166231
 23
8.7744315156326671
 33
0.0
210
0.0
220
0.0
230
-1.0
  0
SOLID
  5
1CCE
  8
0
  6
CONTINUOUS
 62
    16
 10
10.37241459348957
 20
8.8202876121473324
 30
0.0
 11
10.750183642407141
 21
8.6033178036126241
 31
0.0
 12
13.14851258033306
 22
8.6033178036126241
 32
0.0
 13
13.14851258033306
 23
8.6033178036126241
 33
0.0
210
0.0
220
0.0
230
1.0
  0
SOLID
  5
1CCF
  8
0
  6
CONTINUOUS
 62
    16
 10
-10.37241459348957
 20
8.8202876121473324
 30
0.0
 11
-12.35582151808007
 21
8.8202876121473324
 31
0.0
 12
-13.14851258033306
 22
8.6033178036126241
 32
0.0
 13
-13.14851258033306
 23
8.6033178036126241
 33
0.0
210
0.0
220
0.0
230
-1.0
  0
SOLID
  5
1CD0
  8
0
  6
CONTINUOUS
 62
    16
 10
15.41906175951941
 20
8.7744315156326671
 30
0.0
 11
14.703760410211469
 21
8.5800360532535276
 31
0.0
 12
15.47132625864247
 22
8.5800360532535276
 32
0.0
 13
15.47132625864247
 23
8.5800360532535276
 33
0.0
210
0.0
220
0.0
230
1.0
  0
SOLID
  5
1CD1
  8
0
  6
CONTINUOUS
 62
    16
 10
-15.41906175951941
 20
8.7744315156326671
 30
0.0
 11
-15.7637706166231
 21
8.7744315156326671
 31
0.0
 12
-15.47132625864247
 22
8.5800360532535276
 32
0.0
 13
-15.47132625864247
 23
8.5800360532535276
 33
0.0
210
0.0
220
0.0
230
-1.0
  0
SOLID
  5
1CD2
  8
0
  6
CONTINUOUS
 62
    16
 10
14.703760410211469
 20
8.5800360532535276
 30
0.0
 11
13.93916675336259
 21
8.5224145491655712
 31
0.0
 12
15.38464170560483
 22
8.5224145491655712
 32
0.0
 13
15.38464170560483
 23
8.5224145491655712
 33
0.0
210
0.0
220
0.0
230
1.0
  0
SOLID
  5
1CD3
  8
0
  6
CONTINUOUS
 62
    16
 10
-14.703760410211469
 20
8.5800360532535276
 30
0.0
 11
-15.47132625864247
 21
8.5800360532535276
 31
0.0
 12
-15.38464170560483
 22
8.5224145491655712
 32
0.0
 13
-15.38464170560483
 23
8.5224145491655712
 33
0.0
210
0.0
220
0.0
230
-1.0
  0
SOLID
  5
1CD4
  8
0
  6
CONTINUOUS
 62
    16
 10
10.750183642407141
 20
8.6033178036126241
 30
0.0
 11
10.89104538576767
 21
8.5224145491655712
 31
0.0
 12
13.93916675336259
 22
8.5224145491655712
 32
0.0
 13
13.93916675336259
 23
8.5224145491655712
 33
0.0
  0
SOLID
  5
1CD5
  8
0
  6
CONTINUOUS
 62
    16
 10
-10.750183642407141
 20
8.6033178036126241
 30
0.0
 11
-13.14851258033306
 21
8.6033178036126241
 31
0.0
 12
-13.93916675336259
 22
8.5224145491655712
 32
0.0
 13
-13.93916675336259
 23
8.5224145491655712
 33
0.0
210
0.0
220
0.0
230
-1.0
  0
SOLID
  5
1CD6
  8
0
  6
CONTINUOUS
 62
    16
 10
10.89104538576767
 20
8.5224145491655712
 30
0.0
 11
10.97292234094706
 21
8.4753889197775099
 31
0.0
 12
15.313897358865891
 22
8.4753889197775099
 32
0.0
 13
15.313897358865891
 23
8.4753889197775099
 33
0.0
210
0.0
220
0.0
230
1.0
  0
SOLID
  5
1CD7
  8
0
  6
CONTINUOUS
 62
    16
 10
-10.89104538576767
 20
8.5224145491655712
 30
0.0
 11
-15.38464170560483
 21
8.5224145491655712
 31
0.0
 12
-15.313897358865891
 22
8.4753889197775099
 32
0.0
 13
-15.313897358865891
 23
8.4753889197775099
 33
0.0
210
0.0
220
0.0
230
-1.0
  0
SOLID
  5
1CD8
  8
0
  6
CONTINUOUS
 62
    16
 10
10.97292234094706
 20
8.4753889197775099
 30
0.0
 11
11.020143101409509
 21
8.4482679065929815
 31
0.0
 12
15.24743403948646
 22
8.4482679065929815
 32
0.0
 13
15.24743403948646
 23
8.4482679065929815
 33
0.0
210
0.0
220
0.0
230
1.0
  0
SOLID
  5
1CD9
  8
0
  6
CONTINUOUS
 62
    16
 10
-10.97292234094706
 20
8.4753889197775099
 30
0.0
 11
-15.313897358865891
 21
8.4753889197775099
 31
0.0
 12
-15.24743403948646
 22
8.4482679065929815
 32
0.0
 13
-15.24743403948646
 23
8.4482679065929815
 33
0.0
210
0.0
220
0.0
230
-1.0
  0
SOLID
  5
1CDA
  8
0
  6
CONTINUOUS
 62
    16
 10
11.020143101409509
 20
8.4482679065929815
 30
0.0
 11
11.835702646230111
 21
8.1505203542444704
 31
0.0
 12
14.517767690683909
 22
8.1505203542444704
 32
0.0
 13
14.517767690683909
 23
8.1505203542444704
 33
0.0
210
0.0
220
0.0
230
1.0
  0
SOLID
  5
1CDB
  8
0
  6
CONTINUOUS
 62
    16
 10
-11.020143101409509
 20
8.4482679065929815
 30
0.0
 11
-15.24743403948646
 21
8.4482679065929815
 31
0.0
 12
-14.517767690683909
 22
8.1505203542444704
 32
0.0
 13
-14.517767690683909
 23
8.1505203542444704
 33
0.0
210
0.0
220
0.0
230
-1.0
  0
SOLID
  5
1CDC
  8
0
  6
CONTINUOUS
 62
    16
 10
11.835702646230111
 20
8.1505203542444704
 30
0.0
 11
11.881316414222299
 21
8.1338675079142195
 31
0.0
 12
14.432857431065379
 22
8.1338675079142195
 32
0.0
 13
14.432857431065379
 23
8.1338675079142195
 33
0.0
  0
SOLID
  5
1CDD
  8
0
  6
CONTINUOUS
 62
    16
 10
-11.835702646230111
 20
8.1505203542444704
 30
0.0
 11
-14.517767690683909
 21
8.1505203542444704
 31
0.0
 12
-14.432857431065379
 22
8.1338675079142195
 32
0.0
 13
-14.432857431065379
 23
8.1338675079142195
 33
0.0
210
0.0
220
0.0
230
-1.0
  0
SOLID
  5
1CDE
  8
0
  6
CONTINUOUS
 62
    16
 10
-12.739784363690401
 20
7.9824028995694301
 30
0.0
 11
-13.660563075942839
 21
7.9824028995694301
 31
0.0
 12
-12.771608824586281
 22
7.9767879205729919
 32
0.0
 13
-12.771608824586281
 23
7.9767879205729919
 33
0.0
210
0.0
220
0.0
230
-1.0
  0
SOLID
  5
1CDF
  8
0
  6
CONTINUOUS
 62
    16
 10
11.881316414222299
 20
8.1338675079142195
 30
0.0
 11
12.739784363690401
 21
7.9824028995694301
 31
0.0
 12
13.660563075942839
 22
7.9824028995694301
 32
0.0
 13
13.660563075942839
 23
7.9824028995694301
 33
0.0
210
0.0
220
0.0
230
1.0
  0
SOLID
  5
1CE0
  8
0
  6
CONTINUOUS
 62
    16
 10
-11.881316414222299
 20
8.1338675079142195
 30
0.0
 11
-14.432857431065379
 21
8.1338675079142195
 31
0.0
 12
-13.660563075942839
 22
7.9824028995694301
 32
0.0
 13
-13.660563075942839
 23
7.9824028995694301
 33
0.0
210
0.0
220
0.0
230
-1.0
  0
LINE
  5
1CE1
  8
0
  6
CONTINUOUS
 62
    16
 10
10.20232101151389
 20
10.20232101151389
 30
0.0
 11
9.6321228170441415
 21
9.6321228170441362
 31
0.0
  0
LINE
  5
1CE2
  8
0
  6
CONTINUOUS
 62
    16
 10
10.860000856733871
 20
9.6321228170441362
 30
0.0
 11
10.20232101151389
 21
10.20232101151389
 31
0.0
  0
LINE
  5
1CE3
  8
0
  6
CONTINUOUS
 62
    16
 10
16.617009357883859
 20
9.5459415460183816
 30
0.0
 11
16.561241606933351
 21
9.5009940400166002
 31
0.0
  0
LINE
  5
1CE4
  8
0
  6
CONTINUOUS
 62
    16
 10
16.572417931430401
 20
9.5009940400166002
 30
0.0
 11
16.617009357883859
 21
9.5459415460183816
 31
0.0
  0
LINE
  5
1CE5
  8
0
  6
CONTINUOUS
 62
    16
 10
9.6321228170441415
 20
9.6321228170441362
 30
0.0
 11
9.5009940400166037
 21
9.5009940400166002
 31
0.0
  0
LINE
  5
1CE6
  8
0
  6
CONTINUOUS
 62
    16
 10
10.860000856733871
 20
9.6321228170441362
 30
0.0
 11
11.06432724123632
 21
9.5009940400166002
 31
0.0
  0
LINE
  5
1CE7
  8
0
  6
CONTINUOUS
 62
    16
 10
9.5009940400166037
 20
9.5009940400166002
 30
0.0
 11
9.9057485983697635
 21
9.1667314569293907
 31
0.0
  0
LINE
  5
1CE8
  8
0
  6
CONTINUOUS
 62
    16
 10
11.06432724123632
 20
9.5009940400166002
 30
0.0
 11
11.585179083409139
 21
9.1667314569293907
 31
0.0
  0
LINE
  5
1CE9
  8
0
  6
CONTINUOUS
 62
    16
 10
16.561241606933351
 20
9.5009940400166002
 30
0.0
 11
16.06333673174764
 21
9.0996943285474465
 31
0.0
  0
LINE
  5
1CEA
  8
0
  6
CONTINUOUS
 62
    16
 10
16.572417931430401
 20
9.5009940400166002
 30
0.0
 11
16.174297364539211
 21
9.0996943285474465
 31
0.0
  0
LINE
  5
1CEB
  8
0
  6
CONTINUOUS
 62
    16
 10
16.06333673174764
 20
9.0996943285474465
 30
0.0
 11
15.758693106110769
 21
8.9458947136586264
 31
0.0
  0
LINE
  5
1CEC
  8
0
  6
CONTINUOUS
 62
    16
 10
16.174297364539211
 20
9.0996943285474465
 30
0.0
 11
16.021716168696791
 21
8.9458947136586264
 31
0.0
  0
LINE
  5
1CED
  8
0
  6
CONTINUOUS
 62
    16
 10
9.9057485983697635
 20
9.1667314569293907
 30
0.0
 11
10.217549966827031
 21
8.9092333542404116
 31
0.0
  0
LINE
  5
1CEE
  8
0
  6
CONTINUOUS
 62
    16
 10
11.585179083409139
 20
9.1667314569293907
 30
0.0
 11
12.157967336882701
 21
8.9092333542404116
 31
0.0
  0
LINE
  5
1CEF
  8
0
  6
CONTINUOUS
 62
    16
 10
10.217549966827031
 20
8.9092333542404116
 30
0.0
 11
10.37241459348957
 21
8.8202876121473324
 31
0.0
  0
LINE
  5
1CF0
  8
0
  6
CONTINUOUS
 62
    16
 10
12.157967336882701
 20
8.9092333542404116
 30
0.0
 11
12.35582151808007
 21
8.8202876121473324
 31
0.0
  0
LINE
  5
1CF1
  8
0
  6
CONTINUOUS
 62
    16
 10
15.758693106110769
 20
8.9458947136586264
 30
0.0
 11
15.41906175951941
 21
8.7744315156326671
 31
0.0
  0
LINE
  5
1CF2
  8
0
  6
CONTINUOUS
 62
    16
 10
16.021716168696791
 20
8.9458947136586264
 30
0.0
 11
15.7637706166231
 21
8.7744315156326671
 31
0.0
  0
LINE
  5
1CF3
  8
0
  6
CONTINUOUS
 62
    16
 10
10.37241459348957
 20
8.8202876121473324
 30
0.0
 11
10.750183642407141
 21
8.6033178036126241
 31
0.0
  0
LINE
  5
1CF4
  8
0
  6
CONTINUOUS
 62
    16
 10
12.35582151808007
 20
8.8202876121473324
 30
0.0
 11
13.14851258033306
 21
8.6033178036126241
 31
0.0
  0
LINE
  5
1CF5
  8
0
  6
CONTINUOUS
 62
    16
 10
15.41906175951941
 20
8.7744315156326671
 30
0.0
 11
14.703760410211469
 21
8.5800360532535276
 31
0.0
  0
LINE
  5
1CF6
  8
0
  6
CONTINUOUS
 62
    16
 10
15.7637706166231
 20
8.7744315156326671
 30
0.0
 11
15.47132625864247
 21
8.5800360532535276
 31
0.0
  0
LINE
  5
1CF7
  8
0
  6
CONTINUOUS
 62
    16
 10
14.703760410211469
 20
8.5800360532535276
 30
0.0
 11
13.93916675336259
 21
8.5224145491655712
 31
0.0
  0
LINE
  5
1CF8
  8
0
  6
CONTINUOUS
 62
    16
 10
15.47132625864247
 20
8.5800360532535276
 30
0.0
 11
15.38464170560483
 21
8.5224145491655712
 31
0.0
  0
LINE
  5
1CF9
  8
0
  6
CONTINUOUS
 62
    16
 10
10.750183642407141
 20
8.6033178036126241
 30
0.0
 11
10.89104538576767
 21
8.5224145491655712
 31
0.0
  0
LINE
  5
1CFA
  8
0
  6
CONTINUOUS
 62
    16
 10
13.14851258033306
 20
8.6033178036126241
 30
0.0
 11
13.93916675336259
 21
8.5224145491655712
 31
0.0
  0
LINE
  5
1CFB
  8
0
  6
CONTINUOUS
 62
    16
 10
10.89104538576767
 20
8.5224145491655712
 30
0.0
 11
10.97292234094706
 21
8.4753889197775099
 31
0.0
  0
LINE
  5
1CFC
  8
0
  6
CONTINUOUS
 62
    16
 10
15.38464170560483
 20
8.5224145491655712
 30
0.0
 11
15.313897358865891
 21
8.4753889197775099
 31
0.0
  0
LINE
  5
1CFD
  8
0
  6
CONTINUOUS
 62
    16
 10
10.97292234094706
 20
8.4753889197775099
 30
0.0
 11
11.020143101409509
 21
8.4482679065929815
 31
0.0
  0
LINE
  5
1CFE
  8
0
  6
CONTINUOUS
 62
    16
 10
15.313897358865891
 20
8.4753889197775099
 30
0.0
 11
15.24743403948646
 21
8.4482679065929815
 31
0.0
  0
LINE
  5
1CFF
  8
0
  6
CONTINUOUS
 62
    16
 10
11.020143101409509
 20
8.4482679065929815
 30
0.0
 11
11.835702646230111
 21
8.1505203542444704
 31
0.0
  0
LINE
  5
1D00
  8
0
  6
CONTINUOUS
 62
    16
 10
15.24743403948646
 20
8.4482679065929815
 30
0.0
 11
14.517767690683909
 21
8.1505203542444704
 31
0.0
  0
LINE
  5
1D01
  8
0
  6
CONTINUOUS
 62
    16
 10
11.835702646230111
 20
8.1505203542444704
 30
0.0
 11
11.881316414222299
 21
8.1338675079142195
 31
0.0
  0
LINE
  5
1D02
  8
0
  6
CONTINUOUS
 62
    16
 10
14.517767690683909
 20
8.1505203542444704
 30
0.0
 11
14.432857431065379
 21
8.1338675079142195
 31
0.0
  0
LINE
  5
1D03
  8
0
  6
CONTINUOUS
 62
    16
 10
13.660563075942839
 20
7.9824028995694301
 30
0.0
 11
12.771608824586281
 21
7.9767879205729919
 31
0.0
  0
LINE
  5
1D04
  8
0
  6
CONTINUOUS
 62
    16
 10
12.771608824586281
 20
7.9767879205729919
 30
0.0
 11
12.739784363690401
 21
7.9824028995694301
 31
0.0
  0
LINE
  5
1D05
  8
0
  6
CONTINUOUS
 62
    16
 10
11.881316414222299
 20
8.1338675079142195
 30
0.0
 11
12.739784363690401
 21
7.9824028995694301
 31
0.0
  0
LINE
  5
1D06
  8
0
  6
CONTINUOUS
 62
    16
 10
14.432857431065379
 20
8.1338675079142195
 30
0.0
 11
13.660563075942839
 21
7.9824028995694301
 31
0.0
  0
ENDBLK
  5
1D08
  8
0
  0
BLOCK
  8
0
  2
*U67
 70
     1
 10
0.0
 20
0.0
 30
0.0
  3
*U67
  1

  0
SOLID
  5
1D0A
  8
0
  6
CONTINUOUS
 62
     1
 10
12.509533271514311
 20
17.627105732710479
 30
0.0
 11
11.6637834733997
 21
17.612344251020371
 31
0.0
 12
12.5950660055762
 22
17.612344251020371
 32
0.0
 13
12.5950660055762
 23
17.612344251020371
 33
0.0
210
0.0
220
0.0
230
1.0
  0
SOLID
  5
1D0B
  8
0
  6
CONTINUOUS
 62
     1
 10
11.6637834733997
 20
17.612344251020371
 30
0.0
 11
11.063989299597511
 21
17.477576292529768
 31
0.0
 12
13.37595455021072
 22
17.477576292529768
 32
0.0
 13
13.37595455021072
 23
17.477576292529768
 33
0.0
210
0.0
220
0.0
230
1.0
  0
SOLID
  5
1D0C
  8
0
  6
CONTINUOUS
 62
     1
 10
-11.6637834733997
 20
17.612344251020371
 30
0.0
 11
-12.5950660055762
 21
17.612344251020371
 31
0.0
 12
-13.37595455021072
 22
17.477576292529768
 32
0.0
 13
-13.37595455021072
 23
17.477576292529768
 33
0.0
210
0.0
220
0.0
230
-1.0
  0
SOLID
  5
1D0D
  8
0
  6
CONTINUOUS
 62
     1
 10
11.063989299597511
 20
17.477576292529768
 30
0.0
 11
10.869272757150361
 21
17.43382536586838
 31
0.0
 12
13.49735254752329
 22
17.43382536586838
 32
0.0
 13
13.49735254752329
 23
17.43382536586838
 33
0.0
210
0.0
220
0.0
230
1.0
  0
SOLID
  5
1D0E
  8
0
  6
CONTINUOUS
 62
     1
 10
-11.063989299597511
 20
17.477576292529768
 30
0.0
 11
-13.37595455021072
 21
17.477576292529768
 31
0.0
 12
-13.49735254752329
 22
17.43382536586838
 32
0.0
 13
-13.49735254752329
 23
17.43382536586838
 33
0.0
210
0.0
220
0.0
230
-1.0
  0
SOLID
  5
1D0F
  8
0
  6
CONTINUOUS
 62
     1
 10
10.869272757150361
 20
17.43382536586838
 30
0.0
 11
10.30612687797281
 21
17.16916031404153
 31
0.0
 12
14.231732587038231
 22
17.16916031404153
 32
0.0
 13
14.231732587038231
 23
17.16916031404153
 33
0.0
210
0.0
220
0.0
230
1.0
  0
SOLID
  5
1D10
  8
0
  6
CONTINUOUS
 62
     1
 10
-10.869272757150361
 20
17.43382536586838
 30
0.0
 11
-13.49735254752329
 21
17.43382536586838
 31
0.0
 12
-14.231732587038231
 22
17.16916031404153
 32
0.0
 13
-14.231732587038231
 23
17.16916031404153
 33
0.0
210
0.0
220
0.0
230
-1.0
  0
SOLID
  5
1D11
  8
0
  6
CONTINUOUS
 62
     1
 10
10.30612687797281
 20
17.16916031404153
 30
0.0
 11
10.15471681012902
 21
17.098001214890331
 31
0.0
 12
14.35874644246773
 22
17.098001214890331
 32
0.0
 13
14.35874644246773
 23
17.098001214890331
 33
0.0
210
0.0
220
0.0
230
1.0
  0
SOLID
  5
1D12
  8
0
  6
CONTINUOUS
 62
     1
 10
-10.30612687797281
 20
17.16916031404153
 30
0.0
 11
-14.231732587038231
 21
17.16916031404153
 31
0.0
 12
-14.35874644246773
 22
17.098001214890331
 32
0.0
 13
-14.35874644246773
 23
17.098001214890331
 33
0.0
210
0.0
220
0.0
230
-1.0
  0
SOLID
  5
1D13
  8
0
  6
CONTINUOUS
 62
     1
 10
10.15471681012902
 20
17.098001214890331
 30
0.0
 11
9.667439700180811
 21
16.713004754278309
 31
0.0
 12
15.04593733403795
 22
16.713004754278309
 32
0.0
 13
15.04593733403795
 23
16.713004754278309
 33
0.0
210
0.0
220
0.0
230
1.0
  0
SOLID
  5
1D14
  8
0
  6
CONTINUOUS
 62
     1
 10
-10.15471681012902
 20
17.098001214890331
 30
0.0
 11
-14.35874644246773
 21
17.098001214890331
 31
0.0
 12
-15.04593733403795
 22
16.713004754278309
 32
0.0
 13
-15.04593733403795
 23
16.713004754278309
 33
0.0
210
0.0
220
0.0
230
-1.0
  0
SOLID
  5
1D15
  8
0
  6
CONTINUOUS
 62
     1
 10
9.667439700180811
 20
16.713004754278309
 30
0.0
 11
9.5459415460183923
 21
16.617009357883859
 31
0.0
 12
15.16739312066785
 22
16.617009357883859
 32
0.0
 13
15.16739312066785
 23
16.617009357883859
 33
0.0
210
0.0
220
0.0
230
1.0
  0
SOLID
  5
1D16
  8
0
  6
CONTINUOUS
 62
     1
 10
-9.667439700180811
 20
16.713004754278309
 30
0.0
 11
-15.04593733403795
 21
16.713004754278309
 31
0.0
 12
-15.16739312066785
 22
16.617009357883859
 32
0.0
 13
-15.16739312066785
 23
16.617009357883859
 33
0.0
210
0.0
220
0.0
230
-1.0
  0
SOLID
  5
1D17
  8
0
  6
CONTINUOUS
 62
     1
 10
9.5459415460183923
 20
16.617009357883859
 30
0.0
 11
9.1576772542887976
 21
16.125596263671689
 31
0.0
 12
15.78914131026354
 22
16.125596263671689
 32
0.0
 13
15.78914131026354
 23
16.125596263671689
 33
0.0
210
0.0
220
0.0
230
1.0
  0
SOLID
  5
1D18
  8
0
  6
CONTINUOUS
 62
     1
 10
-9.5459415460183923
 20
16.617009357883859
 30
0.0
 11
-15.16739312066785
 21
16.617009357883859
 31
0.0
 12
-15.78914131026354
 22
16.125596263671689
 32
0.0
 13
-15.78914131026354
 23
16.125596263671689
 33
0.0
210
0.0
220
0.0
230
-1.0
  0
SOLID
  5
1D19
  8
0
  6
CONTINUOUS
 62
     1
 10
9.1576772542887976
 20
16.125596263671689
 30
0.0
 11
9.0649496890119181
 21
16.008234093773229
 31
0.0
 12
15.89773804411413
 22
16.008234093773229
 32
0.0
 13
15.89773804411413
 23
16.008234093773229
 33
0.0
210
0.0
220
0.0
230
1.0
  0
SOLID
  5
1D1A
  8
0
  6
CONTINUOUS
 62
     1
 10
-9.1576772542887976
 20
16.125596263671689
 30
0.0
 11
-15.78914131026354
 21
16.125596263671689
 31
0.0
 12
-15.89773804411413
 22
16.008234093773229
 32
0.0
 13
-15.89773804411413
 23
16.008234093773229
 33
0.0
210
0.0
220
0.0
230
-1.0
  0
SOLID
  5
1D1B
  8
0
  6
CONTINUOUS
 62
     1
 10
9.0649496890119181
 20
16.008234093773229
 30
0.0
 11
8.7923312806595604
 21
15.42816531555007
 31
0.0
 12
16.43448318761515
 22
15.42816531555007
 32
0.0
 13
16.43448318761515
 23
15.42816531555007
 33
0.0
210
0.0
220
0.0
230
1.0
  0
SOLID
  5
1D1C
  8
0
  6
CONTINUOUS
 62
     1
 10
-9.0649496890119181
 20
16.008234093773229
 30
0.0
 11
-15.89773804411413
 21
16.008234093773229
 31
0.0
 12
-16.43448318761515
 22
15.42816531555007
 32
0.0
 13
-16.43448318761515
 23
15.42816531555007
 33
0.0
210
0.0
220
0.0
230
-1.0
  0
SOLID
  5
1D1D
  8
0
  6
CONTINUOUS
 62
     1
 10
8.7923312806595604
 20
15.42816531555007
 30
0.0
 11
8.7291255380338697
 21
15.293678146751899
 31
0.0
 12
16.52459824379843
 22
15.293678146751899
 32
0.0
 13
16.52459824379843
 23
15.293678146751899
 33
0.0
  0
SOLID
  5
1D1E
  8
0
  6
CONTINUOUS
 62
     1
 10
-8.7923312806595604
 20
15.42816531555007
 30
0.0
 11
-16.43448318761515
 21
15.42816531555007
 31
0.0
 12
-16.52459824379843
 22
15.293678146751899
 32
0.0
 13
-16.52459824379843
 23
15.293678146751899
 33
0.0
210
0.0
220
0.0
230
-1.0
  0
SOLID
  5
1D1F
  8
0
  6
CONTINUOUS
 62
     1
 10
8.7291255380338697
 20
15.293678146751899
 30
0.0
 11
8.5835802867093047
 21
14.645918881517179
 31
0.0
 12
16.958638629223401
 22
14.645918881517179
 32
0.0
 13
16.958638629223401
 23
14.645918881517179
 33
0.0
210
0.0
220
0.0
230
1.0
  0
SOLID
  5
1D20
  8
0
  6
CONTINUOUS
 62
     1
 10
-8.7291255380338697
 20
15.293678146751899
 30
0.0
 11
-16.52459824379843
 21
15.293678146751899
 31
0.0
 12
-16.958638629223401
 22
14.645918881517179
 32
0.0
 13
-16.958638629223401
 23
14.645918881517179
 33
0.0
210
0.0
220
0.0
230
-1.0
  0
SOLID
  5
1D21
  8
0
  6
CONTINUOUS
 62
     1
 10
8.5835802867093047
 20
14.645918881517179
 30
0.0
 11
8.5506066528818856
 21
14.499167430502551
 31
0.0
 12
17.025826137818999
 22
14.499167430502551
 32
0.0
 13
17.025826137818999
 23
14.499167430502551
 33
0.0
  0
SOLID
  5
1D22
  8
0
  6
CONTINUOUS
 62
     1
 10
-8.5835802867093047
 20
14.645918881517179
 30
0.0
 11
-16.958638629223401
 21
14.645918881517179
 31
0.0
 12
-17.025826137818999
 22
14.499167430502551
 32
0.0
 13
-17.025826137818999
 23
14.499167430502551
 33
0.0
210
0.0
220
0.0
230
-1.0
  0
SOLID
  5
1D23
  8
0
  6
CONTINUOUS
 62
     1
 10
8.5506066528818856
 20
14.499167430502551
 30
0.0
 11
8.5385280133738597
 21
13.80712938582217
 31
0.0
 12
17.342663291754921
 22
13.80712938582217
 32
0.0
 13
17.342663291754921
 23
13.80712938582217
 33
0.0
210
0.0
220
0.0
230
1.0
  0
SOLID
  5
1D24
  8
0
  6
CONTINUOUS
 62
     1
 10
-8.5506066528818856
 20
14.499167430502551
 30
0.0
 11
-17.025826137818999
 21
14.499167430502551
 31
0.0
 12
-17.342663291754921
 22
13.80712938582217
 32
0.0
 13
-17.342663291754921
 23
13.80712938582217
 33
0.0
210
0.0
220
0.0
230
-1.0
  0
SOLID
  5
1D25
  8
0
  6
CONTINUOUS
 62
     1
 10
8.5385280133738597
 20
13.80712938582217
 30
0.0
 11
8.5358451711917702
 21
13.65341763238794
 31
0.0
 12
17.383536373428019
 22
13.65341763238794
 32
0.0
 13
17.383536373428019
 23
13.65341763238794
 33
0.0
210
0.0
220
0.0
230
1.0
  0
SOLID
  5
1D26
  8
0
  6
CONTINUOUS
 62
     1
 10
-8.5385280133738597
 20
13.80712938582217
 30
0.0
 11
-17.342663291754921
 21
13.80712938582217
 31
0.0
 12
-17.383536373428019
 22
13.65341763238794
 32
0.0
 13
-17.383536373428019
 23
13.65341763238794
 33
0.0
210
0.0
220
0.0
230
-1.0
  0
SOLID
  5
1D27
  8
0
  6
CONTINUOUS
 62
     1
 10
8.5358451711917702
 20
13.65341763238794
 30
0.0
 11
8.6586041639457232
 21
12.94211286628418
 31
0.0
 12
17.572677523339301
 22
12.94211286628418
 32
0.0
 13
17.572677523339301
 23
12.94211286628418
 33
0.0
210
0.0
220
0.0
230
1.0
  0
SOLID
  5
1D28
  8
0
  6
CONTINUOUS
 62
     1
 10
-8.5358451711917702
 20
13.65341763238794
 30
0.0
 11
-17.383536373428019
 21
13.65341763238794
 31
0.0
 12
-17.572677523339301
 22
12.94211286628418
 32
0.0
 13
-17.572677523339301
 23
12.94211286628418
 33
0.0
210
0.0
220
0.0
230
-1.0
  0
SOLID
  5
1D29
  8
0
  6
CONTINUOUS
 62
     1
 10
8.6586041639457232
 20
12.94211286628418
 30
0.0
 11
8.6853746113724775
 21
12.78699635369153
 31
0.0
 12
17.584887013391679
 22
12.78699635369153
 32
0.0
 13
17.584887013391679
 23
12.78699635369153
 33
0.0
  0
SOLID
  5
1D2A
  8
0
  6
CONTINUOUS
 62
     1
 10
-8.6586041639457232
 20
12.94211286628418
 30
0.0
 11
-17.572677523339301
 21
12.94211286628418
 31
0.0
 12
-17.584887013391679
 22
12.78699635369153
 32
0.0
 13
-17.584887013391679
 23
12.78699635369153
 33
0.0
210
0.0
220
0.0
230
-1.0
  0
SOLID
  5
1D2B
  8
0
  6
CONTINUOUS
 62
     1
 10
8.6853746113724775
 20
12.78699635369153
 30
0.0
 11
8.939401972628886
 21
12.08213327369787
 31
0.0
 12
17.640368010350851
 22
12.08213327369787
 32
0.0
 13
17.640368010350851
 23
12.08213327369787
 33
0.0
  0
SOLID
  5
1D2C
  8
0
  6
CONTINUOUS
 62
     1
 10
-8.6853746113724775
 20
12.78699635369153
 30
0.0
 11
-17.584887013391679
 21
12.78699635369153
 31
0.0
 12
-17.640368010350851
 22
12.08213327369787
 32
0.0
 13
-17.640368010350851
 23
12.08213327369787
 33
0.0
210
0.0
220
0.0
230
-1.0
  0
SOLID
  5
1D2D
  8
0
  6
CONTINUOUS
 62
     1
 10
8.939401972628886
 20
12.08213327369787
 30
0.0
 11
8.9937905898607191
 21
11.93121831686403
 31
0.0
 12
17.622584921650379
 22
11.93121831686403
 32
0.0
 13
17.622584921650379
 23
11.93121831686403
 33
0.0
  0
SOLID
  5
1D2E
  8
0
  6
CONTINUOUS
 62
     1
 10
-8.939401972628886
 20
12.08213327369787
 30
0.0
 11
-17.640368010350851
 21
12.08213327369787
 31
0.0
 12
-17.622584921650379
 22
11.93121831686403
 32
0.0
 13
-17.622584921650379
 23
11.93121831686403
 33
0.0
210
0.0
220
0.0
230
-1.0
  0
SOLID
  5
1D2F
  8
0
  6
CONTINUOUS
 62
     1
 10
8.9937905898607191
 20
11.93121831686403
 30
0.0
 11
9.3708062874561193
 21
11.25827251119428
 31
0.0
 12
17.543288242223131
 22
11.25827251119428
 32
0.0
 13
17.543288242223131
 23
11.25827251119428
 33
0.0
210
0.0
220
0.0
230
1.0
  0
SOLID
  5
1D30
  8
0
  6
CONTINUOUS
 62
     1
 10
-8.9937905898607191
 20
11.93121831686403
 30
0.0
 11
-17.622584921650379
 21
11.93121831686403
 31
0.0
 12
-17.543288242223131
 22
11.25827251119428
 32
0.0
 13
-17.543288242223131
 23
11.25827251119428
 33
0.0
210
0.0
220
0.0
230
-1.0
  0
SOLID
  5
1D31
  8
0
  6
CONTINUOUS
 62
     1
 10
9.3708062874561193
 20
11.25827251119428
 30
0.0
 11
9.4499461496239316
 21
11.1170135698643
 31
0.0
 12
17.49514222287716
 22
11.1170135698643
 32
0.0
 13
17.49514222287716
 23
11.1170135698643
 33
0.0
210
0.0
220
0.0
230
1.0
  0
SOLID
  5
1D32
  8
0
  6
CONTINUOUS
 62
     1
 10
-9.3708062874561193
 20
11.25827251119428
 30
0.0
 11
-17.543288242223131
 21
11.25827251119428
 31
0.0
 12
-17.49514222287716
 22
11.1170135698643
 32
0.0
 13
-17.49514222287716
 23
11.1170135698643
 33
0.0
210
0.0
220
0.0
230
-1.0
  0
SOLID
  5
1D33
  8
0
  6
CONTINUOUS
 62
     1
 10
9.4499461496239316
 20
11.1170135698643
 30
0.0
 11
9.9373744407031062
 21
10.500307053278579
 31
0.0
 12
17.284946934715151
 22
10.500307053278579
 32
0.0
 13
17.284946934715151
 23
10.500307053278579
 33
0.0
210
0.0
220
0.0
230
1.0
  0
SOLID
  5
1D34
  8
0
  6
CONTINUOUS
 62
     1
 10
-9.4499461496239316
 20
11.1170135698643
 30
0.0
 11
-17.49514222287716
 21
11.1170135698643
 31
0.0
 12
-17.284946934715151
 22
10.500307053278579
 32
0.0
 13
-17.284946934715151
 23
10.500307053278579
 33
0.0
210
0.0
220
0.0
230
-1.0
  0
SOLID
  5
1D35
  8
0
  6
CONTINUOUS
 62
     1
 10
9.9373744407031062
 20
10.500307053278579
 30
0.0
 11
10.037354640230561
 21
10.373809593638709
 31
0.0
 12
17.206867351059859
 22
10.373809593638709
 32
0.0
 13
17.206867351059859
 23
10.373809593638709
 33
0.0
  0
SOLID
  5
1D36
  8
0
  6
CONTINUOUS
 62
     1
 10
-9.9373744407031062
 20
10.500307053278579
 30
0.0
 11
-17.284946934715151
 21
10.500307053278579
 31
0.0
 12
-17.206867351059859
 22
10.373809593638709
 32
0.0
 13
-17.206867351059859
 23
10.373809593638709
 33
0.0
210
0.0
220
0.0
230
-1.0
  0
SOLID
  5
1D37
  8
0
  6
CONTINUOUS
 62
     1
 10
10.037354640230561
 20
10.373809593638709
 30
0.0
 11
10.618971763477781
 21
9.8356317464595602
 31
0.0
 12
16.874681215781951
 22
9.8356317464595602
 32
0.0
 13
16.874681215781951
 23
9.8356317464595602
 33
0.0
210
0.0
220
0.0
230
1.0
  0
SOLID
  5
1D38
  8
0
  6
CONTINUOUS
 62
     1
 10
-10.037354640230561
 20
10.373809593638709
 30
0.0
 11
-17.206867351059859
 21
10.373809593638709
 31
0.0
 12
-16.874681215781951
 22
9.8356317464595602
 32
0.0
 13
-16.874681215781951
 23
9.8356317464595602
 33
0.0
210
0.0
220
0.0
230
-1.0
  0
SOLID
  5
1D39
  8
0
  6
CONTINUOUS
 62
     1
 10
10.618971763477781
 20
9.8356317464595602
 30
0.0
 11
10.73478558835218
 21
9.7284677162871063
 31
0.0
 12
16.767517185609488
 22
9.7284677162871063
 32
0.0
 13
16.767517185609488
 23
9.7284677162871063
 33
0.0
210
0.0
220
0.0
230
1.0
  0
SOLID
  5
1D3A
  8
0
  6
CONTINUOUS
 62
     1
 10
-10.618971763477781
 20
9.8356317464595602
 30
0.0
 11
-16.874681215781951
 21
9.8356317464595602
 31
0.0
 12
-16.767517185609488
 22
9.7284677162871063
 32
0.0
 13
-16.767517185609488
 23
9.7284677162871063
 33
0.0
210
0.0
220
0.0
230
-1.0
  0
SOLID
  5
1D3B
  8
0
  6
CONTINUOUS
 62
     1
 10
10.73478558835218
 20
9.7284677162871063
 30
0.0
 11
11.39173448264439
 21
9.2882696881202982
 31
0.0
 12
16.32731915744268
 22
9.2882696881202982
 32
0.0
 13
16.32731915744268
 23
9.2882696881202982
 33
0.0
210
0.0
220
0.0
230
1.0
  0
SOLID
  5
1D3C
  8
0
  6
CONTINUOUS
 62
     1
 10
-10.73478558835218
 20
9.7284677162871063
 30
0.0
 11
-16.767517185609488
 21
9.7284677162871063
 31
0.0
 12
-16.32731915744268
 22
9.2882696881202982
 32
0.0
 13
-16.32731915744268
 23
9.2882696881202982
 33
0.0
210
0.0
220
0.0
230
-1.0
  0
SOLID
  5
1D3D
  8
0
  6
CONTINUOUS
 62
     1
 10
11.39173448264439
 20
9.2882696881202982
 30
0.0
 11
11.51703202238506
 21
9.2043122746788448
 31
0.0
 12
16.19129897110092
 22
9.2043122746788448
 32
0.0
 13
16.19129897110092
 23
9.2043122746788448
 33
0.0
210
0.0
220
0.0
230
1.0
  0
SOLID
  5
1D3E
  8
0
  6
CONTINUOUS
 62
     1
 10
-11.39173448264439
 20
9.2882696881202982
 30
0.0
 11
-16.32731915744268
 21
9.2882696881202982
 31
0.0
 12
-16.19129897110092
 22
9.2043122746788448
 32
0.0
 13
-16.19129897110092
 23
9.2043122746788448
 33
0.0
210
0.0
220
0.0
230
-1.0
  0
SOLID
  5
1D3F
  8
0
  6
CONTINUOUS
 62
     1
 10
11.51703202238506
 20
9.2043122746788448
 30
0.0
 11
12.229757026035189
 21
8.8780039691870982
 31
0.0
 12
15.66264385062367
 22
8.8780039691870982
 32
0.0
 13
15.66264385062367
 23
8.8780039691870982
 33
0.0
210
0.0
220
0.0
230
1.0
  0
SOLID
  5
1D40
  8
0
  6
CONTINUOUS
 62
     1
 10
-11.51703202238506
 20
9.2043122746788448
 30
0.0
 11
-16.19129897110092
 21
9.2043122746788448
 31
0.0
 12
-15.66264385062367
 22
8.8780039691870982
 32
0.0
 13
-15.66264385062367
 23
8.8780039691870982
 33
0.0
210
0.0
220
0.0
230
-1.0
  0
SOLID
  5
1D41
  8
0
  6
CONTINUOUS
 62
     1
 10
12.229757026035189
 20
8.8780039691870982
 30
0.0
 11
12.35582151808007
 21
8.8202876121473288
 31
0.0
 12
15.49330583257743
 22
8.8202876121473288
 32
0.0
 13
15.49330583257743
 23
8.8202876121473288
 33
0.0
210
0.0
220
0.0
230
1.0
  0
SOLID
  5
1D42
  8
0
  6
CONTINUOUS
 62
     1
 10
-12.229757026035189
 20
8.8780039691870982
 30
0.0
 11
-15.66264385062367
 21
8.8780039691870982
 31
0.0
 12
-15.49330583257743
 22
8.8202876121473288
 32
0.0
 13
-15.49330583257743
 23
8.8202876121473288
 33
0.0
210
0.0
220
0.0
230
-1.0
  0
SOLID
  5
1D43
  8
0
  6
CONTINUOUS
 62
     1
 10
12.35582151808007
 20
8.8202876121473288
 30
0.0
 11
13.110313512732279
 21
8.6196626616791132
 31
0.0
 12
14.90467839270795
 22
8.6196626616791132
 32
0.0
 13
14.90467839270795
 23
8.6196626616791132
 33
0.0
  0
SOLID
  5
1D44
  8
0
  6
CONTINUOUS
 62
     1
 10
-12.35582151808007
 20
8.8202876121473288
 30
0.0
 11
-15.49330583257743
 21
8.8202876121473288
 31
0.0
 12
-14.90467839270795
 22
8.6196626616791132
 32
0.0
 13
-14.90467839270795
 23
8.6196626616791132
 33
0.0
210
0.0
220
0.0
230
-1.0
  0
SOLID
  5
1D45
  8
0
  6
CONTINUOUS
 62
     1
 10
-13.22083803761806
 20
8.5902733805629481
 30
0.0
 11
-14.655268283714451
 21
8.5902733805629481
 31
0.0
 12
-14.08081763020437
 22
8.5225828935513981
 32
0.0
 13
-14.08081763020437
 23
8.5225828935513981
 33
0.0
210
0.0
220
0.0
230
-1.0
  0
SOLID
  5
1D46
  8
0
  6
CONTINUOUS
 62
     1
 10
13.110313512732279
 20
8.6196626616791132
 30
0.0
 11
13.22083803761806
 21
8.5902733805629481
 31
0.0
 12
14.655268283714451
 22
8.5902733805629481
 32
0.0
 13
14.655268283714451
 23
8.5902733805629481
 33
0.0
210
0.0
220
0.0
230
1.0
  0
SOLID
  5
1D47
  8
0
  6
CONTINUOUS
 62
     1
 10
-13.110313512732279
 20
8.6196626616791132
 30
0.0
 11
-14.90467839270795
 21
8.6196626616791132
 31
0.0
 12
-14.655268283714451
 22
8.5902733805629481
 32
0.0
 13
-14.655268283714451
 23
8.5902733805629481
 33
0.0
210
0.0
220
0.0
230
-1.0
  0
LINE
  5
1D48
  8
0
  6
CONTINUOUS
 62
     1
 10
12.509533271514311
 20
17.627105732710479
 30
0.0
 11
11.6637834733997
 21
17.612344251020371
 31
0.0
  0
LINE
  5
1D49
  8
0
  6
CONTINUOUS
 62
     1
 10
12.5950660055762
 20
17.612344251020371
 30
0.0
 11
12.509533271514311
 21
17.627105732710479
 31
0.0
  0
LINE
  5
1D4A
  8
0
  6
CONTINUOUS
 62
     1
 10
11.6637834733997
 20
17.612344251020371
 30
0.0
 11
11.063989299597511
 21
17.477576292529768
 31
0.0
  0
LINE
  5
1D4B
  8
0
  6
CONTINUOUS
 62
     1
 10
12.5950660055762
 20
17.612344251020371
 30
0.0
 11
13.37595455021072
 21
17.477576292529768
 31
0.0
  0
LINE
  5
1D4C
  8
0
  6
CONTINUOUS
 62
     1
 10
11.063989299597511
 20
17.477576292529768
 30
0.0
 11
10.869272757150361
 21
17.43382536586838
 31
0.0
  0
LINE
  5
1D4D
  8
0
  6
CONTINUOUS
 62
     1
 10
13.37595455021072
 20
17.477576292529768
 30
0.0
 11
13.49735254752329
 21
17.43382536586838
 31
0.0
  0
LINE
  5
1D4E
  8
0
  6
CONTINUOUS
 62
     1
 10
10.869272757150361
 20
17.43382536586838
 30
0.0
 11
10.30612687797281
 21
17.16916031404153
 31
0.0
  0
LINE
  5
1D4F
  8
0
  6
CONTINUOUS
 62
     1
 10
13.49735254752329
 20
17.43382536586838
 30
0.0
 11
14.231732587038231
 21
17.16916031404153
 31
0.0
  0
LINE
  5
1D50
  8
0
  6
CONTINUOUS
 62
     1
 10
10.30612687797281
 20
17.16916031404153
 30
0.0
 11
10.15471681012902
 21
17.098001214890331
 31
0.0
  0
LINE
  5
1D51
  8
0
  6
CONTINUOUS
 62
     1
 10
14.231732587038231
 20
17.16916031404153
 30
0.0
 11
14.35874644246773
 21
17.098001214890331
 31
0.0
  0
LINE
  5
1D52
  8
0
  6
CONTINUOUS
 62
     1
 10
10.15471681012902
 20
17.098001214890331
 30
0.0
 11
9.667439700180811
 21
16.713004754278309
 31
0.0
  0
LINE
  5
1D53
  8
0
  6
CONTINUOUS
 62
     1
 10
14.35874644246773
 20
17.098001214890331
 30
0.0
 11
15.04593733403795
 21
16.713004754278309
 31
0.0
  0
LINE
  5
1D54
  8
0
  6
CONTINUOUS
 62
     1
 10
9.667439700180811
 20
16.713004754278309
 30
0.0
 11
9.5459415460183923
 21
16.617009357883859
 31
0.0
  0
LINE
  5
1D55
  8
0
  6
CONTINUOUS
 62
     1
 10
15.04593733403795
 20
16.713004754278309
 30
0.0
 11
15.16739312066785
 21
16.617009357883859
 31
0.0
  0
LINE
  5
1D56
  8
0
  6
CONTINUOUS
 62
     1
 10
9.5459415460183923
 20
16.617009357883859
 30
0.0
 11
9.1576772542887976
 21
16.125596263671689
 31
0.0
  0
LINE
  5
1D57
  8
0
  6
CONTINUOUS
 62
     1
 10
15.16739312066785
 20
16.617009357883859
 30
0.0
 11
15.78914131026354
 21
16.125596263671689
 31
0.0
  0
LINE
  5
1D58
  8
0
  6
CONTINUOUS
 62
     1
 10
9.1576772542887976
 20
16.125596263671689
 30
0.0
 11
9.0649496890119181
 21
16.008234093773229
 31
0.0
  0
LINE
  5
1D59
  8
0
  6
CONTINUOUS
 62
     1
 10
15.78914131026354
 20
16.125596263671689
 30
0.0
 11
15.89773804411413
 21
16.008234093773229
 31
0.0
  0
LINE
  5
1D5A
  8
0
  6
CONTINUOUS
 62
     1
 10
9.0649496890119181
 20
16.008234093773229
 30
0.0
 11
8.7923312806595604
 21
15.42816531555007
 31
0.0
  0
LINE
  5
1D5B
  8
0
  6
CONTINUOUS
 62
     1
 10
15.89773804411413
 20
16.008234093773229
 30
0.0
 11
16.43448318761515
 21
15.42816531555007
 31
0.0
  0
LINE
  5
1D5C
  8
0
  6
CONTINUOUS
 62
     1
 10
8.7923312806595604
 20
15.42816531555007
 30
0.0
 11
8.7291255380338697
 21
15.293678146751899
 31
0.0
  0
LINE
  5
1D5D
  8
0
  6
CONTINUOUS
 62
     1
 10
16.43448318761515
 20
15.42816531555007
 30
0.0
 11
16.52459824379843
 21
15.293678146751899
 31
0.0
  0
LINE
  5
1D5E
  8
0
  6
CONTINUOUS
 62
     1
 10
8.7291255380338697
 20
15.293678146751899
 30
0.0
 11
8.5835802867093047
 21
14.645918881517179
 31
0.0
  0
LINE
  5
1D5F
  8
0
  6
CONTINUOUS
 62
     1
 10
16.52459824379843
 20
15.293678146751899
 30
0.0
 11
16.958638629223401
 21
14.645918881517179
 31
0.0
  0
LINE
  5
1D60
  8
0
  6
CONTINUOUS
 62
     1
 10
8.5835802867093047
 20
14.645918881517179
 30
0.0
 11
8.5506066528818856
 21
14.499167430502551
 31
0.0
  0
LINE
  5
1D61
  8
0
  6
CONTINUOUS
 62
     1
 10
16.958638629223401
 20
14.645918881517179
 30
0.0
 11
17.025826137818999
 21
14.499167430502551
 31
0.0
  0
LINE
  5
1D62
  8
0
  6
CONTINUOUS
 62
     1
 10
8.5506066528818856
 20
14.499167430502551
 30
0.0
 11
8.5385280133738597
 21
13.80712938582217
 31
0.0
  0
LINE
  5
1D63
  8
0
  6
CONTINUOUS
 62
     1
 10
17.025826137818999
 20
14.499167430502551
 30
0.0
 11
17.342663291754921
 21
13.80712938582217
 31
0.0
  0
LINE
  5
1D64
  8
0
  6
CONTINUOUS
 62
     1
 10
8.5385280133738597
 20
13.80712938582217
 30
0.0
 11
8.5358451711917702
 21
13.65341763238794
 31
0.0
  0
LINE
  5
1D65
  8
0
  6
CONTINUOUS
 62
     1
 10
17.342663291754921
 20
13.80712938582217
 30
0.0
 11
17.383536373428019
 21
13.65341763238794
 31
0.0
  0
LINE
  5
1D66
  8
0
  6
CONTINUOUS
 62
     1
 10
8.5358451711917702
 20
13.65341763238794
 30
0.0
 11
8.6586041639457232
 21
12.94211286628418
 31
0.0
  0
LINE
  5
1D67
  8
0
  6
CONTINUOUS
 62
     1
 10
17.383536373428019
 20
13.65341763238794
 30
0.0
 11
17.572677523339301
 21
12.94211286628418
 31
0.0
  0
LINE
  5
1D68
  8
0
  6
CONTINUOUS
 62
     1
 10
8.6586041639457232
 20
12.94211286628418
 30
0.0
 11
8.6853746113724775
 21
12.78699635369153
 31
0.0
  0
LINE
  5
1D69
  8
0
  6
CONTINUOUS
 62
     1
 10
17.572677523339301
 20
12.94211286628418
 30
0.0
 11
17.584887013391679
 21
12.78699635369153
 31
0.0
  0
LINE
  5
1D6A
  8
0
  6
CONTINUOUS
 62
     1
 10
8.6853746113724775
 20
12.78699635369153
 30
0.0
 11
8.939401972628886
 21
12.08213327369787
 31
0.0
  0
LINE
  5
1D6B
  8
0
  6
CONTINUOUS
 62
     1
 10
17.584887013391679
 20
12.78699635369153
 30
0.0
 11
17.640368010350851
 21
12.08213327369787
 31
0.0
  0
LINE
  5
1D6C
  8
0
  6
CONTINUOUS
 62
     1
 10
8.939401972628886
 20
12.08213327369787
 30
0.0
 11
8.9937905898607191
 21
11.93121831686403
 31
0.0
  0
LINE
  5
1D6D
  8
0
  6
CONTINUOUS
 62
     1
 10
17.640368010350851
 20
12.08213327369787
 30
0.0
 11
17.622584921650379
 21
11.93121831686403
 31
0.0
  0
LINE
  5
1D6E
  8
0
  6
CONTINUOUS
 62
     1
 10
8.9937905898607191
 20
11.93121831686403
 30
0.0
 11
9.3708062874561193
 21
11.25827251119428
 31
0.0
  0
LINE
  5
1D6F
  8
0
  6
CONTINUOUS
 62
     1
 10
17.622584921650379
 20
11.93121831686403
 30
0.0
 11
17.543288242223131
 21
11.25827251119428
 31
0.0
  0
LINE
  5
1D70
  8
0
  6
CONTINUOUS
 62
     1
 10
9.3708062874561193
 20
11.25827251119428
 30
0.0
 11
9.4499461496239316
 21
11.1170135698643
 31
0.0
  0
LINE
  5
1D71
  8
0
  6
CONTINUOUS
 62
     1
 10
17.543288242223131
 20
11.25827251119428
 30
0.0
 11
17.49514222287716
 21
11.1170135698643
 31
0.0
  0
LINE
  5
1D72
  8
0
  6
CONTINUOUS
 62
     1
 10
9.4499461496239316
 20
11.1170135698643
 30
0.0
 11
9.9373744407031062
 21
10.500307053278579
 31
0.0
  0
LINE
  5
1D73
  8
0
  6
CONTINUOUS
 62
     1
 10
17.49514222287716
 20
11.1170135698643
 30
0.0
 11
17.284946934715151
 21
10.500307053278579
 31
0.0
  0
LINE
  5
1D74
  8
0
  6
CONTINUOUS
 62
     1
 10
9.9373744407031062
 20
10.500307053278579
 30
0.0
 11
10.037354640230561
 21
10.373809593638709
 31
0.0
  0
LINE
  5
1D75
  8
0
  6
CONTINUOUS
 62
     1
 10
17.284946934715151
 20
10.500307053278579
 30
0.0
 11
17.206867351059859
 21
10.373809593638709
 31
0.0
  0
LINE
  5
1D76
  8
0
  6
CONTINUOUS
 62
     1
 10
10.037354640230561
 20
10.373809593638709
 30
0.0
 11
10.618971763477781
 21
9.8356317464595602
 31
0.0
  0
LINE
  5
1D77
  8
0
  6
CONTINUOUS
 62
     1
 10
17.206867351059859
 20
10.373809593638709
 30
0.0
 11
16.874681215781951
 21
9.8356317464595602
 31
0.0
  0
LINE
  5
1D78
  8
0
  6
CONTINUOUS
 62
     1
 10
10.618971763477781
 20
9.8356317464595602
 30
0.0
 11
10.73478558835218
 21
9.7284677162871063
 31
0.0
  0
LINE
  5
1D79
  8
0
  6
CONTINUOUS
 62
     1
 10
16.874681215781951
 20
9.8356317464595602
 30
0.0
 11
16.767517185609488
 21
9.7284677162871063
 31
0.0
  0
LINE
  5
1D7A
  8
0
  6
CONTINUOUS
 62
     1
 10
10.73478558835218
 20
9.7284677162871063
 30
0.0
 11
11.39173448264439
 21
9.2882696881202982
 31
0.0
  0
LINE
  5
1D7B
  8
0
  6
CONTINUOUS
 62
     1
 10
16.767517185609488
 20
9.7284677162871063
 30
0.0
 11
16.32731915744268
 21
9.2882696881202982
 31
0.0
  0
LINE
  5
1D7C
  8
0
  6
CONTINUOUS
 62
     1
 10
11.39173448264439
 20
9.2882696881202982
 30
0.0
 11
11.51703202238506
 21
9.2043122746788448
 31
0.0
  0
LINE
  5
1D7D
  8
0
  6
CONTINUOUS
 62
     1
 10
16.32731915744268
 20
9.2882696881202982
 30
0.0
 11
16.19129897110092
 21
9.2043122746788448
 31
0.0
  0
LINE
  5
1D7E
  8
0
  6
CONTINUOUS
 62
     1
 10
11.51703202238506
 20
9.2043122746788448
 30
0.0
 11
12.229757026035189
 21
8.8780039691870982
 31
0.0
  0
LINE
  5
1D7F
  8
0
  6
CONTINUOUS
 62
     1
 10
16.19129897110092
 20
9.2043122746788448
 30
0.0
 11
15.66264385062367
 21
8.8780039691870982
 31
0.0
  0
LINE
  5
1D80
  8
0
  6
CONTINUOUS
 62
     1
 10
12.229757026035189
 20
8.8780039691870982
 30
0.0
 11
12.35582151808007
 21
8.8202876121473288
 31
0.0
  0
LINE
  5
1D81
  8
0
  6
CONTINUOUS
 62
     1
 10
15.66264385062367
 20
8.8780039691870982
 30
0.0
 11
15.49330583257743
 21
8.8202876121473288
 31
0.0
  0
LINE
  5
1D82
  8
0
  6
CONTINUOUS
 62
     1
 10
12.35582151808007
 20
8.8202876121473288
 30
0.0
 11
13.110313512732279
 21
8.6196626616791132
 31
0.0
  0
LINE
  5
1D83
  8
0
  6
CONTINUOUS
 62
     1
 10
15.49330583257743
 20
8.8202876121473288
 30
0.0
 11
14.90467839270795
 21
8.6196626616791132
 31
0.0
  0
LINE
  5
1D84
  8
0
  6
CONTINUOUS
 62
     1
 10
14.655268283714451
 20
8.5902733805629481
 30
0.0
 11
14.08081763020437
 21
8.5225828935513981
 31
0.0
  0
LINE
  5
1D85
  8
0
  6
CONTINUOUS
 62
     1
 10
14.08081763020437
 20
8.5225828935513981
 30
0.0
 11
13.22083803761806
 21
8.5902733805629481
 31
0.0
  0
LINE
  5
1D86
  8
0
  6
CONTINUOUS
 62
     1
 10
13.110313512732279
 20
8.6196626616791132
 30
0.0
 11
13.22083803761806
 21
8.5902733805629481
 31
0.0
  0
LINE
  5
1D87
  8
0
  6
CONTINUOUS
 62
     1
 10
14.90467839270795
 20
8.6196626616791132
 30
0.0
 11
14.655268283714451
 21
8.5902733805629481
 31
0.0
  0
ENDBLK
  5
1D89
  8
0
  0
BLOCK
  8
0
  2
*U68
 70
     1
 10
0.0
 20
0.0
 30
0.0
  3
*U68
  1

  0
SOLID
  5
1D8B
  8
0
  6
CONTINUOUS
 62
     4
 10
-1.5
 20
1.5
 30
-1.0
 11
-1.5
 21
-1.5
 31
-1.0
 12
1.5
 22
-1.5
 32
-1.0
 13
1.5
 23
-1.5
 33
-1.0
210
0.0
220
0.0
230
1.0
  0
SOLID
  5
1D8C
  8
0
  6
CONTINUOUS
 62
     4
 10
1.5
 20
1.5
 30
1.0
 11
-1.5
 21
1.5
 31
1.0
 12
-1.5
 22
-1.5
 32
1.0
 13
-1.5
 23
-1.5
 33
1.0
210
0.0
220
0.0
230
-1.0
  0
LINE
  5
1D8D
  8
0
  6
CONTINUOUS
 62
     4
 10
-1.5
 20
1.5
 30
-1.0
 11
-1.5
 21
-1.5
 31
-1.0
  0
LINE
  5
1D8E
  8
0
  6
CONTINUOUS
 62
     4
 10
1.5
 20
1.5
 30
-1.0
 11
1.5
 21
-1.5
 31
-1.0
  0
ENDBLK
  5
1D90
  8
0
  0
BLOCK
  8
0
  2
*U69
 70
     1
 10
0.0
 20
0.0
 30
0.0
  3
*U69
  1

  0
SOLID
  5
1D92
  8
0
  6
CONTINUOUS
 62
   142
 10
3.6682976931065729
 20
4.0836255755877877
 30
0.0
 11
3.297364607490723
 21
3.6706951206524958
 31
0.0
 12
4.0862944419833829
 22
3.6706951206524958
 32
0.0
 13
4.0862944419833829
 23
3.6706951206524958
 33
0.0
  0
SOLID
  5
1D93
  8
0
  6
CONTINUOUS
 62
   142
 10
-3.297364607490723
 20
3.6706951206524958
 30
0.0
 11
-4.0862944419833829
 21
3.6706951206524958
 31
0.0
 12
0.0
 22
0.0
 32
0.0
 13
0.0
 23
0.0
 33
0.0
210
0.0
220
0.0
230
-1.0
  0
LINE
  5
1D94
  8
0
  6
CONTINUOUS
 62
   142
 10
3.6682976931065729
 20
4.0836255755877877
 30
0.0
 11
3.297364607490723
 21
3.6706951206524958
 31
0.0
  0
LINE
  5
1D95
  8
0
  6
CONTINUOUS
 62
   142
 10
4.0862944419833829
 20
3.6706951206524958
 30
0.0
 11
3.6682976931065729
 21
4.0836255755877877
 31
0.0
  0
LINE
  5
1D96
  8
0
  6
CONTINUOUS
 62
   142
 10
4.0862944419833829
 20
3.6706951206524958
 30
0.0
 11
0.0
 21
0.0
 31
0.0
  0
LINE
  5
1D97
  8
0
  6
CONTINUOUS
 62
   142
 10
0.0
 20
0.0
 30
0.0
 11
3.297364607490723
 21
3.6706951206524958
 31
0.0
  0
ENDBLK
  5
1D99
  8
0
  0
BLOCK
  8
0
  2
*U70
 70
     1
 10
0.0
 20
0.0
 30
0.0
  3
*U70
  1

  0
SOLID
  5
1DA1
  8
0
  6
CONTINUOUS
 62
    14
 10
9.5459415460183941
 20
16.617009357883859
 30
0.0
 11
8.9878476327803831
 21
16.06333673174764
 31
0.0
 12
9.0996943285474572
 22
16.06333673174764
 32
0.0
 13
9.0996943285474572
 23
16.06333673174764
 33
0.0
210
0.0
220
0.0
230
1.0
  0
SOLID
  5
1DA2
  8
0
  6
CONTINUOUS
 62
    14
 10
8.9878476327803831
 20
16.06333673174764
 30
0.0
 11
8.9458947136586406
 21
16.021716168696791
 31
0.0
 12
9.0786821489710956
 22
16.021716168696791
 32
0.0
 13
9.0786821489710956
 23
16.021716168696791
 33
0.0
  0
SOLID
  5
1DA3
  8
0
  6
CONTINUOUS
 62
    14
 10
-8.9878476327803831
 20
16.06333673174764
 30
0.0
 11
-9.0996943285474572
 21
16.06333673174764
 31
0.0
 12
-9.0786821489710956
 22
16.021716168696791
 32
0.0
 13
-9.0786821489710956
 23
16.021716168696791
 33
0.0
210
0.0
220
0.0
230
-1.0
  0
SOLID
  5
1DA4
  8
0
  6
CONTINUOUS
 62
    14
 10
8.9458947136586406
 20
16.021716168696791
 30
0.0
 11
8.5452944649965552
 21
15.41906175951941
 31
0.0
 12
8.7744315156326742
 22
15.41906175951941
 32
0.0
 13
8.7744315156326742
 23
15.41906175951941
 33
0.0
  0
SOLID
  5
1DA5
  8
0
  6
CONTINUOUS
 62
    14
 10
-8.9458947136586406
 20
16.021716168696791
 30
0.0
 11
-9.0786821489710956
 21
16.021716168696791
 31
0.0
 12
-8.7744315156326742
 22
15.41906175951941
 32
0.0
 13
-8.7744315156326742
 23
15.41906175951941
 33
0.0
210
0.0
220
0.0
230
-1.0
  0
SOLID
  5
1DA6
  8
0
  6
CONTINUOUS
 62
    14
 10
8.5452944649965552
 20
15.41906175951941
 30
0.0
 11
8.4753889197775187
 21
15.313897358865891
 31
0.0
 12
8.7458512783513598
 22
15.313897358865891
 32
0.0
 13
8.7458512783513598
 23
15.313897358865891
 33
0.0
  0
SOLID
  5
1DA7
  8
0
  6
CONTINUOUS
 62
    14
 10
-8.5452944649965552
 20
15.41906175951941
 30
0.0
 11
-8.7744315156326742
 21
15.41906175951941
 31
0.0
 12
-8.7458512783513598
 22
15.313897358865891
 32
0.0
 13
-8.7458512783513598
 23
15.313897358865891
 33
0.0
210
0.0
220
0.0
230
-1.0
  0
SOLID
  5
1DA8
  8
0
  6
CONTINUOUS
 62
    14
 10
8.4753889197775187
 20
15.313897358865891
 30
0.0
 11
8.2264165184088984
 21
14.703760410211469
 31
0.0
 12
8.5800360532535365
 22
14.703760410211469
 32
0.0
 13
8.5800360532535365
 23
14.703760410211469
 33
0.0
210
0.0
220
0.0
230
1.0
  0
SOLID
  5
1DA9
  8
0
  6
CONTINUOUS
 62
    14
 10
-8.4753889197775187
 20
15.313897358865891
 30
0.0
 11
-8.7458512783513598
 21
15.313897358865891
 31
0.0
 12
-8.5800360532535365
 22
14.703760410211469
 32
0.0
 13
-8.5800360532535365
 23
14.703760410211469
 33
0.0
210
0.0
220
0.0
230
-1.0
  0
SOLID
  5
1DAA
  8
0
  6
CONTINUOUS
 62
    14
 10
8.2264165184088984
 20
14.703760410211469
 30
0.0
 11
8.1505203542444722
 21
14.517767690683909
 31
0.0
 12
8.5660192220222182
 22
14.517767690683909
 32
0.0
 13
8.5660192220222182
 23
14.517767690683909
 33
0.0
210
0.0
220
0.0
230
1.0
  0
SOLID
  5
1DAB
  8
0
  6
CONTINUOUS
 62
    14
 10
-8.2264165184088984
 20
14.703760410211469
 30
0.0
 11
-8.5800360532535365
 21
14.703760410211469
 31
0.0
 12
-8.5660192220222182
 22
14.517767690683909
 32
0.0
 13
-8.5660192220222182
 23
14.517767690683909
 33
0.0
210
0.0
220
0.0
230
-1.0
  0
SOLID
  5
1DAC
  8
0
  6
CONTINUOUS
 62
    14
 10
8.1505203542444722
 20
14.517767690683909
 30
0.0
 11
8.0370434606507128
 21
13.93916675336259
 31
0.0
 12
8.5224145491655801
 22
13.93916675336259
 32
0.0
 13
8.5224145491655801
 23
13.93916675336259
 33
0.0
210
0.0
220
0.0
230
1.0
  0
SOLID
  5
1DAD
  8
0
  6
CONTINUOUS
 62
    14
 10
-8.1505203542444722
 20
14.517767690683909
 30
0.0
 11
-8.5660192220222182
 21
14.517767690683909
 31
0.0
 12
-8.5224145491655801
 22
13.93916675336259
 32
0.0
 13
-8.5224145491655801
 23
13.93916675336259
 33
0.0
210
0.0
220
0.0
230
-1.0
  0
SOLID
  5
1DAE
  8
0
  6
CONTINUOUS
 62
    14
 10
8.0370434606507128
 20
13.93916675336259
 30
0.0
 11
7.9824028995694318
 21
13.660563075942839
 31
0.0
 12
8.5509225175960868
 22
13.660563075942839
 32
0.0
 13
8.5509225175960868
 23
13.660563075942839
 33
0.0
210
0.0
220
0.0
230
1.0
  0
SOLID
  5
1DAF
  8
0
  6
CONTINUOUS
 62
    14
 10
-8.0370434606507128
 20
13.93916675336259
 30
0.0
 11
-8.5224145491655801
 21
13.93916675336259
 31
0.0
 12
-8.5509225175960868
 22
13.660563075942839
 32
0.0
 13
-8.5509225175960868
 23
13.660563075942839
 33
0.0
210
0.0
220
0.0
230
-1.0
  0
SOLID
  5
1DB0
  8
0
  6
CONTINUOUS
 62
    14
 10
7.9824028995694318
 20
13.660563075942839
 30
0.0
 11
7.9791685905219438
 21
13.14851258033306
 31
0.0
 12
8.6033178036126312
 22
13.14851258033306
 32
0.0
 13
8.6033178036126312
 23
13.14851258033306
 33
0.0
210
0.0
220
0.0
230
1.0
  0
SOLID
  5
1DB1
  8
0
  6
CONTINUOUS
 62
    14
 10
-7.9824028995694318
 20
13.660563075942839
 30
0.0
 11
-8.5509225175960868
 21
13.660563075942839
 31
0.0
 12
-8.6033178036126312
 22
13.14851258033306
 32
0.0
 13
-8.6033178036126312
 23
13.14851258033306
 33
0.0
210
0.0
220
0.0
230
-1.0
  0
SOLID
  5
1DB2
  8
0
  6
CONTINUOUS
 62
    14
 10
7.9791685905219438
 20
13.14851258033306
 30
0.0
 11
7.9767879205729919
 21
12.771608824586281
 31
0.0
 12
8.7064812422011357
 22
12.771608824586281
 32
0.0
 13
8.7064812422011357
 23
12.771608824586281
 33
0.0
210
0.0
220
0.0
230
1.0
  0
SOLID
  5
1DB3
  8
0
  6
CONTINUOUS
 62
    14
 10
-7.9791685905219438
 20
13.14851258033306
 30
0.0
 11
-8.6033178036126312
 21
13.14851258033306
 31
0.0
 12
-8.7064812422011357
 22
12.771608824586281
 32
0.0
 13
-8.7064812422011357
 23
12.771608824586281
 33
0.0
210
0.0
220
0.0
230
-1.0
  0
SOLID
  5
1DB4
  8
0
  6
CONTINUOUS
 62
    14
 10
7.9767879205729919
 20
12.771608824586281
 30
0.0
 11
8.0501477490601445
 21
12.35582151808007
 31
0.0
 12
8.8202876121473395
 22
12.35582151808007
 32
0.0
 13
8.8202876121473395
 23
12.35582151808007
 33
0.0
210
0.0
220
0.0
230
1.0
  0
SOLID
  5
1DB5
  8
0
  6
CONTINUOUS
 62
    14
 10
-7.9767879205729919
 20
12.771608824586281
 30
0.0
 11
-8.7064812422011357
 21
12.771608824586281
 31
0.0
 12
-8.8202876121473395
 22
12.35582151808007
 32
0.0
 13
-8.8202876121473395
 23
12.35582151808007
 33
0.0
210
0.0
220
0.0
230
-1.0
  0
SOLID
  5
1DB6
  8
0
  6
CONTINUOUS
 62
    14
 10
8.0501477490601445
 20
12.35582151808007
 30
0.0
 11
8.1338675079142178
 21
11.881316414222299
 31
0.0
 12
9.0336023287440046
 22
11.881316414222299
 32
0.0
 13
9.0336023287440046
 23
11.881316414222299
 33
0.0
  0
SOLID
  5
1DB7
  8
0
  6
CONTINUOUS
 62
    14
 10
-8.0501477490601445
 20
12.35582151808007
 30
0.0
 11
-8.8202876121473395
 21
12.35582151808007
 31
0.0
 12
-9.0336023287440046
 22
11.881316414222299
 32
0.0
 13
-9.0336023287440046
 23
11.881316414222299
 33
0.0
210
0.0
220
0.0
230
-1.0
  0
SOLID
  5
1DB8
  8
0
  6
CONTINUOUS
 62
    14
 10
8.1338675079142178
 20
11.881316414222299
 30
0.0
 11
8.2419824407460514
 21
11.585179083409139
 31
0.0
 12
9.1667314569293943
 22
11.585179083409139
 32
0.0
 13
9.1667314569293943
 23
11.585179083409139
 33
0.0
  0
SOLID
  5
1DB9
  8
0
  6
CONTINUOUS
 62
    14
 10
-8.1338675079142178
 20
11.881316414222299
 30
0.0
 11
-9.0336023287440046
 21
11.881316414222299
 31
0.0
 12
-9.1667314569293943
 22
11.585179083409139
 32
0.0
 13
-9.1667314569293943
 23
11.585179083409139
 33
0.0
210
0.0
220
0.0
230
-1.0
  0
SOLID
  5
1DBA
  8
0
  6
CONTINUOUS
 62
    14
 10
8.2419824407460514
 20
11.585179083409139
 30
0.0
 11
8.4482679065929815
 21
11.020143101409509
 31
0.0
 12
9.5293497133850362
 22
11.020143101409509
 32
0.0
 13
9.5293497133850362
 23
11.020143101409509
 33
0.0
210
0.0
220
0.0
230
1.0
  0
SOLID
  5
1DBB
  8
0
  6
CONTINUOUS
 62
    14
 10
-8.2419824407460514
 20
11.585179083409139
 30
0.0
 11
-9.1667314569293943
 21
11.585179083409139
 31
0.0
 12
-9.5293497133850362
 22
11.020143101409509
 32
0.0
 13
-9.5293497133850362
 23
11.020143101409509
 33
0.0
210
0.0
220
0.0
230
-1.0
  0
SOLID
  5
1DBC
  8
0
  6
CONTINUOUS
 62
    14
 10
8.4482679065929815
 20
11.020143101409509
 30
0.0
 11
8.5402448228203731
 21
10.86000085673386
 31
0.0
 12
9.6321228170441433
 22
10.86000085673386
 32
0.0
 13
9.6321228170441433
 23
10.86000085673386
 33
0.0
210
0.0
220
0.0
230
1.0
  0
SOLID
  5
1DBD
  8
0
  6
CONTINUOUS
 62
    14
 10
-8.4482679065929815
 20
11.020143101409509
 30
0.0
 11
-9.5293497133850362
 21
11.020143101409509
 31
0.0
 12
-9.6321228170441433
 22
10.86000085673386
 32
0.0
 13
-9.6321228170441433
 23
10.86000085673386
 33
0.0
210
0.0
220
0.0
230
-1.0
  0
SOLID
  5
1DBE
  8
0
  6
CONTINUOUS
 62
    14
 10
8.5402448228203731
 20
10.86000085673386
 30
0.0
 11
8.9092333542404134
 21
10.217549966827031
 31
0.0
 12
10.189117744169859
 22
10.217549966827031
 32
0.0
 13
10.189117744169859
 23
10.217549966827031
 33
0.0
  0
SOLID
  5
1DBF
  8
0
  6
CONTINUOUS
 62
    14
 10
-8.5402448228203731
 20
10.86000085673386
 30
0.0
 11
-9.6321228170441433
 21
10.86000085673386
 31
0.0
 12
-10.189117744169859
 22
10.217549966827031
 32
0.0
 13
-10.189117744169859
 23
10.217549966827031
 33
0.0
210
0.0
220
0.0
230
-1.0
  0
SOLID
  5
1DC0
  8
0
  6
CONTINUOUS
 62
    14
 10
-8.9218100376541916
 20
10.20232101151389
 30
0.0
 11
-10.20232101151389
 21
10.20232101151389
 31
0.0
 12
-9.5009940400166073
 22
9.5009940400166002
 32
0.0
 13
-9.5009940400166073
 23
9.5009940400166002
 33
0.0
210
0.0
220
0.0
230
-1.0
  0
SOLID
  5
1DC1
  8
0
  6
CONTINUOUS
 62
    14
 10
8.9092333542404134
 20
10.217549966827031
 30
0.0
 11
8.9218100376541916
 21
10.20232101151389
 31
0.0
 12
10.20232101151389
 22
10.20232101151389
 32
0.0
 13
10.20232101151389
 23
10.20232101151389
 33
0.0
  0
SOLID
  5
1DC2
  8
0
  6
CONTINUOUS
 62
    14
 10
-8.9092333542404134
 20
10.217549966827031
 30
0.0
 11
-10.189117744169859
 21
10.217549966827031
 31
0.0
 12
-10.20232101151389
 22
10.20232101151389
 32
0.0
 13
-10.20232101151389
 23
10.20232101151389
 33
0.0
210
0.0
220
0.0
230
-1.0
  0
LINE
  5
1DC3
  8
0
  6
CONTINUOUS
 62
    14
 10
9.5459415460183941
 20
16.617009357883859
 30
0.0
 11
8.9878476327803831
 21
16.06333673174764
 31
0.0
  0
LINE
  5
1DC4
  8
0
  6
CONTINUOUS
 62
    14
 10
9.0996943285474572
 20
16.06333673174764
 30
0.0
 11
9.5459415460183941
 21
16.617009357883859
 31
0.0
  0
LINE
  5
1DC5
  8
0
  6
CONTINUOUS
 62
    14
 10
8.9878476327803831
 20
16.06333673174764
 30
0.0
 11
8.9458947136586406
 21
16.021716168696791
 31
0.0
  0
LINE
  5
1DC6
  8
0
  6
CONTINUOUS
 62
    14
 10
9.0996943285474572
 20
16.06333673174764
 30
0.0
 11
9.0786821489710956
 21
16.021716168696791
 31
0.0
  0
LINE
  5
1DC7
  8
0
  6
CONTINUOUS
 62
    14
 10
8.9458947136586406
 20
16.021716168696791
 30
0.0
 11
8.5452944649965552
 21
15.41906175951941
 31
0.0
  0
LINE
  5
1DC8
  8
0
  6
CONTINUOUS
 62
    14
 10
9.0786821489710956
 20
16.021716168696791
 30
0.0
 11
8.7744315156326742
 21
15.41906175951941
 31
0.0
  0
LINE
  5
1DC9
  8
0
  6
CONTINUOUS
 62
    14
 10
8.5452944649965552
 20
15.41906175951941
 30
0.0
 11
8.4753889197775187
 21
15.313897358865891
 31
0.0
  0
LINE
  5
1DCA
  8
0
  6
CONTINUOUS
 62
    14
 10
8.7744315156326742
 20
15.41906175951941
 30
0.0
 11
8.7458512783513598
 21
15.313897358865891
 31
0.0
  0
LINE
  5
1DCB
  8
0
  6
CONTINUOUS
 62
    14
 10
8.4753889197775187
 20
15.313897358865891
 30
0.0
 11
8.2264165184088984
 21
14.703760410211469
 31
0.0
  0
LINE
  5
1DCC
  8
0
  6
CONTINUOUS
 62
    14
 10
8.7458512783513598
 20
15.313897358865891
 30
0.0
 11
8.5800360532535365
 21
14.703760410211469
 31
0.0
  0
LINE
  5
1DCD
  8
0
  6
CONTINUOUS
 62
    14
 10
8.2264165184088984
 20
14.703760410211469
 30
0.0
 11
8.1505203542444722
 21
14.517767690683909
 31
0.0
  0
LINE
  5
1DCE
  8
0
  6
CONTINUOUS
 62
    14
 10
8.5800360532535365
 20
14.703760410211469
 30
0.0
 11
8.5660192220222182
 21
14.517767690683909
 31
0.0
  0
LINE
  5
1DCF
  8
0
  6
CONTINUOUS
 62
    14
 10
8.1505203542444722
 20
14.517767690683909
 30
0.0
 11
8.0370434606507128
 21
13.93916675336259
 31
0.0
  0
LINE
  5
1DD0
  8
0
  6
CONTINUOUS
 62
    14
 10
8.5660192220222182
 20
14.517767690683909
 30
0.0
 11
8.5224145491655801
 21
13.93916675336259
 31
0.0
  0
LINE
  5
1DD1
  8
0
  6
CONTINUOUS
 62
    14
 10
8.0370434606507128
 20
13.93916675336259
 30
0.0
 11
7.9824028995694318
 21
13.660563075942839
 31
0.0
  0
LINE
  5
1DD2
  8
0
  6
CONTINUOUS
 62
    14
 10
8.5224145491655801
 20
13.93916675336259
 30
0.0
 11
8.5509225175960868
 21
13.660563075942839
 31
0.0
  0
LINE
  5
1DD3
  8
0
  6
CONTINUOUS
 62
    14
 10
7.9824028995694318
 20
13.660563075942839
 30
0.0
 11
7.9791685905219438
 21
13.14851258033306
 31
0.0
  0
LINE
  5
1DD4
  8
0
  6
CONTINUOUS
 62
    14
 10
8.5509225175960868
 20
13.660563075942839
 30
0.0
 11
8.6033178036126312
 21
13.14851258033306
 31
0.0
  0
LINE
  5
1DD5
  8
0
  6
CONTINUOUS
 62
    14
 10
7.9791685905219438
 20
13.14851258033306
 30
0.0
 11
7.9767879205729919
 21
12.771608824586281
 31
0.0
  0
LINE
  5
1DD6
  8
0
  6
CONTINUOUS
 62
    14
 10
8.6033178036126312
 20
13.14851258033306
 30
0.0
 11
8.7064812422011357
 21
12.771608824586281
 31
0.0
  0
LINE
  5
1DD7
  8
0
  6
CONTINUOUS
 62
    14
 10
7.9767879205729919
 20
12.771608824586281
 30
0.0
 11
8.0501477490601445
 21
12.35582151808007
 31
0.0
  0
LINE
  5
1DD8
  8
0
  6
CONTINUOUS
 62
    14
 10
8.7064812422011357
 20
12.771608824586281
 30
0.0
 11
8.8202876121473395
 21
12.35582151808007
 31
0.0
  0
LINE
  5
1DD9
  8
0
  6
CONTINUOUS
 62
    14
 10
8.0501477490601445
 20
12.35582151808007
 30
0.0
 11
8.1338675079142178
 21
11.881316414222299
 31
0.0
  0
LINE
  5
1DDA
  8
0
  6
CONTINUOUS
 62
    14
 10
8.8202876121473395
 20
12.35582151808007
 30
0.0
 11
9.0336023287440046
 21
11.881316414222299
 31
0.0
  0
LINE
  5
1DDB
  8
0
  6
CONTINUOUS
 62
    14
 10
8.1338675079142178
 20
11.881316414222299
 30
0.0
 11
8.2419824407460514
 21
11.585179083409139
 31
0.0
  0
LINE
  5
1DDC
  8
0
  6
CONTINUOUS
 62
    14
 10
9.0336023287440046
 20
11.881316414222299
 30
0.0
 11
9.1667314569293943
 21
11.585179083409139
 31
0.0
  0
LINE
  5
1DDD
  8
0
  6
CONTINUOUS
 62
    14
 10
8.2419824407460514
 20
11.585179083409139
 30
0.0
 11
8.4482679065929815
 21
11.020143101409509
 31
0.0
  0
LINE
  5
1DDE
  8
0
  6
CONTINUOUS
 62
    14
 10
9.1667314569293943
 20
11.585179083409139
 30
0.0
 11
9.5293497133850362
 21
11.020143101409509
 31
0.0
  0
LINE
  5
1DDF
  8
0
  6
CONTINUOUS
 62
    14
 10
8.4482679065929815
 20
11.020143101409509
 30
0.0
 11
8.5402448228203731
 21
10.86000085673386
 31
0.0
  0
LINE
  5
1DE0
  8
0
  6
CONTINUOUS
 62
    14
 10
9.5293497133850362
 20
11.020143101409509
 30
0.0
 11
9.6321228170441433
 21
10.86000085673386
 31
0.0
  0
LINE
  5
1DE1
  8
0
  6
CONTINUOUS
 62
    14
 10
8.5402448228203731
 20
10.86000085673386
 30
0.0
 11
8.9092333542404134
 21
10.217549966827031
 31
0.0
  0
LINE
  5
1DE2
  8
0
  6
CONTINUOUS
 62
    14
 10
9.6321228170441433
 20
10.86000085673386
 30
0.0
 11
10.189117744169859
 21
10.217549966827031
 31
0.0
  0
LINE
  5
1DE3
  8
0
  6
CONTINUOUS
 62
    14
 10
10.20232101151389
 20
10.20232101151389
 30
0.0
 11
9.5009940400166073
 21
9.5009940400166002
 31
0.0
  0
LINE
  5
1DE4
  8
0
  6
CONTINUOUS
 62
    14
 10
9.5009940400166073
 20
9.5009940400166002
 30
0.0
 11
8.9218100376541916
 21
10.20232101151389
 31
0.0
  0
LINE
  5
1DE5
  8
0
  6
CONTINUOUS
 62
    14
 10
8.9092333542404134
 20
10.217549966827031
 30
0.0
 11
8.9218100376541916
 21
10.20232101151389
 31
0.0
  0
LINE
  5
1DE6
  8
0
  6
CONTINUOUS
 62
    14
 10
10.189117744169859
 20
10.217549966827031
 30
0.0
 11
10.20232101151389
 21
10.20232101151389
 31
0.0
  0
ENDBLK
  5
1DE8
  8
0
  0
BLOCK
  8
0
  2
*U71
 70
     1
 10
0.0
 20
0.0
 30
0.0
  3
*U71
  1

  0
SOLID
  5
1DEA
  8
0
  6
CONTINUOUS
 62
    12
 10
7.9620276993582637
 20
13.085418729976791
 30
0.0
 11
7.3234451534659648
 21
12.502686364512639
 31
0.0
 12
7.7260530523303359
 22
12.502686364512639
 32
0.0
 13
7.7260530523303359
 23
12.502686364512639
 33
0.0
210
0.0
220
0.0
230
1.0
  0
SOLID
  5
1DEB
  8
0
  6
CONTINUOUS
 62
    12
 10
7.3234451534659648
 20
12.502686364512639
 30
0.0
 11
6.6352139105341319
 21
11.874647557689951
 31
0.0
 12
7.6101021171157361
 22
11.874647557689951
 32
0.0
 13
7.6101021171157361
 23
11.874647557689951
 33
0.0
210
0.0
220
0.0
230
1.0
  0
SOLID
  5
1DEC
  8
0
  6
CONTINUOUS
 62
    12
 10
-7.3234451534659648
 20
12.502686364512639
 30
0.0
 11
-7.7260530523303359
 21
12.502686364512639
 31
0.0
 12
-7.6101021171157361
 22
11.874647557689951
 32
0.0
 13
-7.6101021171157361
 23
11.874647557689951
 33
0.0
210
0.0
220
0.0
230
-1.0
  0
SOLID
  5
1DED
  8
0
  6
CONTINUOUS
 62
    12
 10
6.6352139105341319
 20
11.874647557689951
 30
0.0
 11
6.0146099189682181
 21
11.30832134920211
 31
0.0
 12
7.6171013192580341
 22
11.30832134920211
 32
0.0
 13
7.6171013192580341
 23
11.30832134920211
 33
0.0
210
0.0
220
0.0
230
1.0
  0
SOLID
  5
1DEE
  8
0
  6
CONTINUOUS
 62
    12
 10
-6.6352139105341319
 20
11.874647557689951
 30
0.0
 11
-7.6101021171157361
 21
11.874647557689951
 31
0.0
 12
-7.6171013192580341
 22
11.30832134920211
 32
0.0
 13
-7.6171013192580341
 23
11.30832134920211
 33
0.0
210
0.0
220
0.0
230
-1.0
  0
SOLID
  5
1DEF
  8
0
  6
CONTINUOUS
 62
    12
 10
6.0146099189682181
 20
11.30832134920211
 30
0.0
 11
5.943956632866831
 21
11.22287307347732
 31
0.0
 12
7.618157370956764
 22
11.22287307347732
 32
0.0
 13
7.618157370956764
 23
11.22287307347732
 33
0.0
210
0.0
220
0.0
230
1.0
  0
SOLID
  5
1DF0
  8
0
  6
CONTINUOUS
 62
    12
 10
-6.0146099189682181
 20
11.30832134920211
 30
0.0
 11
-7.6171013192580341
 21
11.30832134920211
 31
0.0
 12
-7.618157370956764
 22
11.22287307347732
 32
0.0
 13
-7.618157370956764
 23
11.22287307347732
 33
0.0
210
0.0
220
0.0
230
-1.0
  0
SOLID
  5
1DF1
  8
0
  6
CONTINUOUS
 62
    12
 10
5.943956632866831
 20
11.22287307347732
 30
0.0
 11
5.6305491238885921
 21
10.84383718259229
 31
0.0
 12
7.6946377130821544
 22
10.84383718259229
 32
0.0
 13
7.6946377130821544
 23
10.84383718259229
 33
0.0
  0
SOLID
  5
1DF2
  8
0
  6
CONTINUOUS
 62
    12
 10
-5.943956632866831
 20
11.22287307347732
 30
0.0
 11
-7.618157370956764
 21
11.22287307347732
 31
0.0
 12
-7.6946377130821544
 22
10.84383718259229
 32
0.0
 13
-7.6946377130821544
 23
10.84383718259229
 33
0.0
210
0.0
220
0.0
230
-1.0
  0
SOLID
  5
1DF3
  8
0
  6
CONTINUOUS
 62
    12
 10
5.6305491238885921
 20
10.84383718259229
 30
0.0
 11
5.4797845653268977
 21
10.56974890682757
 31
0.0
 12
7.7499421462694658
 22
10.56974890682757
 32
0.0
 13
7.7499421462694658
 23
10.56974890682757
 33
0.0
210
0.0
220
0.0
230
1.0
  0
SOLID
  5
1DF4
  8
0
  6
CONTINUOUS
 62
    12
 10
-5.6305491238885921
 20
10.84383718259229
 30
0.0
 11
-7.6946377130821544
 21
10.84383718259229
 31
0.0
 12
-7.7499421462694658
 22
10.56974890682757
 32
0.0
 13
-7.7499421462694658
 23
10.56974890682757
 33
0.0
210
0.0
220
0.0
230
-1.0
  0
SOLID
  5
1DF5
  8
0
  6
CONTINUOUS
 62
    12
 10
5.4797845653268977
 20
10.56974890682757
 30
0.0
 11
5.3385811932535159
 21
10.31304276081435
 31
0.0
 12
7.8518819066241523
 22
10.31304276081435
 32
0.0
 13
7.8518819066241523
 23
10.31304276081435
 33
0.0
210
0.0
220
0.0
230
1.0
  0
SOLID
  5
1DF6
  8
0
  6
CONTINUOUS
 62
    12
 10
-5.4797845653268977
 20
10.56974890682757
 30
0.0
 11
-7.7499421462694658
 21
10.56974890682757
 31
0.0
 12
-7.8518819066241523
 22
10.31304276081435
 32
0.0
 13
-7.8518819066241523
 23
10.31304276081435
 33
0.0
210
0.0
220
0.0
230
-1.0
  0
SOLID
  5
1DF7
  8
0
  6
CONTINUOUS
 62
    12
 10
5.3385811932535159
 20
10.31304276081435
 30
0.0
 11
5.2151847480593299
 21
9.9377074091940703
 31
0.0
 12
8.0009301331315203
 22
9.9377074091940703
 32
0.0
 13
8.0009301331315203
 23
9.9377074091940703
 33
0.0
210
0.0
220
0.0
230
1.0
  0
SOLID
  5
1DF8
  8
0
  6
CONTINUOUS
 62
    12
 10
-5.3385811932535159
 20
10.31304276081435
 30
0.0
 11
-7.8518819066241523
 21
10.31304276081435
 31
0.0
 12
-8.0009301331315203
 22
9.9377074091940703
 32
0.0
 13
-8.0009301331315203
 23
9.9377074091940703
 33
0.0
210
0.0
220
0.0
230
-1.0
  0
SOLID
  5
1DF9
  8
0
  6
CONTINUOUS
 62
    12
 10
5.2151847480593299
 20
9.9377074091940703
 30
0.0
 11
5.147577424892452
 21
9.7320660037790852
 31
0.0
 12
8.1271139844739153
 22
9.7320660037790852
 32
0.0
 13
8.1271139844739153
 23
9.7320660037790852
 33
0.0
210
0.0
220
0.0
230
1.0
  0
SOLID
  5
1DFA
  8
0
  6
CONTINUOUS
 62
    12
 10
-5.2151847480593299
 20
9.9377074091940703
 30
0.0
 11
-8.0009301331315203
 21
9.9377074091940703
 31
0.0
 12
-8.1271139844739153
 22
9.7320660037790852
 32
0.0
 13
-8.1271139844739153
 23
9.7320660037790852
 33
0.0
210
0.0
220
0.0
230
-1.0
  0
SOLID
  5
1DFB
  8
0
  6
CONTINUOUS
 62
    12
 10
5.147577424892452
 20
9.7320660037790852
 30
0.0
 11
5.0949068690949044
 21
9.3484568218760895
 31
0.0
 12
8.3625008409542172
 22
9.3484568218760895
 32
0.0
 13
8.3625008409542172
 23
9.3484568218760895
 33
0.0
210
0.0
220
0.0
230
1.0
  0
SOLID
  5
1DFC
  8
0
  6
CONTINUOUS
 62
    12
 10
-5.147577424892452
 20
9.7320660037790852
 30
0.0
 11
-8.1271139844739153
 21
9.7320660037790852
 31
0.0
 12
-8.3625008409542172
 22
9.3484568218760895
 32
0.0
 13
-8.3625008409542172
 23
9.3484568218760895
 33
0.0
210
0.0
220
0.0
230
-1.0
  0
SOLID
  5
1DFD
  8
0
  6
CONTINUOUS
 62
    12
 10
5.0949068690949044
 20
9.3484568218760895
 30
0.0
 11
5.0633413716544799
 21
9.1185595962605994
 31
0.0
 12
8.5633513114609343
 22
9.1185595962605994
 32
0.0
 13
8.5633513114609343
 23
9.1185595962605994
 33
0.0
210
0.0
220
0.0
230
1.0
  0
SOLID
  5
1DFE
  8
0
  6
CONTINUOUS
 62
    12
 10
-5.0949068690949044
 20
9.3484568218760895
 30
0.0
 11
-8.3625008409542172
 21
9.3484568218760895
 31
0.0
 12
-8.5633513114609343
 22
9.1185595962605994
 32
0.0
 13
-8.5633513114609343
 23
9.1185595962605994
 33
0.0
210
0.0
220
0.0
230
-1.0
  0
SOLID
  5
1DFF
  8
0
  6
CONTINUOUS
 62
    12
 10
5.0633413716544799
 20
9.1185595962605994
 30
0.0
 11
5.0751921239010747
 21
8.8222356798165578
 31
0.0
 12
8.8222356798165649
 22
8.8222356798165578
 32
0.0
 13
8.8222356798165649
 23
8.8222356798165578
 33
0.0
210
0.0
220
0.0
230
1.0
  0
SOLID
  5
1E00
  8
0
  6
CONTINUOUS
 62
    12
 10
-5.0633413716544799
 20
9.1185595962605994
 30
0.0
 11
-8.5633513114609343
 21
9.1185595962605994
 31
0.0
 12
-8.8222356798165649
 22
8.8222356798165578
 32
0.0
 13
-8.8222356798165649
 23
8.8222356798165578
 33
0.0
210
0.0
220
0.0
230
-1.0
  0
SOLID
  5
1E01
  8
0
  6
CONTINUOUS
 62
    12
 10
5.0751921239010747
 20
8.8222356798165578
 30
0.0
 11
5.0884325033917372
 21
8.4911646200021185
 31
0.0
 12
8.4911646200021238
 22
8.4911646200021185
 32
0.0
 13
8.4911646200021238
 23
8.4911646200021185
 33
0.0
210
0.0
220
0.0
230
1.0
  0
SOLID
  5
1E02
  8
0
  6
CONTINUOUS
 62
    12
 10
-5.0751921239010747
 20
8.8222356798165578
 30
0.0
 11
-8.8222356798165649
 21
8.8222356798165578
 31
0.0
 12
-8.4911646200021238
 22
8.4911646200021185
 32
0.0
 13
-8.4911646200021238
 23
8.4911646200021185
 33
0.0
210
0.0
220
0.0
230
-1.0
  0
SOLID
  5
1E03
  8
0
  6
CONTINUOUS
 62
    12
 10
5.0884325033917372
 20
8.4911646200021185
 30
0.0
 11
5.2220884387631097
 21
7.8689441538800811
 31
0.0
 12
7.8689441538800811
 22
7.8689441538800811
 32
0.0
 13
7.8689441538800811
 23
7.8689441538800811
 33
0.0
210
0.0
220
0.0
230
1.0
  0
SOLID
  5
1E04
  8
0
  6
CONTINUOUS
 62
    12
 10
-5.0884325033917372
 20
8.4911646200021185
 30
0.0
 11
-8.4911646200021238
 21
8.4911646200021185
 31
0.0
 12
-7.8689441538800811
 22
7.8689441538800811
 32
0.0
 13
-7.8689441538800811
 23
7.8689441538800811
 33
0.0
210
0.0
220
0.0
230
-1.0
  0
SOLID
  5
1E05
  8
0
  6
CONTINUOUS
 62
    12
 10
5.2220884387631097
 20
7.8689441538800811
 30
0.0
 11
5.4602481098055078
 21
7.270804051898855
 31
0.0
 12
7.2708040518988524
 22
7.270804051898855
 32
0.0
 13
7.2708040518988524
 23
7.270804051898855
 33
0.0
210
0.0
220
0.0
230
1.0
  0
SOLID
  5
1E06
  8
0
  6
CONTINUOUS
 62
    12
 10
-5.2220884387631097
 20
7.8689441538800811
 30
0.0
 11
-7.8689441538800811
 21
7.8689441538800811
 31
0.0
 12
-7.2708040518988524
 22
7.270804051898855
 32
0.0
 13
-7.2708040518988524
 23
7.270804051898855
 33
0.0
210
0.0
220
0.0
230
-1.0
  0
SOLID
  5
1E07
  8
0
  6
CONTINUOUS
 62
    12
 10
-5.7956751554289161
 20
6.7149184983836463
 30
0.0
 11
-6.7149184983836392
 21
6.7149184983836463
 31
0.0
 12
-6.2181777945863406
 22
6.2181777945863512
 32
0.0
 13
-6.2181777945863406
 23
6.2181777945863512
 33
0.0
210
0.0
220
0.0
230
-1.0
  0
SOLID
  5
1E08
  8
0
  6
CONTINUOUS
 62
    12
 10
5.4602481098055078
 20
7.270804051898855
 30
0.0
 11
5.7956751554289161
 21
6.7149184983836463
 31
0.0
 12
6.7149184983836392
 22
6.7149184983836463
 32
0.0
 13
6.7149184983836392
 23
6.7149184983836463
 33
0.0
210
0.0
220
0.0
230
1.0
  0
SOLID
  5
1E09
  8
0
  6
CONTINUOUS
 62
    12
 10
-5.4602481098055078
 20
7.270804051898855
 30
0.0
 11
-7.2708040518988524
 21
7.270804051898855
 31
0.0
 12
-6.7149184983836392
 22
6.7149184983836463
 32
0.0
 13
-6.7149184983836392
 23
6.7149184983836463
 33
0.0
210
0.0
220
0.0
230
-1.0
  0
LINE
  5
1E0A
  8
0
  6
CONTINUOUS
 62
    12
 10
7.9620276993582637
 20
13.085418729976791
 30
0.0
 11
7.3234451534659648
 21
12.502686364512639
 31
0.0
  0
LINE
  5
1E0B
  8
0
  6
CONTINUOUS
 62
    12
 10
7.7260530523303359
 20
12.502686364512639
 30
0.0
 11
7.9620276993582637
 21
13.085418729976791
 31
0.0
  0
LINE
  5
1E0C
  8
0
  6
CONTINUOUS
 62
    12
 10
7.3234451534659648
 20
12.502686364512639
 30
0.0
 11
6.6352139105341319
 21
11.874647557689951
 31
0.0
  0
LINE
  5
1E0D
  8
0
  6
CONTINUOUS
 62
    12
 10
7.7260530523303359
 20
12.502686364512639
 30
0.0
 11
7.6101021171157361
 21
11.874647557689951
 31
0.0
  0
LINE
  5
1E0E
  8
0
  6
CONTINUOUS
 62
    12
 10
6.6352139105341319
 20
11.874647557689951
 30
0.0
 11
6.0146099189682181
 21
11.30832134920211
 31
0.0
  0
LINE
  5
1E0F
  8
0
  6
CONTINUOUS
 62
    12
 10
7.6101021171157361
 20
11.874647557689951
 30
0.0
 11
7.6171013192580341
 21
11.30832134920211
 31
0.0
  0
LINE
  5
1E10
  8
0
  6
CONTINUOUS
 62
    12
 10
6.0146099189682181
 20
11.30832134920211
 30
0.0
 11
5.943956632866831
 21
11.22287307347732
 31
0.0
  0
LINE
  5
1E11
  8
0
  6
CONTINUOUS
 62
    12
 10
7.6171013192580341
 20
11.30832134920211
 30
0.0
 11
7.618157370956764
 21
11.22287307347732
 31
0.0
  0
LINE
  5
1E12
  8
0
  6
CONTINUOUS
 62
    12
 10
5.943956632866831
 20
11.22287307347732
 30
0.0
 11
5.6305491238885921
 21
10.84383718259229
 31
0.0
  0
LINE
  5
1E13
  8
0
  6
CONTINUOUS
 62
    12
 10
7.618157370956764
 20
11.22287307347732
 30
0.0
 11
7.6946377130821544
 21
10.84383718259229
 31
0.0
  0
LINE
  5
1E14
  8
0
  6
CONTINUOUS
 62
    12
 10
5.6305491238885921
 20
10.84383718259229
 30
0.0
 11
5.4797845653268977
 21
10.56974890682757
 31
0.0
  0
LINE
  5
1E15
  8
0
  6
CONTINUOUS
 62
    12
 10
7.6946377130821544
 20
10.84383718259229
 30
0.0
 11
7.7499421462694658
 21
10.56974890682757
 31
0.0
  0
LINE
  5
1E16
  8
0
  6
CONTINUOUS
 62
    12
 10
5.4797845653268977
 20
10.56974890682757
 30
0.0
 11
5.3385811932535159
 21
10.31304276081435
 31
0.0
  0
LINE
  5
1E17
  8
0
  6
CONTINUOUS
 62
    12
 10
7.7499421462694658
 20
10.56974890682757
 30
0.0
 11
7.8518819066241523
 21
10.31304276081435
 31
0.0
  0
LINE
  5
1E18
  8
0
  6
CONTINUOUS
 62
    12
 10
5.3385811932535159
 20
10.31304276081435
 30
0.0
 11
5.2151847480593299
 21
9.9377074091940703
 31
0.0
  0
LINE
  5
1E19
  8
0
  6
CONTINUOUS
 62
    12
 10
7.8518819066241523
 20
10.31304276081435
 30
0.0
 11
8.0009301331315203
 21
9.9377074091940703
 31
0.0
  0
LINE
  5
1E1A
  8
0
  6
CONTINUOUS
 62
    12
 10
5.2151847480593299
 20
9.9377074091940703
 30
0.0
 11
5.147577424892452
 21
9.7320660037790852
 31
0.0
  0
LINE
  5
1E1B
  8
0
  6
CONTINUOUS
 62
    12
 10
8.0009301331315203
 20
9.9377074091940703
 30
0.0
 11
8.1271139844739153
 21
9.7320660037790852
 31
0.0
  0
LINE
  5
1E1C
  8
0
  6
CONTINUOUS
 62
    12
 10
5.147577424892452
 20
9.7320660037790852
 30
0.0
 11
5.0949068690949044
 21
9.3484568218760895
 31
0.0
  0
LINE
  5
1E1D
  8
0
  6
CONTINUOUS
 62
    12
 10
8.1271139844739153
 20
9.7320660037790852
 30
0.0
 11
8.3625008409542172
 21
9.3484568218760895
 31
0.0
  0
LINE
  5
1E1E
  8
0
  6
CONTINUOUS
 62
    12
 10
5.0949068690949044
 20
9.3484568218760895
 30
0.0
 11
5.0633413716544799
 21
9.1185595962605994
 31
0.0
  0
LINE
  5
1E1F
  8
0
  6
CONTINUOUS
 62
    12
 10
8.3625008409542172
 20
9.3484568218760895
 30
0.0
 11
8.5633513114609343
 21
9.1185595962605994
 31
0.0
  0
LINE
  5
1E20
  8
0
  6
CONTINUOUS
 62
    12
 10
5.0633413716544799
 20
9.1185595962605994
 30
0.0
 11
5.0751921239010747
 21
8.8222356798165578
 31
0.0
  0
LINE
  5
1E21
  8
0
  6
CONTINUOUS
 62
    12
 10
8.5633513114609343
 20
9.1185595962605994
 30
0.0
 11
8.8222356798165649
 21
8.8222356798165578
 31
0.0
  0
LINE
  5
1E22
  8
0
  6
CONTINUOUS
 62
    12
 10
5.0751921239010747
 20
8.8222356798165578
 30
0.0
 11
5.0884325033917372
 21
8.4911646200021185
 31
0.0
  0
LINE
  5
1E23
  8
0
  6
CONTINUOUS
 62
    12
 10
8.8222356798165649
 20
8.8222356798165578
 30
0.0
 11
8.4911646200021238
 21
8.4911646200021185
 31
0.0
  0
LINE
  5
1E24
  8
0
  6
CONTINUOUS
 62
    12
 10
5.0884325033917372
 20
8.4911646200021185
 30
0.0
 11
5.2220884387631097
 21
7.8689441538800811
 31
0.0
  0
LINE
  5
1E25
  8
0
  6
CONTINUOUS
 62
    12
 10
8.4911646200021238
 20
8.4911646200021185
 30
0.0
 11
7.8689441538800811
 21
7.8689441538800811
 31
0.0
  0
LINE
  5
1E26
  8
0
  6
CONTINUOUS
 62
    12
 10
5.2220884387631097
 20
7.8689441538800811
 30
0.0
 11
5.4602481098055078
 21
7.270804051898855
 31
0.0
  0
LINE
  5
1E27
  8
0
  6
CONTINUOUS
 62
    12
 10
7.8689441538800811
 20
7.8689441538800811
 30
0.0
 11
7.2708040518988524
 21
7.270804051898855
 31
0.0
  0
LINE
  5
1E28
  8
0
  6
CONTINUOUS
 62
    12
 10
6.7149184983836392
 20
6.7149184983836463
 30
0.0
 11
6.2181777945863406
 21
6.2181777945863512
 31
0.0
  0
LINE
  5
1E29
  8
0
  6
CONTINUOUS
 62
    12
 10
6.2181777945863406
 20
6.2181777945863512
 30
0.0
 11
5.7956751554289161
 21
6.7149184983836463
 31
0.0
  0
LINE
  5
1E2A
  8
0
  6
CONTINUOUS
 62
    12
 10
5.4602481098055078
 20
7.270804051898855
 30
0.0
 11
5.7956751554289161
 21
6.7149184983836463
 31
0.0
  0
LINE
  5
1E2B
  8
0
  6
CONTINUOUS
 62
    12
 10
7.2708040518988524
 20
7.270804051898855
 30
0.0
 11
6.7149184983836392
 21
6.7149184983836463
 31
0.0
  0
ENDBLK
  5
1E2D
  8
0
  0
BLOCK
  8
0
  2
*U72
 70
     1
 10
0.0
 20
0.0
 30
0.0
  3
*U72
  1

  0
SOLID
  5
1E2F
  8
0
  6
CONTINUOUS
 62
    10
 10
6.0146099189681879
 20
11.30832134920211
 30
0.0
 11
5.1729134187847636
 21
11.259765832519181
 31
0.0
 12
5.9744615744533309
 22
11.259765832519181
 32
0.0
 13
5.9744615744533309
 23
11.259765832519181
 33
0.0
210
0.0
220
0.0
230
1.0
  0
SOLID
  5
1E30
  8
0
  6
CONTINUOUS
 62
    10
 10
5.1729134187847636
 20
11.259765832519181
 30
0.0
 11
4.3888130564947847
 21
11.04688610220216
 31
0.0
 12
5.7984410244341014
 22
11.04688610220216
 32
0.0
 13
5.7984410244341014
 23
11.04688610220216
 33
0.0
210
0.0
220
0.0
230
1.0
  0
SOLID
  5
1E31
  8
0
  6
CONTINUOUS
 62
    10
 10
-5.1729134187847636
 20
11.259765832519181
 30
0.0
 11
-5.9744615744533309
 21
11.259765832519181
 31
0.0
 12
-5.7984410244341014
 22
11.04688610220216
 32
0.0
 13
-5.7984410244341014
 23
11.04688610220216
 33
0.0
210
0.0
220
0.0
230
-1.0
  0
SOLID
  5
1E32
  8
0
  6
CONTINUOUS
 62
    10
 10
4.3888130564947847
 20
11.04688610220216
 30
0.0
 11
4.005231815503012
 21
10.84383718259229
 31
0.0
 12
5.6305491238885921
 22
10.84383718259229
 32
0.0
 13
5.6305491238885921
 23
10.84383718259229
 33
0.0
210
0.0
220
0.0
230
1.0
  0
SOLID
  5
1E33
  8
0
  6
CONTINUOUS
 62
    10
 10
-4.3888130564947847
 20
11.04688610220216
 30
0.0
 11
-5.7984410244341014
 21
11.04688610220216
 31
0.0
 12
-5.6305491238885921
 22
10.84383718259229
 32
0.0
 13
-5.6305491238885921
 23
10.84383718259229
 33
0.0
210
0.0
220
0.0
230
-1.0
  0
SOLID
  5
1E34
  8
0
  6
CONTINUOUS
 62
    10
 10
4.005231815503012
 20
10.84383718259229
 30
0.0
 11
3.6908963213627559
 21
10.677443533322091
 31
0.0
 12
5.5390228993184261
 22
10.677443533322091
 32
0.0
 13
5.5390228993184261
 23
10.677443533322091
 33
0.0
210
0.0
220
0.0
230
1.0
  0
SOLID
  5
1E35
  8
0
  6
CONTINUOUS
 62
    10
 10
-4.005231815503012
 20
10.84383718259229
 30
0.0
 11
-5.6305491238885921
 21
10.84383718259229
 31
0.0
 12
-5.5390228993184261
 22
10.677443533322091
 32
0.0
 13
-5.5390228993184261
 23
10.677443533322091
 33
0.0
210
0.0
220
0.0
230
-1.0
  0
SOLID
  5
1E36
  8
0
  6
CONTINUOUS
 62
    10
 10
3.6908963213627559
 20
10.677443533322091
 30
0.0
 11
3.2740597324553291
 21
10.31304276081435
 31
0.0
 12
5.3385811932535159
 22
10.31304276081435
 32
0.0
 13
5.3385811932535159
 23
10.31304276081435
 33
0.0
210
0.0
220
0.0
230
1.0
  0
SOLID
  5
1E37
  8
0
  6
CONTINUOUS
 62
    10
 10
-3.6908963213627559
 20
10.677443533322091
 30
0.0
 11
-5.5390228993184261
 21
10.677443533322091
 31
0.0
 12
-5.3385811932535159
 22
10.31304276081435
 32
0.0
 13
-5.3385811932535159
 23
10.31304276081435
 33
0.0
210
0.0
220
0.0
230
-1.0
  0
SOLID
  5
1E38
  8
0
  6
CONTINUOUS
 62
    10
 10
3.2740597324553291
 20
10.31304276081435
 30
0.0
 11
3.104608536631273
 21
10.164907620320809
 31
0.0
 12
5.2898798128310922
 22
10.164907620320809
 32
0.0
 13
5.2898798128310922
 23
10.164907620320809
 33
0.0
210
0.0
220
0.0
230
1.0
  0
SOLID
  5
1E39
  8
0
  6
CONTINUOUS
 62
    10
 10
-3.2740597324553291
 20
10.31304276081435
 30
0.0
 11
-5.3385811932535159
 21
10.31304276081435
 31
0.0
 12
-5.2898798128310922
 22
10.164907620320809
 32
0.0
 13
-5.2898798128310922
 23
10.164907620320809
 33
0.0
210
0.0
220
0.0
230
-1.0
  0
SOLID
  5
1E3A
  8
0
  6
CONTINUOUS
 62
    10
 10
3.104608536631273
 20
10.164907620320809
 30
0.0
 11
2.7965746966200138
 21
9.7320660037790852
 31
0.0
 12
5.147577424892452
 22
9.7320660037790852
 32
0.0
 13
5.147577424892452
 23
9.7320660037790852
 33
0.0
210
0.0
220
0.0
230
1.0
  0
SOLID
  5
1E3B
  8
0
  6
CONTINUOUS
 62
    10
 10
-3.104608536631273
 20
10.164907620320809
 30
0.0
 11
-5.2898798128310922
 21
10.164907620320809
 31
0.0
 12
-5.147577424892452
 22
9.7320660037790852
 32
0.0
 13
-5.147577424892452
 23
9.7320660037790852
 33
0.0
210
0.0
220
0.0
230
-1.0
  0
SOLID
  5
1E3C
  8
0
  6
CONTINUOUS
 62
    10
 10
2.7965746966200138
 20
9.7320660037790852
 30
0.0
 11
2.6513251493196082
 21
9.5279648931570691
 31
0.0
 12
5.119553802303364
 22
9.5279648931570691
 32
0.0
 13
5.119553802303364
 23
9.5279648931570691
 33
0.0
210
0.0
220
0.0
230
1.0
  0
SOLID
  5
1E3D
  8
0
  6
CONTINUOUS
 62
    10
 10
-2.7965746966200138
 20
9.7320660037790852
 30
0.0
 11
-5.147577424892452
 21
9.7320660037790852
 31
0.0
 12
-5.119553802303364
 22
9.5279648931570691
 32
0.0
 13
-5.119553802303364
 23
9.5279648931570691
 33
0.0
210
0.0
220
0.0
230
-1.0
  0
SOLID
  5
1E3E
  8
0
  6
CONTINUOUS
 62
    10
 10
2.6513251493196082
 20
9.5279648931570691
 30
0.0
 11
2.482847451000572
 21
9.1185595962605994
 31
0.0
 12
5.0633413716544799
 22
9.1185595962605994
 32
0.0
 13
5.0633413716544799
 23
9.1185595962605994
 33
0.0
210
0.0
220
0.0
230
1.0
  0
SOLID
  5
1E3F
  8
0
  6
CONTINUOUS
 62
    10
 10
-2.6513251493196082
 20
9.5279648931570691
 30
0.0
 11
-5.119553802303364
 21
9.5279648931570691
 31
0.0
 12
-5.0633413716544799
 22
9.1185595962605994
 32
0.0
 13
-5.0633413716544799
 23
9.1185595962605994
 33
0.0
210
0.0
220
0.0
230
-1.0
  0
SOLID
  5
1E40
  8
0
  6
CONTINUOUS
 62
    10
 10
2.482847451000572
 20
9.1185595962605994
 30
0.0
 11
2.3475724035053762
 21
8.789837625726669
 31
0.0
 12
5.0764878050492541
 22
8.789837625726669
 32
0.0
 13
5.0764878050492541
 23
8.789837625726669
 33
0.0
210
0.0
220
0.0
230
1.0
  0
SOLID
  5
1E41
  8
0
  6
CONTINUOUS
 62
    10
 10
-2.482847451000572
 20
9.1185595962605994
 30
0.0
 11
-5.0633413716544799
 21
9.1185595962605994
 31
0.0
 12
-5.0764878050492541
 22
8.789837625726669
 32
0.0
 13
-5.0764878050492541
 23
8.789837625726669
 33
0.0
210
0.0
220
0.0
230
-1.0
  0
SOLID
  5
1E42
  8
0
  6
CONTINUOUS
 62
    10
 10
2.3475724035053762
 20
8.789837625726669
 30
0.0
 11
2.2949452516430391
 21
8.4911646200021185
 31
0.0
 12
5.0884325033917372
 22
8.4911646200021185
 32
0.0
 13
5.0884325033917372
 23
8.4911646200021185
 33
0.0
210
0.0
220
0.0
230
1.0
  0
SOLID
  5
1E43
  8
0
  6
CONTINUOUS
 62
    10
 10
-2.3475724035053762
 20
8.789837625726669
 30
0.0
 11
-5.0764878050492541
 21
8.789837625726669
 31
0.0
 12
-5.0884325033917372
 22
8.4911646200021185
 32
0.0
 13
-5.0884325033917372
 23
8.4911646200021185
 33
0.0
210
0.0
220
0.0
230
-1.0
  0
SOLID
  5
1E44
  8
0
  6
CONTINUOUS
 62
    10
 10
2.2949452516430391
 20
8.4911646200021185
 30
0.0
 11
2.2044248105364201
 21
7.97743717574392
 31
0.0
 12
5.1987836181922704
 22
7.97743717574392
 32
0.0
 13
5.1987836181922704
 23
7.97743717574392
 33
0.0
210
0.0
220
0.0
230
1.0
  0
SOLID
  5
1E45
  8
0
  6
CONTINUOUS
 62
    10
 10
-2.2949452516430391
 20
8.4911646200021185
 30
0.0
 11
-5.0884325033917372
 21
8.4911646200021185
 31
0.0
 12
-5.1987836181922704
 22
7.97743717574392
 32
0.0
 13
-5.1987836181922704
 23
7.97743717574392
 33
0.0
210
0.0
220
0.0
230
-1.0
  0
SOLID
  5
1E46
  8
0
  6
CONTINUOUS
 62
    10
 10
2.2044248105364201
 20
7.97743717574392
 30
0.0
 11
2.2072953985611812
 21
7.8689441538800811
 31
0.0
 12
5.2220884387631097
 22
7.8689441538800811
 32
0.0
 13
5.2220884387631097
 23
7.8689441538800811
 33
0.0
210
0.0
220
0.0
230
1.0
  0
SOLID
  5
1E47
  8
0
  6
CONTINUOUS
 62
    10
 10
-2.2044248105364201
 20
7.97743717574392
 30
0.0
 11
-5.1987836181922704
 21
7.97743717574392
 31
0.0
 12
-5.2220884387631097
 22
7.8689441538800811
 32
0.0
 13
-5.2220884387631097
 23
7.8689441538800811
 33
0.0
210
0.0
220
0.0
230
-1.0
  0
SOLID
  5
1E48
  8
0
  6
CONTINUOUS
 62
    10
 10
2.2072953985611812
 20
7.8689441538800811
 30
0.0
 11
2.2231214285157299
 21
7.270804051898855
 31
0.0
 12
5.4602481098055078
 22
7.270804051898855
 32
0.0
 13
5.4602481098055078
 23
7.270804051898855
 33
0.0
210
0.0
220
0.0
230
1.0
  0
SOLID
  5
1E49
  8
0
  6
CONTINUOUS
 62
    10
 10
-2.2072953985611812
 20
7.8689441538800811
 30
0.0
 11
-5.2220884387631097
 21
7.8689441538800811
 31
0.0
 12
-5.4602481098055078
 22
7.270804051898855
 32
0.0
 13
-5.4602481098055078
 23
7.270804051898855
 33
0.0
210
0.0
220
0.0
230
-1.0
  0
SOLID
  5
1E4A
  8
0
  6
CONTINUOUS
 62
    10
 10
2.2231214285157299
 20
7.270804051898855
 30
0.0
 11
2.2271013837866009
 21
7.1203828244377378
 31
0.0
 12
5.5510138215734592
 22
7.1203828244377378
 32
0.0
 13
5.5510138215734592
 23
7.1203828244377378
 33
0.0
  0
SOLID
  5
1E4B
  8
0
  6
CONTINUOUS
 62
    10
 10
-2.2231214285157299
 20
7.270804051898855
 30
0.0
 11
-5.4602481098055078
 21
7.270804051898855
 31
0.0
 12
-5.5510138215734592
 22
7.1203828244377378
 32
0.0
 13
-5.5510138215734592
 23
7.1203828244377378
 33
0.0
210
0.0
220
0.0
230
-1.0
  0
SOLID
  5
1E4C
  8
0
  6
CONTINUOUS
 62
    10
 10
2.2271013837866009
 20
7.1203828244377378
 30
0.0
 11
2.314520702256341
 21
6.7149184983836463
 31
0.0
 12
5.7956751554289161
 22
6.7149184983836463
 32
0.0
 13
5.7956751554289161
 23
6.7149184983836463
 33
0.0
210
0.0
220
0.0
230
1.0
  0
SOLID
  5
1E4D
  8
0
  6
CONTINUOUS
 62
    10
 10
-2.2271013837866009
 20
7.1203828244377378
 30
0.0
 11
-5.5510138215734592
 21
7.1203828244377378
 31
0.0
 12
-5.7956751554289161
 22
6.7149184983836463
 32
0.0
 13
-5.7956751554289161
 23
6.7149184983836463
 33
0.0
210
0.0
220
0.0
230
-1.0
  0
SOLID
  5
1E4E
  8
0
  6
CONTINUOUS
 62
    10
 10
2.314520702256341
 20
6.7149184983836463
 30
0.0
 11
2.414775358819218
 21
6.2499218881535814
 31
0.0
 12
6.1911778664401513
 22
6.2499218881535814
 32
0.0
 13
6.1911778664401513
 23
6.2499218881535814
 33
0.0
210
0.0
220
0.0
230
1.0
  0
SOLID
  5
1E4F
  8
0
  6
CONTINUOUS
 62
    10
 10
-2.314520702256341
 20
6.7149184983836463
 30
0.0
 11
-5.7956751554289161
 21
6.7149184983836463
 31
0.0
 12
-6.1911778664401513
 22
6.2499218881535814
 32
0.0
 13
-6.1911778664401513
 23
6.2499218881535814
 33
0.0
210
0.0
220
0.0
230
-1.0
  0
SOLID
  5
1E50
  8
0
  6
CONTINUOUS
 62
    10
 10
2.414775358819218
 20
6.2499218881535814
 30
0.0
 11
2.427658380419373
 21
6.2181777945863512
 31
0.0
 12
6.2181777945863406
 22
6.2181777945863512
 32
0.0
 13
6.2181777945863406
 23
6.2181777945863512
 33
0.0
210
0.0
220
0.0
230
1.0
  0
SOLID
  5
1E51
  8
0
  6
CONTINUOUS
 62
    10
 10
-2.414775358819218
 20
6.2499218881535814
 30
0.0
 11
-6.1911778664401513
 21
6.2499218881535814
 31
0.0
 12
-6.2181777945863406
 22
6.2181777945863512
 32
0.0
 13
-6.2181777945863406
 23
6.2181777945863512
 33
0.0
210
0.0
220
0.0
230
-1.0
  0
SOLID
  5
1E52
  8
0
  6
CONTINUOUS
 62
    10
 10
2.427658380419373
 20
6.2181777945863512
 30
0.0
 11
2.7606043363643571
 21
5.3977904734767321
 31
0.0
 12
5.3977904734767232
 22
5.3977904734767321
 32
0.0
 13
5.3977904734767232
 23
5.3977904734767321
 33
0.0
210
0.0
220
0.0
230
1.0
  0
SOLID
  5
1E53
  8
0
  6
CONTINUOUS
 62
    10
 10
-2.427658380419373
 20
6.2181777945863512
 30
0.0
 11
-6.2181777945863406
 21
6.2181777945863512
 31
0.0
 12
-5.3977904734767232
 22
5.3977904734767321
 32
0.0
 13
-5.3977904734767232
 23
5.3977904734767321
 33
0.0
210
0.0
220
0.0
230
-1.0
  0
SOLID
  5
1E54
  8
0
  6
CONTINUOUS
 62
    10
 10
-3.2519797491283451
 20
4.595056411568339
 30
0.0
 11
-4.595056411568331
 21
4.595056411568339
 31
0.0
 12
-3.8709865571331288
 22
3.8709865571331359
 32
0.0
 13
-3.8709865571331288
 23
3.8709865571331359
 33
0.0
210
0.0
220
0.0
230
-1.0
  0
SOLID
  5
1E55
  8
0
  6
CONTINUOUS
 62
    10
 10
2.7606043363643571
 20
5.3977904734767321
 30
0.0
 11
3.2519797491283451
 21
4.595056411568339
 31
0.0
 12
4.595056411568331
 22
4.595056411568339
 32
0.0
 13
4.595056411568331
 23
4.595056411568339
 33
0.0
  0
SOLID
  5
1E56
  8
0
  6
CONTINUOUS
 62
    10
 10
-2.7606043363643571
 20
5.3977904734767321
 30
0.0
 11
-5.3977904734767232
 21
5.3977904734767321
 31
0.0
 12
-4.595056411568331
 22
4.595056411568339
 32
0.0
 13
-4.595056411568331
 23
4.595056411568339
 33
0.0
210
0.0
220
0.0
230
-1.0
  0
LINE
  5
1E57
  8
0
  6
CONTINUOUS
 62
    10
 10
6.0146099189681879
 20
11.30832134920211
 30
0.0
 11
5.1729134187847636
 21
11.259765832519181
 31
0.0
  0
LINE
  5
1E58
  8
0
  6
CONTINUOUS
 62
    10
 10
5.9744615744533309
 20
11.259765832519181
 30
0.0
 11
6.0146099189681879
 21
11.30832134920211
 31
0.0
  0
LINE
  5
1E59
  8
0
  6
CONTINUOUS
 62
    10
 10
5.1729134187847636
 20
11.259765832519181
 30
0.0
 11
4.3888130564947847
 21
11.04688610220216
 31
0.0
  0
LINE
  5
1E5A
  8
0
  6
CONTINUOUS
 62
    10
 10
5.9744615744533309
 20
11.259765832519181
 30
0.0
 11
5.7984410244341014
 21
11.04688610220216
 31
0.0
  0
LINE
  5
1E5B
  8
0
  6
CONTINUOUS
 62
    10
 10
4.3888130564947847
 20
11.04688610220216
 30
0.0
 11
4.005231815503012
 21
10.84383718259229
 31
0.0
  0
LINE
  5
1E5C
  8
0
  6
CONTINUOUS
 62
    10
 10
5.7984410244341014
 20
11.04688610220216
 30
0.0
 11
5.6305491238885921
 21
10.84383718259229
 31
0.0
  0
LINE
  5
1E5D
  8
0
  6
CONTINUOUS
 62
    10
 10
4.005231815503012
 20
10.84383718259229
 30
0.0
 11
3.6908963213627559
 21
10.677443533322091
 31
0.0
  0
LINE
  5
1E5E
  8
0
  6
CONTINUOUS
 62
    10
 10
5.6305491238885921
 20
10.84383718259229
 30
0.0
 11
5.5390228993184261
 21
10.677443533322091
 31
0.0
  0
LINE
  5
1E5F
  8
0
  6
CONTINUOUS
 62
    10
 10
3.6908963213627559
 20
10.677443533322091
 30
0.0
 11
3.2740597324553291
 21
10.31304276081435
 31
0.0
  0
LINE
  5
1E60
  8
0
  6
CONTINUOUS
 62
    10
 10
5.5390228993184261
 20
10.677443533322091
 30
0.0
 11
5.3385811932535159
 21
10.31304276081435
 31
0.0
  0
LINE
  5
1E61
  8
0
  6
CONTINUOUS
 62
    10
 10
3.2740597324553291
 20
10.31304276081435
 30
0.0
 11
3.104608536631273
 21
10.164907620320809
 31
0.0
  0
LINE
  5
1E62
  8
0
  6
CONTINUOUS
 62
    10
 10
5.3385811932535159
 20
10.31304276081435
 30
0.0
 11
5.2898798128310922
 21
10.164907620320809
 31
0.0
  0
LINE
  5
1E63
  8
0
  6
CONTINUOUS
 62
    10
 10
3.104608536631273
 20
10.164907620320809
 30
0.0
 11
2.7965746966200138
 21
9.7320660037790852
 31
0.0
  0
LINE
  5
1E64
  8
0
  6
CONTINUOUS
 62
    10
 10
5.2898798128310922
 20
10.164907620320809
 30
0.0
 11
5.147577424892452
 21
9.7320660037790852
 31
0.0
  0
LINE
  5
1E65
  8
0
  6
CONTINUOUS
 62
    10
 10
2.7965746966200138
 20
9.7320660037790852
 30
0.0
 11
2.6513251493196082
 21
9.5279648931570691
 31
0.0
  0
LINE
  5
1E66
  8
0
  6
CONTINUOUS
 62
    10
 10
5.147577424892452
 20
9.7320660037790852
 30
0.0
 11
5.119553802303364
 21
9.5279648931570691
 31
0.0
  0
LINE
  5
1E67
  8
0
  6
CONTINUOUS
 62
    10
 10
2.6513251493196082
 20
9.5279648931570691
 30
0.0
 11
2.482847451000572
 21
9.1185595962605994
 31
0.0
  0
LINE
  5
1E68
  8
0
  6
CONTINUOUS
 62
    10
 10
5.119553802303364
 20
9.5279648931570691
 30
0.0
 11
5.0633413716544799
 21
9.1185595962605994
 31
0.0
  0
LINE
  5
1E69
  8
0
  6
CONTINUOUS
 62
    10
 10
2.482847451000572
 20
9.1185595962605994
 30
0.0
 11
2.3475724035053762
 21
8.789837625726669
 31
0.0
  0
LINE
  5
1E6A
  8
0
  6
CONTINUOUS
 62
    10
 10
5.0633413716544799
 20
9.1185595962605994
 30
0.0
 11
5.0764878050492541
 21
8.789837625726669
 31
0.0
  0
LINE
  5
1E6B
  8
0
  6
CONTINUOUS
 62
    10
 10
2.3475724035053762
 20
8.789837625726669
 30
0.0
 11
2.2949452516430391
 21
8.4911646200021185
 31
0.0
  0
LINE
  5
1E6C
  8
0
  6
CONTINUOUS
 62
    10
 10
5.0764878050492541
 20
8.789837625726669
 30
0.0
 11
5.0884325033917372
 21
8.4911646200021185
 31
0.0
  0
LINE
  5
1E6D
  8
0
  6
CONTINUOUS
 62
    10
 10
2.2949452516430391
 20
8.4911646200021185
 30
0.0
 11
2.2044248105364201
 21
7.97743717574392
 31
0.0
  0
LINE
  5
1E6E
  8
0
  6
CONTINUOUS
 62
    10
 10
5.0884325033917372
 20
8.4911646200021185
 30
0.0
 11
5.1987836181922704
 21
7.97743717574392
 31
0.0
  0
LINE
  5
1E6F
  8
0
  6
CONTINUOUS
 62
    10
 10
2.2044248105364201
 20
7.97743717574392
 30
0.0
 11
2.2072953985611812
 21
7.8689441538800811
 31
0.0
  0
LINE
  5
1E70
  8
0
  6
CONTINUOUS
 62
    10
 10
5.1987836181922704
 20
7.97743717574392
 30
0.0
 11
5.2220884387631097
 21
7.8689441538800811
 31
0.0
  0
LINE
  5
1E71
  8
0
  6
CONTINUOUS
 62
    10
 10
2.2072953985611812
 20
7.8689441538800811
 30
0.0
 11
2.2231214285157299
 21
7.270804051898855
 31
0.0
  0
LINE
  5
1E72
  8
0
  6
CONTINUOUS
 62
    10
 10
5.2220884387631097
 20
7.8689441538800811
 30
0.0
 11
5.4602481098055078
 21
7.270804051898855
 31
0.0
  0
LINE
  5
1E73
  8
0
  6
CONTINUOUS
 62
    10
 10
2.2231214285157299
 20
7.270804051898855
 30
0.0
 11
2.2271013837866009
 21
7.1203828244377378
 31
0.0
  0
LINE
  5
1E74
  8
0
  6
CONTINUOUS
 62
    10
 10
5.4602481098055078
 20
7.270804051898855
 30
0.0
 11
5.5510138215734592
 21
7.1203828244377378
 31
0.0
  0
LINE
  5
1E75
  8
0
  6
CONTINUOUS
 62
    10
 10
2.2271013837866009
 20
7.1203828244377378
 30
0.0
 11
2.314520702256341
 21
6.7149184983836463
 31
0.0
  0
LINE
  5
1E76
  8
0
  6
CONTINUOUS
 62
    10
 10
5.5510138215734592
 20
7.1203828244377378
 30
0.0
 11
5.7956751554289161
 21
6.7149184983836463
 31
0.0
  0
LINE
  5
1E77
  8
0
  6
CONTINUOUS
 62
    10
 10
2.314520702256341
 20
6.7149184983836463
 30
0.0
 11
2.414775358819218
 21
6.2499218881535814
 31
0.0
  0
LINE
  5
1E78
  8
0
  6
CONTINUOUS
 62
    10
 10
5.7956751554289161
 20
6.7149184983836463
 30
0.0
 11
6.1911778664401513
 21
6.2499218881535814
 31
0.0
  0
LINE
  5
1E79
  8
0
  6
CONTINUOUS
 62
    10
 10
2.414775358819218
 20
6.2499218881535814
 30
0.0
 11
2.427658380419373
 21
6.2181777945863512
 31
0.0
  0
LINE
  5
1E7A
  8
0
  6
CONTINUOUS
 62
    10
 10
6.1911778664401513
 20
6.2499218881535814
 30
0.0
 11
6.2181777945863406
 21
6.2181777945863512
 31
0.0
  0
LINE
  5
1E7B
  8
0
  6
CONTINUOUS
 62
    10
 10
2.427658380419373
 20
6.2181777945863512
 30
0.0
 11
2.7606043363643571
 21
5.3977904734767321
 31
0.0
  0
LINE
  5
1E7C
  8
0
  6
CONTINUOUS
 62
    10
 10
6.2181777945863406
 20
6.2181777945863512
 30
0.0
 11
5.3977904734767232
 21
5.3977904734767321
 31
0.0
  0
LINE
  5
1E7D
  8
0
  6
CONTINUOUS
 62
    10
 10
4.595056411568331
 20
4.595056411568339
 30
0.0
 11
3.8709865571331288
 21
3.8709865571331359
 31
0.0
  0
LINE
  5
1E7E
  8
0
  6
CONTINUOUS
 62
    10
 10
3.8709865571331288
 20
3.8709865571331359
 30
0.0
 11
3.2519797491283451
 21
4.595056411568339
 31
0.0
  0
LINE
  5
1E7F
  8
0
  6
CONTINUOUS
 62
    10
 10
2.7606043363643571
 20
5.3977904734767321
 30
0.0
 11
3.2519797491283451
 21
4.595056411568339
 31
0.0
  0
LINE
  5
1E80
  8
0
  6
CONTINUOUS
 62
    10
 10
5.3977904734767232
 20
5.3977904734767321
 30
0.0
 11
4.595056411568331
 21
4.595056411568339
 31
0.0
  0
ENDBLK
  5
1E82
  8
0
  0
BLOCK
  8
0
  2
*U73
 70
     1
 10
0.0
 20
0.0
 30
0.0
  3
*U73
  1

  0
SOLID
  5
1E84
  8
0
  6
CONTINUOUS
 62
    12
 10
7.9620276993583214
 20
13.0854187299768
 30
0.0
 11
7.726053052330335
 21
12.502686364512639
 31
0.0
 12
8.0145211234883256
 22
12.502686364512639
 32
0.0
 13
8.0145211234883256
 23
12.502686364512639
 33
0.0
210
0.0
220
0.0
230
1.0
  0
SOLID
  5
1E85
  8
0
  6
CONTINUOUS
 62
    12
 10
7.726053052330335
 20
12.502686364512639
 30
0.0
 11
7.6896691308844352
 21
12.305615814196489
 31
0.0
 12
8.0322735405400874
 22
12.305615814196489
 32
0.0
 13
8.0322735405400874
 23
12.305615814196489
 33
0.0
210
0.0
220
0.0
230
1.0
  0
SOLID
  5
1E86
  8
0
  6
CONTINUOUS
 62
    12
 10
-7.726053052330335
 20
12.502686364512639
 30
0.0
 11
-8.0145211234883256
 21
12.502686364512639
 31
0.0
 12
-8.0322735405400874
 22
12.305615814196489
 32
0.0
 13
-8.0322735405400874
 23
12.305615814196489
 33
0.0
210
0.0
220
0.0
230
-1.0
  0
SOLID
  5
1E87
  8
0
  6
CONTINUOUS
 62
    12
 10
7.6896691308844352
 20
12.305615814196489
 30
0.0
 11
7.6101021171157353
 21
11.874647557689951
 31
0.0
 12
8.1421125435103257
 22
11.874647557689951
 32
0.0
 13
8.1421125435103257
 23
11.874647557689951
 33
0.0
210
0.0
220
0.0
230
1.0
  0
SOLID
  5
1E88
  8
0
  6
CONTINUOUS
 62
    12
 10
-7.6896691308844352
 20
12.305615814196489
 30
0.0
 11
-8.0322735405400874
 21
12.305615814196489
 31
0.0
 12
-8.1421125435103257
 22
11.874647557689951
 32
0.0
 13
-8.1421125435103257
 23
11.874647557689951
 33
0.0
210
0.0
220
0.0
230
-1.0
  0
SOLID
  5
1E89
  8
0
  6
CONTINUOUS
 62
    12
 10
7.6101021171157353
 20
11.874647557689951
 30
0.0
 11
7.6142723794518741
 21
11.537219260977031
 31
0.0
 12
8.2281114242291196
 22
11.537219260977031
 32
0.0
 13
8.2281114242291196
 23
11.537219260977031
 33
0.0
210
0.0
220
0.0
230
1.0
  0
SOLID
  5
1E8A
  8
0
  6
CONTINUOUS
 62
    12
 10
-7.6101021171157353
 20
11.874647557689951
 30
0.0
 11
-8.1421125435103257
 21
11.874647557689951
 31
0.0
 12
-8.2281114242291196
 22
11.537219260977031
 32
0.0
 13
-8.2281114242291196
 23
11.537219260977031
 33
0.0
210
0.0
220
0.0
230
-1.0
  0
SOLID
  5
1E8B
  8
0
  6
CONTINUOUS
 62
    12
 10
7.6142723794518741
 20
11.537219260977031
 30
0.0
 11
7.6181573709567632
 21
11.22287307347732
 31
0.0
 12
8.3630753985682436
 22
11.22287307347732
 32
0.0
 13
8.3630753985682436
 23
11.22287307347732
 33
0.0
210
0.0
220
0.0
230
1.0
  0
SOLID
  5
1E8C
  8
0
  6
CONTINUOUS
 62
    12
 10
-7.6142723794518741
 20
11.537219260977031
 30
0.0
 11
-8.2281114242291196
 21
11.537219260977031
 31
0.0
 12
-8.3630753985682436
 22
11.22287307347732
 32
0.0
 13
-8.3630753985682436
 23
11.22287307347732
 33
0.0
210
0.0
220
0.0
230
-1.0
  0
SOLID
  5
1E8D
  8
0
  6
CONTINUOUS
 62
    12
 10
7.6181573709567632
 20
11.22287307347732
 30
0.0
 11
7.7033294562551671
 21
10.80076098123946
 31
0.0
 12
8.5443084716910924
 22
10.80076098123946
 32
0.0
 13
8.5443084716910924
 23
10.80076098123946
 33
0.0
210
0.0
220
0.0
230
1.0
  0
SOLID
  5
1E8E
  8
0
  6
CONTINUOUS
 62
    12
 10
-7.6181573709567632
 20
11.22287307347732
 30
0.0
 11
-8.3630753985682436
 21
11.22287307347732
 31
0.0
 12
-8.5443084716910924
 22
10.80076098123946
 32
0.0
 13
-8.5443084716910924
 23
10.80076098123946
 33
0.0
210
0.0
220
0.0
230
-1.0
  0
SOLID
  5
1E8F
  8
0
  6
CONTINUOUS
 62
    12
 10
7.7033294562551671
 20
10.80076098123946
 30
0.0
 11
7.7499421462694658
 21
10.56974890682757
 31
0.0
 12
8.6887184566618156
 22
10.56974890682757
 32
0.0
 13
8.6887184566618156
 23
10.56974890682757
 33
0.0
210
0.0
220
0.0
230
1.0
  0
SOLID
  5
1E90
  8
0
  6
CONTINUOUS
 62
    12
 10
-7.7033294562551671
 20
10.80076098123946
 30
0.0
 11
-8.5443084716910924
 21
10.80076098123946
 31
0.0
 12
-8.6887184566618156
 22
10.56974890682757
 32
0.0
 13
-8.6887184566618156
 23
10.56974890682757
 33
0.0
210
0.0
220
0.0
230
-1.0
  0
SOLID
  5
1E91
  8
0
  6
CONTINUOUS
 62
    12
 10
7.7499421462694658
 20
10.56974890682757
 30
0.0
 11
7.9301609048857129
 21
10.115919480481089
 31
0.0
 12
8.9724157517266399
 22
10.115919480481089
 32
0.0
 13
8.9724157517266399
 23
10.115919480481089
 33
0.0
210
0.0
220
0.0
230
1.0
  0
SOLID
  5
1E92
  8
0
  6
CONTINUOUS
 62
    12
 10
-7.7499421462694658
 20
10.56974890682757
 30
0.0
 11
-8.6887184566618156
 21
10.56974890682757
 31
0.0
 12
-8.9724157517266399
 22
10.115919480481089
 32
0.0
 13
-8.9724157517266399
 23
10.115919480481089
 33
0.0
210
0.0
220
0.0
230
-1.0
  0
SOLID
  5
1E93
  8
0
  6
CONTINUOUS
 62
    12
 10
7.9301609048857129
 20
10.115919480481089
 30
0.0
 11
8.0009301331315203
 21
9.9377074091940685
 31
0.0
 12
9.1256034805061681
 22
9.9377074091940685
 32
0.0
 13
9.1256034805061681
 23
9.9377074091940685
 33
0.0
210
0.0
220
0.0
230
1.0
  0
SOLID
  5
1E94
  8
0
  6
CONTINUOUS
 62
    12
 10
-7.9301609048857129
 20
10.115919480481089
 30
0.0
 11
-8.9724157517266399
 21
10.115919480481089
 31
0.0
 12
-9.1256034805061681
 22
9.9377074091940685
 32
0.0
 13
-9.1256034805061681
 23
9.9377074091940685
 33
0.0
210
0.0
220
0.0
230
-1.0
  0
SOLID
  5
1E95
  8
0
  6
CONTINUOUS
 62
    12
 10
8.0009301331315203
 20
9.9377074091940685
 30
0.0
 11
8.2689023089893947
 21
9.5009940400166073
 31
0.0
 12
9.5009940400166073
 22
9.5009940400166073
 32
0.0
 13
9.5009940400166073
 23
9.5009940400166073
 33
0.0
210
0.0
220
0.0
230
1.0
  0
SOLID
  5
1E96
  8
0
  6
CONTINUOUS
 62
    12
 10
-8.0009301331315203
 20
9.9377074091940685
 30
0.0
 11
-9.1256034805061681
 21
9.9377074091940685
 31
0.0
 12
-9.5009940400166073
 22
9.5009940400166073
 32
0.0
 13
-9.5009940400166073
 23
9.5009940400166073
 33
0.0
210
0.0
220
0.0
230
-1.0
  0
SOLID
  5
1E97
  8
0
  6
CONTINUOUS
 62
    12
 10
-8.3625008409542172
 20
9.3484568218760877
 30
0.0
 11
-9.3484568218760877
 21
9.3484568218760877
 31
0.0
 12
-8.8222356798165631
 22
8.8222356798165631
 32
0.0
 13
-8.8222356798165631
 23
8.8222356798165631
 33
0.0
210
0.0
220
0.0
230
-1.0
  0
SOLID
  5
1E98
  8
0
  6
CONTINUOUS
 62
    12
 10
8.2689023089893947
 20
9.5009940400166073
 30
0.0
 11
8.3625008409542172
 21
9.3484568218760877
 31
0.0
 12
9.3484568218760877
 22
9.3484568218760877
 32
0.0
 13
9.3484568218760877
 23
9.3484568218760877
 33
0.0
210
0.0
220
0.0
230
1.0
  0
SOLID
  5
1E99
  8
0
  6
CONTINUOUS
 62
    12
 10
-8.2689023089893947
 20
9.5009940400166073
 30
0.0
 11
-9.5009940400166073
 21
9.5009940400166073
 31
0.0
 12
-9.3484568218760877
 22
9.3484568218760877
 32
0.0
 13
-9.3484568218760877
 23
9.3484568218760877
 33
0.0
210
0.0
220
0.0
230
-1.0
  0
LINE
  5
1E9A
  8
0
  6
CONTINUOUS
 62
    12
 10
7.9620276993583214
 20
13.0854187299768
 30
0.0
 11
7.726053052330335
 21
12.502686364512639
 31
0.0
  0
LINE
  5
1E9B
  8
0
  6
CONTINUOUS
 62
    12
 10
8.0145211234883256
 20
12.502686364512639
 30
0.0
 11
7.9620276993583214
 21
13.0854187299768
 31
0.0
  0
LINE
  5
1E9C
  8
0
  6
CONTINUOUS
 62
    12
 10
7.726053052330335
 20
12.502686364512639
 30
0.0
 11
7.6896691308844352
 21
12.305615814196489
 31
0.0
  0
LINE
  5
1E9D
  8
0
  6
CONTINUOUS
 62
    12
 10
8.0145211234883256
 20
12.502686364512639
 30
0.0
 11
8.0322735405400874
 21
12.305615814196489
 31
0.0
  0
LINE
  5
1E9E
  8
0
  6
CONTINUOUS
 62
    12
 10
7.6896691308844352
 20
12.305615814196489
 30
0.0
 11
7.6101021171157353
 21
11.874647557689951
 31
0.0
  0
LINE
  5
1E9F
  8
0
  6
CONTINUOUS
 62
    12
 10
8.0322735405400874
 20
12.305615814196489
 30
0.0
 11
8.1421125435103257
 21
11.874647557689951
 31
0.0
  0
LINE
  5
1EA0
  8
0
  6
CONTINUOUS
 62
    12
 10
7.6101021171157353
 20
11.874647557689951
 30
0.0
 11
7.6142723794518741
 21
11.537219260977031
 31
0.0
  0
LINE
  5
1EA1
  8
0
  6
CONTINUOUS
 62
    12
 10
8.1421125435103257
 20
11.874647557689951
 30
0.0
 11
8.2281114242291196
 21
11.537219260977031
 31
0.0
  0
LINE
  5
1EA2
  8
0
  6
CONTINUOUS
 62
    12
 10
7.6142723794518741
 20
11.537219260977031
 30
0.0
 11
7.6181573709567632
 21
11.22287307347732
 31
0.0
  0
LINE
  5
1EA3
  8
0
  6
CONTINUOUS
 62
    12
 10
8.2281114242291196
 20
11.537219260977031
 30
0.0
 11
8.3630753985682436
 21
11.22287307347732
 31
0.0
  0
LINE
  5
1EA4
  8
0
  6
CONTINUOUS
 62
    12
 10
7.6181573709567632
 20
11.22287307347732
 30
0.0
 11
7.7033294562551671
 21
10.80076098123946
 31
0.0
  0
LINE
  5
1EA5
  8
0
  6
CONTINUOUS
 62
    12
 10
8.3630753985682436
 20
11.22287307347732
 30
0.0
 11
8.5443084716910924
 21
10.80076098123946
 31
0.0
  0
LINE
  5
1EA6
  8
0
  6
CONTINUOUS
 62
    12
 10
7.7033294562551671
 20
10.80076098123946
 30
0.0
 11
7.7499421462694658
 21
10.56974890682757
 31
0.0
  0
LINE
  5
1EA7
  8
0
  6
CONTINUOUS
 62
    12
 10
8.5443084716910924
 20
10.80076098123946
 30
0.0
 11
8.6887184566618156
 21
10.56974890682757
 31
0.0
  0
LINE
  5
1EA8
  8
0
  6
CONTINUOUS
 62
    12
 10
7.7499421462694658
 20
10.56974890682757
 30
0.0
 11
7.9301609048857129
 21
10.115919480481089
 31
0.0
  0
LINE
  5
1EA9
  8
0
  6
CONTINUOUS
 62
    12
 10
8.6887184566618156
 20
10.56974890682757
 30
0.0
 11
8.9724157517266399
 21
10.115919480481089
 31
0.0
  0
LINE
  5
1EAA
  8
0
  6
CONTINUOUS
 62
    12
 10
7.9301609048857129
 20
10.115919480481089
 30
0.0
 11
8.0009301331315203
 21
9.9377074091940685
 31
0.0
  0
LINE
  5
1EAB
  8
0
  6
CONTINUOUS
 62
    12
 10
8.9724157517266399
 20
10.115919480481089
 30
0.0
 11
9.1256034805061681
 21
9.9377074091940685
 31
0.0
  0
LINE
  5
1EAC
  8
0
  6
CONTINUOUS
 62
    12
 10
8.0009301331315203
 20
9.9377074091940685
 30
0.0
 11
8.2689023089893947
 21
9.5009940400166073
 31
0.0
  0
LINE
  5
1EAD
  8
0
  6
CONTINUOUS
 62
    12
 10
9.1256034805061681
 20
9.9377074091940685
 30
0.0
 11
9.5009940400166073
 21
9.5009940400166073
 31
0.0
  0
LINE
  5
1EAE
  8
0
  6
CONTINUOUS
 62
    12
 10
9.3484568218760877
 20
9.3484568218760877
 30
0.0
 11
8.8222356798165631
 21
8.8222356798165631
 31
0.0
  0
LINE
  5
1EAF
  8
0
  6
CONTINUOUS
 62
    12
 10
8.8222356798165631
 20
8.8222356798165631
 30
0.0
 11
8.3625008409542172
 21
9.3484568218760877
 31
0.0
  0
LINE
  5
1EB0
  8
0
  6
CONTINUOUS
 62
    12
 10
8.2689023089893947
 20
9.5009940400166073
 30
0.0
 11
8.3625008409542172
 21
9.3484568218760877
 31
0.0
  0
LINE
  5
1EB1
  8
0
  6
CONTINUOUS
 62
    12
 10
9.5009940400166073
 20
9.5009940400166073
 30
0.0
 11
9.3484568218760877
 21
9.3484568218760877
 31
0.0
  0
ENDBLK
  5
1EB3
  8
0
  0
BLOCK
  8
0
  2
*U74
 70
     1
 10
0.0
 20
0.0
 30
0.0
  3
*U74
  1

  0
TEXT
  5
1EB5
  8
0
 62
     0
 10
287.55810216001561
 20
36.251121607631298
 30
0.0
 40
0.05
  1
1.6000
 50
90.0
  0
ENDBLK
  5
1EB7
  8
0
  0
BLOCK
  8
0
  2
*U75
 70
     1
 10
0.0
 20
0.0
 30
0.0
  3
*U75
  1

  0
TEXT
  5
1EB9
  8
0
 62
     0
 10
285.9616941966928
 20
35.143461806366787
 30
0.0
 40
0.05
  1
0.0400
  0
ENDBLK
  5
1EBB
  8
0
  0
BLOCK
  8
0
  2
*U76
 70
     1
 10
0.0
 20
0.0
 30
0.0
  3
*U76
  1

  0
TEXT
  5
1EBD
  8
0
 62
     0
 10
286.23169419669267
 20
35.143461806366787
 30
0.0
 40
0.05
  1
0.5000
  0
ENDBLK
  5
1EBF
  8
0
  0
BLOCK
  8
0
  2
*U77
 70
     1
 10
0.0
 20
0.0
 30
0.0
  3
*U77
  1

  0
TEXT
  5
1EC1
  8
0
 62
     0
 10
286.63169419669282
 20
35.143461806366787
 30
0.0
 40
0.05
  1
0.3000
  0
ENDBLK
  5
1EC3
  8
0
  0
BLOCK
  8
0
  2
*U78
 70
     1
 10
0.0
 20
0.0
 30
0.0
  3
*U78
  1

  0
TEXT
  5
1EC5
  8
0
 62
     0
 10
286.84586086335941
 20
35.143461806366787
 30
0.0
 40
0.05
  1
0.1200
  0
ENDBLK
  5
1EC7
  8
0
  0
BLOCK
  8
0
  2
*U79
 70
     1
 10
0.0
 20
0.0
 30
0.0
  3
*U79
  1

  0
TEXT
  5
1EC9
  8
0
 62
     0
 10
286.92169419669273
 20
35.143461806366787
 30
0.0
 40
0.05
  1
0.0400
  0
ENDBLK
  5
1ECB
  8
0
  0
BLOCK
  8
0
  2
*U80
 70
     1
 10
0.0
 20
0.0
 30
0.0
  3
*U80
  1

  0
TEXT
  5
1ECD
  8
0
 62
     0
 10
285.9616941966928
 20
35.285638823805897
 30
0.0
 40
0.05
  1
0.0400
  0
ENDBLK
  5
1ECF
  8
0
  0
BLOCK
  8
0
  2
*U81
 70
     1
 10
0.0
 20
0.0
 30
0.0
  3
*U81
  1

  0
TEXT
  5
1ED1
  8
0
 62
     0
 10
286.23169419669267
 20
35.285638823805897
 30
0.0
 40
0.05
  1
0.5000
  0
ENDBLK
  5
1ED3
  8
0
  0
BLOCK
  8
0
  2
*U82
 70
     1
 10
0.0
 20
0.0
 30
0.0
  3
*U82
  1

  0
TEXT
  5
1ED5
  8
0
 62
     0
 10
286.63169419669282
 20
35.285638823805897
 30
0.0
 40
0.05
  1
0.3000
  0
ENDBLK
  5
1ED7
  8
0
  0
BLOCK
  8
0
  2
*U83
 70
     1
 10
0.0
 20
0.0
 30
0.0
  3
*U83
  1

  0
TEXT
  5
1ED9
  8
0
 62
     0
 10
286.84586086335941
 20
35.285638823805897
 30
0.0
 40
0.05
  1
0.1200
  0
ENDBLK
  5
1EDB
  8
0
  0
BLOCK
  8
0
  2
*U84
 70
     1
 10
0.0
 20
0.0
 30
0.0
  3
*U84
  1

  0
TEXT
  5
1EDD
  8
0
 62
     0
 10
286.92169419669273
 20
35.285638823805897
 30
0.0
 40
0.05
  1
0.0400
  0
ENDBLK
  5
1EDF
  8
0
  0
BLOCK
  8
0
  2
*U85
 70
     1
 10
0.0
 20
0.0
 30
0.0
  3
*U85
  1

  0
TEXT
  5
1F1F
  8
0
 62
     0
 10
284.52965771556342
 20
35.989504132684303
 30
0.0
 40
0.05
  1
0.68
  0
ENDBLK
  5
1F21
  8
0
  0
ENDSEC
  0
SECTION
  2
ENTITIES
  0
TEXT
  5
9C2
  8
0
 10
285.5958129922401
 20
38.858346800348357
 30
0.0
 40
0.15
  1
P = 5.07 dm
  7
ROMANC
  0
TEXT
  5
9C3
  8
0
 10
287.21302549223992
 20
39.360094300348351
 30
0.0
 40
0.05
  1
2
  7
ROMANC
  0
TEXT
  5
9C4
  8
0
 10
285.61477399223998
 20
39.50643130034836
 30
0.0
 40
0.15
  1
ESCALA  1:25
  7
ROMANC
  0
TEXT
  5
9C5
  8
0
 10
285.61477399223998
 20
39.749288300348361
 30
0.0
 40
0.15
  1
TIPUS   NT147F
  7
ROMANC
  0
TEXT
  5
9C6
  8
0
 10
285.6213209922401
 20
39.207136300348353
 30
0.0
 40
0.15
  1
S = 147 dm
  7
ROMANC
  0
LINE
  5
9C7
  8
0
 10
283.97291126501301
 20
33.526358800348348
 30
0.0
 11
283.97291126501301
 21
40.951358800348359
 31
0.0
  0
LINE
  5
9C8
  8
0
 10
283.97291126501301
 20
40.951358800348359
 30
0.0
 11
289.22291126501301
 21
40.951358800348359
 31
0.0
  0
LINE
  5
9C9
  8
0
 10
289.22291126501301
 20
40.951358800348359
 30
0.0
 11
289.22291126501301
 21
33.526358800348348
 31
0.0
  0
LINE
  5
9CA
  8
0
 10
289.22291126501301
 20
33.526358800348348
 30
0.0
 11
283.97291126501301
 21
33.526358800348348
 31
0.0
  0
POLYLINE
  5
A14
  8
0
 66
     1
 10
0.0
 20
0.0
 30
0.0
 70
     1
 40
0.02
 41
0.02
  0
VERTEX
  5
1B88
  8
0
 10
287.01002753002598
 20
35.945273600696709
 30
0.0
  0
VERTEX
  5
1B89
  8
0
 10
287.01002753002598
 20
35.7052736006967
 30
0.0
  0
VERTEX
  5
1B8A
  8
0
 10
286.8900275300262
 20
35.705273600696728
 30
0.0
 42
-0.9999999999999051
  0
VERTEX
  5
1B8B
  8
0
 10
286.59002753002608
 20
35.7052736006967
 30
0.0
  0
VERTEX
  5
1B8C
  8
0
 10
286.09002753002608
 20
35.7052736006967
 30
0.0
  0
VERTEX
  5
1B8D
  8
0
 10
286.09002753002608
 20
35.945273600696709
 30
0.0
  0
VERTEX
  5
1B8E
  8
0
 10
286.050027530026
 20
35.945273600696709
 30
0.0
  0
VERTEX
  5
1B8F
  8
0
 10
286.050027530026
 20
37.155273600696709
 30
0.0
  0
VERTEX
  5
1B90
  8
0
 10
287.050027530026
 20
37.155273600696709
 30
0.0
  0
VERTEX
  5
1B91
  8
0
 10
287.050027530026
 20
35.945273600696709
 30
0.0
  0
SEQEND
  5
1B92
  8
0
  0
DIMENSION
  5
15CB
  8
0
  2
*D45
 10
287.050027530026
 20
34.641731391445092
 30
0.0
 11
286.550027530026
 21
34.641731391445092
 31
0.0
 70
     0
 13
286.050027530026
 23
35.945273600696709
 33
0.0
 14
287.050027530026
 24
35.945273600696709
 34
0.0
1001
ACAD
1000
DSTYLE
1002
{
1070
   287
1070
     3
1070
   372
1070
     0
1070
   371
1070
     0
1070
    40
1040
1.0
1070
    41
1040
0.05
1070
    77
1070
     0
1070
   147
1040
0.01
1070
   279
1070
     0
1070
   340
1005
D2D
1002
}
  0
DIMENSION
  5
15D8
  8
0
  2
*D46
 10
287.57555782391393
 20
37.155273600696709
 30
0.0
 11
287.57555782391393
 21
36.355273600696727
 31
0.0
 70
     0
 13
286.74002753002623
 23
35.555273600696673
 33
0.0
 14
286.550027530026
 24
37.155273600696709
 34
0.0
 50
90.0
1001
ACAD
1000
DSTYLE
1002
{
1070
   287
1070
     3
1070
   372
1070
     0
1070
   371
1070
     0
1070
    40
1040
1.0
1070
    41
1040
0.05
1070
    77
1070
     0
1070
   147
1040
0.01
1070
   279
1070
     0
1070
   340
1005
D2D
1002
}
  0
DIMENSION
  5
15E5
  8
0
  2
*D47
 10
286.8900275300262
 20
35.3296424666392
 30
0.0
 11
286.74002753002611
 21
35.3296424666392
 31
0.0
 70
     0
 13
286.59002753002608
 23
35.7052736006967
 33
0.0
 14
286.8900275300262
 24
35.705273600696721
 34
0.0
1001
ACAD
1000
DSTYLE
1002
{
1070
   287
1070
     3
1070
   372
1070
     0
1070
   371
1070
     0
1070
    40
1040
1.0
1070
    41
1040
0.05
1070
    77
1070
     0
1070
   147
1040
0.01
1070
   279
1070
     0
1070
   340
1005
D2D
1002
}
  0
DIMENSION
  5
15F4
  8
0
  2
*D48
 10
287.01002753002598
 20
34.893965582090459
 30
0.0
 11
286.55002753002611
 21
34.893965582090459
 31
0.0
 70
     0
 13
286.09002753002608
 23
35.945273600696709
 33
0.0
 14
287.01002753002598
 24
35.945273600696709
 34
0.0
1001
ACAD
1000
DSTYLE
1002
{
1070
   287
1070
     3
1070
   372
1070
     0
1070
   371
1070
     0
1070
    40
1040
1.0
1070
    41
1040
0.05
1070
    77
1070
     0
1070
   147
1040
0.01
1070
   279
1070
     0
1070
   340
1005
D2D
1002
}
  0
DIMENSION
  5
160A
  8
0
  2
*D49
 10
286.050027530026
 20
35.3296424666392
 30
0.0
 11
286.3200275300261
 21
35.3296424666392
 31
0.0
 70
     0
 13
286.59002753002608
 23
35.7052736006967
 33
0.0
 14
286.050027530026
 24
35.935273600696711
 34
0.0
1001
ACAD
1000
DSTYLE
1002
{
1070
   287
1070
     3
1070
   372
1070
     0
1070
   371
1070
     0
1070
    40
1040
1.0
1070
    41
1040
0.05
1070
    77
1070
     0
1070
   147
1040
0.01
1070
   279
1070
     0
1070
   340
1005
D2D
1002
}
  0
DIMENSION
  5
1617
  8
0
  2
*D50
 10
287.050027530026
 20
35.3296424666392
 30
0.0
 11
286.97002753002607
 21
35.3296424666392
 31
0.0
 70
     0
 13
286.8900275300262
 23
35.705273600696728
 33
0.0
 14
287.050027530026
 24
35.945273600696709
 34
0.0
1001
ACAD
1000
DSTYLE
1002
{
1070
   287
1070
     3
1070
   372
1070
     0
1070
   371
1070
     0
1070
    40
1040
1.0
1070
    41
1040
0.05
1070
    77
1070
     0
1070
   147
1040
0.01
1070
   279
1070
     0
1070
   340
1005
D2D
1002
}
  0
DIMENSION
  5
16A4
  8
0
  2
*D52
 10
287.25470454769868
 20
35.945273600696709
 30
0.0
 11
287.25470454769868
 21
36.550273600696762
 31
0.0
 70
     0
 13
287.050027530026
 23
37.155273600696709
 33
0.0
 14
287.050027530026
 24
35.945273600696709
 34
0.0
 50
90.0
1001
ACAD
1000
DSTYLE
1002
{
1070
   287
1070
     3
1070
   372
1070
     0
1070
   371
1070
     0
1070
    40
1040
1.0
1070
    41
1040
0.05
1070
    77
1070
     0
1070
   147
1040
0.01
1070
   279
1070
     0
1070
   340
1005
D2D
1002
}
  0
DIMENSION
  5
16B2
  8
0
  2
*D53
 10
287.42483885934632
 20
35.7052736006967
 30
0.0
 11
287.42483885934632
 21
36.430273600696751
 31
0.0
 70
     0
 13
287.07279267696993
 23
37.155273600696709
 33
0.0
 14
287.01002753002598
 24
35.7052736006967
 34
0.0
 50
90.0
1001
ACAD
1000
DSTYLE
1002
{
1070
   287
1070
     3
1070
   372
1070
     0
1070
   371
1070
     0
1070
    40
1040
1.0
1070
    41
1040
0.05
1070
    77
1070
     0
1070
   147
1040
0.01
1070
   279
1070
     0
1070
   340
1005
D2D
1002
}
  0
ENDSEC
  0
EOF
