  0
SECTION
  2
HEADER
  9
$ACADVER
  1
AC1014
  9
$ACADMAINTVER
 70
     9
  9
$DWGCODEPAGE
  3
ANSI_1252
  9
$INSBASE
 10
0.0
 20
0.0
 30
0.0
  9
$EXTMIN
 10
2.2
 20
6.749999999999996
 30
0.0
  9
$EXTMAX
 10
303.1251472994752
 20
44.747
 30
8.949999999999999
  9
$LIMMIN
 10
280.3959999999999
 20
28.89699999999999
  9
$LIMMAX
 10
292.8959999999999
 20
43.74699999999999
  9
$ORTHOMODE
 70
     0
  9
$REGENMODE
 70
     1
  9
$FILLMODE
 70
     1
  9
$QTEXTMODE
 70
     0
  9
$MIRRTEXT
 70
     1
  9
$DRAGMODE
 70
     2
  9
$LTSCALE
 40
1.0
  9
$OSMODE
 70
   399
  9
$ATTMODE
 70
     1
  9
$TEXTSIZE
 40
0.2
  9
$TRACEWID
 40
0.05
  9
$TEXTSTYLE
  7
STANDARD
  9
$CLAYER
  8
0
  9
$CELTYPE
  6
BYLAYER
  9
$CECOLOR
 62
   256
  9
$CELTSCALE
 40
1.0
  9
$DELOBJ
 70
     1
  9
$DISPSILH
 70
     0
  9
$DIMSCALE
 40
1.0
  9
$DIMASZ
 40
0.18
  9
$DIMEXO
 40
0.0625
  9
$DIMDLI
 40
0.38
  9
$DIMRND
 40
0.0
  9
$DIMDLE
 40
0.0
  9
$DIMEXE
 40
0.18
  9
$DIMTP
 40
0.0
  9
$DIMTM
 40
0.0
  9
$DIMTXT
 40
0.15
  9
$DIMCEN
 40
0.09
  9
$DIMTSZ
 40
0.0
  9
$DIMTOL
 70
     0
  9
$DIMLIM
 70
     0
  9
$DIMTIH
 70
     1
  9
$DIMTOH
 70
     1
  9
$DIMSE1
 70
     0
  9
$DIMSE2
 70
     0
  9
$DIMTAD
 70
     0
  9
$DIMZIN
 70
     0
  9
$DIMBLK
  1

  9
$DIMASO
 70
     1
  9
$DIMSHO
 70
     1
  9
$DIMPOST
  1

  9
$DIMAPOST
  1

  9
$DIMALT
 70
     0
  9
$DIMALTD
 70
     2
  9
$DIMALTF
 40
25.4
  9
$DIMLFAC
 40
1.0
  9
$DIMTOFL
 70
     0
  9
$DIMTVP
 40
0.0
  9
$DIMTIX
 70
     0
  9
$DIMSOXD
 70
     0
  9
$DIMSAH
 70
     0
  9
$DIMBLK1
  1

  9
$DIMBLK2
  1

  9
$DIMSTYLE
  2
STANDARD
  9
$DIMCLRD
 70
     0
  9
$DIMCLRE
 70
     0
  9
$DIMCLRT
 70
     0
  9
$DIMTFAC
 40
1.0
  9
$DIMGAP
 40
0.09
  9
$DIMJUST
 70
     0
  9
$DIMSD1
 70
     0
  9
$DIMSD2
 70
     0
  9
$DIMTOLJ
 70
     1
  9
$DIMTZIN
 70
     0
  9
$DIMALTZ
 70
     0
  9
$DIMALTTZ
 70
     0
  9
$DIMFIT
 70
     3
  9
$DIMUPT
 70
     0
  9
$DIMUNIT
 70
     2
  9
$DIMDEC
 70
     2
  9
$DIMTDEC
 70
     2
  9
$DIMALTU
 70
     2
  9
$DIMALTTD
 70
     2
  9
$DIMTXSTY
  7
STANDARD
  9
$DIMAUNIT
 70
     0
  9
$LUNITS
 70
     2
  9
$LUPREC
 70
     4
  9
$SKETCHINC
 40
0.1
  9
$FILLETRAD
 40
0.0
  9
$AUNITS
 70
     0
  9
$AUPREC
 70
     0
  9
$MENU
  1
acad
  9
$ELEVATION
 40
0.0
  9
$PELEVATION
 40
0.0
  9
$THICKNESS
 40
0.0
  9
$LIMCHECK
 70
     0
  9
$BLIPMODE
 70
     0
  9
$CHAMFERA
 40
0.0
  9
$CHAMFERB
 40
0.0
  9
$CHAMFERC
 40
0.0
  9
$CHAMFERD
 40
0.0
  9
$SKPOLY
 70
     0
  9
$TDCREATE
 40
2448315.331741435
  9
$TDUPDATE
 40
2453125.466288854
  9
$TDINDWG
 40
0.2411968866
  9
$TDUSRTIMER
 40
0.2411952662
  9
$USRTIMER
 70
     1
  9
$ANGBASE
 50
0.0
  9
$ANGDIR
 70
     0
  9
$PDMODE
 70
     0
  9
$PDSIZE
 40
0.0
  9
$PLINEWID
 40
0.0
  9
$COORDS
 70
     1
  9
$SPLFRAME
 70
     0
  9
$SPLINETYPE
 70
     6
  9
$SPLINESEGS
 70
     8
  9
$ATTDIA
 70
     0
  9
$ATTREQ
 70
     1
  9
$HANDLING
 70
 22529
  9
$HANDSEED
  5
A46
  9
$SURFTAB1
 70
     6
  9
$SURFTAB2
 70
     6
  9
$SURFTYPE
 70
     6
  9
$SURFU
 70
     6
  9
$SURFV
 70
     6
  9
$UCSNAME
  2

  9
$UCSORG
 10
0.0
 20
0.0
 30
0.0
  9
$UCSXDIR
 10
1.0
 20
0.0
 30
0.0
  9
$UCSYDIR
 10
0.0
 20
1.0
 30
0.0
  9
$PUCSNAME
  2

  9
$PUCSORG
 10
0.0
 20
0.0
 30
0.0
  9
$PUCSXDIR
 10
1.0
 20
0.0
 30
0.0
  9
$PUCSYDIR
 10
0.0
 20
1.0
 30
0.0
  9
$USERI1
 70
     0
  9
$USERI2
 70
     0
  9
$USERI3
 70
     0
  9
$USERI4
 70
     0
  9
$USERI5
 70
     0
  9
$USERR1
 40
0.0
  9
$USERR2
 40
0.0
  9
$USERR3
 40
0.0
  9
$USERR4
 40
0.0
  9
$USERR5
 40
0.0
  9
$WORLDVIEW
 70
     1
  9
$SHADEDGE
 70
     3
  9
$SHADEDIF
 70
    70
  9
$TILEMODE
 70
     1
  9
$MAXACTVP
 70
    16
  9
$PINSBASE
 10
0.0
 20
0.0
 30
0.0
  9
$PLIMCHECK
 70
     0
  9
$PEXTMIN
 10
1.000000000000000E+20
 20
1.000000000000000E+20
 30
1.000000000000000E+20
  9
$PEXTMAX
 10
-1.000000000000000E+20
 20
-1.000000000000000E+20
 30
-1.000000000000000E+20
  9
$PLIMMIN
 10
0.0
 20
0.0
  9
$PLIMMAX
 10
12.0
 20
9.0
  9
$UNITMODE
 70
     0
  9
$VISRETAIN
 70
     0
  9
$PLINEGEN
 70
     0
  9
$PSLTSCALE
 70
     1
  9
$TREEDEPTH
 70
  3020
  9
$PICKSTYLE
 70
     1
  9
$CMLSTYLE
  2
STANDARD
  9
$CMLJUST
 70
     0
  9
$CMLSCALE
 40
1.0
  9
$PROXYGRAPHICS
 70
     1
  9
$MEASUREMENT
 70
     0
  0
ENDSEC
  0
SECTION
  2
CLASSES
  0
CLASS
  1
ACDBDICTIONARYWDFLT
  2
AcDbDictionaryWithDefault
  3
AutoCAD 2000
 90
        0
280
     0
281
     0
  0
CLASS
  1
ACDBPLACEHOLDER
  2
AcDbPlaceHolder
  3
AutoCAD 2000
 90
        0
280
     0
281
     0
  0
CLASS
  1
LAYOUT
  2
AcDbLayout
  3
AutoCAD 2000
 90
        0
280
     0
281
     0
  0
CLASS
  1
DICTIONARYVAR
  2
AcDbDictionaryVar
  3
AutoCAD 2000
 90
        0
280
     0
281
     0
  0
CLASS
  1
LONG_TRANSACTION
  2
AcDbLongTransaction
  3
AutoCAD 2000
 90
        0
280
     0
281
     0
  0
CLASS
  1
LWPOLYLINE
  2
AcDbPolyline
  3
AutoCAD 2000
 90
        0
280
     0
281
     1
  0
CLASS
  1
HATCH
  2
AcDbHatch
  3
AutoCAD 2000
 90
        0
280
     0
281
     1
  0
CLASS
  1
XRECORD
  2
AcDbXrecord
  3
AutoCAD 2000
 90
        0
280
     0
281
     0
  0
CLASS
  1
LONG_TRANSACTION
  2
AcDbLongTransaction
  3
AutoCAD 2000
 90
        0
280
     0
281
     0
  0
CLASS
  1
LWPOLYLINE
  2
AcDbPolyline
  3
AutoCAD 2000
 90
        0
280
     0
281
     1
  0
CLASS
  1
HATCH
  2
AcDbHatch
  3
AutoCAD 2000
 90
        0
280
     0
281
     1
  0
CLASS
  1
XRECORD
  2
AcDbXrecord
  3
AutoCAD 2000
 90
        0
280
     0
281
     0
  0
CLASS
  1
LONG_TRANSACTION
  2
AcDbLongTransaction
  3
AutoCAD 2000
 90
        0
280
     0
281
     0
  0
CLASS
  1
LWPOLYLINE
  2
AcDbPolyline
  3
AutoCAD 2000
 90
        0
280
     0
281
     1
  0
CLASS
  1
HATCH
  2
AcDbHatch
  3
AutoCAD 2000
 90
        0
280
     0
281
     1
  0
CLASS
  1
XRECORD
  2
AcDbXrecord
  3
AutoCAD 2000
 90
        0
280
     0
281
     0
  0
CLASS
  1
LONG_TRANSACTION
  2
AcDbLongTransaction
  3
AutoCAD 2000
 90
        0
280
     0
281
     0
  0
CLASS
  1
LWPOLYLINE
  2
AcDbPolyline
  3
AutoCAD 2000
 90
        0
280
     0
281
     1
  0
CLASS
  1
HATCH
  2
AcDbHatch
  3
AutoCAD 2000
 90
        0
280
     0
281
     1
  0
CLASS
  1
XRECORD
  2
AcDbXrecord
  3
AutoCAD 2000
 90
        0
280
     0
281
     0
  0
ENDSEC
  0
SECTION
  2
TABLES
  0
TABLE
  2
VPORT
  5
8
330
0
100
AcDbSymbolTable
 70
     3
  0
VPORT
  5
A23
330
8
100
AcDbSymbolTableRecord
100
AcDbViewportTableRecord
  2
*ACTIVE
 70
     0
 10
0.0
 20
0.0
 11
1.0
 21
1.0
 12
285.9937635723109
 22
37.09630893208317
 13
0.0
 23
0.0
 14
1.0
 24
1.0
 15
0.0
 25
0.0
 16
0.0
 26
0.0
 36
1.0
 17
0.0
 27
0.0
 37
0.0
 40
22.96362514529938
 41
1.541193181818181
 42
50.0
 43
0.0
 44
0.0
 50
0.0
 51
0.0
 71
     0
 72
   100
 73
     1
 74
     1
 75
     0
 76
     0
 77
     0
 78
     0
  0
ENDTAB
  0
TABLE
  2
LTYPE
  5
5
330
0
100
AcDbSymbolTable
 70
     1
  0
LTYPE
  5
13
330
5
100
AcDbSymbolTableRecord
100
AcDbLinetypeTableRecord
  2
BYBLOCK
 70
     0
  3

 72
    65
 73
     0
 40
0.0
  0
LTYPE
  5
14
330
5
100
AcDbSymbolTableRecord
100
AcDbLinetypeTableRecord
  2
BYLAYER
 70
     0
  3

 72
    65
 73
     0
 40
0.0
  0
LTYPE
  5
15
330
5
100
AcDbSymbolTableRecord
100
AcDbLinetypeTableRecord
  2
CONTINUOUS
 70
     0
  3
Solid line
 72
    65
 73
     0
 40
0.0
  0
ENDTAB
  0
TABLE
  2
LAYER
  5
2
330
0
100
AcDbSymbolTable
 70
     9
  0
LAYER
  5
10
330
2
100
AcDbSymbolTableRecord
100
AcDbLayerTableRecord
  2
0
 70
     0
 62
     7
  6
CONTINUOUS
  0
LAYER
  5
22
330
2
100
AcDbSymbolTableRecord
100
AcDbLayerTableRecord
  2
1
 70
     0
 62
     7
  6
CONTINUOUS
  0
LAYER
  5
23
330
2
100
AcDbSymbolTableRecord
100
AcDbLayerTableRecord
  2
7
 70
     0
 62
     7
  6
CONTINUOUS
  0
LAYER
  5
24
330
2
100
AcDbSymbolTableRecord
100
AcDbLayerTableRecord
  2
8
 70
     0
 62
     7
  6
CONTINUOUS
  0
LAYER
  5
25
330
2
100
AcDbSymbolTableRecord
100
AcDbLayerTableRecord
  2
9
 70
     0
 62
     7
  6
CONTINUOUS
  0
LAYER
  5
26
330
2
100
AcDbSymbolTableRecord
100
AcDbLayerTableRecord
  2
22
 70
     0
 62
     7
  6
CONTINUOUS
  0
LAYER
  5
27
330
2
100
AcDbSymbolTableRecord
100
AcDbLayerTableRecord
  2
25
 70
     0
 62
     7
  6
CONTINUOUS
  0
LAYER
  5
78
330
2
100
AcDbSymbolTableRecord
100
AcDbLayerTableRecord
  2
DEFPOINTS
 70
     0
 62
     7
  6
CONTINUOUS
  0
LAYER
  5
1E7
330
2
100
AcDbSymbolTableRecord
100
AcDbLayerTableRecord
  2
NO_PRINT
 70
     0
 62
     7
  6
CONTINUOUS
  0
ENDTAB
  0
TABLE
  2
STYLE
  5
3
330
0
100
AcDbSymbolTable
 70
     2
  0
STYLE
  5
11
330
3
100
AcDbSymbolTableRecord
100
AcDbTextStyleTableRecord
  2
STANDARD
 70
     0
 40
0.0
 41
1.0
 50
0.0
 71
     0
 42
0.2
  3
txt
  4

  0
STYLE
  5
28
330
3
100
AcDbSymbolTableRecord
100
AcDbTextStyleTableRecord
  2
ROMANC
 70
     0
 40
0.0
 41
1.0
 50
0.0
 71
     0
 42
0.2
  3
ROMANC
  4

  0
ENDTAB
  0
TABLE
  2
VIEW
  5
6
330
0
100
AcDbSymbolTable
 70
     0
  0
ENDTAB
  0
TABLE
  2
UCS
  5
7
330
0
100
AcDbSymbolTable
 70
     0
  0
ENDTAB
  0
TABLE
  2
APPID
  5
9
330
0
100
AcDbSymbolTable
 70
     2
  0
APPID
  5
12
330
9
100
AcDbSymbolTableRecord
100
AcDbRegAppTableRecord
  2
ACAD
 70
     0
  0
APPID
  5
827
330
9
100
AcDbSymbolTableRecord
100
AcDbRegAppTableRecord
  2
DCO15
 70
     0
  0
ENDTAB
  0
TABLE
  2
DIMSTYLE
  5
A
330
0
100
AcDbSymbolTable
 70
     1
  0
DIMSTYLE
105
6B
102
{ACAD_REACTORS
330
980
330
98E
330
99C
330
9AA
330
9B8
102
}
330
A
100
AcDbSymbolTableRecord
100
AcDbDimStyleTableRecord
  2
STANDARD
 70
     0
  3

  4

  5

  6

  7

 40
1.0
 41
0.18
 42
0.0625
 43
0.38
 44
0.18
 45
0.0
 46
0.0
 47
0.0
 48
0.0
140
0.15
141
0.09
142
0.0
143
25.4
144
1.0
145
0.0
146
1.0
147
0.09
 71
     0
 72
     0
 73
     1
 74
     1
 75
     0
 76
     0
 77
     0
 78
     0
170
     0
171
     2
172
     0
173
     0
174
     0
175
     0
176
     0
177
     0
178
     0
270
     2
271
     2
272
     2
273
     2
274
     2
340
11
275
     0
280
     0
281
     0
282
     0
283
     1
284
     0
285
     0
286
     0
287
     3
288
     0
  0
ENDTAB
  0
TABLE
  2
BLOCK_RECORD
  5
1
330
0
100
AcDbSymbolTable
 70
    20
  0
BLOCK_RECORD
  5
1E
102
{ACAD_XDICTIONARY
360
39D
102
}
330
1
100
AcDbSymbolTableRecord
100
AcDbBlockTableRecord
  2
*MODEL_SPACE
  0
BLOCK_RECORD
  5
1A
102
{ACAD_XDICTIONARY
360
39F
102
}
330
1
100
AcDbSymbolTableRecord
100
AcDbBlockTableRecord
  2
*PAPER_SPACE
  0
BLOCK_RECORD
  5
6ED
330
1
100
AcDbSymbolTableRecord
100
AcDbBlockTableRecord
  2
*D0
  0
BLOCK_RECORD
  5
6FB
330
1
100
AcDbSymbolTableRecord
100
AcDbBlockTableRecord
  2
*D1
  0
BLOCK_RECORD
  5
709
330
1
100
AcDbSymbolTableRecord
100
AcDbBlockTableRecord
  2
*D2
  0
BLOCK_RECORD
  5
72B
330
1
100
AcDbSymbolTableRecord
100
AcDbBlockTableRecord
  2
*D3
  0
BLOCK_RECORD
  5
79D
330
1
100
AcDbSymbolTableRecord
100
AcDbBlockTableRecord
  2
*D4
  0
BLOCK_RECORD
  5
7AB
330
1
100
AcDbSymbolTableRecord
100
AcDbBlockTableRecord
  2
*D5
  0
BLOCK_RECORD
  5
808
330
1
100
AcDbSymbolTableRecord
100
AcDbBlockTableRecord
  2
*D6
  0
BLOCK_RECORD
  5
816
330
1
100
AcDbSymbolTableRecord
100
AcDbBlockTableRecord
  2
*D7
  0
BLOCK_RECORD
  5
8A0
330
1
100
AcDbSymbolTableRecord
100
AcDbBlockTableRecord
  2
*D8
  0
BLOCK_RECORD
  5
8AE
330
1
100
AcDbSymbolTableRecord
100
AcDbBlockTableRecord
  2
*D9
  0
BLOCK_RECORD
  5
8BC
330
1
100
AcDbSymbolTableRecord
100
AcDbBlockTableRecord
  2
*D10
  0
BLOCK_RECORD
  5
8CA
330
1
100
AcDbSymbolTableRecord
100
AcDbBlockTableRecord
  2
*D11
  0
BLOCK_RECORD
  5
8FD
330
1
100
AcDbSymbolTableRecord
100
AcDbBlockTableRecord
  2
*D12
  0
BLOCK_RECORD
  5
95C
330
1
100
AcDbSymbolTableRecord
100
AcDbBlockTableRecord
  2
*D13
  0
BLOCK_RECORD
  5
973
330
1
100
AcDbSymbolTableRecord
100
AcDbBlockTableRecord
  2
*D14
  0
BLOCK_RECORD
  5
981
330
1
100
AcDbSymbolTableRecord
100
AcDbBlockTableRecord
  2
*D15
  0
BLOCK_RECORD
  5
98F
330
1
100
AcDbSymbolTableRecord
100
AcDbBlockTableRecord
  2
*D16
  0
BLOCK_RECORD
  5
99D
330
1
100
AcDbSymbolTableRecord
100
AcDbBlockTableRecord
  2
*D17
  0
BLOCK_RECORD
  5
9AB
330
1
100
AcDbSymbolTableRecord
100
AcDbBlockTableRecord
  2
*D18
  0
BLOCK_RECORD
  5
9B9
330
1
100
AcDbSymbolTableRecord
100
AcDbBlockTableRecord
  2
*D19
  0
ENDTAB
  0
ENDSEC
  0
SECTION
  2
BLOCKS
  0
BLOCK
  5
1F
330
1E
100
AcDbEntity
  8
0
100
AcDbBlockBegin
  2
*MODEL_SPACE
 70
     0
 10
0.0
 20
0.0
 30
0.0
  3
*MODEL_SPACE
  1

  0
ENDBLK
  5
20
330
1E
100
AcDbEntity
  8
0
100
AcDbBlockEnd
  0
BLOCK
  5
1B
330
1A
100
AcDbEntity
 67
     1
  8
0
100
AcDbBlockBegin
  2
*PAPER_SPACE
 70
     0
 10
0.0
 20
0.0
 30
0.0
  3
*PAPER_SPACE
  1

  0
ENDBLK
  5
1C
330
1A
100
AcDbEntity
 67
     1
  8
0
100
AcDbBlockEnd
  0
BLOCK
  5
6F8
330
6ED
100
AcDbEntity
  8
0
100
AcDbBlockBegin
  2
*D0
 70
     1
 10
0.0
 20
0.0
 30
0.0
  3
*D0
  1

  0
LINE
  5
6EE
330
6ED
100
AcDbEntity
  8
0
 62
     0
100
AcDbLine
 10
284.9565822925581
 20
36.09627461559852
 30
0.0
 11
284.9565822925581
 21
34.53102651587975
 31
0.0
  0
LINE
  5
6EF
330
6ED
100
AcDbEntity
  8
0
 62
     0
100
AcDbLine
 10
287.4565822925581
 20
36.09627461559852
 30
0.0
 11
287.4565822925581
 21
34.53102651587975
 31
0.0
  0
LINE
  5
6F0
330
6ED
100
AcDbEntity
  8
0
 62
     0
100
AcDbLine
 10
285.1365822925581
 20
34.71102651587975
 30
0.0
 11
285.9040822925582
 21
34.71102651587975
 31
0.0
  0
LINE
  5
6F1
330
6ED
100
AcDbEntity
  8
0
 62
     0
100
AcDbLine
 10
287.2765822925581
 20
34.71102651587975
 30
0.0
 11
286.5090822925581
 21
34.71102651587975
 31
0.0
  0
SOLID
  5
6F2
330
6ED
100
AcDbEntity
  8
0
 62
     0
100
AcDbTrace
 10
285.1365822925581
 20
34.74102651587975
 30
0.0
 11
285.1365822925581
 21
34.68102651587975
 31
0.0
 12
284.9565822925581
 22
34.71102651587975
 32
0.0
 13
284.9565822925581
 23
34.71102651587975
 33
0.0
  0
SOLID
  5
6F3
330
6ED
100
AcDbEntity
  8
0
 62
     0
100
AcDbTrace
 10
287.2765822925581
 20
34.74102651587975
 30
0.0
 11
287.2765822925581
 21
34.68102651587975
 31
0.0
 12
287.4565822925581
 22
34.71102651587975
 32
0.0
 13
287.4565822925581
 23
34.71102651587975
 33
0.0
  0
MTEXT
  5
6F4
330
6ED
100
AcDbEntity
  8
0
 62
     0
100
AcDbMText
 10
286.2065822925581
 20
34.71102651587975
 30
0.0
 40
0.15
 41
0.0
 71
     5
 72
     1
  1
\A1;2.50
1001
ACAD
1000
MTEXTBEGIN
1070
    73
1070
     1
1070
    44
1040
1.0
1070
    74
1070
     0
1000
MTEXTEND
1000
MTEXTBEGIN
1070
    73
1070
     1
1070
    44
1040
1.0
1070
    74
1070
     0
1000
MTEXTEND
  0
POINT
  5
6F5
330
6ED
100
AcDbEntity
  8
DEFPOINTS
 62
     0
100
AcDbPoint
 10
284.9565822925581
 20
36.15877461559852
 30
0.0
  0
POINT
  5
6F6
330
6ED
100
AcDbEntity
  8
DEFPOINTS
 62
     0
100
AcDbPoint
 10
287.4565822925581
 20
36.15877461559852
 30
0.0
  0
POINT
  5
6F7
330
6ED
100
AcDbEntity
  8
DEFPOINTS
 62
     0
100
AcDbPoint
 10
287.4565822925581
 20
34.71102651587975
 30
0.0
  0
ENDBLK
  5
6F9
330
6ED
100
AcDbEntity
  8
0
100
AcDbBlockEnd
  0
BLOCK
  5
706
330
6FB
100
AcDbEntity
  8
0
100
AcDbBlockBegin
  2
*D1
 70
     1
 10
0.0
 20
0.0
 30
0.0
  3
*D1
  1

  0
LINE
  5
742
330
6FB
100
AcDbEntity
  8
0
 62
     0
100
AcDbLine
 10
285.2565822925581
 20
35.74627461559852
 30
0.0
 11
285.2565822925581
 21
34.97266004105156
 31
0.0
  0
LINE
  5
743
330
6FB
100
AcDbEntity
  8
0
 62
     0
100
AcDbLine
 10
286.6565822925581
 20
35.74627461559852
 30
0.0
 11
286.6565822925581
 21
34.97266004105156
 31
0.0
  0
LINE
  5
744
330
6FB
100
AcDbEntity
  8
0
 62
     0
100
AcDbLine
 10
285.4365822925581
 20
35.15266004105156
 30
0.0
 11
285.6790822925581
 21
35.15266004105156
 31
0.0
  0
LINE
  5
745
330
6FB
100
AcDbEntity
  8
0
 62
     0
100
AcDbLine
 10
286.4765822925582
 20
35.15266004105156
 30
0.0
 11
286.2340822925581
 21
35.15266004105156
 31
0.0
  0
SOLID
  5
746
330
6FB
100
AcDbEntity
  8
0
 62
     0
100
AcDbTrace
 10
285.4365822925581
 20
35.18266004105156
 30
0.0
 11
285.4365822925581
 21
35.12266004105156
 31
0.0
 12
285.2565822925581
 22
35.15266004105156
 32
0.0
 13
285.2565822925581
 23
35.15266004105156
 33
0.0
  0
SOLID
  5
747
330
6FB
100
AcDbEntity
  8
0
 62
     0
100
AcDbTrace
 10
286.4765822925582
 20
35.18266004105156
 30
0.0
 11
286.4765822925582
 21
35.12266004105156
 31
0.0
 12
286.6565822925581
 22
35.15266004105156
 32
0.0
 13
286.6565822925581
 23
35.15266004105156
 33
0.0
  0
MTEXT
  5
748
330
6FB
100
AcDbEntity
  8
0
 62
     0
100
AcDbMText
 10
285.9565822925581
 20
35.15266004105156
 30
0.0
 40
0.15
 41
0.0
 71
     5
 72
     1
  1
\A1;1.40
1001
ACAD
1000
MTEXTBEGIN
1070
    73
1070
     1
1070
    44
1040
1.0
1070
    74
1070
     0
1000
MTEXTEND
1000
MTEXTBEGIN
1070
    73
1070
     1
1070
    44
1040
1.0
1070
    74
1070
     0
1000
MTEXTEND
  0
POINT
  5
749
330
6FB
100
AcDbEntity
  8
DEFPOINTS
 62
     0
100
AcDbPoint
 10
285.2565822925581
 20
35.80877461559852
 30
0.0
  0
POINT
  5
74A
330
6FB
100
AcDbEntity
  8
DEFPOINTS
 62
     0
100
AcDbPoint
 10
286.6565822925581
 20
35.80877461559852
 30
0.0
  0
POINT
  5
74B
330
6FB
100
AcDbEntity
  8
DEFPOINTS
 62
     0
100
AcDbPoint
 10
286.6565822925581
 20
35.15266004105156
 30
0.0
  0
ENDBLK
  5
707
330
6FB
100
AcDbEntity
  8
0
100
AcDbBlockEnd
  0
BLOCK
  5
714
330
709
100
AcDbEntity
  8
0
100
AcDbBlockBegin
  2
*D2
 70
     1
 10
0.0
 20
0.0
 30
0.0
  3
*D2
  1

  0
LINE
  5
720
330
709
100
AcDbEntity
  8
0
 62
     0
100
AcDbLine
 10
286.6565822925581
 20
36.09627461559852
 30
0.0
 11
286.6565822925581
 21
35.35767383790329
 31
0.0
  0
LINE
  5
721
330
709
100
AcDbEntity
  8
0
 62
     0
100
AcDbLine
 10
287.4565822925581
 20
36.09627461559852
 30
0.0
 11
287.4565822925581
 21
35.35767383790329
 31
0.0
  0
LINE
  5
722
330
709
100
AcDbEntity
  8
0
 62
     0
100
AcDbLine
 10
286.4765822925582
 20
35.53767383790329
 30
0.0
 11
286.2965822925581
 21
35.53767383790329
 31
0.0
  0
LINE
  5
723
330
709
100
AcDbEntity
  8
0
 62
     0
100
AcDbLine
 10
287.6365822925581
 20
35.53767383790329
 30
0.0
 11
287.8165822925581
 21
35.53767383790329
 31
0.0
  0
SOLID
  5
724
330
709
100
AcDbEntity
  8
0
 62
     0
100
AcDbTrace
 10
286.4765822925582
 20
35.56767383790329
 30
0.0
 11
286.4765822925582
 21
35.50767383790329
 31
0.0
 12
286.6565822925581
 22
35.53767383790329
 32
0.0
 13
286.6565822925581
 23
35.53767383790329
 33
0.0
  0
SOLID
  5
725
330
709
100
AcDbEntity
  8
0
 62
     0
100
AcDbTrace
 10
287.6365822925581
 20
35.56767383790329
 30
0.0
 11
287.6365822925581
 21
35.50767383790329
 31
0.0
 12
287.4565822925581
 22
35.53767383790329
 32
0.0
 13
287.4565822925581
 23
35.53767383790329
 33
0.0
  0
MTEXT
  5
726
330
709
100
AcDbEntity
  8
0
 62
     0
100
AcDbMText
 10
287.0860335530501
 20
35.53767383790329
 30
0.0
 40
0.15
 41
0.0
 71
     5
 72
     1
  1
\A1;0.80
1001
ACAD
1000
MTEXTBEGIN
1070
    73
1070
     1
1070
    44
1040
1.0
1070
    74
1070
     0
1000
MTEXTEND
1000
MTEXTBEGIN
1070
    73
1070
     1
1070
    44
1040
1.0
1070
    74
1070
     0
1000
MTEXTEND
  0
POINT
  5
727
330
709
100
AcDbEntity
  8
DEFPOINTS
 62
     0
100
AcDbPoint
 10
286.6565822925581
 20
36.15877461559852
 30
0.0
  0
POINT
  5
728
330
709
100
AcDbEntity
  8
DEFPOINTS
 62
     0
100
AcDbPoint
 10
287.4565822925581
 20
36.15877461559852
 30
0.0
  0
POINT
  5
729
330
709
100
AcDbEntity
  8
DEFPOINTS
 62
     0
100
AcDbPoint
 10
287.4565822925581
 20
35.53767383790329
 30
0.0
  0
ENDBLK
  5
715
330
709
100
AcDbEntity
  8
0
100
AcDbBlockEnd
  0
BLOCK
  5
736
330
72B
100
AcDbEntity
  8
0
100
AcDbBlockBegin
  2
*D3
 70
     1
 10
0.0
 20
0.0
 30
0.0
  3
*D3
  1

  0
LINE
  5
792
330
72B
100
AcDbEntity
  8
0
 62
     0
100
AcDbLine
 10
284.9565822925581
 20
36.09627461559852
 30
0.0
 11
284.9565822925581
 21
35.38032174899381
 31
0.0
  0
LINE
  5
793
330
72B
100
AcDbEntity
  8
0
 62
     0
100
AcDbLine
 10
285.2565822925581
 20
36.09627461559852
 30
0.0
 11
285.2565822925581
 21
35.38032174899381
 31
0.0
  0
LINE
  5
794
330
72B
100
AcDbEntity
  8
0
 62
     0
100
AcDbLine
 10
285.4365822925581
 20
35.56032174899381
 30
0.0
 11
285.6165822925581
 21
35.56032174899381
 31
0.0
  0
LINE
  5
795
330
72B
100
AcDbEntity
  8
0
 62
     0
100
AcDbLine
 10
284.7765822925581
 20
35.56032174899381
 30
0.0
 11
284.5965822925581
 21
35.56032174899381
 31
0.0
  0
SOLID
  5
796
330
72B
100
AcDbEntity
  8
0
 62
     0
100
AcDbTrace
 10
285.4365822925581
 20
35.5903217489938
 30
0.0
 11
285.4365822925581
 21
35.53032174899381
 31
0.0
 12
285.2565822925581
 22
35.56032174899381
 32
0.0
 13
285.2565822925581
 23
35.56032174899381
 33
0.0
  0
SOLID
  5
797
330
72B
100
AcDbEntity
  8
0
 62
     0
100
AcDbTrace
 10
284.7765822925581
 20
35.5903217489938
 30
0.0
 11
284.7765822925581
 21
35.53032174899381
 31
0.0
 12
284.9565822925581
 22
35.56032174899381
 32
0.0
 13
284.9565822925581
 23
35.56032174899381
 33
0.0
  0
MTEXT
  5
798
330
72B
100
AcDbEntity
  8
0
 62
     0
100
AcDbMText
 10
284.3065822925581
 20
35.56032174899381
 30
0.0
 40
0.15
 41
0.0
 71
     5
 72
     1
  1
\A1;0.30
1001
ACAD
1000
MTEXTBEGIN
1070
    73
1070
     1
1070
    44
1040
1.0
1070
    74
1070
     0
1000
MTEXTEND
1000
MTEXTBEGIN
1070
    73
1070
     1
1070
    44
1040
1.0
1070
    74
1070
     0
1000
MTEXTEND
  0
POINT
  5
799
330
72B
100
AcDbEntity
  8
DEFPOINTS
 62
     0
100
AcDbPoint
 10
284.9565822925581
 20
36.15877461559852
 30
0.0
  0
POINT
  5
79A
330
72B
100
AcDbEntity
  8
DEFPOINTS
 62
     0
100
AcDbPoint
 10
285.2565822925581
 20
36.15877461559852
 30
0.0
  0
POINT
  5
79B
330
72B
100
AcDbEntity
  8
DEFPOINTS
 62
     0
100
AcDbPoint
 10
285.2565822925581
 20
35.56032174899381
 30
0.0
  0
ENDBLK
  5
737
330
72B
100
AcDbEntity
  8
0
100
AcDbBlockEnd
  0
BLOCK
  5
7A8
330
79D
100
AcDbEntity
  8
0
100
AcDbBlockBegin
  2
*D4
 70
     1
 10
0.0
 20
0.0
 30
0.0
  3
*D4
  1

  0
LINE
  5
7C2
330
79D
100
AcDbEntity
  8
0
 62
     0
100
AcDbLine
 10
286.7190822925582
 20
35.80877461559852
 30
0.0
 11
288.1026288223378
 21
35.80877461559852
 31
0.0
  0
LINE
  5
7C3
330
79D
100
AcDbEntity
  8
0
 62
     0
100
AcDbLine
 10
286.7190822925582
 20
36.15877461559852
 30
0.0
 11
288.1026288223378
 21
36.15877461559852
 31
0.0
  0
LINE
  5
7C4
330
79D
100
AcDbEntity
  8
0
 62
     0
100
AcDbLine
 10
287.9226288223378
 20
35.62877461559852
 30
0.0
 11
287.9226288223378
 21
35.44877461559852
 31
0.0
  0
LINE
  5
7C5
330
79D
100
AcDbEntity
  8
0
 62
     0
100
AcDbLine
 10
287.9226288223378
 20
36.33877461559852
 30
0.0
 11
287.9226288223378
 21
36.51877461559852
 31
0.0
  0
SOLID
  5
7C6
330
79D
100
AcDbEntity
  8
0
 62
     0
100
AcDbTrace
 10
287.892628822338
 20
35.62877461559852
 30
0.0
 11
287.9526288223378
 21
35.62877461559852
 31
0.0
 12
287.9226288223378
 22
35.80877461559852
 32
0.0
 13
287.9226288223378
 23
35.80877461559852
 33
0.0
  0
SOLID
  5
7C7
330
79D
100
AcDbEntity
  8
0
 62
     0
100
AcDbTrace
 10
287.892628822338
 20
36.33877461559852
 30
0.0
 11
287.9526288223378
 21
36.33877461559852
 31
0.0
 12
287.9226288223378
 22
36.15877461559852
 32
0.0
 13
287.9226288223378
 23
36.15877461559852
 33
0.0
  0
MTEXT
  5
7C8
330
79D
100
AcDbEntity
  8
0
 62
     0
100
AcDbMText
 10
287.9226288223378
 20
35.98377461559858
 30
0.0
 40
0.15
 41
0.0
 71
     5
 72
     1
  1
\A1;0.35
1001
ACAD
1000
MTEXTBEGIN
1070
    73
1070
     1
1070
    44
1040
1.0
1070
    74
1070
     0
1000
MTEXTEND
1000
MTEXTBEGIN
1070
    73
1070
     1
1070
    44
1040
1.0
1070
    74
1070
     0
1000
MTEXTEND
  0
POINT
  5
7C9
330
79D
100
AcDbEntity
  8
DEFPOINTS
 62
     0
100
AcDbPoint
 10
286.6565822925581
 20
35.80877461559852
 30
0.0
  0
POINT
  5
7CA
330
79D
100
AcDbEntity
  8
DEFPOINTS
 62
     0
100
AcDbPoint
 10
286.6565822925581
 20
36.15877461559852
 30
0.0
  0
POINT
  5
7CB
330
79D
100
AcDbEntity
  8
DEFPOINTS
 62
     0
100
AcDbPoint
 10
287.9226288223378
 20
36.15877461559852
 30
0.0
  0
ENDBLK
  5
7A9
330
79D
100
AcDbEntity
  8
0
100
AcDbBlockEnd
  0
BLOCK
  5
7B6
330
7AB
100
AcDbEntity
  8
0
100
AcDbBlockBegin
  2
*D5
 70
     1
 10
0.0
 20
0.0
 30
0.0
  3
*D5
  1

  0
LINE
  5
7EA
330
7AB
100
AcDbEntity
  8
0
 62
     0
100
AcDbLine
 10
286.7190822925582
 20
35.80877461559852
 30
0.0
 11
288.5357933706393
 21
35.80877461559852
 31
0.0
  0
LINE
  5
7EB
330
7AB
100
AcDbEntity
  8
0
 62
     0
100
AcDbLine
 10
287.5190822925581
 20
37.80877461559852
 30
0.0
 11
288.5357933706393
 21
37.80877461559852
 31
0.0
  0
LINE
  5
7EC
330
7AB
100
AcDbEntity
  8
0
 62
     0
100
AcDbLine
 10
288.3557933706393
 20
35.98877461559852
 30
0.0
 11
288.3557933706393
 21
36.756024642273
 31
0.0
  0
LINE
  5
7ED
330
7AB
100
AcDbEntity
  8
0
 62
     0
100
AcDbLine
 10
288.3557933706393
 20
37.62877461559852
 30
0.0
 11
288.3557933706393
 21
37.086024642273
 31
0.0
  0
SOLID
  5
7EE
330
7AB
100
AcDbEntity
  8
0
 62
     0
100
AcDbTrace
 10
288.3257933706392
 20
35.98877461559852
 30
0.0
 11
288.3857933706392
 21
35.98877461559852
 31
0.0
 12
288.3557933706393
 22
35.80877461559852
 32
0.0
 13
288.3557933706393
 23
35.80877461559852
 33
0.0
  0
SOLID
  5
7EF
330
7AB
100
AcDbEntity
  8
0
 62
     0
100
AcDbTrace
 10
288.3257933706392
 20
37.62877461559852
 30
0.0
 11
288.3857933706392
 21
37.62877461559852
 31
0.0
 12
288.3557933706393
 22
37.80877461559852
 32
0.0
 13
288.3557933706393
 23
37.80877461559852
 33
0.0
  0
MTEXT
  5
7F0
330
7AB
100
AcDbEntity
  8
0
 62
     0
100
AcDbMText
 10
288.3557933706393
 20
36.92102464227307
 30
0.0
 40
0.15
 41
0.0
 71
     5
 72
     1
  1
\A1;2.00
1001
ACAD
1000
MTEXTBEGIN
1070
    73
1070
     1
1070
    44
1040
1.0
1070
    74
1070
     0
1000
MTEXTEND
1000
MTEXTBEGIN
1070
    73
1070
     1
1070
    44
1040
1.0
1070
    74
1070
     0
1000
MTEXTEND
  0
POINT
  5
7F1
330
7AB
100
AcDbEntity
  8
DEFPOINTS
 62
     0
100
AcDbPoint
 10
286.6565822925581
 20
35.80877461559852
 30
0.0
  0
POINT
  5
7F2
330
7AB
100
AcDbEntity
  8
DEFPOINTS
 62
     0
100
AcDbPoint
 10
287.4565822925581
 20
37.80877461559852
 30
0.0
  0
POINT
  5
7F3
330
7AB
100
AcDbEntity
  8
DEFPOINTS
 62
     0
100
AcDbPoint
 10
288.3557933706393
 20
37.80877461559852
 30
0.0
  0
ENDBLK
  5
7B7
330
7AB
100
AcDbEntity
  8
0
100
AcDbBlockEnd
  0
BLOCK
  5
813
330
808
100
AcDbEntity
  8
0
100
AcDbBlockBegin
  2
*D6
 70
     1
 10
0.0
 20
0.0
 30
0.0
  3
*D6
  1

  0
LINE
  5
809
330
808
100
AcDbEntity
  8
0
 62
     0
100
AcDbLine
 10
284.2333973766053
 20
37.50503734917494
 30
0.0
 11
284.2333973766053
 21
38.0762613258591
 31
0.0
  0
LINE
  5
80A
330
808
100
AcDbEntity
  8
0
 62
     0
100
AcDbLine
 10
288.3333973766053
 20
37.50503734917494
 30
0.0
 11
288.3333973766053
 21
38.0762613258591
 31
0.0
  0
LINE
  5
80B
330
808
100
AcDbEntity
  8
0
 62
     0
100
AcDbLine
 10
284.4133973766053
 20
37.8962613258591
 30
0.0
 11
286.0058973766054
 21
37.8962613258591
 31
0.0
  0
LINE
  5
80C
330
808
100
AcDbEntity
  8
0
 62
     0
100
AcDbLine
 10
288.1533973766053
 20
37.8962613258591
 30
0.0
 11
286.5608973766054
 21
37.8962613258591
 31
0.0
  0
SOLID
  5
80D
330
808
100
AcDbEntity
  8
0
 62
     0
100
AcDbTrace
 10
284.4133973766053
 20
37.9262613258591
 30
0.0
 11
284.4133973766053
 21
37.8662613258591
 31
0.0
 12
284.2333973766053
 22
37.8962613258591
 32
0.0
 13
284.2333973766053
 23
37.8962613258591
 33
0.0
  0
SOLID
  5
80E
330
808
100
AcDbEntity
  8
0
 62
     0
100
AcDbTrace
 10
288.1533973766053
 20
37.9262613258591
 30
0.0
 11
288.1533973766053
 21
37.8662613258591
 31
0.0
 12
288.3333973766053
 22
37.8962613258591
 32
0.0
 13
288.3333973766053
 23
37.8962613258591
 33
0.0
  0
MTEXT
  5
80F
330
808
100
AcDbEntity
  8
0
 62
     0
100
AcDbMText
 10
286.2833973766053
 20
37.8962613258591
 30
0.0
 40
0.15
 41
0.0
 71
     5
 72
     1
  1
\A1;4.10
1001
ACAD
1000
MTEXTBEGIN
1070
    73
1070
     1
1070
    44
1040
1.0
1070
    74
1070
     0
1000
MTEXTEND
1000
MTEXTBEGIN
1070
    73
1070
     1
1070
    44
1040
1.0
1070
    74
1070
     0
1000
MTEXTEND
  0
POINT
  5
810
330
808
100
AcDbEntity
  8
DEFPOINTS
 62
     0
100
AcDbPoint
 10
284.2333973766053
 20
37.44253734917494
 30
0.0
  0
POINT
  5
811
330
808
100
AcDbEntity
  8
DEFPOINTS
 62
     0
100
AcDbPoint
 10
288.3333973766053
 20
37.44253734917494
 30
0.0
  0
POINT
  5
812
330
808
100
AcDbEntity
  8
DEFPOINTS
 62
     0
100
AcDbPoint
 10
288.3333973766053
 20
37.8962613258591
 30
0.0
  0
ENDBLK
  5
814
330
808
100
AcDbEntity
  8
0
100
AcDbBlockEnd
  0
BLOCK
  5
821
330
816
100
AcDbEntity
  8
0
100
AcDbBlockBegin
  2
*D7
 70
     1
 10
0.0
 20
0.0
 30
0.0
  3
*D7
  1

  0
LINE
  5
817
330
816
100
AcDbEntity
  8
0
 62
     0
100
AcDbLine
 10
288.3958973766053
 20
37.44253734917494
 30
0.0
 11
289.4320146900783
 21
37.44253734917494
 31
0.0
  0
LINE
  5
818
330
816
100
AcDbEntity
  8
0
 62
     0
100
AcDbLine
 10
288.3958973766053
 20
36.44253734917494
 30
0.0
 11
289.4320146900783
 21
36.44253734917494
 31
0.0
  0
LINE
  5
819
330
816
100
AcDbEntity
  8
0
 62
     0
100
AcDbLine
 10
289.2520146900784
 20
37.26253734917494
 30
0.0
 11
289.2520146900784
 21
37.10753734917494
 31
0.0
  0
LINE
  5
81A
330
816
100
AcDbEntity
  8
0
 62
     0
100
AcDbLine
 10
289.2520146900784
 20
36.62253734917494
 30
0.0
 11
289.2520146900784
 21
36.77753734917493
 31
0.0
  0
SOLID
  5
81B
330
816
100
AcDbEntity
  8
0
 62
     0
100
AcDbTrace
 10
289.2220146900783
 20
37.26253734917494
 30
0.0
 11
289.2820146900783
 21
37.26253734917494
 31
0.0
 12
289.2520146900784
 22
37.44253734917494
 32
0.0
 13
289.2520146900784
 23
37.44253734917494
 33
0.0
  0
SOLID
  5
81C
330
816
100
AcDbEntity
  8
0
 62
     0
100
AcDbTrace
 10
289.2220146900783
 20
36.62253734917494
 30
0.0
 11
289.2820146900783
 21
36.62253734917494
 31
0.0
 12
289.2520146900784
 22
36.44253734917494
 32
0.0
 13
289.2520146900784
 23
36.44253734917494
 33
0.0
  0
MTEXT
  5
81D
330
816
100
AcDbEntity
  8
0
 62
     0
100
AcDbMText
 10
289.2520146900784
 20
36.94253734917499
 30
0.0
 40
0.15
 41
0.0
 71
     5
 72
     1
  1
\A1;1.00
1001
ACAD
1000
MTEXTBEGIN
1070
    73
1070
     1
1070
    44
1040
1.0
1070
    74
1070
     0
1000
MTEXTEND
1000
MTEXTBEGIN
1070
    73
1070
     1
1070
    44
1040
1.0
1070
    74
1070
     0
1000
MTEXTEND
  0
POINT
  5
81E
330
816
100
AcDbEntity
  8
DEFPOINTS
 62
     0
100
AcDbPoint
 10
288.3333973766053
 20
37.44253734917494
 30
0.0
  0
POINT
  5
81F
330
816
100
AcDbEntity
  8
DEFPOINTS
 62
     0
100
AcDbPoint
 10
288.3333973766053
 20
36.44253734917494
 30
0.0
  0
POINT
  5
820
330
816
100
AcDbEntity
  8
DEFPOINTS
 62
     0
100
AcDbPoint
 10
289.2520146900784
 20
36.44253734917494
 30
0.0
  0
ENDBLK
  5
822
330
816
100
AcDbEntity
  8
0
100
AcDbBlockEnd
  0
BLOCK
  5
8AB
330
8A0
100
AcDbEntity
  8
0
100
AcDbBlockBegin
  2
*D8
 70
     1
 10
0.0
 20
0.0
 30
0.0
  3
*D8
  1

  0
LINE
  5
8A1
330
8A0
100
AcDbEntity
  8
0
 62
     0
100
AcDbLine
 10
283.2124288513296
 20
37.24237121938537
 30
0.0
 11
283.2124288513296
 21
33.09353736926836
 31
0.0
  0
LINE
  5
8A2
330
8A0
100
AcDbEntity
  8
0
 62
     0
100
AcDbLine
 10
290.5624288513296
 20
37.24237121938537
 30
0.0
 11
290.5624288513296
 21
33.09353736926836
 31
0.0
  0
LINE
  5
8A3
330
8A0
100
AcDbEntity
  8
0
 62
     0
100
AcDbLine
 10
283.3924288513296
 20
33.27353736926836
 30
0.0
 11
286.5724288513296
 21
33.27353736926836
 31
0.0
  0
LINE
  5
8A4
330
8A0
100
AcDbEntity
  8
0
 62
     0
100
AcDbLine
 10
290.3824288513296
 20
33.27353736926836
 30
0.0
 11
287.2024288513296
 21
33.27353736926836
 31
0.0
  0
SOLID
  5
8A5
330
8A0
100
AcDbEntity
  8
0
 62
     0
100
AcDbTrace
 10
283.3924288513296
 20
33.30353736926836
 30
0.0
 11
283.3924288513296
 21
33.24353736926836
 31
0.0
 12
283.2124288513296
 22
33.27353736926836
 32
0.0
 13
283.2124288513296
 23
33.27353736926836
 33
0.0
  0
SOLID
  5
8A6
330
8A0
100
AcDbEntity
  8
0
 62
     0
100
AcDbTrace
 10
290.3824288513296
 20
33.30353736926836
 30
0.0
 11
290.3824288513296
 21
33.24353736926836
 31
0.0
 12
290.5624288513296
 22
33.27353736926836
 32
0.0
 13
290.5624288513296
 23
33.27353736926836
 33
0.0
  0
MTEXT
  5
8A7
330
8A0
100
AcDbEntity
  8
0
 62
     0
100
AcDbMText
 10
286.8874288513296
 20
33.27353736926836
 30
0.0
 40
0.15
 41
0.0
 71
     5
 72
     1
  1
\A1;7.35
1001
ACAD
1000
MTEXTBEGIN
1070
    73
1070
     1
1070
    44
1040
1.0
1070
    74
1070
     0
1000
MTEXTEND
1000
MTEXTBEGIN
1070
    73
1070
     1
1070
    44
1040
1.0
1070
    74
1070
     0
1000
MTEXTEND
  0
POINT
  5
8A8
330
8A0
100
AcDbEntity
  8
DEFPOINTS
 62
     0
100
AcDbPoint
 10
283.2124288513296
 20
37.30487121938537
 30
0.0
  0
POINT
  5
8A9
330
8A0
100
AcDbEntity
  8
DEFPOINTS
 62
     0
100
AcDbPoint
 10
290.5624288513296
 20
37.30487121938537
 30
0.0
  0
POINT
  5
8AA
330
8A0
100
AcDbEntity
  8
DEFPOINTS
 62
     0
100
AcDbPoint
 10
290.5624288513296
 20
33.27353736926836
 30
0.0
  0
ENDBLK
  5
8AC
330
8A0
100
AcDbEntity
  8
0
100
AcDbBlockEnd
  0
BLOCK
  5
8B9
330
8AE
100
AcDbEntity
  8
0
100
AcDbBlockBegin
  2
*D9
 70
     1
 10
0.0
 20
0.0
 30
0.0
  3
*D9
  1

  0
LINE
  5
8AF
330
8AE
100
AcDbEntity
  8
0
 62
     0
100
AcDbLine
 10
283.2124288513296
 20
35.49237121938537
 30
0.0
 11
283.2124288513296
 21
33.87083944088507
 31
0.0
  0
LINE
  5
8B0
330
8AE
100
AcDbEntity
  8
0
 62
     0
100
AcDbLine
 10
284.5624288513296
 20
35.49237121938537
 30
0.0
 11
284.5624288513296
 21
33.87083944088507
 31
0.0
  0
LINE
  5
8B1
330
8AE
100
AcDbEntity
  8
0
 62
     0
100
AcDbLine
 10
283.3924288513296
 20
34.05083944088508
 30
0.0
 11
283.5974288513296
 21
34.05083944088508
 31
0.0
  0
LINE
  5
8B2
330
8AE
100
AcDbEntity
  8
0
 62
     0
100
AcDbLine
 10
284.3824288513296
 20
34.05083944088508
 30
0.0
 11
284.1774288513296
 21
34.05083944088508
 31
0.0
  0
SOLID
  5
8B3
330
8AE
100
AcDbEntity
  8
0
 62
     0
100
AcDbTrace
 10
283.3924288513296
 20
34.08083944088508
 30
0.0
 11
283.3924288513296
 21
34.02083944088508
 31
0.0
 12
283.2124288513296
 22
34.05083944088508
 32
0.0
 13
283.2124288513296
 23
34.05083944088508
 33
0.0
  0
SOLID
  5
8B4
330
8AE
100
AcDbEntity
  8
0
 62
     0
100
AcDbTrace
 10
284.3824288513296
 20
34.08083944088508
 30
0.0
 11
284.3824288513296
 21
34.02083944088508
 31
0.0
 12
284.5624288513296
 22
34.05083944088508
 32
0.0
 13
284.5624288513296
 23
34.05083944088508
 33
0.0
  0
MTEXT
  5
8B5
330
8AE
100
AcDbEntity
  8
0
 62
     0
100
AcDbMText
 10
283.8874288513297
 20
34.05083944088508
 30
0.0
 40
0.15
 41
0.0
 71
     5
 72
     1
  1
\A1;1.35
1001
ACAD
1000
MTEXTBEGIN
1070
    73
1070
     1
1070
    44
1040
1.0
1070
    74
1070
     0
1000
MTEXTEND
1000
MTEXTBEGIN
1070
    73
1070
     1
1070
    44
1040
1.0
1070
    74
1070
     0
1000
MTEXTEND
  0
POINT
  5
8B6
330
8AE
100
AcDbEntity
  8
DEFPOINTS
 62
     0
100
AcDbPoint
 10
283.2124288513296
 20
35.55487121938536
 30
0.0
  0
POINT
  5
8B7
330
8AE
100
AcDbEntity
  8
DEFPOINTS
 62
     0
100
AcDbPoint
 10
284.5624288513296
 20
35.55487121938536
 30
0.0
  0
POINT
  5
8B8
330
8AE
100
AcDbEntity
  8
DEFPOINTS
 62
     0
100
AcDbPoint
 10
284.5624288513296
 20
34.05083944088508
 30
0.0
  0
ENDBLK
  5
8BA
330
8AE
100
AcDbEntity
  8
0
100
AcDbBlockEnd
  0
BLOCK
  5
8C7
330
8BC
100
AcDbEntity
  8
0
100
AcDbBlockBegin
  2
*D10
 70
     1
 10
0.0
 20
0.0
 30
0.0
  3
*D10
  1

  0
LINE
  5
8BD
330
8BC
100
AcDbEntity
  8
0
 62
     0
100
AcDbLine
 10
284.5624288513296
 20
34.99237121938536
 30
0.0
 11
284.5624288513296
 21
34.07731032565774
 31
0.0
  0
LINE
  5
8BE
330
8BC
100
AcDbEntity
  8
0
 62
     0
100
AcDbLine
 10
290.5624288513296
 20
35.99237121938537
 30
0.0
 11
290.5624288513296
 21
34.07731032565774
 31
0.0
  0
LINE
  5
8BF
330
8BC
100
AcDbEntity
  8
0
 62
     0
100
AcDbLine
 10
284.7424288513296
 20
34.25731032565774
 30
0.0
 11
287.2724288513296
 21
34.25731032565774
 31
0.0
  0
LINE
  5
8C0
330
8BC
100
AcDbEntity
  8
0
 62
     0
100
AcDbLine
 10
290.3824288513296
 20
34.25731032565774
 30
0.0
 11
287.8524288513295
 21
34.25731032565774
 31
0.0
  0
SOLID
  5
8C1
330
8BC
100
AcDbEntity
  8
0
 62
     0
100
AcDbTrace
 10
284.7424288513296
 20
34.28731032565774
 30
0.0
 11
284.7424288513296
 21
34.22731032565774
 31
0.0
 12
284.5624288513296
 22
34.25731032565774
 32
0.0
 13
284.5624288513296
 23
34.25731032565774
 33
0.0
  0
SOLID
  5
8C2
330
8BC
100
AcDbEntity
  8
0
 62
     0
100
AcDbTrace
 10
290.3824288513296
 20
34.28731032565774
 30
0.0
 11
290.3824288513296
 21
34.22731032565774
 31
0.0
 12
290.5624288513296
 22
34.25731032565774
 32
0.0
 13
290.5624288513296
 23
34.25731032565774
 33
0.0
  0
MTEXT
  5
8C3
330
8BC
100
AcDbEntity
  8
0
 62
     0
100
AcDbMText
 10
287.5624288513296
 20
34.25731032565774
 30
0.0
 40
0.15
 41
0.0
 71
     5
 72
     1
  1
\A1;6.00
1001
ACAD
1000
MTEXTBEGIN
1070
    73
1070
     1
1070
    44
1040
1.0
1070
    74
1070
     0
1000
MTEXTEND
1000
MTEXTBEGIN
1070
    73
1070
     1
1070
    44
1040
1.0
1070
    74
1070
     0
1000
MTEXTEND
  0
POINT
  5
8C4
330
8BC
100
AcDbEntity
  8
DEFPOINTS
 62
     0
100
AcDbPoint
 10
284.5624288513296
 20
35.05487121938537
 30
0.0
  0
POINT
  5
8C5
330
8BC
100
AcDbEntity
  8
DEFPOINTS
 62
     0
100
AcDbPoint
 10
290.5624288513296
 20
36.05487121938537
 30
0.0
  0
POINT
  5
8C6
330
8BC
100
AcDbEntity
  8
DEFPOINTS
 62
     0
100
AcDbPoint
 10
290.5624288513296
 20
34.25731032565774
 30
0.0
  0
ENDBLK
  5
8C8
330
8BC
100
AcDbEntity
  8
0
100
AcDbBlockEnd
  0
BLOCK
  5
8D5
330
8CA
100
AcDbEntity
  8
0
100
AcDbBlockBegin
  2
*D11
 70
     1
 10
0.0
 20
0.0
 30
0.0
  3
*D11
  1

  0
LINE
  5
8CB
330
8CA
100
AcDbEntity
  8
0
 62
     0
100
AcDbLine
 10
284.4999288513296
 20
35.05487121938537
 30
0.0
 11
282.502832391693
 21
35.05487121938537
 31
0.0
  0
LINE
  5
8CC
330
8CA
100
AcDbEntity
  8
0
 62
     0
100
AcDbLine
 10
284.4999288513296
 20
35.55487121938536
 30
0.0
 11
282.502832391693
 21
35.55487121938536
 31
0.0
  0
LINE
  5
8CD
330
8CA
100
AcDbEntity
  8
0
 62
     0
100
AcDbLine
 10
282.6828323916929
 20
34.87487121938537
 30
0.0
 11
282.6828323916929
 21
34.69487121938537
 31
0.0
  0
LINE
  5
8CE
330
8CA
100
AcDbEntity
  8
0
 62
     0
100
AcDbLine
 10
282.6828323916929
 20
35.73487121938537
 30
0.0
 11
282.6828323916929
 21
35.91487121938536
 31
0.0
  0
SOLID
  5
8CF
330
8CA
100
AcDbEntity
  8
0
 62
     0
100
AcDbTrace
 10
282.6528323916929
 20
34.87487121938537
 30
0.0
 11
282.7128323916928
 21
34.87487121938537
 31
0.0
 12
282.6828323916929
 22
35.05487121938537
 32
0.0
 13
282.6828323916929
 23
35.05487121938537
 33
0.0
  0
SOLID
  5
8D0
330
8CA
100
AcDbEntity
  8
0
 62
     0
100
AcDbTrace
 10
282.6528323916929
 20
35.73487121938537
 30
0.0
 11
282.7128323916928
 21
35.73487121938537
 31
0.0
 12
282.6828323916929
 22
35.55487121938536
 32
0.0
 13
282.6828323916929
 23
35.55487121938536
 33
0.0
  0
MTEXT
  5
8D1
330
8CA
100
AcDbEntity
  8
0
 62
     0
100
AcDbMText
 10
282.6828323916929
 20
35.3048712193854
 30
0.0
 40
0.15
 41
0.0
 71
     5
 72
     1
  1
\A1;0.50
1001
ACAD
1000
MTEXTBEGIN
1070
    73
1070
     1
1070
    44
1040
1.0
1070
    74
1070
     0
1000
MTEXTEND
1000
MTEXTBEGIN
1070
    73
1070
     1
1070
    44
1040
1.0
1070
    74
1070
     0
1000
MTEXTEND
  0
POINT
  5
8D2
330
8CA
100
AcDbEntity
  8
DEFPOINTS
 62
     0
100
AcDbPoint
 10
284.5624288513296
 20
35.05487121938537
 30
0.0
  0
POINT
  5
8D3
330
8CA
100
AcDbEntity
  8
DEFPOINTS
 62
     0
100
AcDbPoint
 10
284.5624288513296
 20
35.55487121938536
 30
0.0
  0
POINT
  5
8D4
330
8CA
100
AcDbEntity
  8
DEFPOINTS
 62
     0
100
AcDbPoint
 10
282.6828323916929
 20
35.55487121938536
 30
0.0
  0
ENDBLK
  5
8D6
330
8CA
100
AcDbEntity
  8
0
100
AcDbBlockEnd
  0
BLOCK
  5
908
330
8FD
100
AcDbEntity
  8
0
100
AcDbBlockBegin
  2
*D12
 70
     1
 10
0.0
 20
0.0
 30
0.0
  3
*D12
  1

  0
LINE
  5
8FE
330
8FD
100
AcDbEntity
  8
0
 62
     0
100
AcDbLine
 10
284.5099288513296
 20
35.06487121938537
 30
0.0
 11
281.6279635591389
 21
35.06487121938537
 31
0.0
  0
LINE
  5
8FF
330
8FD
100
AcDbEntity
  8
0
 62
     0
100
AcDbLine
 10
283.1399288513296
 20
37.31487121938537
 30
0.0
 11
281.6279635591389
 21
37.31487121938537
 31
0.0
  0
LINE
  5
900
330
8FD
100
AcDbEntity
  8
0
 62
     0
100
AcDbLine
 10
281.807963559139
 20
35.24487121938536
 30
0.0
 11
281.807963559139
 21
36.02487121938537
 31
0.0
  0
LINE
  5
901
330
8FD
100
AcDbEntity
  8
0
 62
     0
100
AcDbLine
 10
281.807963559139
 20
37.13487121938536
 30
0.0
 11
281.807963559139
 21
36.35487121938536
 31
0.0
  0
SOLID
  5
902
330
8FD
100
AcDbEntity
  8
0
 62
     0
100
AcDbTrace
 10
281.7779635591389
 20
35.24487121938536
 30
0.0
 11
281.8379635591388
 21
35.24487121938536
 31
0.0
 12
281.807963559139
 22
35.06487121938537
 32
0.0
 13
281.807963559139
 23
35.06487121938537
 33
0.0
  0
SOLID
  5
903
330
8FD
100
AcDbEntity
  8
0
 62
     0
100
AcDbTrace
 10
281.7779635591389
 20
37.13487121938536
 30
0.0
 11
281.8379635591388
 21
37.13487121938536
 31
0.0
 12
281.807963559139
 22
37.31487121938537
 32
0.0
 13
281.807963559139
 23
37.31487121938537
 33
0.0
  0
MTEXT
  5
904
330
8FD
100
AcDbEntity
  8
0
 62
     0
100
AcDbMText
 10
281.807963559139
 20
36.18987121938542
 30
0.0
 40
0.15
 41
0.0
 71
     5
 72
     1
  1
\A1;2.25
1001
ACAD
1000
MTEXTBEGIN
1070
    73
1070
     1
1070
    44
1040
1.0
1070
    74
1070
     0
1000
MTEXTEND
1000
MTEXTBEGIN
1070
    73
1070
     1
1070
    44
1040
1.0
1070
    74
1070
     0
1000
MTEXTEND
  0
POINT
  5
905
330
8FD
100
AcDbEntity
  8
DEFPOINTS
 62
     0
100
AcDbPoint
 10
284.5724288513297
 20
35.06487121938537
 30
0.0
  0
POINT
  5
906
330
8FD
100
AcDbEntity
  8
DEFPOINTS
 62
     0
100
AcDbPoint
 10
283.2024288513295
 20
37.31487121938537
 30
0.0
  0
POINT
  5
907
330
8FD
100
AcDbEntity
  8
DEFPOINTS
 62
     0
100
AcDbPoint
 10
281.807963559139
 20
37.31487121938537
 30
0.0
  0
ENDBLK
  5
909
330
8FD
100
AcDbEntity
  8
0
100
AcDbBlockEnd
  0
BLOCK
  5
967
330
95C
100
AcDbEntity
  8
0
100
AcDbBlockBegin
  2
*D13
 70
     1
 10
0.0
 20
0.0
 30
0.0
  3
*D13
  1

  0
LINE
  5
95D
330
95C
100
AcDbEntity
  8
0
 62
     0
100
AcDbLine
 10
293.2995322865788
 20
38.84035033531306
 30
0.0
 11
303.0176472994753
 21
38.84035033531306
 31
0.0
  0
LINE
  5
95E
330
95C
100
AcDbEntity
  8
0
 62
     0
100
AcDbLine
 10
293.2995322865788
 20
6.75
 30
0.0
 11
303.0176472994753
 21
6.749999999999996
 31
0.0
  0
LINE
  5
95F
330
95C
100
AcDbEntity
  8
0
 62
     0
100
AcDbLine
 10
302.8376472994752
 20
38.66035033531306
 30
0.0
 11
302.8376472994752
 21
22.96017516765652
 31
0.0
  0
LINE
  5
960
330
95C
100
AcDbEntity
  8
0
 62
     0
100
AcDbLine
 10
302.8376472994752
 20
6.929999999999996
 30
0.0
 11
302.8376472994752
 21
22.63017516765652
 31
0.0
  0
SOLID
  5
961
330
95C
100
AcDbEntity
  8
0
 62
     0
100
AcDbTrace
 10
302.8076472994753
 20
38.66035033531306
 30
0.0
 11
302.8676472994752
 21
38.66035033531306
 31
0.0
 12
302.8376472994752
 22
38.84035033531306
 32
0.0
 13
302.8376472994752
 23
38.84035033531306
 33
0.0
  0
SOLID
  5
962
330
95C
100
AcDbEntity
  8
0
 62
     0
100
AcDbTrace
 10
302.8076472994753
 20
6.929999999999996
 30
0.0
 11
302.8676472994752
 21
6.929999999999996
 31
0.0
 12
302.8376472994752
 22
6.749999999999996
 32
0.0
 13
302.8376472994752
 23
6.749999999999996
 33
0.0
  0
MTEXT
  5
963
330
95C
100
AcDbEntity
  8
0
 62
     0
100
AcDbMText
 10
302.8376472994752
 20
22.79517516765657
 30
0.0
 40
0.15
 41
0.0
 71
     5
 72
     1
  1
\A1;32.09
1001
ACAD
1000
MTEXTBEGIN
1070
    73
1070
     1
1070
    44
1040
1.0
1070
    74
1070
     0
1000
MTEXTEND
  0
POINT
  5
964
330
95C
100
AcDbEntity
  8
DEFPOINTS
 62
     0
100
AcDbPoint
 10
293.2370322865788
 20
38.84035033531306
 30
0.0
  0
POINT
  5
965
330
95C
100
AcDbEntity
  8
DEFPOINTS
 62
     0
100
AcDbPoint
 10
293.2370322865788
 20
6.75
 30
0.0
  0
POINT
  5
966
330
95C
100
AcDbEntity
  8
DEFPOINTS
 62
     0
100
AcDbPoint
 10
302.8376472994752
 20
6.749999999999996
 30
0.0
  0
ENDBLK
  5
968
330
95C
100
AcDbEntity
  8
0
100
AcDbBlockEnd
  0
BLOCK
  5
97E
330
973
100
AcDbEntity
  8
0
100
AcDbBlockBegin
  2
*D14
 70
     1
 10
0.0
 20
0.0
 30
0.0
  3
*D14
  1

  0
LINE
  5
974
330
973
100
AcDbEntity
  8
0
 62
     0
100
AcDbLine
 10
283.2484422327684
 20
37.13456437479819
 30
0.0
 11
283.2484422327684
 21
33.29055771688469
 31
0.0
  0
LINE
  5
975
330
973
100
AcDbEntity
  8
0
 62
     0
100
AcDbLine
 10
289.9984422327684
 20
37.13456437479819
 30
0.0
 11
289.9984422327684
 21
33.29055771688469
 31
0.0
  0
LINE
  5
976
330
973
100
AcDbEntity
  8
0
 62
     0
100
AcDbLine
 10
283.4284422327684
 20
33.4705577168847
 30
0.0
 11
286.3084422327684
 21
33.4705577168847
 31
0.0
  0
LINE
  5
977
330
973
100
AcDbEntity
  8
0
 62
     0
100
AcDbLine
 10
289.8184422327684
 20
33.4705577168847
 30
0.0
 11
286.9384422327684
 21
33.4705577168847
 31
0.0
  0
SOLID
  5
978
330
973
100
AcDbEntity
  8
0
 62
     0
100
AcDbTrace
 10
283.4284422327684
 20
33.5005577168847
 30
0.0
 11
283.4284422327684
 21
33.4405577168847
 31
0.0
 12
283.2484422327684
 22
33.4705577168847
 32
0.0
 13
283.2484422327684
 23
33.4705577168847
 33
0.0
  0
SOLID
  5
979
330
973
100
AcDbEntity
  8
0
 62
     0
100
AcDbTrace
 10
289.8184422327684
 20
33.5005577168847
 30
0.0
 11
289.8184422327684
 21
33.4405577168847
 31
0.0
 12
289.9984422327684
 22
33.4705577168847
 32
0.0
 13
289.9984422327684
 23
33.4705577168847
 33
0.0
  0
MTEXT
  5
97A
330
973
100
AcDbEntity
  8
0
 62
     0
100
AcDbMText
 10
286.6234422327684
 20
33.4705577168847
 30
0.0
 40
0.15
 41
0.0
 71
     5
 72
     1
  1
\A1;6.75
1001
ACAD
1000
MTEXTBEGIN
1070
    73
1070
     1
1070
    44
1040
1.0
1070
    74
1070
     0
1000
MTEXTEND
  0
POINT
  5
97B
330
973
100
AcDbEntity
  8
DEFPOINTS
 62
     0
100
AcDbPoint
 10
283.2484422327684
 20
37.19706437479819
 30
0.0
  0
POINT
  5
97C
330
973
100
AcDbEntity
  8
DEFPOINTS
 62
     0
100
AcDbPoint
 10
289.9984422327684
 20
37.19706437479819
 30
0.0
  0
POINT
  5
97D
330
973
100
AcDbEntity
  8
DEFPOINTS
 62
     0
100
AcDbPoint
 10
289.9984422327684
 20
33.4705577168847
 30
0.0
  0
ENDBLK
  5
97F
330
973
100
AcDbEntity
  8
0
100
AcDbBlockEnd
  0
BLOCK
  5
98C
330
981
100
AcDbEntity
  8
0
100
AcDbBlockBegin
  2
*D15
 70
     1
 10
0.0
 20
0.0
 30
0.0
  3
*D15
  1

  0
LINE
  5
9D2
330
981
100
AcDbEntity
  8
0
 62
     0
100
AcDbLine
 10
283.6720960198549
 20
37.3951445368025
 30
0.0
 11
283.6720960198549
 21
33.82908171661098
 31
0.0
  0
LINE
  5
9D3
330
981
100
AcDbEntity
  8
0
 62
     0
100
AcDbLine
 10
290.4220960198549
 20
37.3951445368025
 30
0.0
 11
290.4220960198549
 21
33.82908171661098
 31
0.0
  0
LINE
  5
9D4
330
981
100
AcDbEntity
  8
0
 62
     0
100
AcDbLine
 10
283.8520960198549
 20
34.00908171661098
 30
0.0
 11
286.7320960198549
 21
34.00908171661098
 31
0.0
  0
LINE
  5
9D5
330
981
100
AcDbEntity
  8
0
 62
     0
100
AcDbLine
 10
290.2420960198549
 20
34.00908171661098
 30
0.0
 11
287.3620960198549
 21
34.00908171661098
 31
0.0
  0
SOLID
  5
9D6
330
981
100
AcDbEntity
  8
0
 62
     0
100
AcDbTrace
 10
283.8520960198549
 20
34.03908171661099
 30
0.0
 11
283.8520960198549
 21
33.97908171661098
 31
0.0
 12
283.6720960198549
 22
34.00908171661098
 32
0.0
 13
283.6720960198549
 23
34.00908171661098
 33
0.0
  0
SOLID
  5
9D7
330
981
100
AcDbEntity
  8
0
 62
     0
100
AcDbTrace
 10
290.2420960198549
 20
34.03908171661099
 30
0.0
 11
290.2420960198549
 21
33.97908171661098
 31
0.0
 12
290.4220960198549
 22
34.00908171661098
 32
0.0
 13
290.4220960198549
 23
34.00908171661098
 33
0.0
  0
MTEXT
  5
9D8
330
981
100
AcDbEntity
  8
0
 62
     0
100
AcDbMText
 10
287.0470960198549
 20
34.00908171661098
 30
0.0
 40
0.15
 41
0.0
 71
     5
 72
     1
  1
\A1;6.75
1001
ACAD
1000
MTEXTBEGIN
1070
    73
1070
     1
1070
    44
1040
1.0
1070
    74
1070
     0
1000
MTEXTEND
  0
POINT
  5
9D9
330
981
100
AcDbEntity
  8
DEFPOINTS
 62
     0
100
AcDbPoint
 10
283.6720960198549
 20
37.4576445368025
 30
0.0
  0
POINT
  5
9DA
330
981
100
AcDbEntity
  8
DEFPOINTS
 62
     0
100
AcDbPoint
 10
290.4220960198549
 20
37.4576445368025
 30
0.0
  0
POINT
  5
9DB
330
981
100
AcDbEntity
  8
DEFPOINTS
 62
     0
100
AcDbPoint
 10
290.4220960198549
 20
34.00908171661098
 30
0.0
  0
ENDBLK
  5
98D
330
981
100
AcDbEntity
  8
0
100
AcDbBlockEnd
  0
BLOCK
  5
99A
330
98F
100
AcDbEntity
  8
0
100
AcDbBlockBegin
  2
*D16
 70
     1
 10
0.0
 20
0.0
 30
0.0
  3
*D16
  1

  0
LINE
  5
9F0
330
98F
100
AcDbEntity
  8
0
 62
     0
100
AcDbLine
 10
283.6720960198549
 20
35.64514453680249
 30
0.0
 11
283.6720960198549
 21
34.35926291257719
 31
0.0
  0
LINE
  5
9F1
330
98F
100
AcDbEntity
  8
0
 62
     0
100
AcDbLine
 10
285.0720960198549
 20
35.64514453680249
 30
0.0
 11
285.0720960198549
 21
34.35926291257719
 31
0.0
  0
LINE
  5
9F2
330
98F
100
AcDbEntity
  8
0
 62
     0
100
AcDbLine
 10
283.8520960198549
 20
34.53926291257719
 30
0.0
 11
284.0945960198549
 21
34.53926291257719
 31
0.0
  0
LINE
  5
9F3
330
98F
100
AcDbEntity
  8
0
 62
     0
100
AcDbLine
 10
284.8920960198549
 20
34.53926291257719
 30
0.0
 11
284.6495960198549
 21
34.53926291257719
 31
0.0
  0
SOLID
  5
9F4
330
98F
100
AcDbEntity
  8
0
 62
     0
100
AcDbTrace
 10
283.8520960198549
 20
34.56926291257719
 30
0.0
 11
283.8520960198549
 21
34.50926291257719
 31
0.0
 12
283.6720960198549
 22
34.53926291257719
 32
0.0
 13
283.6720960198549
 23
34.53926291257719
 33
0.0
  0
SOLID
  5
9F5
330
98F
100
AcDbEntity
  8
0
 62
     0
100
AcDbTrace
 10
284.8920960198549
 20
34.56926291257719
 30
0.0
 11
284.8920960198549
 21
34.50926291257719
 31
0.0
 12
285.0720960198549
 22
34.53926291257719
 32
0.0
 13
285.0720960198549
 23
34.53926291257719
 33
0.0
  0
MTEXT
  5
9F6
330
98F
100
AcDbEntity
  8
0
 62
     0
100
AcDbMText
 10
284.3720960198549
 20
34.53926291257719
 30
0.0
 40
0.15
 41
0.0
 71
     5
 72
     1
  1
\A1;1.40
1001
ACAD
1000
MTEXTBEGIN
1070
    73
1070
     1
1070
    44
1040
1.0
1070
    74
1070
     0
1000
MTEXTEND
  0
POINT
  5
9F7
330
98F
100
AcDbEntity
  8
DEFPOINTS
 62
     0
100
AcDbPoint
 10
283.6720960198549
 20
35.70764453680249
 30
0.0
  0
POINT
  5
9F8
330
98F
100
AcDbEntity
  8
DEFPOINTS
 62
     0
100
AcDbPoint
 10
285.0720960198549
 20
35.70764453680249
 30
0.0
  0
POINT
  5
9F9
330
98F
100
AcDbEntity
  8
DEFPOINTS
 62
     0
100
AcDbPoint
 10
285.0720960198549
 20
34.53926291257719
 30
0.0
  0
ENDBLK
  5
99B
330
98F
100
AcDbEntity
  8
0
100
AcDbBlockEnd
  0
BLOCK
  5
9A8
330
99D
100
AcDbEntity
  8
0
100
AcDbBlockBegin
  2
*D17
 70
     1
 10
0.0
 20
0.0
 30
0.0
  3
*D17
  1

  0
LINE
  5
9C8
330
99D
100
AcDbEntity
  8
0
 62
     0
100
AcDbLine
 10
285.0720960198549
 20
35.19514453680249
 30
0.0
 11
285.0720960198549
 21
34.17271766231228
 31
0.0
  0
LINE
  5
9C9
330
99D
100
AcDbEntity
  8
0
 62
     0
100
AcDbLine
 10
290.4220960198549
 20
36.19514453680249
 30
0.0
 11
290.4220960198549
 21
34.17271766231228
 31
0.0
  0
LINE
  5
9CA
330
99D
100
AcDbEntity
  8
0
 62
     0
100
AcDbLine
 10
285.2520960198549
 20
34.35271766231227
 30
0.0
 11
287.4320960198549
 21
34.35271766231227
 31
0.0
  0
LINE
  5
9CB
330
99D
100
AcDbEntity
  8
0
 62
     0
100
AcDbLine
 10
290.2420960198549
 20
34.35271766231227
 30
0.0
 11
288.0620960198549
 21
34.35271766231227
 31
0.0
  0
SOLID
  5
9CC
330
99D
100
AcDbEntity
  8
0
 62
     0
100
AcDbTrace
 10
285.2520960198549
 20
34.38271766231228
 30
0.0
 11
285.2520960198549
 21
34.32271766231227
 31
0.0
 12
285.0720960198549
 22
34.35271766231227
 32
0.0
 13
285.0720960198549
 23
34.35271766231227
 33
0.0
  0
SOLID
  5
9CD
330
99D
100
AcDbEntity
  8
0
 62
     0
100
AcDbTrace
 10
290.2420960198549
 20
34.38271766231228
 30
0.0
 11
290.2420960198549
 21
34.32271766231227
 31
0.0
 12
290.4220960198549
 22
34.35271766231227
 32
0.0
 13
290.4220960198549
 23
34.35271766231227
 33
0.0
  0
MTEXT
  5
9CE
330
99D
100
AcDbEntity
  8
0
 62
     0
100
AcDbMText
 10
287.7470960198549
 20
34.35271766231227
 30
0.0
 40
0.15
 41
0.0
 71
     5
 72
     1
  1
\A1;5.35
1001
ACAD
1000
MTEXTBEGIN
1070
    73
1070
     1
1070
    44
1040
1.0
1070
    74
1070
     0
1000
MTEXTEND
  0
POINT
  5
9CF
330
99D
100
AcDbEntity
  8
DEFPOINTS
 62
     0
100
AcDbPoint
 10
285.0720960198549
 20
35.25764453680249
 30
0.0
  0
POINT
  5
9D0
330
99D
100
AcDbEntity
  8
DEFPOINTS
 62
     0
100
AcDbPoint
 10
290.4220960198549
 20
36.25764453680249
 30
0.0
  0
POINT
  5
9D1
330
99D
100
AcDbEntity
  8
DEFPOINTS
 62
     0
100
AcDbPoint
 10
290.4220960198549
 20
34.35271766231227
 30
0.0
  0
ENDBLK
  5
9A9
330
99D
100
AcDbEntity
  8
0
100
AcDbBlockEnd
  0
BLOCK
  5
9B6
330
9AB
100
AcDbEntity
  8
0
100
AcDbBlockBegin
  2
*D18
 70
     1
 10
0.0
 20
0.0
 30
0.0
  3
*D18
  1

  0
LINE
  5
9E6
330
9AB
100
AcDbEntity
  8
0
 62
     0
100
AcDbLine
 10
285.0095960198549
 20
35.25764453680249
 30
0.0
 11
282.5837674053212
 21
35.25764453680249
 31
0.0
  0
LINE
  5
9E7
330
9AB
100
AcDbEntity
  8
0
 62
     0
100
AcDbLine
 10
285.0095960198549
 20
35.70764453680249
 30
0.0
 11
282.5837674053212
 21
35.70764453680249
 31
0.0
  0
LINE
  5
9E8
330
9AB
100
AcDbEntity
  8
0
 62
     0
100
AcDbLine
 10
282.7637674053212
 20
35.07764453680249
 30
0.0
 11
282.7637674053212
 21
34.89764453680249
 31
0.0
  0
LINE
  5
9E9
330
9AB
100
AcDbEntity
  8
0
 62
     0
100
AcDbLine
 10
282.7637674053212
 20
35.8876445368025
 30
0.0
 11
282.7637674053212
 21
36.06764453680249
 31
0.0
  0
SOLID
  5
9EA
330
9AB
100
AcDbEntity
  8
0
 62
     0
100
AcDbTrace
 10
282.7337674053212
 20
35.07764453680249
 30
0.0
 11
282.7937674053212
 21
35.07764453680249
 31
0.0
 12
282.7637674053212
 22
35.25764453680249
 32
0.0
 13
282.7637674053212
 23
35.25764453680249
 33
0.0
  0
SOLID
  5
9EB
330
9AB
100
AcDbEntity
  8
0
 62
     0
100
AcDbTrace
 10
282.7337674053212
 20
35.8876445368025
 30
0.0
 11
282.7937674053212
 21
35.8876445368025
 31
0.0
 12
282.7637674053212
 22
35.70764453680249
 32
0.0
 13
282.7637674053212
 23
35.70764453680249
 33
0.0
  0
MTEXT
  5
9EC
330
9AB
100
AcDbEntity
  8
0
 62
     0
100
AcDbMText
 10
282.7637674053212
 20
35.48264453680254
 30
0.0
 40
0.15
 41
0.0
 71
     5
 72
     1
  1
\A1;0.45
1001
ACAD
1000
MTEXTBEGIN
1070
    73
1070
     1
1070
    44
1040
1.0
1070
    74
1070
     0
1000
MTEXTEND
  0
POINT
  5
9ED
330
9AB
100
AcDbEntity
  8
DEFPOINTS
 62
     0
100
AcDbPoint
 10
285.0720960198549
 20
35.25764453680249
 30
0.0
  0
POINT
  5
9EE
330
9AB
100
AcDbEntity
  8
DEFPOINTS
 62
     0
100
AcDbPoint
 10
285.0720960198549
 20
35.70764453680249
 30
0.0
  0
POINT
  5
9EF
330
9AB
100
AcDbEntity
  8
DEFPOINTS
 62
     0
100
AcDbPoint
 10
282.7637674053212
 20
35.70764453680249
 30
0.0
  0
ENDBLK
  5
9B7
330
9AB
100
AcDbEntity
  8
0
100
AcDbBlockEnd
  0
BLOCK
  5
9C4
330
9B9
100
AcDbEntity
  8
0
100
AcDbBlockBegin
  2
*D19
 70
     1
 10
0.0
 20
0.0
 30
0.0
  3
*D19
  1

  0
LINE
  5
9DC
330
9B9
100
AcDbEntity
  8
0
 62
     0
100
AcDbLine
 10
283.6095960198549
 20
37.4576445368025
 30
0.0
 11
282.0434989771775
 21
37.4576445368025
 31
0.0
  0
LINE
  5
9DD
330
9B9
100
AcDbEntity
  8
0
 62
     0
100
AcDbLine
 10
285.0095960198549
 20
35.25764453680249
 30
0.0
 11
282.0434989771775
 21
35.25764453680249
 31
0.0
  0
LINE
  5
9DE
330
9B9
100
AcDbEntity
  8
0
 62
     0
100
AcDbLine
 10
282.2234989771775
 20
37.27764453680249
 30
0.0
 11
282.2234989771775
 21
36.52264453680249
 31
0.0
  0
LINE
  5
9DF
330
9B9
100
AcDbEntity
  8
0
 62
     0
100
AcDbLine
 10
282.2234989771775
 20
35.43764453680249
 30
0.0
 11
282.2234989771775
 21
36.1926445368025
 31
0.0
  0
SOLID
  5
9E0
330
9B9
100
AcDbEntity
  8
0
 62
     0
100
AcDbTrace
 10
282.1934989771775
 20
37.27764453680249
 30
0.0
 11
282.2534989771775
 21
37.27764453680249
 31
0.0
 12
282.2234989771775
 22
37.4576445368025
 32
0.0
 13
282.2234989771775
 23
37.4576445368025
 33
0.0
  0
SOLID
  5
9E1
330
9B9
100
AcDbEntity
  8
0
 62
     0
100
AcDbTrace
 10
282.1934989771775
 20
35.43764453680249
 30
0.0
 11
282.2534989771775
 21
35.43764453680249
 31
0.0
 12
282.2234989771775
 22
35.25764453680249
 32
0.0
 13
282.2234989771775
 23
35.25764453680249
 33
0.0
  0
MTEXT
  5
9E2
330
9B9
100
AcDbEntity
  8
0
 62
     0
100
AcDbMText
 10
282.2234989771775
 20
36.35764453680254
 30
0.0
 40
0.15
 41
0.0
 71
     5
 72
     1
  1
\A1;2.20
1001
ACAD
1000
MTEXTBEGIN
1070
    73
1070
     1
1070
    44
1040
1.0
1070
    74
1070
     0
1000
MTEXTEND
  0
POINT
  5
9E3
330
9B9
100
AcDbEntity
  8
DEFPOINTS
 62
     0
100
AcDbPoint
 10
283.6720960198549
 20
37.4576445368025
 30
0.0
  0
POINT
  5
9E4
330
9B9
100
AcDbEntity
  8
DEFPOINTS
 62
     0
100
AcDbPoint
 10
285.0720960198549
 20
35.25764453680249
 30
0.0
  0
POINT
  5
9E5
330
9B9
100
AcDbEntity
  8
DEFPOINTS
 62
     0
100
AcDbPoint
 10
282.2234989771775
 20
35.25764453680249
 30
0.0
  0
ENDBLK
  5
9C5
330
9B9
100
AcDbEntity
  8
0
100
AcDbBlockEnd
  0
ENDSEC
  0
SECTION
  2
ENTITIES
  0
TEXT
  5
2C
330
1E
100
AcDbEntity
  8
0
  6
CONTINUOUS
100
AcDbText
 10
287.3601151227225
 20
41.34839066459819
 30
0.0
 40
0.15
  1
2
  7
ROMANC
100
AcDbText
  0
TEXT
  5
2D
330
1E
100
AcDbEntity
  8
0
  6
CONTINUOUS
100
AcDbText
 10
283.9259999999999
 20
41.768
 30
0.0
 40
0.3
  1
ESCALA  1:50
  7
ROMANC
100
AcDbText
  0
LWPOLYLINE
  5
2E
330
1E
100
AcDbEntity
  8
NO_PRINT
  6
CONTINUOUS
100
AcDbPolyline
 90
        4
 70
     1
 43
0.0
 10
281.3959999999998
 20
44.747
 10
291.8959999999998
 20
44.747
 10
291.8959999999998
 20
29.897
 10
281.3959999999998
 20
29.897
  0
TEXT
  5
34
330
1E
100
AcDbEntity
  8
0
  6
CONTINUOUS
100
AcDbText
 10
283.9259999999999
 20
42.381
 30
0.0
 40
0.3
  1
TIPUS   NT1400
  7
ROMANC
100
AcDbText
  0
TEXT
  5
36
330
1E
100
AcDbEntity
  8
0
  6
CONTINUOUS
100
AcDbText
 10
283.922
 20
40.529
 30
0.0
 40
0.3
  1
P = 174 dm
  7
ROMANC
100
AcDbText
  0
TEXT
  5
37
330
1E
100
AcDbEntity
  8
0
  6
CONTINUOUS
100
AcDbText
 10
283.9449999999999
 20
41.09899999999997
 30
0.0
 40
0.3
  1
S = 1400 dm
  7
ROMANC
100
AcDbText
  0
LWPOLYLINE
  5
971
330
1E
100
AcDbEntity
  8
0
100
AcDbPolyline
 90
        7
 70
     1
 43
0.0
 39
6.75
 10
285.0720960198549
 20
35.25764453680249
 10
285.0720960198549
 20
35.70764453680249
 10
283.6720960198549
 20
35.70764453680249
 10
283.6720960198549
 20
37.4576445368025
 10
290.4220960198549
 20
37.4576445368025
 10
290.4220960198549
 20
36.25764453680249
 42
-0.4142135623730951
 10
289.422096019855
 20
35.25764453680249
  0
DIMENSION
  5
980
330
1E
100
AcDbEntity
  8
0
100
AcDbDimension
  2
*D15
 10
290.4220960198549
 20
34.00908171661098
 30
0.0
 11
287.0470960198549
 21
34.00908171661098
 31
0.0
 70
    32
  3
STANDARD
100
AcDbAlignedDimension
 13
283.6720960198549
 23
37.4576445368025
 33
0.0
 14
290.4220960198549
 24
37.4576445368025
 34
0.0
100
AcDbRotatedDimension
  0
DIMENSION
  5
98E
330
1E
100
AcDbEntity
  8
0
100
AcDbDimension
  2
*D16
 10
285.0720960198549
 20
34.53926291257719
 30
0.0
 11
284.3720960198549
 21
34.53926291257719
 31
0.0
 70
    32
  3
STANDARD
100
AcDbAlignedDimension
 13
283.6720960198549
 23
35.70764453680249
 33
0.0
 14
285.0720960198549
 24
35.70764453680249
 34
0.0
100
AcDbRotatedDimension
  0
DIMENSION
  5
99C
330
1E
100
AcDbEntity
  8
0
100
AcDbDimension
  2
*D17
 10
290.4220960198549
 20
34.35271766231227
 30
0.0
 11
287.7470960198549
 21
34.35271766231227
 31
0.0
 70
    32
  3
STANDARD
100
AcDbAlignedDimension
 13
285.0720960198549
 23
35.25764453680249
 33
0.0
 14
290.4220960198549
 24
36.25764453680249
 34
0.0
100
AcDbRotatedDimension
  0
DIMENSION
  5
9AA
330
1E
100
AcDbEntity
  8
0
100
AcDbDimension
  2
*D18
 10
282.7637674053212
 20
35.70764453680249
 30
0.0
 11
282.7637674053212
 21
35.48264453680254
 31
0.0
 70
    32
  3
STANDARD
100
AcDbAlignedDimension
 13
285.0720960198549
 23
35.25764453680249
 33
0.0
 14
285.0720960198549
 24
35.70764453680249
 34
0.0
 50
90.0
100
AcDbRotatedDimension
  0
DIMENSION
  5
9B8
330
1E
100
AcDbEntity
  8
0
100
AcDbDimension
  2
*D19
 10
282.2234989771775
 20
35.25764453680249
 30
0.0
 11
282.2234989771775
 21
36.35764453680254
 31
0.0
 70
    32
  3
STANDARD
100
AcDbAlignedDimension
 13
283.6720960198549
 23
37.4576445368025
 33
0.0
 14
285.0720960198549
 24
35.25764453680249
 34
0.0
 50
90.0
100
AcDbRotatedDimension
  0
LWPOLYLINE
  5
9C6
330
1E
100
AcDbEntity
  8
0
100
AcDbPolyline
 90
        7
 70
     1
 43
0.0
 39
6.75
 10
285.0620960198549
 20
35.2476445368025
 10
285.0620960198549
 20
35.69764453680249
 10
283.6620960198549
 20
35.69764453680249
 10
283.6620960198549
 20
37.46764453680249
 10
290.4320960198549
 20
37.46764453680249
 10
290.4320960198549
 20
36.25764453680249
 42
-0.4142135623731001
 10
289.422096019855
 20
35.24764453680251
  0
LWPOLYLINE
  5
9C7
330
1E
100
AcDbEntity
  8
0
100
AcDbPolyline
 90
        7
 70
     1
 43
0.0
 39
6.75
 10
285.0820960198549
 20
35.26764453680249
 10
285.0820960198549
 20
35.71764453680249
 10
283.6820960198549
 20
35.71764453680249
 10
283.6820960198549
 20
37.4476445368025
 10
290.4120960198549
 20
37.4476445368025
 10
290.4120960198549
 20
36.25764453680249
 42
-0.4142135623731069
 10
289.422096019855
 20
35.26764453680251
  0
ENDSEC
  0
SECTION
  2
OBJECTS
  0
DICTIONARY
  5
C
330
0
100
AcDbDictionary
  3
ACAD_GROUP
350
D
  3
ACAD_LAYOUT
350
19
  3
ACAD_MLINESTYLE
350
16
  3
ACAD_PLOTSETTINGS
350
18
  3
ACAD_PLOTSTYLENAME
350
E
  3
ACDBHEADERROUNDTRIPXREC
350
A24
  3
ACDBVARIABLEDICTIONARY
350
6E
  3
DWGPROPS
350
271
  0
DICTIONARY
  5
39D
330
1E
100
AcDbDictionary
280
     1
  3
ACAD_LAYOUTSELFREF
360
A45
  0
DICTIONARY
  5
39F
330
1A
100
AcDbDictionary
280
     1
  3
ACAD_LAYOUTSELFREF
360
A44
  0
DICTIONARY
  5
D
102
{ACAD_REACTORS
330
C
102
}
330
C
100
AcDbDictionary
  0
DICTIONARY
  5
19
102
{ACAD_REACTORS
330
C
102
}
330
C
100
AcDbDictionary
  0
DICTIONARY
  5
16
102
{ACAD_REACTORS
330
C
102
}
330
C
100
AcDbDictionary
  3
STANDARD
350
17
  0
DICTIONARY
  5
18
102
{ACAD_REACTORS
330
C
102
}
330
C
100
AcDbDictionary
  0
ACDBDICTIONARYWDFLT
  5
E
102
{ACAD_REACTORS
330
C
102
}
330
C
100
AcDbDictionary
281
     1
  3
Normal
350
F
100
AcDbDictionaryWithDefault
340
F
  0
DICTIONARY
  5
A24
102
{ACAD_REACTORS
330
C
102
}
330
C
100
AcDbDictionary
  3
CEPSNTYPE
350
A2E
  3
FINGERPRINTGUID
350
A2F
  3
HYPERLINKBASE
350
A27
  3
INSUNITS
350
A2D
  3
LAYOUTDICT
350
A29
  3
LWETCUNION
350
A2C
  3
PLOTSETDICT
350
A2A
  3
PLOTSTYLNAMDICT
350
A2B
  3
PSVPSCALE
350
A31
  3
PUCSBASE
350
A34
  3
PUCSORGBACK
350
A3A
  3
PUCSORGBOTTOM
350
A36
  3
PUCSORGFRONT
350
A39
  3
PUCSORGLEFT
350
A37
  3
PUCSORGRIGHT
350
A38
  3
PUCSORGTOP
350
A35
  3
PUCSORTHOREF
350
A32
  3
PUCSORTHOVIEW
350
A33
  3
STYLESHEET
350
A28
  3
TSTACKALIGN
350
A25
  3
TSTACKSIZE
350
A26
  3
UCSBASE
350
A3D
  3
UCSORGBACK
350
A43
  3
UCSORGBOTTOM
350
A3F
  3
UCSORGFRONT
350
A42
  3
UCSORGLEFT
350
A40
  3
UCSORGRIGHT
350
A41
  3
UCSORGTOP
350
A3E
  3
UCSORTHOREF
350
A3B
  3
UCSORTHOVIEW
350
A3C
  3
VERSIONGUID
350
A30
  0
DICTIONARY
  5
6E
102
{ACAD_REACTORS
330
C
102
}
330
C
100
AcDbDictionary
  3
DIMASSOC
350
6F
  0
XRECORD
  5
271
102
{ACAD_REACTORS
330
C
102
}
330
C
100
AcDbXrecord
  1
DWGPROPS COOKIE
  2

  3

  4

  6

  7

  8
JaumeTrias
  9

300
=
301
=
302
=
303
=
304
=
305
=
306
=
307
=
308
=
309
=
 40
0.0195228587962963
 41
2448315.331741435
 42
2452943.48254824
  1

 90
        0
  0
XRECORD
  5
A45
102
{ACAD_REACTORS
330
39D
102
}
330
39D
100
AcDbXrecord
340
1E
  0
XRECORD
  5
A44
102
{ACAD_REACTORS
330
39F
102
}
330
39F
100
AcDbXrecord
340
1A
  0
MLINESTYLE
  5
17
102
{ACAD_REACTORS
330
16
102
}
330
16
100
AcDbMlineStyle
  2
STANDARD
 70
     0
  3

 62
   256
 51
90.0
 52
90.0
 71
     2
 49
0.5
 62
   256
  6
BYLAYER
 49
-0.5
 62
   256
  6
BYLAYER
  0
ACDBPLACEHOLDER
  5
F
102
{ACAD_REACTORS
330
E
102
}
330
E
100
AcDbPlaceHolder
280
     0
  0
XRECORD
  5
A2E
102
{ACAD_REACTORS
330
A24
102
}
330
A24
100
AcDbXrecord
 90
        0
  0
XRECORD
  5
A2F
102
{ACAD_REACTORS
330
A24
102
}
330
A24
100
AcDbXrecord
  1
{A6FCFFB5-5CE9-42DC-A06F-C5476E26D97B}
  0
XRECORD
  5
A27
102
{ACAD_REACTORS
330
A24
102
}
330
A24
100
AcDbXrecord
  1

  0
XRECORD
  5
A2D
102
{ACAD_REACTORS
330
A24
102
}
330
A24
100
AcDbXrecord
 90
        0
  0
XRECORD
  5
A29
102
{ACAD_REACTORS
330
A24
102
}
330
A24
100
AcDbXrecord
340
19
  0
XRECORD
  5
A2C
102
{ACAD_REACTORS
330
A24
102
}
330
A24
100
AcDbXrecord
 90
    10781
  0
XRECORD
  5
A2A
102
{ACAD_REACTORS
330
A24
102
}
330
A24
100
AcDbXrecord
340
18
  0
XRECORD
  5
A2B
102
{ACAD_REACTORS
330
A24
102
}
330
A24
100
AcDbXrecord
340
E
  0
XRECORD
  5
A31
102
{ACAD_REACTORS
330
A24
102
}
330
A24
100
AcDbXrecord
 40
0.0
  0
XRECORD
  5
A34
102
{ACAD_REACTORS
330
A24
102
}
330
A24
100
AcDbXrecord
340
0
  0
XRECORD
  5
A3A
102
{ACAD_REACTORS
330
A24
102
}
330
A24
100
AcDbXrecord
 10
0.0
 20
0.0
 30
0.0
  0
XRECORD
  5
A36
102
{ACAD_REACTORS
330
A24
102
}
330
A24
100
AcDbXrecord
 10
0.0
 20
0.0
 30
0.0
  0
XRECORD
  5
A39
102
{ACAD_REACTORS
330
A24
102
}
330
A24
100
AcDbXrecord
 10
0.0
 20
0.0
 30
0.0
  0
XRECORD
  5
A37
102
{ACAD_REACTORS
330
A24
102
}
330
A24
100
AcDbXrecord
 10
0.0
 20
0.0
 30
0.0
  0
XRECORD
  5
A38
102
{ACAD_REACTORS
330
A24
102
}
330
A24
100
AcDbXrecord
 10
0.0
 20
0.0
 30
0.0
  0
XRECORD
  5
A35
102
{ACAD_REACTORS
330
A24
102
}
330
A24
100
AcDbXrecord
 10
0.0
 20
0.0
 30
0.0
  0
XRECORD
  5
A32
102
{ACAD_REACTORS
330
A24
102
}
330
A24
100
AcDbXrecord
340
0
  0
XRECORD
  5
A33
102
{ACAD_REACTORS
330
A24
102
}
330
A24
100
AcDbXrecord
 70
     0
  0
XRECORD
  5
A28
102
{ACAD_REACTORS
330
A24
102
}
330
A24
100
AcDbXrecord
  1

  0
XRECORD
  5
A25
102
{ACAD_REACTORS
330
A24
102
}
330
A24
100
AcDbXrecord
 90
        1
  0
XRECORD
  5
A26
102
{ACAD_REACTORS
330
A24
102
}
330
A24
100
AcDbXrecord
 90
       70
  0
XRECORD
  5
A3D
102
{ACAD_REACTORS
330
A24
102
}
330
A24
100
AcDbXrecord
340
0
  0
XRECORD
  5
A43
102
{ACAD_REACTORS
330
A24
102
}
330
A24
100
AcDbXrecord
 10
0.0
 20
0.0
 30
0.0
  0
XRECORD
  5
A3F
102
{ACAD_REACTORS
330
A24
102
}
330
A24
100
AcDbXrecord
 10
0.0
 20
0.0
 30
0.0
  0
XRECORD
  5
A42
102
{ACAD_REACTORS
330
A24
102
}
330
A24
100
AcDbXrecord
 10
0.0
 20
0.0
 30
0.0
  0
XRECORD
  5
A40
102
{ACAD_REACTORS
330
A24
102
}
330
A24
100
AcDbXrecord
 10
0.0
 20
0.0
 30
0.0
  0
XRECORD
  5
A41
102
{ACAD_REACTORS
330
A24
102
}
330
A24
100
AcDbXrecord
 10
0.0
 20
0.0
 30
0.0
  0
XRECORD
  5
A3E
102
{ACAD_REACTORS
330
A24
102
}
330
A24
100
AcDbXrecord
 10
0.0
 20
0.0
 30
0.0
  0
XRECORD
  5
A3B
102
{ACAD_REACTORS
330
A24
102
}
330
A24
100
AcDbXrecord
340
0
  0
XRECORD
  5
A3C
102
{ACAD_REACTORS
330
A24
102
}
330
A24
100
AcDbXrecord
 70
     0
  0
XRECORD
  5
A30
102
{ACAD_REACTORS
330
A24
102
}
330
A24
100
AcDbXrecord
  1
{64FDED09-F409-4687-8E23-F92E44252404}
  0
DICTIONARYVAR
  5
6F
102
{ACAD_REACTORS
330
6E
102
}
330
6E
100
DictionaryVariables
280
     0
  1
1
  0
ENDSEC
  0
EOF
