  0
SECTION
  2
HEADER
  9
$ACADVER
  1
AC1014
  9
$ACADMAINTVER
 70
     9
  9
$DWGCODEPAGE
  3
ANSI_1252
  9
$INSBASE
 10
0.0
 20
0.0
 30
0.0
  9
$EXTMIN
 10
281.3950692441341
 20
29.89657355491301
 30
-0.0015258207003583
  9
$EXTMAX
 10
291.8969308140735
 20
44.74748374051749
 30
0.0000000349246037
  9
$LIMMIN
 10
280.396
 20
28.89699999999999
  9
$LIMMAX
 10
292.896
 20
43.74699999999999
  9
$ORTHOMODE
 70
     0
  9
$REGENMODE
 70
     1
  9
$FILLMODE
 70
     1
  9
$QTEXTMODE
 70
     0
  9
$MIRRTEXT
 70
     1
  9
$DRAGMODE
 70
     2
  9
$LTSCALE
 40
1.0
  9
$OSMODE
 70
    15
  9
$ATTMODE
 70
     1
  9
$TEXTSIZE
 40
0.2
  9
$TRACEWID
 40
0.05
  9
$TEXTSTYLE
  7
STANDARD
  9
$CLAYER
  8
0
  9
$CELTYPE
  6
BYLAYER
  9
$CECOLOR
 62
   256
  9
$CELTSCALE
 40
1.0
  9
$DELOBJ
 70
     1
  9
$DISPSILH
 70
     0
  9
$DIMSCALE
 40
1.0
  9
$DIMASZ
 40
0.18
  9
$DIMEXO
 40
0.0625
  9
$DIMDLI
 40
0.38
  9
$DIMRND
 40
0.0
  9
$DIMDLE
 40
0.0
  9
$DIMEXE
 40
0.18
  9
$DIMTP
 40
0.0
  9
$DIMTM
 40
0.0
  9
$DIMTXT
 40
0.15
  9
$DIMCEN
 40
0.09
  9
$DIMTSZ
 40
0.0
  9
$DIMTOL
 70
     0
  9
$DIMLIM
 70
     0
  9
$DIMTIH
 70
     1
  9
$DIMTOH
 70
     1
  9
$DIMSE1
 70
     0
  9
$DIMSE2
 70
     0
  9
$DIMTAD
 70
     0
  9
$DIMZIN
 70
     0
  9
$DIMBLK
  1

  9
$DIMASO
 70
     1
  9
$DIMSHO
 70
     1
  9
$DIMPOST
  1

  9
$DIMAPOST
  1

  9
$DIMALT
 70
     0
  9
$DIMALTD
 70
     2
  9
$DIMALTF
 40
25.4
  9
$DIMLFAC
 40
1.0
  9
$DIMTOFL
 70
     0
  9
$DIMTVP
 40
0.0
  9
$DIMTIX
 70
     0
  9
$DIMSOXD
 70
     0
  9
$DIMSAH
 70
     0
  9
$DIMBLK1
  1

  9
$DIMBLK2
  1

  9
$DIMSTYLE
  2
STANDARD
  9
$DIMCLRD
 70
     0
  9
$DIMCLRE
 70
     0
  9
$DIMCLRT
 70
     0
  9
$DIMTFAC
 40
1.0
  9
$DIMGAP
 40
0.09
  9
$DIMJUST
 70
     0
  9
$DIMSD1
 70
     0
  9
$DIMSD2
 70
     0
  9
$DIMTOLJ
 70
     1
  9
$DIMTZIN
 70
     0
  9
$DIMALTZ
 70
     0
  9
$DIMALTTZ
 70
     0
  9
$DIMFIT
 70
     3
  9
$DIMUPT
 70
     0
  9
$DIMUNIT
 70
     2
  9
$DIMDEC
 70
     2
  9
$DIMTDEC
 70
     2
  9
$DIMALTU
 70
     2
  9
$DIMALTTD
 70
     2
  9
$DIMTXSTY
  7
STANDARD
  9
$DIMAUNIT
 70
     0
  9
$LUNITS
 70
     2
  9
$LUPREC
 70
     4
  9
$SKETCHINC
 40
0.1
  9
$FILLETRAD
 40
0.0
  9
$AUNITS
 70
     0
  9
$AUPREC
 70
     0
  9
$MENU
  1
acad
  9
$ELEVATION
 40
0.0
  9
$PELEVATION
 40
0.0
  9
$THICKNESS
 40
0.0
  9
$LIMCHECK
 70
     0
  9
$BLIPMODE
 70
     0
  9
$CHAMFERA
 40
0.0
  9
$CHAMFERB
 40
0.0
  9
$CHAMFERC
 40
0.0
  9
$CHAMFERD
 40
0.0
  9
$SKPOLY
 70
     0
  9
$TDCREATE
 40
2448315.331741435
  9
$TDUPDATE
 40
2452943.506254027
  9
$TDINDWG
 40
0.0234660417
  9
$TDUSRTIMER
 40
0.0234656829
  9
$USRTIMER
 70
     1
  9
$ANGBASE
 50
0.0
  9
$ANGDIR
 70
     0
  9
$PDMODE
 70
     0
  9
$PDSIZE
 40
0.0
  9
$PLINEWID
 40
0.0
  9
$COORDS
 70
     1
  9
$SPLFRAME
 70
     0
  9
$SPLINETYPE
 70
     6
  9
$SPLINESEGS
 70
     8
  9
$ATTDIA
 70
     0
  9
$ATTREQ
 70
     1
  9
$HANDLING
 70
 22529
  9
$HANDSEED
  5
2AD
  9
$SURFTAB1
 70
     6
  9
$SURFTAB2
 70
     6
  9
$SURFTYPE
 70
     6
  9
$SURFU
 70
     6
  9
$SURFV
 70
     6
  9
$UCSNAME
  2

  9
$UCSORG
 10
0.0
 20
0.0
 30
0.0
  9
$UCSXDIR
 10
1.0
 20
0.0
 30
0.0
  9
$UCSYDIR
 10
0.0
 20
1.0
 30
0.0
  9
$PUCSNAME
  2

  9
$PUCSORG
 10
0.0
 20
0.0
 30
0.0
  9
$PUCSXDIR
 10
1.0
 20
0.0
 30
0.0
  9
$PUCSYDIR
 10
0.0
 20
1.0
 30
0.0
  9
$USERI1
 70
     0
  9
$USERI2
 70
     0
  9
$USERI3
 70
     0
  9
$USERI4
 70
     0
  9
$USERI5
 70
     0
  9
$USERR1
 40
0.0
  9
$USERR2
 40
0.0
  9
$USERR3
 40
0.0
  9
$USERR4
 40
0.0
  9
$USERR5
 40
0.0
  9
$WORLDVIEW
 70
     1
  9
$SHADEDGE
 70
     3
  9
$SHADEDIF
 70
    70
  9
$TILEMODE
 70
     1
  9
$MAXACTVP
 70
    16
  9
$PINSBASE
 10
0.0
 20
0.0
 30
0.0
  9
$PLIMCHECK
 70
     0
  9
$PEXTMIN
 10
1.000000000000000E+20
 20
1.000000000000000E+20
 30
1.000000000000000E+20
  9
$PEXTMAX
 10
-1.000000000000000E+20
 20
-1.000000000000000E+20
 30
-1.000000000000000E+20
  9
$PLIMMIN
 10
0.0
 20
0.0
  9
$PLIMMAX
 10
12.0
 20
9.0
  9
$UNITMODE
 70
     0
  9
$VISRETAIN
 70
     0
  9
$PLINEGEN
 70
     0
  9
$PSLTSCALE
 70
     1
  9
$TREEDEPTH
 70
  3020
  9
$PICKSTYLE
 70
     1
  9
$CMLSTYLE
  2
STANDARD
  9
$CMLJUST
 70
     0
  9
$CMLSCALE
 40
1.0
  9
$PROXYGRAPHICS
 70
     1
  9
$MEASUREMENT
 70
     0
  0
ENDSEC
  0
SECTION
  2
CLASSES
  0
CLASS
  1
ACDBDICTIONARYWDFLT
  2
AcDbDictionaryWithDefault
  3
AutoCAD 2000
 90
        0
280
     0
281
     0
  0
CLASS
  1
ACDBPLACEHOLDER
  2
AcDbPlaceHolder
  3
AutoCAD 2000
 90
        0
280
     0
281
     0
  0
CLASS
  1
LAYOUT
  2
AcDbLayout
  3
AutoCAD 2000
 90
        0
280
     0
281
     0
  0
CLASS
  1
DICTIONARYVAR
  2
AcDbDictionaryVar
  3
AutoCAD 2000
 90
        0
280
     0
281
     0
  0
CLASS
  1
LONG_TRANSACTION
  2
AcDbLongTransaction
  3
AutoCAD 2000
 90
        0
280
     0
281
     0
  0
CLASS
  1
LWPOLYLINE
  2
AcDbPolyline
  3
AutoCAD 2000
 90
        0
280
     0
281
     1
  0
CLASS
  1
HATCH
  2
AcDbHatch
  3
AutoCAD 2000
 90
        0
280
     0
281
     1
  0
CLASS
  1
XRECORD
  2
AcDbXrecord
  3
AutoCAD 2000
 90
        0
280
     0
281
     0
  0
ENDSEC
  0
SECTION
  2
TABLES
  0
TABLE
  2
VPORT
  5
8
330
0
100
AcDbSymbolTable
 70
     3
  0
VPORT
  5
288
330
8
100
AcDbSymbolTableRecord
100
AcDbViewportTableRecord
  2
*ACTIVE
 70
     0
 10
0.0
 20
0.0
 11
1.0
 21
1.0
 12
285.6896793065688
 22
35.94402792931294
 13
0.0
 23
0.0
 14
1.0
 24
1.0
 15
0.0
 25
0.0
 16
0.0
 26
0.0
 36
1.0
 17
0.0
 27
0.0
 37
0.0
 40
18.79032513786204
 41
1.80184331797235
 42
50.0
 43
0.0
 44
0.0
 50
0.0
 51
0.0
 71
     0
 72
   100
 73
     1
 74
     1
 75
     0
 76
     0
 77
     0
 78
     0
  0
ENDTAB
  0
TABLE
  2
LTYPE
  5
5
330
0
100
AcDbSymbolTable
 70
     1
  0
LTYPE
  5
13
330
5
100
AcDbSymbolTableRecord
100
AcDbLinetypeTableRecord
  2
BYBLOCK
 70
     0
  3

 72
    65
 73
     0
 40
0.0
  0
LTYPE
  5
14
330
5
100
AcDbSymbolTableRecord
100
AcDbLinetypeTableRecord
  2
BYLAYER
 70
     0
  3

 72
    65
 73
     0
 40
0.0
  0
LTYPE
  5
15
330
5
100
AcDbSymbolTableRecord
100
AcDbLinetypeTableRecord
  2
CONTINUOUS
 70
     0
  3
Solid line
 72
    65
 73
     0
 40
0.0
  0
ENDTAB
  0
TABLE
  2
LAYER
  5
2
330
0
100
AcDbSymbolTable
 70
     9
  0
LAYER
  5
10
330
2
100
AcDbSymbolTableRecord
100
AcDbLayerTableRecord
  2
0
 70
     0
 62
     7
  6
CONTINUOUS
  0
LAYER
  5
22
330
2
100
AcDbSymbolTableRecord
100
AcDbLayerTableRecord
  2
1
 70
     0
 62
     7
  6
CONTINUOUS
  0
LAYER
  5
23
330
2
100
AcDbSymbolTableRecord
100
AcDbLayerTableRecord
  2
7
 70
     0
 62
     7
  6
CONTINUOUS
  0
LAYER
  5
24
330
2
100
AcDbSymbolTableRecord
100
AcDbLayerTableRecord
  2
8
 70
     0
 62
     7
  6
CONTINUOUS
  0
LAYER
  5
25
330
2
100
AcDbSymbolTableRecord
100
AcDbLayerTableRecord
  2
9
 70
     0
 62
     7
  6
CONTINUOUS
  0
LAYER
  5
26
330
2
100
AcDbSymbolTableRecord
100
AcDbLayerTableRecord
  2
22
 70
     0
 62
     7
  6
CONTINUOUS
  0
LAYER
  5
27
330
2
100
AcDbSymbolTableRecord
100
AcDbLayerTableRecord
  2
25
 70
     0
 62
     7
  6
CONTINUOUS
  0
LAYER
  5
78
330
2
100
AcDbSymbolTableRecord
100
AcDbLayerTableRecord
  2
DEFPOINTS
 70
     0
 62
     7
  6
CONTINUOUS
  0
LAYER
  5
1E7
330
2
100
AcDbSymbolTableRecord
100
AcDbLayerTableRecord
  2
NO_PRINT
 70
     0
 62
     7
  6
CONTINUOUS
  0
ENDTAB
  0
TABLE
  2
STYLE
  5
3
330
0
100
AcDbSymbolTable
 70
     2
  0
STYLE
  5
11
330
3
100
AcDbSymbolTableRecord
100
AcDbTextStyleTableRecord
  2
STANDARD
 70
     0
 40
0.0
 41
1.0
 50
0.0
 71
     0
 42
0.2
  3
txt
  4

  0
STYLE
  5
28
330
3
100
AcDbSymbolTableRecord
100
AcDbTextStyleTableRecord
  2
ROMANC
 70
     0
 40
0.0
 41
1.0
 50
0.0
 71
     0
 42
0.2
  3
ROMANC
  4

  0
ENDTAB
  0
TABLE
  2
VIEW
  5
6
330
0
100
AcDbSymbolTable
 70
     0
  0
ENDTAB
  0
TABLE
  2
UCS
  5
7
330
0
100
AcDbSymbolTable
 70
     0
  0
ENDTAB
  0
TABLE
  2
APPID
  5
9
330
0
100
AcDbSymbolTable
 70
     1
  0
APPID
  5
12
330
9
100
AcDbSymbolTableRecord
100
AcDbRegAppTableRecord
  2
ACAD
 70
     0
  0
ENDTAB
  0
TABLE
  2
DIMSTYLE
  5
A
330
0
100
AcDbSymbolTable
 70
     1
  0
DIMSTYLE
105
6B
102
{ACAD_REACTORS
330
269
330
277
102
}
330
A
100
AcDbSymbolTableRecord
100
AcDbDimStyleTableRecord
  2
STANDARD
 70
     0
  3

  4

  5

  6

  7

 40
1.0
 41
0.18
 42
0.0625
 43
0.38
 44
0.18
 45
0.0
 46
0.0
 47
0.0
 48
0.0
140
0.15
141
0.09
142
0.0
143
25.4
144
1.0
145
0.0
146
1.0
147
0.09
 71
     0
 72
     0
 73
     1
 74
     1
 75
     0
 76
     0
 77
     0
 78
     0
170
     0
171
     2
172
     0
173
     0
174
     0
175
     0
176
     0
177
     0
178
     0
270
     2
271
     2
272
     2
273
     2
274
     2
340
11
275
     0
280
     0
281
     0
282
     0
283
     1
284
     0
285
     0
286
     0
287
     3
288
     0
  0
ENDTAB
  0
TABLE
  2
BLOCK_RECORD
  5
1
330
0
100
AcDbSymbolTable
 70
     6
  0
BLOCK_RECORD
  5
1E
102
{ACAD_XDICTIONARY
360
2AB
102
}
330
1
100
AcDbSymbolTableRecord
100
AcDbBlockTableRecord
  2
*MODEL_SPACE
  0
BLOCK_RECORD
  5
1A
102
{ACAD_XDICTIONARY
360
2A9
102
}
330
1
100
AcDbSymbolTableRecord
100
AcDbBlockTableRecord
  2
*PAPER_SPACE
  0
BLOCK_RECORD
  5
241
330
1
100
AcDbSymbolTableRecord
100
AcDbBlockTableRecord
  2
*D2
  0
BLOCK_RECORD
  5
24F
330
1
100
AcDbSymbolTableRecord
100
AcDbBlockTableRecord
  2
*D3
  0
BLOCK_RECORD
  5
26A
330
1
100
AcDbSymbolTableRecord
100
AcDbBlockTableRecord
  2
*D4
  0
BLOCK_RECORD
  5
278
330
1
100
AcDbSymbolTableRecord
100
AcDbBlockTableRecord
  2
*D5
  0
ENDTAB
  0
ENDSEC
  0
SECTION
  2
BLOCKS
  0
BLOCK
  5
1F
330
1E
100
AcDbEntity
  8
0
100
AcDbBlockBegin
  2
*MODEL_SPACE
 70
     0
 10
0.0
 20
0.0
 30
0.0
  3
*MODEL_SPACE
  1

  0
ENDBLK
  5
20
330
1E
100
AcDbEntity
  8
0
100
AcDbBlockEnd
  0
BLOCK
  5
1B
330
1A
100
AcDbEntity
 67
     1
  8
0
100
AcDbBlockBegin
  2
*PAPER_SPACE
 70
     0
 10
0.0
 20
0.0
 30
0.0
  3
*PAPER_SPACE
  1

  0
ENDBLK
  5
1C
330
1A
100
AcDbEntity
 67
     1
  8
0
100
AcDbBlockEnd
  0
BLOCK
  5
24C
330
241
100
AcDbEntity
  8
0
100
AcDbBlockBegin
  2
*D2
 70
     1
 10
0.0
 20
0.0
 30
0.0
  3
*D2
  1

  0
LINE
  5
242
330
241
100
AcDbEntity
  8
0
 62
     0
100
AcDbLine
 10
284.316504633593
 20
33.56218418732551
 30
0.0
 11
284.316504633593
 21
32.70095959137556
 31
0.0
  0
LINE
  5
243
330
241
100
AcDbEntity
  8
0
 62
     0
100
AcDbLine
 10
287.416504633593
 20
33.56218418732551
 30
0.0
 11
287.416504633593
 21
32.70095959137556
 31
0.0
  0
LINE
  5
244
330
241
100
AcDbEntity
  8
0
 62
     0
100
AcDbLine
 10
284.496504633593
 20
32.88095959137556
 30
0.0
 11
285.589004633593
 21
32.88095959137556
 31
0.0
  0
LINE
  5
245
330
241
100
AcDbEntity
  8
0
 62
     0
100
AcDbLine
 10
287.236504633593
 20
32.88095959137556
 30
0.0
 11
286.144004633593
 21
32.88095959137556
 31
0.0
  0
SOLID
  5
246
330
241
100
AcDbEntity
  8
0
 62
     0
100
AcDbTrace
 10
284.496504633593
 20
32.91095959137556
 30
0.0
 11
284.496504633593
 21
32.85095959137556
 31
0.0
 12
284.316504633593
 22
32.88095959137556
 32
0.0
 13
284.316504633593
 23
32.88095959137556
 33
0.0
  0
SOLID
  5
247
330
241
100
AcDbEntity
  8
0
 62
     0
100
AcDbTrace
 10
287.236504633593
 20
32.91095959137556
 30
0.0
 11
287.236504633593
 21
32.85095959137556
 31
0.0
 12
287.416504633593
 22
32.88095959137556
 32
0.0
 13
287.416504633593
 23
32.88095959137556
 33
0.0
  0
MTEXT
  5
248
330
241
100
AcDbEntity
  8
0
 62
     0
100
AcDbMText
 10
285.866504633593
 20
32.88095959137556
 30
0.0
 40
0.15
 41
0.0
 71
     5
 72
     1
  1
\A1;3.10
1001
ACAD
1000
MTEXTBEGIN
1070
    73
1070
     1
1070
    44
1040
1.0
1070
    74
1070
     0
1000
MTEXTEND
  0
POINT
  5
249
330
241
100
AcDbEntity
  8
DEFPOINTS
 62
     0
100
AcDbPoint
 10
284.316504633593
 20
33.62468418732551
 30
0.0
  0
POINT
  5
24A
330
241
100
AcDbEntity
  8
DEFPOINTS
 62
     0
100
AcDbPoint
 10
287.416504633593
 20
33.62468418732551
 30
0.0
  0
POINT
  5
24B
330
241
100
AcDbEntity
  8
DEFPOINTS
 62
     0
100
AcDbPoint
 10
287.416504633593
 20
32.88095959137556
 30
0.0
  0
ENDBLK
  5
24D
330
241
100
AcDbEntity
  8
0
100
AcDbBlockEnd
  0
BLOCK
  5
25A
330
24F
100
AcDbEntity
  8
0
100
AcDbBlockBegin
  2
*D3
 70
     1
 10
0.0
 20
0.0
 30
0.0
  3
*D3
  1

  0
LINE
  5
250
330
24F
100
AcDbEntity
  8
0
 62
     0
100
AcDbLine
 10
287.479004633593
 20
33.62468418732551
 30
0.0
 11
288.8476713365968
 21
33.62468418732551
 31
0.0
  0
LINE
  5
251
330
24F
100
AcDbEntity
  8
0
 62
     0
100
AcDbLine
 10
287.479004633593
 20
38.12468418732551
 30
0.0
 11
288.8476713365968
 21
38.12468418732551
 31
0.0
  0
LINE
  5
252
330
24F
100
AcDbEntity
  8
0
 62
     0
100
AcDbLine
 10
288.6676713365968
 20
33.80468418732551
 30
0.0
 11
288.6676713365968
 21
35.70968418732551
 31
0.0
  0
LINE
  5
253
330
24F
100
AcDbEntity
  8
0
 62
     0
100
AcDbLine
 10
288.6676713365968
 20
37.94468418732551
 30
0.0
 11
288.6676713365968
 21
36.03968418732551
 31
0.0
  0
SOLID
  5
254
330
24F
100
AcDbEntity
  8
0
 62
     0
100
AcDbTrace
 10
288.6376713365968
 20
33.80468418732551
 30
0.0
 11
288.6976713365968
 21
33.80468418732551
 31
0.0
 12
288.6676713365968
 22
33.62468418732551
 32
0.0
 13
288.6676713365968
 23
33.62468418732551
 33
0.0
  0
SOLID
  5
255
330
24F
100
AcDbEntity
  8
0
 62
     0
100
AcDbTrace
 10
288.6376713365968
 20
37.94468418732551
 30
0.0
 11
288.6976713365968
 21
37.94468418732551
 31
0.0
 12
288.6676713365968
 22
38.12468418732551
 32
0.0
 13
288.6676713365968
 23
38.12468418732551
 33
0.0
  0
MTEXT
  5
256
330
24F
100
AcDbEntity
  8
0
 62
     0
100
AcDbMText
 10
288.6676713365968
 20
35.87468418732556
 30
0.0
 40
0.15
 41
0.0
 71
     5
 72
     1
  1
\A1;4.50
1001
ACAD
1000
MTEXTBEGIN
1070
    73
1070
     1
1070
    44
1040
1.0
1070
    74
1070
     0
1000
MTEXTEND
  0
POINT
  5
257
330
24F
100
AcDbEntity
  8
DEFPOINTS
 62
     0
100
AcDbPoint
 10
287.416504633593
 20
33.62468418732551
 30
0.0
  0
POINT
  5
258
330
24F
100
AcDbEntity
  8
DEFPOINTS
 62
     0
100
AcDbPoint
 10
287.416504633593
 20
38.12468418732551
 30
0.0
  0
POINT
  5
259
330
24F
100
AcDbEntity
  8
DEFPOINTS
 62
     0
100
AcDbPoint
 10
288.6676713365968
 20
38.12468418732551
 30
0.0
  0
ENDBLK
  5
25B
330
24F
100
AcDbEntity
  8
0
100
AcDbBlockEnd
  0
BLOCK
  5
275
330
26A
100
AcDbEntity
  8
0
100
AcDbBlockBegin
  2
*D4
 70
     1
 10
0.0
 20
0.0
 30
0.0
  3
*D4
  1

  0
LINE
  5
26B
330
26A
100
AcDbEntity
  8
0
 62
     0
100
AcDbLine
 10
284.2043521724855
 20
37.59918551119925
 30
0.0
 11
284.2043521724855
 21
38.49676266638251
 31
0.0
  0
LINE
  5
26C
330
26A
100
AcDbEntity
  8
0
 62
     0
100
AcDbLine
 10
288.7043521724855
 20
37.59918551119925
 30
0.0
 11
288.7043521724855
 21
38.49676266638251
 31
0.0
  0
LINE
  5
26D
330
26A
100
AcDbEntity
  8
0
 62
     0
100
AcDbLine
 10
284.3843521724855
 20
38.31676266638251
 30
0.0
 11
286.1518521724855
 21
38.31676266638251
 31
0.0
  0
LINE
  5
26E
330
26A
100
AcDbEntity
  8
0
 62
     0
100
AcDbLine
 10
288.5243521724855
 20
38.31676266638251
 30
0.0
 11
286.7568521724855
 21
38.31676266638251
 31
0.0
  0
SOLID
  5
26F
330
26A
100
AcDbEntity
  8
0
 62
     0
100
AcDbTrace
 10
284.3843521724855
 20
38.34676266638251
 30
0.0
 11
284.3843521724855
 21
38.28676266638251
 31
0.0
 12
284.2043521724855
 22
38.31676266638251
 32
0.0
 13
284.2043521724855
 23
38.31676266638251
 33
0.0
  0
SOLID
  5
270
330
26A
100
AcDbEntity
  8
0
 62
     0
100
AcDbTrace
 10
288.5243521724855
 20
38.34676266638251
 30
0.0
 11
288.5243521724855
 21
38.28676266638251
 31
0.0
 12
288.7043521724855
 22
38.31676266638251
 32
0.0
 13
288.7043521724855
 23
38.31676266638251
 33
0.0
  0
MTEXT
  5
271
330
26A
100
AcDbEntity
  8
0
 62
     0
100
AcDbMText
 10
286.4543521724855
 20
38.31676266638251
 30
0.0
 40
0.15
 41
0.0
 71
     5
 72
     1
  1
\A1;4.50
1001
ACAD
1000
MTEXTBEGIN
1070
    73
1070
     1
1070
    44
1040
1.0
1070
    74
1070
     0
1000
MTEXTEND
  0
POINT
  5
272
330
26A
100
AcDbEntity
  8
DEFPOINTS
 62
     0
100
AcDbPoint
 10
284.2043521724855
 20
37.53668551119925
 30
0.0
  0
POINT
  5
273
330
26A
100
AcDbEntity
  8
DEFPOINTS
 62
     0
100
AcDbPoint
 10
288.7043521724855
 20
37.53668551119925
 30
0.0
  0
POINT
  5
274
330
26A
100
AcDbEntity
  8
DEFPOINTS
 62
     0
100
AcDbPoint
 10
288.7043521724855
 20
38.31676266638251
 30
0.0
  0
ENDBLK
  5
276
330
26A
100
AcDbEntity
  8
0
100
AcDbBlockEnd
  0
BLOCK
  5
283
330
278
100
AcDbEntity
  8
0
100
AcDbBlockBegin
  2
*D5
 70
     1
 10
0.0
 20
0.0
 30
0.0
  3
*D5
  1

  0
LINE
  5
279
330
278
100
AcDbEntity
  8
0
 62
     0
100
AcDbLine
 10
288.7668521724855
 20
37.53668551119925
 30
0.0
 11
290.0004069812758
 21
37.53668551119925
 31
0.0
  0
LINE
  5
27A
330
278
100
AcDbEntity
  8
0
 62
     0
100
AcDbLine
 10
288.7668521724855
 20
34.43668551119925
 30
0.0
 11
290.0004069812758
 21
34.43668551119925
 31
0.0
  0
LINE
  5
27B
330
278
100
AcDbEntity
  8
0
 62
     0
100
AcDbLine
 10
289.8204069812758
 20
37.35668551119925
 30
0.0
 11
289.8204069812758
 21
36.15168551119924
 31
0.0
  0
LINE
  5
27C
330
278
100
AcDbEntity
  8
0
 62
     0
100
AcDbLine
 10
289.8204069812758
 20
34.61668551119925
 30
0.0
 11
289.8204069812758
 21
35.82168551119925
 31
0.0
  0
SOLID
  5
27D
330
278
100
AcDbEntity
  8
0
 62
     0
100
AcDbTrace
 10
289.7904069812758
 20
37.35668551119925
 30
0.0
 11
289.8504069812758
 21
37.35668551119925
 31
0.0
 12
289.8204069812758
 22
37.53668551119925
 32
0.0
 13
289.8204069812758
 23
37.53668551119925
 33
0.0
  0
SOLID
  5
27E
330
278
100
AcDbEntity
  8
0
 62
     0
100
AcDbTrace
 10
289.7904069812758
 20
34.61668551119925
 30
0.0
 11
289.8504069812758
 21
34.61668551119925
 31
0.0
 12
289.8204069812758
 22
34.43668551119925
 32
0.0
 13
289.8204069812758
 23
34.43668551119925
 33
0.0
  0
MTEXT
  5
27F
330
278
100
AcDbEntity
  8
0
 62
     0
100
AcDbMText
 10
289.8204069812758
 20
35.9866855111993
 30
0.0
 40
0.15
 41
0.0
 71
     5
 72
     1
  1
\A1;3.10
1001
ACAD
1000
MTEXTBEGIN
1070
    73
1070
     1
1070
    44
1040
1.0
1070
    74
1070
     0
1000
MTEXTEND
  0
POINT
  5
280
330
278
100
AcDbEntity
  8
DEFPOINTS
 62
     0
100
AcDbPoint
 10
288.7043521724855
 20
37.53668551119925
 30
0.0
  0
POINT
  5
281
330
278
100
AcDbEntity
  8
DEFPOINTS
 62
     0
100
AcDbPoint
 10
288.7043521724855
 20
34.43668551119925
 30
0.0
  0
POINT
  5
282
330
278
100
AcDbEntity
  8
DEFPOINTS
 62
     0
100
AcDbPoint
 10
289.8204069812758
 20
34.43668551119925
 30
0.0
  0
ENDBLK
  5
284
330
278
100
AcDbEntity
  8
0
100
AcDbBlockEnd
  0
ENDSEC
  0
SECTION
  2
ENTITIES
  0
TEXT
  5
2C
330
1E
100
AcDbEntity
  8
0
  6
CONTINUOUS
100
AcDbText
 10
287.2988264734369
 20
41.33198931675695
 30
0.0
 40
0.15
  1
2
  7
ROMANC
100
AcDbText
  0
TEXT
  5
2D
330
1E
100
AcDbEntity
  8
0
  6
CONTINUOUS
100
AcDbText
 10
283.9259999999999
 20
41.768
 30
0.0
 40
0.3
  1
ESCALA  1:50
  7
ROMANC
100
AcDbText
  0
LWPOLYLINE
  5
2E
330
1E
100
AcDbEntity
  8
NO_PRINT
  6
CONTINUOUS
100
AcDbPolyline
 90
        4
 70
     1
 43
0.0
 10
281.396
 20
44.747
 10
291.896
 20
44.747
 10
291.896
 20
29.897
 10
281.396
 20
29.897
  0
TEXT
  5
34
330
1E
100
AcDbEntity
  8
0
  6
CONTINUOUS
100
AcDbText
 10
283.9259999999999
 20
42.381
 30
0.0
 40
0.3
  1
TIPUS   NT1395A
  7
ROMANC
100
AcDbText
  0
TEXT
  5
36
330
1E
100
AcDbEntity
  8
0
  6
CONTINUOUS
100
AcDbText
 10
283.922
 20
40.529
 30
0.0
 40
0.3
  1
P = 152 dm
  7
ROMANC
100
AcDbText
  0
TEXT
  5
37
330
1E
100
AcDbEntity
  8
0
  6
CONTINUOUS
100
AcDbText
 10
283.9449999999999
 20
41.09899999999999
 30
0.0
 40
0.3
  1
S = 1395 dm
  7
ROMANC
100
AcDbText
  0
TEXT
  5
230
330
1E
100
AcDbEntity
  8
0
  6
CONTINUOUS
100
AcDbText
 10
286.8024263338345
 20
31.01436083670648
 30
0.0
 40
0.25
  1
Interceptor carrer A
  7
ROMANC
100
AcDbText
  0
LWPOLYLINE
  5
268
330
1E
100
AcDbEntity
  8
0
100
AcDbPolyline
 90
        4
 70
     1
 43
0.0
 10
288.7043521724855
 20
34.43668551119925
 10
284.2043521724855
 20
34.43668551119925
 10
284.2043521724855
 20
37.53668551119925
 10
288.7043521724855
 20
37.53668551119925
  0
DIMENSION
  5
269
330
1E
100
AcDbEntity
  8
0
100
AcDbDimension
  2
*D4
 10
288.7043521724855
 20
38.31676266638251
 30
0.0
 11
286.4543521724855
 21
38.31676266638251
 31
0.0
 70
    32
  3
STANDARD
100
AcDbAlignedDimension
 13
284.2043521724855
 23
37.53668551119925
 33
0.0
 14
288.7043521724855
 24
37.53668551119925
 34
0.0
100
AcDbRotatedDimension
  0
DIMENSION
  5
277
330
1E
100
AcDbEntity
  8
0
100
AcDbDimension
  2
*D5
 10
289.8204069812758
 20
34.43668551119925
 30
0.0
 11
289.8204069812758
 21
35.9866855111993
 31
0.0
 70
    32
  3
STANDARD
100
AcDbAlignedDimension
 13
288.7043521724855
 23
37.53668551119925
 33
0.0
 14
288.7043521724855
 24
34.43668551119925
 34
0.0
 50
90.0
100
AcDbRotatedDimension
  0
LWPOLYLINE
  5
285
330
1E
100
AcDbEntity
  8
0
100
AcDbPolyline
 90
        4
 70
     1
 43
0.0
 10
288.7143521724855
 20
34.42668551119925
 10
284.1943521724855
 20
34.42668551119925
 10
284.1943521724855
 20
37.54668551119925
 10
288.7143521724855
 20
37.54668551119925
  0
LWPOLYLINE
  5
286
330
1E
100
AcDbEntity
  8
0
100
AcDbPolyline
 90
        4
 70
     1
 43
0.0
 10
288.6943521724855
 20
34.44668551119924
 10
284.2143521724855
 20
34.44668551119924
 10
284.2143521724855
 20
37.52668551119925
 10
288.6943521724855
 20
37.52668551119925
  0
ENDSEC
  0
SECTION
  2
OBJECTS
  0
DICTIONARY
  5
C
330
0
100
AcDbDictionary
  3
ACAD_GROUP
350
D
  3
ACAD_LAYOUT
350
19
  3
ACAD_MLINESTYLE
350
16
  3
ACAD_PLOTSETTINGS
350
18
  3
ACAD_PLOTSTYLENAME
350
E
  3
ACDBHEADERROUNDTRIPXREC
350
289
  3
ACDBVARIABLEDICTIONARY
350
6E
  3
DWGPROPS
350
25E
  0
DICTIONARY
  5
2AB
330
1E
100
AcDbDictionary
280
     1
  3
ACAD_LAYOUTSELFREF
360
2AC
  0
DICTIONARY
  5
2A9
330
1A
100
AcDbDictionary
280
     1
  3
ACAD_LAYOUTSELFREF
360
2AA
  0
DICTIONARY
  5
D
102
{ACAD_REACTORS
330
C
102
}
330
C
100
AcDbDictionary
  0
DICTIONARY
  5
19
102
{ACAD_REACTORS
330
C
102
}
330
C
100
AcDbDictionary
  0
DICTIONARY
  5
16
102
{ACAD_REACTORS
330
C
102
}
330
C
100
AcDbDictionary
  3
STANDARD
350
17
  0
DICTIONARY
  5
18
102
{ACAD_REACTORS
330
C
102
}
330
C
100
AcDbDictionary
  0
ACDBDICTIONARYWDFLT
  5
E
102
{ACAD_REACTORS
330
C
102
}
330
C
100
AcDbDictionary
281
     1
  3
Normal
350
F
100
AcDbDictionaryWithDefault
340
F
  0
DICTIONARY
  5
289
102
{ACAD_REACTORS
330
C
102
}
330
C
100
AcDbDictionary
  3
CEPSNTYPE
350
293
  3
FINGERPRINTGUID
350
294
  3
HYPERLINKBASE
350
28C
  3
INSUNITS
350
292
  3
LAYOUTDICT
350
28E
  3
LWETCUNION
350
291
  3
PLOTSETDICT
350
28F
  3
PLOTSTYLNAMDICT
350
290
  3
PSVPSCALE
350
296
  3
PUCSBASE
350
299
  3
PUCSORGBACK
350
29F
  3
PUCSORGBOTTOM
350
29B
  3
PUCSORGFRONT
350
29E
  3
PUCSORGLEFT
350
29C
  3
PUCSORGRIGHT
350
29D
  3
PUCSORGTOP
350
29A
  3
PUCSORTHOREF
350
297
  3
PUCSORTHOVIEW
350
298
  3
STYLESHEET
350
28D
  3
TSTACKALIGN
350
28A
  3
TSTACKSIZE
350
28B
  3
UCSBASE
350
2A2
  3
UCSORGBACK
350
2A8
  3
UCSORGBOTTOM
350
2A4
  3
UCSORGFRONT
350
2A7
  3
UCSORGLEFT
350
2A5
  3
UCSORGRIGHT
350
2A6
  3
UCSORGTOP
350
2A3
  3
UCSORTHOREF
350
2A0
  3
UCSORTHOVIEW
350
2A1
  3
VERSIONGUID
350
295
  0
DICTIONARY
  5
6E
102
{ACAD_REACTORS
330
C
102
}
330
C
100
AcDbDictionary
  3
DIMASSOC
350
6F
  0
XRECORD
  5
25E
102
{ACAD_REACTORS
330
C
102
}
330
C
100
AcDbXrecord
  1
DWGPROPS COOKIE
  2

  3

  4

  6

  7

  8
JaumeTrias
  9

300
=
301
=
302
=
303
=
304
=
305
=
306
=
307
=
308
=
309
=
 40
0.0212328472222222
 41
2448315.331741435
 42
2452943.474104468
  1

 90
        0
  0
XRECORD
  5
2AC
102
{ACAD_REACTORS
330
2AB
102
}
330
2AB
100
AcDbXrecord
340
1E
  0
XRECORD
  5
2AA
102
{ACAD_REACTORS
330
2A9
102
}
330
2A9
100
AcDbXrecord
340
1A
  0
MLINESTYLE
  5
17
102
{ACAD_REACTORS
330
16
102
}
330
16
100
AcDbMlineStyle
  2
STANDARD
 70
     0
  3

 62
   256
 51
90.0
 52
90.0
 71
     2
 49
0.5
 62
   256
  6
BYLAYER
 49
-0.5
 62
   256
  6
BYLAYER
  0
ACDBPLACEHOLDER
  5
F
102
{ACAD_REACTORS
330
E
102
}
330
E
100
AcDbPlaceHolder
280
     0
  0
XRECORD
  5
293
102
{ACAD_REACTORS
330
289
102
}
330
289
100
AcDbXrecord
 90
        0
  0
XRECORD
  5
294
102
{ACAD_REACTORS
330
289
102
}
330
289
100
AcDbXrecord
  1
{A6FCFFB5-5CE9-42DC-A06F-C5476E26D97B}
  0
XRECORD
  5
28C
102
{ACAD_REACTORS
330
289
102
}
330
289
100
AcDbXrecord
  1

  0
XRECORD
  5
292
102
{ACAD_REACTORS
330
289
102
}
330
289
100
AcDbXrecord
 90
        0
  0
XRECORD
  5
28E
102
{ACAD_REACTORS
330
289
102
}
330
289
100
AcDbXrecord
340
19
  0
XRECORD
  5
291
102
{ACAD_REACTORS
330
289
102
}
330
289
100
AcDbXrecord
 90
    10781
  0
XRECORD
  5
28F
102
{ACAD_REACTORS
330
289
102
}
330
289
100
AcDbXrecord
340
18
  0
XRECORD
  5
290
102
{ACAD_REACTORS
330
289
102
}
330
289
100
AcDbXrecord
340
E
  0
XRECORD
  5
296
102
{ACAD_REACTORS
330
289
102
}
330
289
100
AcDbXrecord
 40
0.0
  0
XRECORD
  5
299
102
{ACAD_REACTORS
330
289
102
}
330
289
100
AcDbXrecord
340
0
  0
XRECORD
  5
29F
102
{ACAD_REACTORS
330
289
102
}
330
289
100
AcDbXrecord
 10
0.0
 20
0.0
 30
0.0
  0
XRECORD
  5
29B
102
{ACAD_REACTORS
330
289
102
}
330
289
100
AcDbXrecord
 10
0.0
 20
0.0
 30
0.0
  0
XRECORD
  5
29E
102
{ACAD_REACTORS
330
289
102
}
330
289
100
AcDbXrecord
 10
0.0
 20
0.0
 30
0.0
  0
XRECORD
  5
29C
102
{ACAD_REACTORS
330
289
102
}
330
289
100
AcDbXrecord
 10
0.0
 20
0.0
 30
0.0
  0
XRECORD
  5
29D
102
{ACAD_REACTORS
330
289
102
}
330
289
100
AcDbXrecord
 10
0.0
 20
0.0
 30
0.0
  0
XRECORD
  5
29A
102
{ACAD_REACTORS
330
289
102
}
330
289
100
AcDbXrecord
 10
0.0
 20
0.0
 30
0.0
  0
XRECORD
  5
297
102
{ACAD_REACTORS
330
289
102
}
330
289
100
AcDbXrecord
340
0
  0
XRECORD
  5
298
102
{ACAD_REACTORS
330
289
102
}
330
289
100
AcDbXrecord
 70
     0
  0
XRECORD
  5
28D
102
{ACAD_REACTORS
330
289
102
}
330
289
100
AcDbXrecord
  1

  0
XRECORD
  5
28A
102
{ACAD_REACTORS
330
289
102
}
330
289
100
AcDbXrecord
 90
        1
  0
XRECORD
  5
28B
102
{ACAD_REACTORS
330
289
102
}
330
289
100
AcDbXrecord
 90
       70
  0
XRECORD
  5
2A2
102
{ACAD_REACTORS
330
289
102
}
330
289
100
AcDbXrecord
340
0
  0
XRECORD
  5
2A8
102
{ACAD_REACTORS
330
289
102
}
330
289
100
AcDbXrecord
 10
0.0
 20
0.0
 30
0.0
  0
XRECORD
  5
2A4
102
{ACAD_REACTORS
330
289
102
}
330
289
100
AcDbXrecord
 10
0.0
 20
0.0
 30
0.0
  0
XRECORD
  5
2A7
102
{ACAD_REACTORS
330
289
102
}
330
289
100
AcDbXrecord
 10
0.0
 20
0.0
 30
0.0
  0
XRECORD
  5
2A5
102
{ACAD_REACTORS
330
289
102
}
330
289
100
AcDbXrecord
 10
0.0
 20
0.0
 30
0.0
  0
XRECORD
  5
2A6
102
{ACAD_REACTORS
330
289
102
}
330
289
100
AcDbXrecord
 10
0.0
 20
0.0
 30
0.0
  0
XRECORD
  5
2A3
102
{ACAD_REACTORS
330
289
102
}
330
289
100
AcDbXrecord
 10
0.0
 20
0.0
 30
0.0
  0
XRECORD
  5
2A0
102
{ACAD_REACTORS
330
289
102
}
330
289
100
AcDbXrecord
340
0
  0
XRECORD
  5
2A1
102
{ACAD_REACTORS
330
289
102
}
330
289
100
AcDbXrecord
 70
     0
  0
XRECORD
  5
295
102
{ACAD_REACTORS
330
289
102
}
330
289
100
AcDbXrecord
  1
{DCF32B29-FF9F-425F-8504-C9D62B71E0D6}
  0
DICTIONARYVAR
  5
6F
102
{ACAD_REACTORS
330
6E
102
}
330
6E
100
DictionaryVariables
280
     0
  1
1
  0
ENDSEC
  0
EOF
