  0
SECTION
  2
HEADER
  9
$ACADVER
  1
AC1018
  9
$ACADMAINTVER
 70
    39
  9
$DWGCODEPAGE
  3
ANSI_1252
  9
$INSBASE
 10
0.0
 20
0.0
 30
0.0
  9
$EXTMIN
 10
86.21188311445754
 20
34.426205
 30
0.0
  9
$EXTMAX
 10
96.71188311445753
 20
49.276205
 30
0.0
  9
$LIMMIN
 10
0.0
 20
0.0
  9
$LIMMAX
 10
420.0
 20
297.0
  9
$ORTHOMODE
 70
     1
  9
$REGENMODE
 70
     1
  9
$FILLMODE
 70
     1
  9
$QTEXTMODE
 70
     0
  9
$MIRRTEXT
 70
     0
  9
$LTSCALE
 40
1.0
  9
$ATTMODE
 70
     1
  9
$TEXTSIZE
 40
2.5
  9
$TRACEWID
 40
1.0
  9
$TEXTSTYLE
  7
Standard
  9
$CLAYER
  8
0
  9
$CELTYPE
  6
ByLayer
  9
$CECOLOR
 62
   256
  9
$CELTSCALE
 40
1.0
  9
$DISPSILH
 70
     0
  9
$DIMSCALE
 40
1.5
  9
$DIMASZ
 40
0.1
  9
$DIMEXO
 40
0.01
  9
$DIMDLI
 40
7.0
  9
$DIMRND
 40
0.0
  9
$DIMDLE
 40
0.0
  9
$DIMEXE
 40
0.01
  9
$DIMTP
 40
0.0
  9
$DIMTM
 40
0.0
  9
$DIMTXT
 40
0.05
  9
$DIMCEN
 40
0.1
  9
$DIMTSZ
 40
0.0
  9
$DIMTOL
 70
     0
  9
$DIMLIM
 70
     0
  9
$DIMTIH
 70
     0
  9
$DIMTOH
 70
     0
  9
$DIMSE1
 70
     0
  9
$DIMSE2
 70
     0
  9
$DIMTAD
 70
     1
  9
$DIMZIN
 70
     0
  9
$DIMBLK
  1

  9
$DIMASO
 70
     1
  9
$DIMSHO
 70
     1
  9
$DIMPOST
  1

  9
$DIMAPOST
  1

  9
$DIMALT
 70
     0
  9
$DIMALTD
 70
     2
  9
$DIMALTF
 40
25.4
  9
$DIMLFAC
 40
1.0
  9
$DIMTOFL
 70
     1
  9
$DIMTVP
 40
0.0
  9
$DIMTIX
 70
     1
  9
$DIMSOXD
 70
     0
  9
$DIMSAH
 70
     0
  9
$DIMBLK1
  1

  9
$DIMBLK2
  1

  9
$DIMSTYLE
  2
SILVIA
  9
$DIMCLRD
 70
     0
  9
$DIMCLRE
 70
     0
  9
$DIMCLRT
 70
     0
  9
$DIMTFAC
 40
70.0
  9
$DIMGAP
 40
0.09
  9
$DIMJUST
 70
     0
  9
$DIMSD1
 70
     0
  9
$DIMSD2
 70
     0
  9
$DIMTOLJ
 70
     1
  9
$DIMTZIN
 70
     0
  9
$DIMALTZ
 70
     0
  9
$DIMALTTZ
 70
     0
  9
$DIMUPT
 70
     0
  9
$DIMDEC
 70
     2
  9
$DIMTDEC
 70
     2
  9
$DIMALTU
 70
     2
  9
$DIMALTTD
 70
     2
  9
$DIMTXSTY
  7
ROMANC
  9
$DIMAUNIT
 70
     0
  9
$DIMADEC
 70
     0
  9
$DIMALTRND
 40
0.0
  9
$DIMAZIN
 70
     0
  9
$DIMDSEP
 70
    46
  9
$DIMATFIT
 70
     3
  9
$DIMFRAC
 70
     0
  9
$DIMLDRBLK
  1

  9
$DIMLUNIT
 70
     2
  9
$DIMLWD
 70
    -2
  9
$DIMLWE
 70
    -2
  9
$DIMTMOVE
 70
     0
  9
$LUNITS
 70
     2
  9
$LUPREC
 70
     4
  9
$SKETCHINC
 40
1.0
  9
$FILLETRAD
 40
0.0
  9
$AUNITS
 70
     0
  9
$AUPREC
 70
     0
  9
$MENU
  1
.
  9
$ELEVATION
 40
0.0
  9
$PELEVATION
 40
0.0
  9
$THICKNESS
 40
0.0
  9
$LIMCHECK
 70
     0
  9
$CHAMFERA
 40
0.0
  9
$CHAMFERB
 40
0.0
  9
$CHAMFERC
 40
0.0
  9
$CHAMFERD
 40
0.0
  9
$SKPOLY
 70
     0
  9
$TDCREATE
 40
2454042.349703299
  9
$TDUCREATE
 40
2454042.308036632
  9
$TDUPDATE
 40
2454042.399679109
  9
$TDUUPDATE
 40
2454042.358012442
  9
$TDINDWG
 40
0.0494131944
  9
$TDUSRTIMER
 40
0.0494084954
  9
$USRTIMER
 70
     1
  9
$ANGBASE
 50
0.0
  9
$ANGDIR
 70
     0
  9
$PDMODE
 70
     0
  9
$PDSIZE
 40
0.0
  9
$PLINEWID
 40
0.0
  9
$SPLFRAME
 70
     0
  9
$SPLINETYPE
 70
     6
  9
$SPLINESEGS
 70
     8
  9
$HANDSEED
  5
6E
  9
$SURFTAB1
 70
     6
  9
$SURFTAB2
 70
     6
  9
$SURFTYPE
 70
     6
  9
$SURFU
 70
     6
  9
$SURFV
 70
     6
  9
$UCSBASE
  2

  9
$UCSNAME
  2

  9
$UCSORG
 10
0.0
 20
0.0
 30
0.0
  9
$UCSXDIR
 10
1.0
 20
0.0
 30
0.0
  9
$UCSYDIR
 10
0.0
 20
1.0
 30
0.0
  9
$UCSORTHOREF
  2

  9
$UCSORTHOVIEW
 70
     0
  9
$UCSORGTOP
 10
0.0
 20
0.0
 30
0.0
  9
$UCSORGBOTTOM
 10
0.0
 20
0.0
 30
0.0
  9
$UCSORGLEFT
 10
0.0
 20
0.0
 30
0.0
  9
$UCSORGRIGHT
 10
0.0
 20
0.0
 30
0.0
  9
$UCSORGFRONT
 10
0.0
 20
0.0
 30
0.0
  9
$UCSORGBACK
 10
0.0
 20
0.0
 30
0.0
  9
$PUCSBASE
  2

  9
$PUCSNAME
  2

  9
$PUCSORG
 10
0.0
 20
0.0
 30
0.0
  9
$PUCSXDIR
 10
1.0
 20
0.0
 30
0.0
  9
$PUCSYDIR
 10
0.0
 20
1.0
 30
0.0
  9
$PUCSORTHOREF
  2

  9
$PUCSORTHOVIEW
 70
     0
  9
$PUCSORGTOP
 10
0.0
 20
0.0
 30
0.0
  9
$PUCSORGBOTTOM
 10
0.0
 20
0.0
 30
0.0
  9
$PUCSORGLEFT
 10
0.0
 20
0.0
 30
0.0
  9
$PUCSORGRIGHT
 10
0.0
 20
0.0
 30
0.0
  9
$PUCSORGFRONT
 10
0.0
 20
0.0
 30
0.0
  9
$PUCSORGBACK
 10
0.0
 20
0.0
 30
0.0
  9
$USERI1
 70
     0
  9
$USERI2
 70
     0
  9
$USERI3
 70
     0
  9
$USERI4
 70
     0
  9
$USERI5
 70
     0
  9
$USERR1
 40
0.0
  9
$USERR2
 40
0.0
  9
$USERR3
 40
0.0
  9
$USERR4
 40
0.0
  9
$USERR5
 40
0.0
  9
$WORLDVIEW
 70
     1
  9
$SHADEDGE
 70
     3
  9
$SHADEDIF
 70
    70
  9
$TILEMODE
 70
     1
  9
$MAXACTVP
 70
    64
  9
$PINSBASE
 10
0.0
 20
0.0
 30
0.0
  9
$PLIMCHECK
 70
     0
  9
$PEXTMIN
 10
1.000000000000000E+20
 20
1.000000000000000E+20
 30
1.000000000000000E+20
  9
$PEXTMAX
 10
-1.000000000000000E+20
 20
-1.000000000000000E+20
 30
-1.000000000000000E+20
  9
$PLIMMIN
 10
0.0
 20
0.0
  9
$PLIMMAX
 10
420.0
 20
297.0
  9
$UNITMODE
 70
     0
  9
$VISRETAIN
 70
     1
  9
$PLINEGEN
 70
     0
  9
$PSLTSCALE
 70
     1
  9
$TREEDEPTH
 70
  3020
  9
$CMLSTYLE
  2
Standard
  9
$CMLJUST
 70
     0
  9
$CMLSCALE
 40
20.0
  9
$PROXYGRAPHICS
 70
     1
  9
$MEASUREMENT
 70
     1
  9
$CELWEIGHT
370
    -1
  9
$ENDCAPS
280
     0
  9
$JOINSTYLE
280
     0
  9
$LWDISPLAY
290
     0
  9
$INSUNITS
 70
     6
  9
$HYPERLINKBASE
  1

  9
$STYLESHEET
  1

  9
$XEDIT
290
     1
  9
$CEPSNTYPE
380
     0
  9
$PSTYLEMODE
290
     1
  9
$FINGERPRINTGUID
  2
{F2101839-8E57-4DE3-B384-A0EC4841C258}
  9
$VERSIONGUID
  2
{FA20BC42-78E3-40D7-BEFE-185E5B44FAED}
  9
$EXTNAMES
290
     1
  9
$PSVPSCALE
 40
0.0
  9
$OLESTARTUP
290
     0
  9
$SORTENTS
280
   127
  9
$INDEXCTL
280
     0
  9
$HIDETEXT
280
     1
  9
$XCLIPFRAME
290
     0
  9
$HALOGAP
280
     0
  9
$OBSCOLOR
 70
   257
  9
$OBSLTYPE
280
     0
  9
$INTERSECTIONDISPLAY
280
     0
  9
$INTERSECTIONCOLOR
 70
   257
  9
$DIMASSOC
280
     2
  9
$PROJECTNAME
  1

  0
ENDSEC
  0
SECTION
  2
CLASSES
  0
CLASS
  1
ACDBDICTIONARYWDFLT
  2
AcDbDictionaryWithDefault
  3
ObjectDBX Classes
 90
        0
 91
        1
280
     0
281
     0
  0
CLASS
  1
TABLESTYLE
  2
AcDbTableStyle
  3
ObjectDBX Classes
 90
     2047
 91
        1
280
     0
281
     0
  0
CLASS
  1
SORTENTSTABLE
  2
AcDbSortentsTable
  3
ObjectDBX Classes
 90
        0
 91
        1
280
     0
281
     0
  0
CLASS
  1
DIMASSOC
  2
AcDbDimAssoc
  3
"AcDbDimAssoc|Product Desc:     AcDim ARX App For Dimension|Company:          Autodesk, Inc.|WEB Address:      www.autodesk.com"
 90
        0
 91
        2
280
     0
281
     0
  0
CLASS
  1
DICTIONARYVAR
  2
AcDbDictionaryVar
  3
ObjectDBX Classes
 90
        0
 91
        1
280
     0
281
     0
  0
ENDSEC
  0
SECTION
  2
TABLES
  0
TABLE
  2
VPORT
  5
1B
330
0
100
AcDbSymbolTable
 70
     2
  0
VPORT
  5
6D
330
1B
100
AcDbSymbolTableRecord
100
AcDbViewportTableRecord
  2
*Active
 70
     0
 10
0.0
 20
0.0
 11
1.0
 21
1.0
 12
93.75336737115333
 22
45.34036881019358
 13
0.0
 23
0.0
 14
10.0
 24
10.0
 15
10.0
 25
10.0
 16
0.0
 26
0.0
 36
1.0
 17
0.0
 27
0.0
 37
0.0
 40
25.90363693042082
 41
1.725321888412017
 42
50.0
 43
0.0
 44
0.0
 50
0.0
 51
0.0
 71
     0
 72
  1000
 73
     1
 74
     3
 75
     0
 76
     0
 77
     0
 78
     0
281
     0
 65
     1
110
0.0
120
0.0
130
0.0
111
1.0
121
0.0
131
0.0
112
0.0
122
1.0
132
0.0
 79
     0
146
0.0
  0
ENDTAB
  0
TABLE
  2
LTYPE
  5
16
330
0
100
AcDbSymbolTable
 70
     1
  0
LTYPE
  5
17
330
16
100
AcDbSymbolTableRecord
100
AcDbLinetypeTableRecord
  2
ByBlock
 70
     0
  3

 72
    65
 73
     0
 40
0.0
  0
LTYPE
  5
18
330
16
100
AcDbSymbolTableRecord
100
AcDbLinetypeTableRecord
  2
ByLayer
 70
     0
  3

 72
    65
 73
     0
 40
0.0
  0
LTYPE
  5
A
330
16
100
AcDbSymbolTableRecord
100
AcDbLinetypeTableRecord
  2
Continuous
 70
     0
  3
Solid line
 72
    65
 73
     0
 40
0.0
  0
ENDTAB
  0
TABLE
  2
LAYER
  5
12
330
0
100
AcDbSymbolTable
 70
     3
  0
LAYER
  5
6
330
12
100
AcDbSymbolTableRecord
100
AcDbLayerTableRecord
  2
0
 70
     0
 62
     7
  6
Continuous
370
    -3
390
7
  0
LAYER
  5
30
330
12
100
AcDbSymbolTableRecord
100
AcDbLayerTableRecord
  2
DEFPOINTS
 70
     0
 62
     7
  6
Continuous
290
     0
370
    -3
390
7
  0
LAYER
  5
42
330
12
100
AcDbSymbolTableRecord
100
AcDbLayerTableRecord
  2
NO_PRINT
 70
     0
 62
     7
  6
Continuous
370
    -3
390
7
  0
ENDTAB
  0
TABLE
  2
STYLE
  5
13
330
0
100
AcDbSymbolTable
 70
     2
  0
STYLE
  5
14
330
13
100
AcDbSymbolTableRecord
100
AcDbTextStyleTableRecord
  2
Standard
 70
     0
 40
0.0
 41
1.0
 50
0.0
 71
     0
 42
2.5
  3
txt
  4

  0
STYLE
  5
21
330
13
100
AcDbSymbolTableRecord
100
AcDbTextStyleTableRecord
  2
ROMANC
 70
     0
 40
0.0
 41
1.0
 50
0.0
 71
     0
 42
0.1
  3
romanc
  4

  0
ENDTAB
  0
TABLE
  2
VIEW
  5
19
330
0
100
AcDbSymbolTable
 70
     0
  0
ENDTAB
  0
TABLE
  2
UCS
  5
1A
330
0
100
AcDbSymbolTable
 70
     0
  0
ENDTAB
  0
TABLE
  2
APPID
  5
1D
330
0
100
AcDbSymbolTable
 70
     1
  0
APPID
  5
1E
330
1D
100
AcDbSymbolTableRecord
100
AcDbRegAppTableRecord
  2
ACAD
 70
     0
  0
ENDTAB
  0
TABLE
  2
DIMSTYLE
  5
1F
330
0
100
AcDbSymbolTable
 70
     2
100
AcDbDimStyleTable
 71
     2
340
20
340
22
  0
DIMSTYLE
105
22
330
1F
100
AcDbSymbolTableRecord
100
AcDbDimStyleTableRecord
  2
ISO-25
 70
     0
 41
2.5
 42
0.625
 43
3.75
 44
1.25
 73
     0
 74
     0
 77
     1
 78
     8
140
2.5
141
2.5
143
0.03937007874016
147
0.625
171
     3
172
     1
271
     2
272
     2
274
     3
278
    44
283
     0
284
     8
340
14
  0
DIMSTYLE
105
20
102
{ACAD_REACTORS
330
46
330
55
102
}
330
1F
100
AcDbSymbolTableRecord
100
AcDbDimStyleTableRecord
  2
SILVIA
 70
     0
 40
1.5
 41
0.1
 42
0.01
 43
7.0
 44
0.01
 73
     0
 74
     0
 77
     1
140
0.05
141
0.1
146
70.0
172
     1
174
     1
271
     2
272
     2
340
21
  0
ENDTAB
  0
TABLE
  2
BLOCK_RECORD
  5
1
330
0
100
AcDbSymbolTable
 70
     2
  0
BLOCK_RECORD
  5
2
102
{ACAD_XDICTIONARY
360
3
102
}
330
1
100
AcDbSymbolTableRecord
100
AcDbBlockTableRecord
  2
*Model_Space
340
C
  0
BLOCK_RECORD
  5
E
330
1
100
AcDbSymbolTableRecord
100
AcDbBlockTableRecord
  2
*Paper_Space
340
11
  0
BLOCK_RECORD
  5
49
330
1
100
AcDbSymbolTableRecord
100
AcDbBlockTableRecord
  2
*D0
340
0
  0
BLOCK_RECORD
  5
58
330
1
100
AcDbSymbolTableRecord
100
AcDbBlockTableRecord
  2
*D1
340
0
  0
ENDTAB
  0
ENDSEC
  0
SECTION
  2
BLOCKS
  0
BLOCK
  5
5
330
2
100
AcDbEntity
  8
0
100
AcDbBlockBegin
  2
*Model_Space
 70
     0
 10
0.0
 20
0.0
 30
0.0
  3
*Model_Space
  1

  0
ENDBLK
  5
B
330
2
100
AcDbEntity
  8
0
100
AcDbBlockEnd
  0
BLOCK
  5
F
330
E
100
AcDbEntity
 67
     1
  8
0
100
AcDbBlockBegin
  2
*Paper_Space
 70
     0
 10
0.0
 20
0.0
 30
0.0
  3
*Paper_Space
  1

  0
ENDBLK
  5
10
330
E
100
AcDbEntity
 67
     1
  8
0
100
AcDbBlockEnd
  0
BLOCK
  5
4A
330
49
100
AcDbEntity
  8
0
100
AcDbBlockBegin
  2
*D0
 70
     1
 10
0.0
 20
0.0
 30
0.0
  3
*D0
  1

  0
LINE
  5
4B
330
49
100
AcDbEntity
  8
0
 62
     0
370
    -2
100
AcDbLine
 10
88.19572453069124
 20
39.10860799999999
 30
0.0
 11
88.19572453069124
 21
38.81928899554741
 31
0.0
  0
LINE
  5
4C
330
49
100
AcDbEntity
  8
0
 62
     0
370
    -2
100
AcDbLine
 10
95.19572453069123
 20
39.10860799999999
 30
0.0
 11
95.19572453069123
 21
38.81928899554741
 31
0.0
  0
LINE
  5
4D
330
49
100
AcDbEntity
  8
0
 62
     0
370
    -2
100
AcDbLine
 10
88.34572453069124
 20
38.83428899554741
 30
0.0
 11
95.04572453069123
 21
38.83428899554741
 31
0.0
  0
SOLID
  5
4E
330
49
100
AcDbEntity
  8
0
 62
     0
100
AcDbTrace
 10
88.34572453069124
 20
38.85928899554741
 30
0.0
 11
88.34572453069124
 21
38.80928899554741
 31
0.0
 12
88.19572453069124
 22
38.83428899554741
 32
0.0
 13
88.19572453069124
 23
38.83428899554741
 33
0.0
  0
SOLID
  5
4F
330
49
100
AcDbEntity
  8
0
 62
     0
100
AcDbTrace
 10
95.04572453069123
 20
38.85928899554741
 30
0.0
 11
95.04572453069123
 21
38.80928899554741
 31
0.0
 12
95.19572453069123
 22
38.83428899554741
 32
0.0
 13
95.19572453069123
 23
38.83428899554741
 33
0.0
  0
MTEXT
  5
50
330
49
100
AcDbEntity
  8
0
 62
     0
100
AcDbMText
 10
91.69572453069124
 20
39.00678899554741
 30
0.0
 40
0.075
 41
0.0
 71
     5
 72
     1
  1
\A1;7.00
  7
ROMANC
 73
     1
 44
1.0
  0
POINT
  5
51
330
49
100
AcDbEntity
  8
DEFPOINTS
 62
     0
100
AcDbPoint
 10
88.19572453069124
 20
39.12360799999999
 30
0.0
  0
POINT
  5
52
330
49
100
AcDbEntity
  8
DEFPOINTS
 62
     0
100
AcDbPoint
 10
95.19572453069123
 20
39.12360799999999
 30
0.0
  0
POINT
  5
53
330
49
100
AcDbEntity
  8
DEFPOINTS
 62
     0
100
AcDbPoint
 10
95.19572453069123
 20
38.83428899554741
 30
0.0
  0
ENDBLK
  5
54
330
49
100
AcDbEntity
  8
0
100
AcDbBlockEnd
  0
BLOCK
  5
59
330
58
100
AcDbEntity
  8
0
100
AcDbBlockBegin
  2
*D1
 70
     1
 10
0.0
 20
0.0
 30
0.0
  3
*D1
  1

  0
LINE
  5
5A
330
58
100
AcDbEntity
  8
0
 62
     0
370
    -2
100
AcDbLine
 10
95.21072453069123
 20
39.12360799999999
 30
0.0
 11
95.48803656309418
 21
39.12360799999999
 31
0.0
  0
LINE
  5
5B
330
58
100
AcDbEntity
  8
0
 62
     0
370
    -2
100
AcDbLine
 10
95.21072453069121
 20
41.07360799999998
 30
0.0
 11
95.48803656309418
 21
41.07360799999998
 31
0.0
  0
LINE
  5
5C
330
58
100
AcDbEntity
  8
0
 62
     0
370
    -2
100
AcDbLine
 10
95.47303656309418
 20
39.27360799999999
 30
0.0
 11
95.47303656309418
 21
40.92360799999998
 31
0.0
  0
SOLID
  5
5D
330
58
100
AcDbEntity
  8
0
 62
     0
100
AcDbTrace
 10
95.44803656309417
 20
39.27360799999999
 30
0.0
 11
95.49803656309419
 21
39.27360799999999
 31
0.0
 12
95.47303656309418
 22
39.12360799999999
 32
0.0
 13
95.47303656309418
 23
39.12360799999999
 33
0.0
  0
SOLID
  5
5E
330
58
100
AcDbEntity
  8
0
 62
     0
100
AcDbTrace
 10
95.44803656309417
 20
40.92360799999998
 30
0.0
 11
95.49803656309419
 21
40.92360799999998
 31
0.0
 12
95.47303656309418
 22
41.07360799999998
 32
0.0
 13
95.47303656309418
 23
41.07360799999998
 33
0.0
  0
MTEXT
  5
5F
330
58
100
AcDbEntity
  8
0
 62
     0
100
AcDbMText
 10
95.30053656309418
 20
40.198608
 30
0.0
 40
0.075
 41
0.0
 71
     5
 72
     1
  1
\A1;1.95
  7
ROMANC
 11
0.0000000000000001
 21
1.0
 31
0.0
 73
     1
 44
1.0
  0
POINT
  5
60
330
58
100
AcDbEntity
  8
DEFPOINTS
 62
     0
100
AcDbPoint
 10
95.19572453069123
 20
39.12360799999999
 30
0.0
  0
POINT
  5
61
330
58
100
AcDbEntity
  8
DEFPOINTS
 62
     0
100
AcDbPoint
 10
95.19572453069121
 20
41.07360799999998
 30
0.0
  0
POINT
  5
62
330
58
100
AcDbEntity
  8
DEFPOINTS
 62
     0
100
AcDbPoint
 10
95.47303656309418
 20
41.07360799999998
 30
0.0
  0
ENDBLK
  5
63
330
58
100
AcDbEntity
  8
0
100
AcDbBlockEnd
  0
ENDSEC
  0
SECTION
  2
ENTITIES
  0
LINE
  5
2C
330
2
100
AcDbEntity
  8
0
100
AcDbLine
 10
95.21072453069127
 20
41.08860799999999
 30
0.0
 11
95.21072453069121
 21
39.108608
 31
0.0
  0
LINE
  5
2D
330
2
100
AcDbEntity
  8
0
100
AcDbLine
 10
95.21072453069121
 20
39.108608
 30
0.0
 11
93.18072453069142
 21
39.108608
 31
0.0
  0
LINE
  5
2E
330
2
100
AcDbEntity
  8
0
100
AcDbLine
 10
95.20322453069139
 20
41.08110799999999
 30
0.0
 11
95.20322453069139
 21
39.11610799999999
 31
0.0
  0
POINT
  5
2F
330
2
100
AcDbEntity
  8
DEFPOINTS
  6
ByBlock
 62
     0
100
AcDbPoint
 10
95.19572453069123
 20
40.923608
 30
0.0
  0
POINT
  5
31
330
2
100
AcDbEntity
  8
DEFPOINTS
  6
ByBlock
 62
     0
100
AcDbPoint
 10
93.19572453069124
 20
39.12360799999999
 30
0.0
  0
LINE
  5
32
330
2
100
AcDbEntity
  8
0
100
AcDbLine
 10
95.19572453069123
 20
41.07360799999999
 30
0.0
 11
95.19572453069123
 21
39.12360799999999
 31
0.0
  0
LINE
  5
33
330
2
100
AcDbEntity
  8
0
100
AcDbLine
 10
88.19572453069124
 20
41.07360799999999
 30
0.0
 11
88.19572453069124
 21
39.12360799999999
 31
0.0
  0
LINE
  5
34
330
2
100
AcDbEntity
  8
0
100
AcDbLine
 10
88.18822453069122
 20
41.08110799999998
 30
0.0
 11
88.18822453069124
 21
39.116108
 31
0.0
  0
LINE
  5
35
330
2
100
AcDbEntity
  8
0
100
AcDbLine
 10
88.18072453069126
 20
41.088608
 30
0.0
 11
88.18072453069124
 21
39.10860799999999
 31
0.0
  0
LINE
  5
36
102
{ACAD_REACTORS
330
48
330
57
102
}
330
2
100
AcDbEntity
  8
0
100
AcDbLine
 10
95.19572453069123
 20
39.12360799999999
 30
0.0
 11
88.19572453069124
 21
39.12360799999999
 31
0.0
  0
LINE
  5
37
102
{ACAD_REACTORS
330
48
330
57
102
}
330
2
100
AcDbEntity
  8
0
100
AcDbLine
 10
95.19572453069123
 20
41.07360799999999
 30
0.0
 11
88.19572453069124
 21
41.07360799999999
 31
0.0
  0
LINE
  5
38
102
{ACAD_REACTORS
330
48
330
57
102
}
330
2
100
AcDbEntity
  8
0
100
AcDbLine
 10
95.20322453069139
 20
41.08110799999999
 30
0.0
 11
88.18822453069122
 21
41.08110799999998
 31
0.0
  0
LINE
  5
39
102
{ACAD_REACTORS
330
48
330
57
102
}
330
2
100
AcDbEntity
  8
0
100
AcDbLine
 10
95.21072453069127
 20
41.08860799999999
 30
0.0
 11
88.18072453069126
 21
41.088608
 31
0.0
  0
LINE
  5
3A
330
2
100
AcDbEntity
  8
0
100
AcDbLine
 10
95.20322453069139
 20
39.11610799999999
 30
0.0
 11
88.18822453069124
 21
39.116108
 31
0.0
  0
LINE
  5
3B
330
2
100
AcDbEntity
  8
0
100
AcDbLine
 10
95.20322453069139
 20
39.10860799999999
 30
0.0
 11
88.18072453069124
 21
39.10860799999999
 31
0.0
  0
TEXT
  5
3C
330
2
100
AcDbEntity
  8
0
100
AcDbText
 10
88.72366156302497
 20
45.090181
 30
0.0
 40
0.3
  1
P = 179 dm
  7
ROMANC
100
AcDbText
  0
TEXT
  5
3D
330
2
100
AcDbEntity
  8
0
100
AcDbText
 10
92.25418202465336
 20
46.093676
 30
0.0
 40
0.1
  1
2
  7
ROMANC
100
AcDbText
  0
TEXT
  5
3E
330
2
100
AcDbEntity
  8
0
100
AcDbText
 10
88.76158356302495
 20
46.38635
 30
0.0
 40
0.3
  1
ESCALA  1:50
  7
ROMANC
100
AcDbText
  0
TEXT
  5
3F
330
2
100
AcDbEntity
  8
0
100
AcDbText
 10
88.76158356302495
 20
46.872064
 30
0.0
 40
0.3
  1
TIPUS   NT1365
  7
ROMANC
100
AcDbText
  0
TEXT
  5
40
330
2
100
AcDbEntity
  8
0
100
AcDbText
 10
88.77467756302499
 20
45.78775999999999
 30
0.0
 40
0.3
  1
S = 136.5 dm
  7
ROMANC
100
AcDbText
  0
LINE
  5
41
330
2
100
AcDbEntity
  8
NO_PRINT
100
AcDbLine
 10
96.71188311445753
 20
34.426205
 30
0.0
 11
96.71188311445753
 21
49.276205
 31
0.0
  0
LINE
  5
43
330
2
100
AcDbEntity
  8
NO_PRINT
100
AcDbLine
 10
86.21188311445754
 20
49.276205
 30
0.0
 11
86.21188311445754
 21
34.426205
 31
0.0
  0
LINE
  5
44
330
2
100
AcDbEntity
  8
NO_PRINT
100
AcDbLine
 10
86.21188311445754
 20
34.426205
 30
0.0
 11
96.71188311445753
 21
34.426205
 31
0.0
  0
LINE
  5
45
330
2
100
AcDbEntity
  8
NO_PRINT
100
AcDbLine
 10
96.71188311445753
 20
49.276205
 30
0.0
 11
86.21188311445754
 21
49.276205
 31
0.0
  0
DIMENSION
  5
46
102
{ACAD_XDICTIONARY
360
47
102
}
102
{ACAD_REACTORS
330
48
102
}
330
2
100
AcDbEntity
  8
0
100
AcDbDimension
  2
*D0
 10
95.19572453069123
 20
38.83428899554741
 30
0.0
 11
91.69572453069124
 21
39.00678899554741
 31
0.0
 71
     5
 42
7.0
  3
SILVIA
100
AcDbAlignedDimension
 13
88.19572453069124
 23
39.12360799999999
 33
0.0
 14
95.19572453069123
 24
39.12360799999999
 34
0.0
100
AcDbRotatedDimension
  0
DIMENSION
  5
55
102
{ACAD_XDICTIONARY
360
56
102
}
102
{ACAD_REACTORS
330
57
102
}
330
2
100
AcDbEntity
  8
0
100
AcDbDimension
  2
*D1
 10
95.47303656309418
 20
41.07360799999998
 30
0.0
 11
95.47303656309416
 21
40.198608
 31
0.0
 70
   128
 71
     5
 42
1.949999999999995
  3
SILVIA
100
AcDbAlignedDimension
 13
95.19572453069123
 23
39.12360799999999
 33
0.0
 14
95.19572453069121
 24
41.07360799999998
 34
0.0
 50
90.0
100
AcDbRotatedDimension
  0
ENDSEC
  0
SECTION
  2
OBJECTS
  0
DICTIONARY
  5
9
330
0
100
AcDbDictionary
281
     1
  3
ACAD_COLOR
350
28
  3
ACAD_GROUP
350
24
  3
ACAD_LAYOUT
350
D
  3
ACAD_MATERIAL
350
27
  3
ACAD_MLINESTYLE
350
25
  3
ACAD_PLOTSETTINGS
350
26
  3
ACAD_PLOTSTYLENAME
350
8
  3
ACAD_TABLESTYLE
350
29
  3
AcDbVariableDictionary
350
66
  0
DICTIONARY
  5
3
330
2
100
AcDbDictionary
280
     1
281
     1
  3
ACAD_SORTENTS
360
64
  0
DICTIONARY
  5
47
330
46
100
AcDbDictionary
280
     1
281
     1
  3
ACAD_DIMASSOC
360
48
  0
DICTIONARY
  5
56
330
55
100
AcDbDictionary
280
     1
281
     1
  3
ACAD_DIMASSOC
360
57
  0
DICTIONARY
  5
28
102
{ACAD_REACTORS
330
9
102
}
330
9
100
AcDbDictionary
281
     1
  0
DICTIONARY
  5
24
102
{ACAD_REACTORS
330
9
102
}
330
9
100
AcDbDictionary
281
     1
  0
DICTIONARY
  5
D
102
{ACAD_REACTORS
330
9
102
}
330
9
100
AcDbDictionary
281
     1
  3
Model
350
C
  3
Presentación1
350
11
  0
DICTIONARY
  5
27
102
{ACAD_REACTORS
330
9
102
}
330
9
100
AcDbDictionary
281
     1
  0
DICTIONARY
  5
25
102
{ACAD_REACTORS
330
9
102
}
330
9
100
AcDbDictionary
281
     1
  3
Standard
350
2A
  0
DICTIONARY
  5
26
102
{ACAD_REACTORS
330
9
102
}
330
9
100
AcDbDictionary
281
     1
  0
ACDBDICTIONARYWDFLT
  5
8
102
{ACAD_REACTORS
330
9
102
}
330
9
100
AcDbDictionary
281
     1
  3
Normal
350
7
100
AcDbDictionaryWithDefault
340
7
  0
DICTIONARY
  5
29
102
{ACAD_REACTORS
330
9
102
}
330
9
100
AcDbDictionary
281
     1
  3
Standard
350
2B
  0
DICTIONARY
  5
66
102
{ACAD_REACTORS
330
9
102
}
330
9
100
AcDbDictionary
281
     1
  3
CTABLESTYLE
350
67
  0
SORTENTSTABLE
  5
64
102
{ACAD_REACTORS
330
3
102
}
330
3
100
AcDbSortentsTable
330
2
  0
DIMASSOC
  5
48
102
{ACAD_REACTORS
330
47
102
}
330
47
100
AcDbDimAssoc
330
46
 90
        3
 70
     0
 71
     0
  1
AcDbOsnapPointRef
 72
     1
331
36
 73
     2
 91
        0
 40
1.0
 10
0.0
 20
0.0
 30
2.000000000000000E+50
 75
     0
  1
AcDbOsnapPointRef
 72
    13
331
36
 73
     2
 91
        0
 40
0.0
 10
0.0
 20
0.0
 30
2.000000000000000E+50
 75
     0
  0
DIMASSOC
  5
57
102
{ACAD_REACTORS
330
56
102
}
330
56
100
AcDbDimAssoc
330
55
 90
        1
 70
     0
 71
     0
  1
AcDbOsnapPointRef
 72
    13
331
36
 73
     2
 91
        0
 40
0.0
 10
0.0
 20
0.0
 30
2.000000000000000E+50
 75
     0
  0
LAYOUT
  5
C
102
{ACAD_REACTORS
330
D
102
}
330
D
100
AcDbPlotSettings
  1

  2
\\servidor1w\Prog-2\CFG_ACAD_2005\Plotters\HP2600PCL.pc3
  4

  6

 40
0.0
 41
0.0
 42
0.0
 43
0.0
 44
0.0
 45
0.0
 46
0.0
 47
0.0
 48
0.0
 49
0.0
140
0.0
141
0.0
142
1.0
143
1.0
 70
  1712
 72
     0
 73
     0
 74
     0
  7
CLABSA.ctb
 75
     0
147
1.0
 76
     0
 77
     2
 78
   300
148
0.0
149
0.0
100
AcDbLayout
  1
Model
 70
     1
 71
     0
 10
0.0
 20
0.0
 11
12.0
 21
9.0
 12
0.0
 22
0.0
 32
0.0
 14
0.0
 24
0.0
 34
0.0
 15
0.0
 25
0.0
 35
0.0
146
0.0
 13
0.0
 23
0.0
 33
0.0
 16
1.0
 26
0.0
 36
0.0
 17
0.0
 27
1.0
 37
0.0
 76
     0
330
2
  0
LAYOUT
  5
11
102
{ACAD_REACTORS
330
D
102
}
330
D
100
AcDbPlotSettings
  1

  2
\\servidor1w\Prog-2\CFG_ACAD_2005\Plotters\HP2600PCL.pc3
  4

  6

 40
0.0
 41
0.0
 42
0.0
 43
0.0
 44
0.0
 45
0.0
 46
0.0
 47
0.0
 48
0.0
 49
0.0
140
0.0
141
0.0
142
1.0
143
1.0
 70
   688
 72
     0
 73
     0
 74
     5
  7
CLABSA.ctb
 75
    16
147
1.0
 76
     0
 77
     2
 78
   300
148
0.0
149
0.0
100
AcDbLayout
  1
Presentación1
 70
     1
 71
     1
 10
0.0
 20
0.0
 11
420.0
 21
297.0
 12
0.0
 22
0.0
 32
0.0
 14
1.000000000000000E+20
 24
1.000000000000000E+20
 34
1.000000000000000E+20
 15
-1.000000000000000E+20
 25
-1.000000000000000E+20
 35
-1.000000000000000E+20
146
0.0
 13
0.0
 23
0.0
 33
0.0
 16
1.0
 26
0.0
 36
0.0
 17
0.0
 27
1.0
 37
0.0
 76
     0
330
E
  0
MLINESTYLE
  5
2A
102
{ACAD_REACTORS
330
25
102
}
330
25
100
AcDbMlineStyle
  2
STANDARD
 70
     0
  3

 62
   256
 51
90.0
 52
90.0
 71
     2
 49
0.5
 62
   256
  6
BYLAYER
 49
-0.5
 62
   256
  6
BYLAYER
  0
ACDBPLACEHOLDER
  5
7
102
{ACAD_REACTORS
330
8
102
}
330
8
  0
TABLESTYLE
  5
2B
102
{ACAD_REACTORS
330
29
102
}
330
29
100
AcDbTableStyle
  3
Standard
 70
     0
 71
     0
 40
1.5
 41
1.5
280
     0
281
     0
  7
Standard
140
4.5
170
     2
 62
     0
 63
     7
283
     0
274
    -2
284
     1
 64
     0
275
    -2
285
     1
 65
     0
276
    -2
286
     1
 66
     0
277
    -2
287
     1
 67
     0
278
    -2
288
     1
 68
     0
279
    -2
289
     1
 69
     0
  7
Standard
140
6.0
170
     5
 62
     0
 63
     7
283
     0
274
    -2
284
     1
 64
     0
275
    -2
285
     1
 65
     0
276
    -2
286
     1
 66
     0
277
    -2
287
     1
 67
     0
278
    -2
288
     1
 68
     0
279
    -2
289
     1
 69
     0
  7
Standard
140
4.5
170
     5
 62
     0
 63
     7
283
     0
274
    -2
284
     1
 64
     0
275
    -2
285
     1
 65
     0
276
    -2
286
     1
 66
     0
277
    -2
287
     1
 67
     0
278
    -2
288
     1
 68
     0
279
    -2
289
     1
 69
     0
  0
DICTIONARYVAR
  5
67
102
{ACAD_REACTORS
330
66
102
}
330
66
100
DictionaryVariables
280
     0
  1
STANDARD
  0
ENDSEC
  0
EOF
