  0
SECTION
  2
HEADER
  9
$ACADVER
  1
AC1015
  9
$ACADMAINTVER
 70
    13
  9
$DWGCODEPAGE
  3
ANSI_1252
  9
$INSBASE
 10
189.5569899999999
 20
-4.229233999999999
 30
0.0
  9
$EXTMIN
 10
281.3870252079646
 20
29.87977670398516
 30
-0.0000000349181948
  9
$EXTMAX
 10
291.8972786491472
 20
44.74740639206413
 30
0.0000000814935747
  9
$LIMMIN
 10
0.0
 20
0.0
  9
$LIMMAX
 10
410.0
 20
287.0
  9
$ORTHOMODE
 70
     0
  9
$REGENMODE
 70
     1
  9
$FILLMODE
 70
     1
  9
$QTEXTMODE
 70
     0
  9
$MIRRTEXT
 70
     1
  9
$LTSCALE
 40
25.0
  9
$ATTMODE
 70
     1
  9
$TEXTSIZE
 40
0.1
  9
$TRACEWID
 40
1.0
  9
$TEXTSTYLE
  7
ROMANC
  9
$CLAYER
  8
0
  9
$CELTYPE
  6
ByLayer
  9
$CECOLOR
 62
   256
  9
$CELTSCALE
 40
1.0
  9
$DISPSILH
 70
     0
  9
$DIMSCALE
 40
0.0
  9
$DIMASZ
 40
0.0
  9
$DIMEXO
 40
0.1
  9
$DIMDLI
 40
7.0
  9
$DIMRND
 40
0.0
  9
$DIMDLE
 40
0.0
  9
$DIMEXE
 40
1.8
  9
$DIMTP
 40
0.0
  9
$DIMTM
 40
0.0
  9
$DIMTXT
 40
0.03
  9
$DIMCEN
 40
1.5
  9
$DIMTSZ
 40
1.0
  9
$DIMTOL
 70
     0
  9
$DIMLIM
 70
     0
  9
$DIMTIH
 70
     0
  9
$DIMTOH
 70
     0
  9
$DIMSE1
 70
     0
  9
$DIMSE2
 70
     0
  9
$DIMTAD
 70
     0
  9
$DIMZIN
 70
     0
  9
$DIMBLK
  1

  9
$DIMASO
 70
     1
  9
$DIMSHO
 70
     0
  9
$DIMPOST
  1

  9
$DIMAPOST
  1

  9
$DIMALT
 70
     0
  9
$DIMALTD
 70
     2
  9
$DIMALTF
 40
25.4
  9
$DIMLFAC
 40
1.0
  9
$DIMTOFL
 70
     1
  9
$DIMTVP
 40
0.0
  9
$DIMTIX
 70
     1
  9
$DIMSOXD
 70
     0
  9
$DIMSAH
 70
     0
  9
$DIMBLK1
  1

  9
$DIMBLK2
  1

  9
$DIMSTYLE
  2
Standard
  9
$DIMCLRD
 70
     0
  9
$DIMCLRE
 70
     0
  9
$DIMCLRT
 70
     0
  9
$DIMTFAC
 40
116.6666669999999
  9
$DIMGAP
 40
0.09
  9
$DIMJUST
 70
     0
  9
$DIMSD1
 70
     0
  9
$DIMSD2
 70
     0
  9
$DIMTOLJ
 70
     1
  9
$DIMTZIN
 70
     0
  9
$DIMALTZ
 70
     0
  9
$DIMALTTZ
 70
     0
  9
$DIMUPT
 70
     0
  9
$DIMDEC
 70
     4
  9
$DIMTDEC
 70
     4
  9
$DIMALTU
 70
     2
  9
$DIMALTTD
 70
     2
  9
$DIMTXSTY
  7
STANDARD
  9
$DIMAUNIT
 70
     0
  9
$DIMADEC
 70
     0
  9
$DIMALTRND
 40
0.0
  9
$DIMAZIN
 70
     0
  9
$DIMDSEP
 70
    46
  9
$DIMATFIT
 70
     3
  9
$DIMFRAC
 70
     0
  9
$DIMLDRBLK
  1

  9
$DIMLUNIT
 70
     2
  9
$DIMLWD
 70
    -2
  9
$DIMLWE
 70
    -2
  9
$DIMTMOVE
 70
     0
  9
$LUNITS
 70
     2
  9
$LUPREC
 70
     2
  9
$SKETCHINC
 40
1.0
  9
$FILLETRAD
 40
0.0
  9
$AUNITS
 70
     0
  9
$AUPREC
 70
     0
  9
$MENU
  1
acad
  9
$ELEVATION
 40
0.0
  9
$PELEVATION
 40
0.0
  9
$THICKNESS
 40
0.0
  9
$LIMCHECK
 70
     0
  9
$CHAMFERA
 40
0.0
  9
$CHAMFERB
 40
0.0
  9
$CHAMFERC
 40
0.0
  9
$CHAMFERD
 40
0.0
  9
$SKPOLY
 70
     0
  9
$TDCREATE
 40
2449967.712784722
  9
$TDUCREATE
 40
2449967.671118055
  9
$TDUPDATE
 40
2453398.446328322
  9
$TDUUPDATE
 40
2453398.404661654
  9
$TDINDWG
 40
0.0777008681
  9
$TDUSRTIMER
 40
0.0776954514
  9
$USRTIMER
 70
     1
  9
$ANGBASE
 50
0.0
  9
$ANGDIR
 70
     0
  9
$PDMODE
 70
     0
  9
$PDSIZE
 40
0.0
  9
$PLINEWID
 40
0.0
  9
$SPLFRAME
 70
     0
  9
$SPLINETYPE
 70
     6
  9
$SPLINESEGS
 70
     8
  9
$HANDSEED
  5
35E
  9
$SURFTAB1
 70
     6
  9
$SURFTAB2
 70
     6
  9
$SURFTYPE
 70
     6
  9
$SURFU
 70
     6
  9
$SURFV
 70
     6
  9
$UCSBASE
  2

  9
$UCSNAME
  2

  9
$UCSORG
 10
0.0
 20
0.0
 30
0.0
  9
$UCSXDIR
 10
1.0
 20
0.0
 30
0.0
  9
$UCSYDIR
 10
0.0
 20
1.0
 30
0.0
  9
$UCSORTHOREF
  2

  9
$UCSORTHOVIEW
 70
     0
  9
$UCSORGTOP
 10
0.0
 20
0.0
 30
0.0
  9
$UCSORGBOTTOM
 10
0.0
 20
0.0
 30
0.0
  9
$UCSORGLEFT
 10
0.0
 20
0.0
 30
0.0
  9
$UCSORGRIGHT
 10
0.0
 20
0.0
 30
0.0
  9
$UCSORGFRONT
 10
0.0
 20
0.0
 30
0.0
  9
$UCSORGBACK
 10
0.0
 20
0.0
 30
0.0
  9
$PUCSBASE
  2

  9
$PUCSNAME
  2

  9
$PUCSORG
 10
0.0
 20
0.0
 30
0.0
  9
$PUCSXDIR
 10
1.0
 20
0.0
 30
0.0
  9
$PUCSYDIR
 10
0.0
 20
1.0
 30
0.0
  9
$PUCSORTHOREF
  2

  9
$PUCSORTHOVIEW
 70
     0
  9
$PUCSORGTOP
 10
0.0
 20
0.0
 30
0.0
  9
$PUCSORGBOTTOM
 10
0.0
 20
0.0
 30
0.0
  9
$PUCSORGLEFT
 10
0.0
 20
0.0
 30
0.0
  9
$PUCSORGRIGHT
 10
0.0
 20
0.0
 30
0.0
  9
$PUCSORGFRONT
 10
0.0
 20
0.0
 30
0.0
  9
$PUCSORGBACK
 10
0.0
 20
0.0
 30
0.0
  9
$USERI1
 70
     0
  9
$USERI2
 70
     0
  9
$USERI3
 70
     0
  9
$USERI4
 70
     0
  9
$USERI5
 70
     0
  9
$USERR1
 40
0.0
  9
$USERR2
 40
0.0
  9
$USERR3
 40
0.0
  9
$USERR4
 40
0.0
  9
$USERR5
 40
0.0
  9
$WORLDVIEW
 70
     1
  9
$SHADEDGE
 70
     3
  9
$SHADEDIF
 70
    70
  9
$TILEMODE
 70
     1
  9
$MAXACTVP
 70
    16
  9
$PINSBASE
 10
0.0
 20
0.0
 30
0.0
  9
$PLIMCHECK
 70
     0
  9
$PEXTMIN
 10
1.000000000000000E+20
 20
1.000000000000000E+20
 30
1.000000000000000E+20
  9
$PEXTMAX
 10
-1.000000000000000E+20
 20
-1.000000000000000E+20
 30
-1.000000000000000E+20
  9
$PLIMMIN
 10
0.0
 20
0.0
  9
$PLIMMAX
 10
12.0
 20
9.0
  9
$UNITMODE
 70
     0
  9
$VISRETAIN
 70
     0
  9
$PLINEGEN
 70
     0
  9
$PSLTSCALE
 70
     0
  9
$TREEDEPTH
 70
  3020
  9
$CMLSTYLE
  2
Standard
  9
$CMLJUST
 70
     0
  9
$CMLSCALE
 40
1.0
  9
$PROXYGRAPHICS
 70
     1
  9
$MEASUREMENT
 70
     0
  9
$CELWEIGHT
370
    -1
  9
$ENDCAPS
280
     0
  9
$JOINSTYLE
280
     0
  9
$LWDISPLAY
290
     0
  9
$INSUNITS
 70
     0
  9
$HYPERLINKBASE
  1

  9
$STYLESHEET
  1

  9
$XEDIT
290
     1
  9
$CEPSNTYPE
380
     0
  9
$PSTYLEMODE
290
     1
  9
$FINGERPRINTGUID
  2
{46F34B6A-ED84-42F7-BDDB-A042259643EA}
  9
$VERSIONGUID
  2
{93976E2A-18C1-4676-8FAD-AF98E8981D87}
  9
$EXTNAMES
290
     1
  9
$PSVPSCALE
 40
0.0
  9
$OLESTARTUP
290
     0
  0
ENDSEC
  0
SECTION
  2
CLASSES
  0
CLASS
  1
ACDBDICTIONARYWDFLT
  2
AcDbDictionaryWithDefault
  3
AutoCAD 2000
 90
        0
280
     0
281
     0
  0
CLASS
  1
ACDBPLACEHOLDER
  2
AcDbPlaceHolder
  3
AutoCAD 2000
 90
        0
280
     0
281
     0
  0
CLASS
  1
LAYOUT
  2
AcDbLayout
  3
AutoCAD 2000
 90
        0
280
     0
281
     0
  0
CLASS
  1
DICTIONARYVAR
  2
AcDbDictionaryVar
  3
AutoCAD 2000
 90
        0
280
     0
281
     0
  0
ENDSEC
  0
SECTION
  2
TABLES
  0
TABLE
  2
VPORT
  5
8
330
0
100
AcDbSymbolTable
 70
     3
  0
VPORT
  5
35D
330
8
100
AcDbSymbolTableRecord
100
AcDbViewportTableRecord
  2
*Active
 70
     0
 10
0.0
 20
0.0
 11
1.0
 21
1.0
 12
286.6421519285557
 22
37.31359154802464
 13
0.0
 23
0.0
 14
1.0
 24
1.0
 15
10.0
 25
10.0
 16
0.0
 26
0.0
 36
1.0
 17
0.0
 27
0.0
 37
0.0
 40
14.98982938414538
 41
1.27434842249657
 42
50.0
 43
0.0
 44
0.0
 50
0.0
 51
0.0
 71
     0
 72
   100
 73
     1
 74
     0
 75
     0
 76
     0
 77
     0
 78
     1
281
     0
 65
     1
110
0.0
120
0.0
130
0.0
111
1.0
121
0.0
131
0.0
112
0.0
122
1.0
132
0.0
 79
     0
146
0.0
  0
ENDTAB
  0
TABLE
  2
LTYPE
  5
5
330
0
100
AcDbSymbolTable
 70
     1
  0
LTYPE
  5
13
330
5
100
AcDbSymbolTableRecord
100
AcDbLinetypeTableRecord
  2
ByBlock
 70
     0
  3

 72
    65
 73
     0
 40
0.0
  0
LTYPE
  5
14
330
5
100
AcDbSymbolTableRecord
100
AcDbLinetypeTableRecord
  2
ByLayer
 70
     0
  3

 72
    65
 73
     0
 40
0.0
  0
LTYPE
  5
15
330
5
100
AcDbSymbolTableRecord
100
AcDbLinetypeTableRecord
  2
CONTINUOUS
 70
     0
  3
Solid line
 72
    65
 73
     0
 40
0.0
  0
ENDTAB
  0
TABLE
  2
LAYER
  5
2
330
0
100
AcDbSymbolTable
 70
     3
  0
LAYER
  5
10
330
2
100
AcDbSymbolTableRecord
100
AcDbLayerTableRecord
  2
0
 70
     0
 62
     7
  6
CONTINUOUS
370
    -3
390
F
  0
LAYER
  5
24
330
2
100
AcDbSymbolTableRecord
100
AcDbLayerTableRecord
  2
1
 70
     0
 62
     7
  6
CONTINUOUS
370
    -3
390
F
  0
LAYER
  5
25
330
2
100
AcDbSymbolTableRecord
100
AcDbLayerTableRecord
  2
DEFPOINTS
 70
     0
 62
     7
  6
CONTINUOUS
290
     0
370
    -3
390
F
  0
ENDTAB
  0
TABLE
  2
STYLE
  5
3
330
0
100
AcDbSymbolTable
 70
     2
  0
STYLE
  5
11
330
3
100
AcDbSymbolTableRecord
100
AcDbTextStyleTableRecord
  2
STANDARD
 70
     0
 40
0.0
 41
1.0
 50
0.0
 71
     0
 42
0.1
  3
txt
  4

  0
STYLE
  5
22
330
3
100
AcDbSymbolTableRecord
100
AcDbTextStyleTableRecord
  2
ROMANC
 70
     0
 40
0.0
 41
1.0
 50
0.0
 71
     0
 42
0.1
  3
romanc
  4

  0
ENDTAB
  0
TABLE
  2
VIEW
  5
6
330
0
100
AcDbSymbolTable
 70
     0
  0
ENDTAB
  0
TABLE
  2
UCS
  5
7
330
0
100
AcDbSymbolTable
 70
     0
  0
ENDTAB
  0
TABLE
  2
APPID
  5
9
330
0
100
AcDbSymbolTable
 70
     1
  0
APPID
  5
12
330
9
100
AcDbSymbolTableRecord
100
AcDbRegAppTableRecord
  2
ACAD
 70
     0
  0
ENDTAB
  0
TABLE
  2
DIMSTYLE
  5
A
330
0
100
AcDbSymbolTable
 70
     1
100
AcDbDimStyleTable
 71
     1
340
75
  0
DIMSTYLE
105
75
102
{ACAD_REACTORS
330
26D
330
28F
330
2D4
330
30D
330
32F
102
}
330
A
100
AcDbSymbolTableRecord
100
AcDbDimStyleTableRecord
  2
Standard
 70
     0
340
11
  0
ENDTAB
  0
TABLE
  2
BLOCK_RECORD
  5
1
330
0
100
AcDbSymbolTable
 70
    14
  0
BLOCK_RECORD
  5
1E
330
1
100
AcDbSymbolTableRecord
100
AcDbBlockTableRecord
  2
*Model_Space
340
21
  0
BLOCK_RECORD
  5
1A
330
1
100
AcDbSymbolTableRecord
100
AcDbBlockTableRecord
  2
*Paper_Space
340
1D
  0
BLOCK_RECORD
  5
28
330
1
100
AcDbSymbolTableRecord
100
AcDbBlockTableRecord
  2
*D0
340
0
  0
BLOCK_RECORD
  5
94
330
1
100
AcDbSymbolTableRecord
100
AcDbBlockTableRecord
  2
*D1
340
0
  0
BLOCK_RECORD
  5
AC
330
1
100
AcDbSymbolTableRecord
100
AcDbBlockTableRecord
  2
*D2
340
0
  0
BLOCK_RECORD
  5
E0
330
1
100
AcDbSymbolTableRecord
100
AcDbBlockTableRecord
  2
*D3
340
0
  0
BLOCK_RECORD
  5
116
330
1
100
AcDbSymbolTableRecord
100
AcDbBlockTableRecord
  2
*D4
340
0
  0
BLOCK_RECORD
  5
158
330
1
100
AcDbSymbolTableRecord
100
AcDbBlockTableRecord
  2
*D5
340
0
  0
BLOCK_RECORD
  5
1D6
330
1
100
AcDbSymbolTableRecord
100
AcDbBlockTableRecord
  2
*D6
340
0
  0
BLOCK_RECORD
  5
1F8
330
1
100
AcDbSymbolTableRecord
100
AcDbBlockTableRecord
  2
*D7
340
0
  0
BLOCK_RECORD
  5
234
330
1
100
AcDbSymbolTableRecord
100
AcDbBlockTableRecord
  2
*D8
340
0
  0
BLOCK_RECORD
  5
26E
330
1
100
AcDbSymbolTableRecord
100
AcDbBlockTableRecord
  2
*D9
340
0
  0
BLOCK_RECORD
  5
290
330
1
100
AcDbSymbolTableRecord
100
AcDbBlockTableRecord
  2
*D10
340
0
  0
BLOCK_RECORD
  5
2D5
330
1
100
AcDbSymbolTableRecord
100
AcDbBlockTableRecord
  2
*D11
340
0
  0
BLOCK_RECORD
  5
30E
330
1
100
AcDbSymbolTableRecord
100
AcDbBlockTableRecord
  2
*D12
340
0
  0
BLOCK_RECORD
  5
330
330
1
100
AcDbSymbolTableRecord
100
AcDbBlockTableRecord
  2
*D13
340
0
  0
ENDTAB
  0
ENDSEC
  0
SECTION
  2
BLOCKS
  0
BLOCK
  5
1F
330
1E
100
AcDbEntity
  8
0
100
AcDbBlockBegin
  2
*Model_Space
 70
     0
 10
0.0
 20
0.0
 30
0.0
  3
*Model_Space
  1

  0
ENDBLK
  5
20
330
1E
100
AcDbEntity
  8
0
100
AcDbBlockEnd
  0
BLOCK
  5
1B
330
1A
100
AcDbEntity
 67
     1
  8
0
100
AcDbBlockBegin
  2
*Paper_Space
 70
     0
 10
0.0
 20
0.0
 30
0.0
  3
*Paper_Space
  1

  0
ENDBLK
  5
1C
330
1A
100
AcDbEntity
 67
     1
  8
0
100
AcDbBlockEnd
  0
BLOCK
  5
29
330
28
100
AcDbEntity
  8
0
100
AcDbBlockBegin
  2
*D0
 70
     1
 10
0.0
 20
0.0
 30
0.0
  3
*D0
  1

  0
LINE
  5
2A
330
28
100
AcDbEntity
  8
0
  6
ByBlock
 62
     0
100
AcDbLine
 10
286.669
 20
33.138
 30
0.0
 11
286.669
 21
35.09247
 31
0.0
  0
LINE
  5
2B
330
28
100
AcDbEntity
  8
0
  6
ByBlock
 62
     0
100
AcDbLine
 10
287.165391
 20
33.14675499999999
 30
0.0
 11
287.165391
 21
35.09247
 31
0.0
  0
LINE
  5
2C
330
28
100
AcDbEntity
  8
0
  6
ByBlock
 62
     0
100
AcDbLine
 10
286.669
 20
33.29247
 30
0.0
 11
284.669
 21
33.29247
 31
0.0
  0
LINE
  5
2D
330
28
100
AcDbEntity
  8
0
  6
ByBlock
 62
     0
100
AcDbLine
 10
287.165391
 20
33.29247
 30
0.0
 11
289.165391
 21
33.29247
 31
0.0
  0
LINE
  5
2E
330
28
100
AcDbEntity
  8
0
  6
ByBlock
 62
     0
100
AcDbLine
 10
285.669
 20
32.29247
 30
0.0
 11
287.669
 21
34.29247
 31
0.0
  0
LINE
  5
2F
330
28
100
AcDbEntity
  8
0
  6
ByBlock
 62
     0
100
AcDbLine
 10
286.165391
 20
32.29247
 30
0.0
 11
288.165391
 21
34.29247
 31
0.0
  0
LINE
  5
30
330
28
100
AcDbEntity
  8
0
  6
ByBlock
 62
     0
100
AcDbLine
 10
286.669
 20
33.29247
 30
0.0
 11
287.165391
 21
33.29247
 31
0.0
  0
TEXT
  5
31
330
28
100
AcDbEntity
  8
0
  6
ByBlock
 62
     0
100
AcDbText
 10
286.8671949999999
 20
33.27747
 30
0.0
 40
0.03
  1
0.50
  7
ROMANC
 72
     1
 11
286.917195
 21
33.29247
 31
0.0
100
AcDbText
 73
     2
  0
POINT
  5
32
330
28
100
AcDbEntity
  8
DEFPOINTS
  6
ByBlock
 62
     0
100
AcDbPoint
 10
286.669
 20
33.038
 30
0.0
  0
POINT
  5
33
330
28
100
AcDbEntity
  8
DEFPOINTS
  6
ByBlock
 62
     0
100
AcDbPoint
 10
287.165391
 20
33.046755
 30
0.0
  0
POINT
  5
34
330
28
100
AcDbEntity
  8
DEFPOINTS
  6
ByBlock
 62
     0
100
AcDbPoint
 10
287.165391
 20
33.29247
 30
0.0
  0
ENDBLK
  5
35
330
28
100
AcDbEntity
  8
0
100
AcDbBlockEnd
  0
BLOCK
  5
9F
330
94
100
AcDbEntity
  8
0
100
AcDbBlockBegin
  2
*D1
 70
     1
 10
0.0
 20
0.0
 30
0.0
  3
*D1
  1

  0
LINE
  5
197
330
94
100
AcDbEntity
  8
0
 62
     0
370
    -2
100
AcDbLine
 10
287.1238444826721
 20
32.79857219559096
 30
0.0
 11
287.1238444826721
 21
31.82931359275967
 31
0.0
  0
LINE
  5
198
330
94
100
AcDbEntity
  8
0
 62
     0
370
    -2
100
AcDbLine
 10
285.8238444826721
 20
32.77857219559096
 30
0.0
 11
285.8238444826721
 21
31.82931359275967
 31
0.0
  0
LINE
  5
199
330
94
100
AcDbEntity
  8
0
 62
     0
370
    -2
100
AcDbLine
 10
286.9438444826719
 20
32.00931359275966
 30
0.0
 11
286.7888444826721
 21
32.00931359275966
 31
0.0
  0
LINE
  5
19A
330
94
100
AcDbEntity
  8
0
 62
     0
370
    -2
100
AcDbLine
 10
286.0038444826721
 20
32.00931359275966
 30
0.0
 11
286.1588444826721
 21
32.00931359275966
 31
0.0
  0
SOLID
  5
19B
330
94
100
AcDbEntity
  8
0
 62
     0
100
AcDbTrace
 10
286.9438444826719
 20
32.03931359275967
 30
0.0
 11
286.9438444826719
 21
31.97931359275966
 31
0.0
 12
287.1238444826721
 22
32.00931359275966
 32
0.0
 13
287.1238444826721
 23
32.00931359275966
 33
0.0
  0
SOLID
  5
19C
330
94
100
AcDbEntity
  8
0
 62
     0
100
AcDbTrace
 10
286.0038444826721
 20
32.03931359275967
 30
0.0
 11
286.0038444826721
 21
31.97931359275966
 31
0.0
 12
285.8238444826721
 22
32.00931359275966
 32
0.0
 13
285.8238444826721
 23
32.00931359275966
 33
0.0
  0
MTEXT
  5
19D
330
94
100
AcDbEntity
  8
0
 62
     0
100
AcDbMText
 10
286.4738444826721
 20
32.00931359275966
 30
0.0
 40
0.18
 41
0.0
 71
     5
 72
     1
  1
\A1;1.30
 73
     1
 44
1.0
  0
POINT
  5
19E
330
94
100
AcDbEntity
  8
DEFPOINTS
 62
     0
100
AcDbPoint
 10
287.1238444826721
 20
32.86107219559095
 30
0.0
  0
POINT
  5
19F
330
94
100
AcDbEntity
  8
DEFPOINTS
 62
     0
100
AcDbPoint
 10
285.8238444826721
 20
32.84107219559096
 30
0.0
  0
POINT
  5
1A0
330
94
100
AcDbEntity
  8
DEFPOINTS
 62
     0
100
AcDbPoint
 10
285.8238444826721
 20
32.00931359275966
 30
0.0
  0
ENDBLK
  5
A0
330
94
100
AcDbEntity
  8
0
100
AcDbBlockEnd
  0
BLOCK
  5
B9
330
AC
100
AcDbEntity
  8
0
100
AcDbBlockBegin
  2
*D2
 70
     1
 10
0.0
 20
0.0
 30
0.0
  3
*D2
  1

  0
LINE
  5
18D
330
AC
100
AcDbEntity
  8
0
 62
     0
370
    -2
100
AcDbLine
 10
286.2238444826721
 20
32.75857219559096
 30
0.0
 11
286.2238444826721
 21
32.1870646764203
 31
0.0
  0
LINE
  5
18E
330
AC
100
AcDbEntity
  8
0
 62
     0
370
    -2
100
AcDbLine
 10
285.8238444826721
 20
32.77857219559094
 30
0.0
 11
285.8238444826721
 21
32.1870646764203
 31
0.0
  0
LINE
  5
18F
330
AC
100
AcDbEntity
  8
0
 62
     0
370
    -2
100
AcDbLine
 10
286.4038444826721
 20
32.3670646764203
 30
0.0
 11
286.5838444826721
 21
32.3670646764203
 31
0.0
  0
LINE
  5
190
330
AC
100
AcDbEntity
  8
0
 62
     0
370
    -2
100
AcDbLine
 10
285.6438444826721
 20
32.3670646764203
 30
0.0
 11
285.4638444826721
 21
32.3670646764203
 31
0.0
  0
SOLID
  5
191
330
AC
100
AcDbEntity
  8
0
 62
     0
100
AcDbTrace
 10
286.4038444826721
 20
32.39706467642029
 30
0.0
 11
286.4038444826721
 21
32.3370646764203
 31
0.0
 12
286.2238444826721
 22
32.3670646764203
 32
0.0
 13
286.2238444826721
 23
32.3670646764203
 33
0.0
  0
SOLID
  5
192
330
AC
100
AcDbEntity
  8
0
 62
     0
100
AcDbTrace
 10
285.6438444826721
 20
32.39706467642029
 30
0.0
 11
285.6438444826721
 21
32.3370646764203
 31
0.0
 12
285.8238444826721
 22
32.3670646764203
 32
0.0
 13
285.8238444826721
 23
32.3670646764203
 33
0.0
  0
MTEXT
  5
193
330
AC
100
AcDbEntity
  8
0
 62
     0
100
AcDbMText
 10
285.1338444826721
 20
32.3670646764203
 30
0.0
 40
0.18
 41
0.0
 71
     5
 72
     1
  1
\A1;0.40
 73
     1
 44
1.0
  0
POINT
  5
194
330
AC
100
AcDbEntity
  8
DEFPOINTS
 62
     0
100
AcDbPoint
 10
286.2238444826721
 20
32.82107219559096
 30
0.0
  0
POINT
  5
195
330
AC
100
AcDbEntity
  8
DEFPOINTS
 62
     0
100
AcDbPoint
 10
285.8238444826721
 20
32.84107219559095
 30
0.0
  0
POINT
  5
196
330
AC
100
AcDbEntity
  8
DEFPOINTS
 62
     0
100
AcDbPoint
 10
285.8238444826721
 20
32.3670646764203
 30
0.0
  0
ENDBLK
  5
BA
330
AC
100
AcDbEntity
  8
0
100
AcDbBlockEnd
  0
BLOCK
  5
EB
330
E0
100
AcDbEntity
  8
0
100
AcDbBlockBegin
  2
*D3
 70
     1
 10
0.0
 20
0.0
 30
0.0
  3
*D3
  1

  0
LINE
  5
102
330
E0
100
AcDbEntity
  8
0
 62
     0
370
    -2
100
AcDbLine
 10
290.3084351487586
 20
32.84107219559096
 30
0.0
 11
290.9084509952413
 21
32.84107219559096
 31
0.0
  0
LINE
  5
103
330
E0
100
AcDbEntity
  8
0
 62
     0
370
    -2
100
AcDbLine
 10
290.3284351487586
 20
33.49107219559096
 30
0.0
 11
290.9084509952413
 21
33.49107219559096
 31
0.0
  0
LINE
  5
104
330
E0
100
AcDbEntity
  8
0
 62
     0
370
    -2
100
AcDbLine
 10
290.7284509952413
 20
32.66107219559096
 30
0.0
 11
290.7284509952413
 21
32.48107219559096
 31
0.0
  0
LINE
  5
105
330
E0
100
AcDbEntity
  8
0
 62
     0
370
    -2
100
AcDbLine
 10
290.7284509952413
 20
33.67107219559096
 30
0.0
 11
290.7284509952413
 21
33.85107219559095
 31
0.0
  0
SOLID
  5
106
330
E0
100
AcDbEntity
  8
0
 62
     0
100
AcDbTrace
 10
290.6984509952414
 20
32.66107219559096
 30
0.0
 11
290.7584509952413
 21
32.66107219559096
 31
0.0
 12
290.7284509952413
 22
32.84107219559096
 32
0.0
 13
290.7284509952413
 23
32.84107219559096
 33
0.0
  0
SOLID
  5
107
330
E0
100
AcDbEntity
  8
0
 62
     0
100
AcDbTrace
 10
290.6984509952414
 20
33.67107219559096
 30
0.0
 11
290.7584509952413
 21
33.67107219559096
 31
0.0
 12
290.7284509952413
 22
33.49107219559096
 32
0.0
 13
290.7284509952413
 23
33.49107219559096
 33
0.0
  0
MTEXT
  5
108
330
E0
100
AcDbEntity
  8
0
 62
     0
100
AcDbMText
 10
290.7284509952413
 20
33.15955131673534
 30
0.0
 40
0.18
 41
0.0
 71
     5
 72
     1
  1
\A1;0.6500
 73
     1
 44
1.0
  0
POINT
  5
109
330
E0
100
AcDbEntity
  8
DEFPOINTS
 62
     0
100
AcDbPoint
 10
290.2459351487586
 20
32.84107219559096
 30
0.0
  0
POINT
  5
10A
330
E0
100
AcDbEntity
  8
DEFPOINTS
 62
     0
100
AcDbPoint
 10
290.2659351487585
 20
33.49107219559096
 30
0.0
  0
POINT
  5
10B
330
E0
100
AcDbEntity
  8
DEFPOINTS
 62
     0
100
AcDbPoint
 10
290.7284509952413
 20
33.49107219559096
 30
0.0
  0
ENDBLK
  5
EC
330
E0
100
AcDbEntity
  8
0
100
AcDbBlockEnd
  0
BLOCK
  5
123
330
116
100
AcDbEntity
  8
0
100
AcDbBlockBegin
  2
*D4
 70
     1
 10
0.0
 20
0.0
 30
0.0
  3
*D4
  1

  0
LINE
  5
1AB
330
116
100
AcDbEntity
  8
0
 62
     0
370
    -2
100
AcDbLine
 10
287.1863444826719
 20
32.84107219559096
 30
0.0
 11
287.7954200124235
 21
32.84107219559096
 31
0.0
  0
LINE
  5
1AC
330
116
100
AcDbEntity
  8
0
 62
     0
370
    -2
100
AcDbLine
 10
287.1863444826719
 20
33.29107219559095
 30
0.0
 11
287.7954200124235
 21
33.29107219559095
 31
0.0
  0
LINE
  5
1AD
330
116
100
AcDbEntity
  8
0
 62
     0
370
    -2
100
AcDbLine
 10
287.6154200124235
 20
32.66107219559096
 30
0.0
 11
287.6154200124235
 21
32.48107219559096
 31
0.0
  0
LINE
  5
1AE
330
116
100
AcDbEntity
  8
0
 62
     0
370
    -2
100
AcDbLine
 10
287.6154200124235
 20
33.47107219559095
 30
0.0
 11
287.6154200124235
 21
33.65107219559095
 31
0.0
  0
SOLID
  5
1AF
330
116
100
AcDbEntity
  8
0
 62
     0
100
AcDbTrace
 10
287.5854200124235
 20
32.66107219559096
 30
0.0
 11
287.6454200124233
 21
32.66107219559096
 31
0.0
 12
287.6154200124235
 22
32.84107219559096
 32
0.0
 13
287.6154200124235
 23
32.84107219559096
 33
0.0
  0
SOLID
  5
1B0
330
116
100
AcDbEntity
  8
0
 62
     0
100
AcDbTrace
 10
287.5854200124235
 20
33.47107219559095
 30
0.0
 11
287.6454200124233
 21
33.47107219559095
 31
0.0
 12
287.6154200124235
 22
33.29107219559095
 32
0.0
 13
287.6154200124235
 23
33.29107219559095
 33
0.0
  0
MTEXT
  5
1B1
330
116
100
AcDbEntity
  8
0
 62
     0
100
AcDbMText
 10
287.6154200124235
 20
33.06607219559101
 30
0.0
 40
0.18
 41
0.0
 71
     5
 72
     1
  1
\A1;0.45
 73
     1
 44
1.0
  0
POINT
  5
1B2
330
116
100
AcDbEntity
  8
DEFPOINTS
 62
     0
100
AcDbPoint
 10
287.1238444826721
 20
32.84107219559096
 30
0.0
  0
POINT
  5
1B3
330
116
100
AcDbEntity
  8
DEFPOINTS
 62
     0
100
AcDbPoint
 10
287.1238444826721
 20
33.29107219559095
 30
0.0
  0
POINT
  5
1B4
330
116
100
AcDbEntity
  8
DEFPOINTS
 62
     0
100
AcDbPoint
 10
287.6154200124235
 20
33.29107219559095
 30
0.0
  0
ENDBLK
  5
124
330
116
100
AcDbEntity
  8
0
100
AcDbBlockEnd
  0
BLOCK
  5
163
330
158
100
AcDbEntity
  8
0
100
AcDbBlockBegin
  2
*D5
 70
     1
 10
0.0
 20
0.0
 30
0.0
  3
*D5
  1

  0
LINE
  5
1A1
330
158
100
AcDbEntity
  8
0
 62
     0
370
    -2
100
AcDbLine
 10
286.0879493297558
 20
32.63877441229505
 30
0.0
 11
288.7018390193576
 21
32.63877441229505
 31
0.0
  0
LINE
  5
1A2
330
158
100
AcDbEntity
  8
0
 62
     0
370
    -2
100
AcDbLine
 10
286.0879493297558
 20
33.9384524719854
 30
0.0
 11
288.7018390193576
 21
33.9384524719854
 31
0.0
  0
LINE
  5
1A3
330
158
100
AcDbEntity
  8
0
 62
     0
370
    -2
100
AcDbLine
 10
288.5218390193577
 20
32.81877441229505
 30
0.0
 11
288.5218390193577
 21
33.10861344214021
 31
0.0
  0
LINE
  5
1A4
330
158
100
AcDbEntity
  8
0
 62
     0
370
    -2
100
AcDbLine
 10
288.5218390193577
 20
33.7584524719854
 30
0.0
 11
288.5218390193577
 21
33.46861344214021
 31
0.0
  0
SOLID
  5
1A5
330
158
100
AcDbEntity
  8
0
 62
     0
100
AcDbTrace
 10
288.4918390193576
 20
32.81877441229505
 30
0.0
 11
288.5518390193576
 21
32.81877441229505
 31
0.0
 12
288.5218390193577
 22
32.63877441229505
 32
0.0
 13
288.5218390193577
 23
32.63877441229505
 33
0.0
  0
SOLID
  5
1A6
330
158
100
AcDbEntity
  8
0
 62
     0
100
AcDbTrace
 10
288.4918390193576
 20
33.7584524719854
 30
0.0
 11
288.5518390193576
 21
33.7584524719854
 31
0.0
 12
288.5218390193577
 22
33.9384524719854
 32
0.0
 13
288.5218390193577
 23
33.9384524719854
 33
0.0
  0
MTEXT
  5
1A7
330
158
100
AcDbEntity
  8
0
 62
     0
100
AcDbMText
 10
288.5218390193577
 20
33.28861344214026
 30
0.0
 40
0.18
 41
0.0
 71
     5
 72
     1
  1
\A1;1.30
 73
     1
 44
1.0
  0
POINT
  5
1A8
330
158
100
AcDbEntity
  8
DEFPOINTS
 62
     0
100
AcDbPoint
 10
286.0254493297558
 20
32.63877441229505
 30
0.0
  0
POINT
  5
1A9
330
158
100
AcDbEntity
  8
DEFPOINTS
 62
     0
100
AcDbPoint
 10
286.0254493297558
 20
33.9384524719854
 30
0.0
  0
POINT
  5
1AA
330
158
100
AcDbEntity
  8
DEFPOINTS
 62
     0
100
AcDbPoint
 10
288.5218390193577
 20
33.9384524719854
 30
0.0
  0
ENDBLK
  5
164
330
158
100
AcDbEntity
  8
0
100
AcDbBlockEnd
  0
BLOCK
  5
1E1
330
1D6
100
AcDbEntity
  8
0
100
AcDbBlockBegin
  2
*D6
 70
     1
 10
0.0
 20
0.0
 30
0.0
  3
*D6
  1

  0
LINE
  5
1ED
330
1D6
100
AcDbEntity
  8
0
 62
     0
370
    -2
100
AcDbLine
 10
286.0830579273673
 20
32.44661820630085
 30
0.0
 11
288.4343486653369
 21
32.44661820630085
 31
0.0
  0
LINE
  5
1EE
330
1D6
100
AcDbEntity
  8
0
 62
     0
370
    -2
100
AcDbLine
 10
286.5330579273673
 20
33.94661820630082
 30
0.0
 11
288.4343486653369
 21
33.94661820630082
 31
0.0
  0
LINE
  5
1EF
330
1D6
100
AcDbEntity
  8
0
 62
     0
370
    -2
100
AcDbLine
 10
288.2543486653369
 20
32.62661820630084
 30
0.0
 11
288.2543486653369
 21
33.01661820630082
 31
0.0
  0
LINE
  5
1F0
330
1D6
100
AcDbEntity
  8
0
 62
     0
370
    -2
100
AcDbLine
 10
288.2543486653369
 20
33.76661820630082
 30
0.0
 11
288.2543486653369
 21
33.37661820630082
 31
0.0
  0
SOLID
  5
1F1
330
1D6
100
AcDbEntity
  8
0
 62
     0
100
AcDbTrace
 10
288.2243486653369
 20
32.62661820630084
 30
0.0
 11
288.284348665337
 21
32.62661820630084
 31
0.0
 12
288.2543486653369
 22
32.44661820630085
 32
0.0
 13
288.2543486653369
 23
32.44661820630085
 33
0.0
  0
SOLID
  5
1F2
330
1D6
100
AcDbEntity
  8
0
 62
     0
100
AcDbTrace
 10
288.2243486653369
 20
33.76661820630082
 30
0.0
 11
288.284348665337
 21
33.76661820630082
 31
0.0
 12
288.2543486653369
 22
33.94661820630082
 32
0.0
 13
288.2543486653369
 23
33.94661820630082
 33
0.0
  0
MTEXT
  5
1F3
330
1D6
100
AcDbEntity
  8
0
 62
     0
100
AcDbMText
 10
288.2543486653369
 20
33.19661820630087
 30
0.0
 40
0.18
 41
0.0
 71
     5
 72
     1
  1
\A1;1.50
 73
     1
 44
1.0
  0
POINT
  5
1F4
330
1D6
100
AcDbEntity
  8
DEFPOINTS
 62
     0
100
AcDbPoint
 10
286.0205579273673
 20
32.44661820630085
 30
0.0
  0
POINT
  5
1F5
330
1D6
100
AcDbEntity
  8
DEFPOINTS
 62
     0
100
AcDbPoint
 10
286.4705579273673
 20
33.94661820630082
 30
0.0
  0
POINT
  5
1F6
330
1D6
100
AcDbEntity
  8
DEFPOINTS
 62
     0
100
AcDbPoint
 10
288.2543486653369
 20
33.94661820630082
 30
0.0
  0
ENDBLK
  5
1E2
330
1D6
100
AcDbEntity
  8
0
100
AcDbBlockEnd
  0
BLOCK
  5
204
330
1F8
100
AcDbEntity
  8
0
100
AcDbBlockBegin
  2
*D7
 70
     1
 10
0.0
 20
0.0
 30
0.0
  3
*D7
  1

  0
LINE
  5
228
330
1F8
100
AcDbEntity
  8
0
 62
     0
370
    -2
100
AcDbLine
 10
286.1455579273673
 20
32.44661820630085
 30
0.0
 11
287.4456988075105
 21
32.44661820630085
 31
0.0
  0
LINE
  5
229
330
1F8
100
AcDbEntity
  8
0
 62
     0
370
    -2
100
AcDbLine
 10
287.1830579273673
 20
32.64661820630084
 30
0.0
 11
287.4456988075105
 21
32.64661820630084
 31
0.0
  0
LINE
  5
22A
330
1F8
100
AcDbEntity
  8
0
 62
     0
370
    -2
100
AcDbLine
 10
287.2656988075105
 20
32.26661820630084
 30
0.0
 11
287.2656988075105
 21
32.08661820630084
 31
0.0
  0
LINE
  5
22B
330
1F8
100
AcDbEntity
  8
0
 62
     0
370
    -2
100
AcDbLine
 10
287.2656988075105
 20
32.82661820630084
 30
0.0
 11
287.2656988075105
 21
33.00661820630084
 31
0.0
  0
LINE
  5
22C
330
1F8
100
AcDbEntity
  8
0
 62
     0
370
    -2
100
AcDbLine
 10
287.2656988075105
 20
33.00661820630084
 30
0.0
 11
287.4456988075105
 21
33.00661820630084
 31
0.0
  0
SOLID
  5
22D
330
1F8
100
AcDbEntity
  8
0
 62
     0
100
AcDbTrace
 10
287.2356988075105
 20
32.26661820630084
 30
0.0
 11
287.2956988075105
 21
32.26661820630084
 31
0.0
 12
287.2656988075105
 22
32.44661820630085
 32
0.0
 13
287.2656988075105
 23
32.44661820630085
 33
0.0
  0
SOLID
  5
22E
330
1F8
100
AcDbEntity
  8
0
 62
     0
100
AcDbTrace
 10
287.2356988075105
 20
32.82661820630084
 30
0.0
 11
287.2956988075105
 21
32.82661820630084
 31
0.0
 12
287.2656988075105
 22
32.64661820630084
 32
0.0
 13
287.2656988075105
 23
32.64661820630084
 33
0.0
  0
MTEXT
  5
22F
330
1F8
100
AcDbEntity
  8
0
 62
     0
100
AcDbMText
 10
287.7756988075105
 20
33.00661820630089
 30
0.0
 40
0.18
 41
0.0
 71
     5
 72
     1
  1
\A1;0.20
 73
     1
 44
1.0
  0
POINT
  5
230
330
1F8
100
AcDbEntity
  8
DEFPOINTS
 62
     0
100
AcDbPoint
 10
286.0830579273673
 20
32.44661820630085
 30
0.0
  0
POINT
  5
231
330
1F8
100
AcDbEntity
  8
DEFPOINTS
 62
     0
100
AcDbPoint
 10
287.1205579273673
 20
32.64661820630084
 30
0.0
  0
POINT
  5
232
330
1F8
100
AcDbEntity
  8
DEFPOINTS
 62
     0
100
AcDbPoint
 10
287.2656988075105
 20
32.64661820630084
 30
0.0
  0
ENDBLK
  5
205
330
1F8
100
AcDbEntity
  8
0
100
AcDbBlockEnd
  0
BLOCK
  5
23F
330
234
100
AcDbEntity
  8
0
100
AcDbBlockBegin
  2
*D8
 70
     1
 10
0.0
 20
0.0
 30
0.0
  3
*D8
  1

  0
LINE
  5
256
330
234
100
AcDbEntity
  8
0
 62
     0
370
    -2
100
AcDbLine
 10
287.1830579273673
 20
32.64661820630084
 30
0.0
 11
287.6024095521413
 21
32.64661820630084
 31
0.0
  0
LINE
  5
257
330
234
100
AcDbEntity
  8
0
 62
     0
370
    -2
100
AcDbLine
 10
287.1863444826719
 20
33.29107219559095
 30
0.0
 11
287.6024095521413
 21
33.29107219559095
 31
0.0
  0
LINE
  5
258
330
234
100
AcDbEntity
  8
0
 62
     0
370
    -2
100
AcDbLine
 10
287.4224095521412
 20
32.82661820630084
 30
0.0
 11
287.4224095521412
 21
33.11107219559096
 31
0.0
  0
LINE
  5
259
330
234
100
AcDbEntity
  8
0
 62
     0
370
    -2
100
AcDbLine
 10
287.4224095521412
 20
33.29107219559095
 30
0.0
 11
287.4224095521412
 21
33.47107219559095
 31
0.0
  0
LINE
  5
25A
330
234
100
AcDbEntity
  8
0
 62
     0
370
    -2
100
AcDbLine
 10
287.4224095521412
 20
33.47107219559095
 30
0.0
 11
287.6024095521413
 21
33.47107219559095
 31
0.0
  0
SOLID
  5
25B
330
234
100
AcDbEntity
  8
0
 62
     0
100
AcDbTrace
 10
287.3924095521413
 20
32.82661820630084
 30
0.0
 11
287.4524095521412
 21
32.82661820630084
 31
0.0
 12
287.4224095521412
 22
32.64661820630084
 32
0.0
 13
287.4224095521412
 23
32.64661820630084
 33
0.0
  0
SOLID
  5
25C
330
234
100
AcDbEntity
  8
0
 62
     0
100
AcDbTrace
 10
287.3924095521413
 20
33.11107219559096
 30
0.0
 11
287.4524095521412
 21
33.11107219559096
 31
0.0
 12
287.4224095521412
 22
33.29107219559095
 32
0.0
 13
287.4224095521412
 23
33.29107219559095
 33
0.0
  0
MTEXT
  5
25D
330
234
100
AcDbEntity
  8
0
 62
     0
100
AcDbMText
 10
287.9474095521412
 20
33.47107219559101
 30
0.0
 40
0.18
 41
0.0
 71
     5
 72
     1
  1
\A1;0.64
 73
     1
 44
1.0
  0
POINT
  5
25E
330
234
100
AcDbEntity
  8
DEFPOINTS
 62
     0
100
AcDbPoint
 10
287.1205579273673
 20
32.64661820630084
 30
0.0
  0
POINT
  5
25F
330
234
100
AcDbEntity
  8
DEFPOINTS
 62
     0
100
AcDbPoint
 10
287.1238444826721
 20
33.29107219559095
 30
0.0
  0
POINT
  5
260
330
234
100
AcDbEntity
  8
DEFPOINTS
 62
     0
100
AcDbPoint
 10
287.4224095521412
 20
33.29107219559095
 30
0.0
  0
ENDBLK
  5
240
330
234
100
AcDbEntity
  8
0
100
AcDbBlockEnd
  0
BLOCK
  5
279
330
26E
100
AcDbEntity
  8
0
100
AcDbBlockBegin
  2
*D9
 70
     1
 10
0.0
 20
0.0
 30
0.0
  3
*D9
  1

  0
LINE
  5
2CA
330
26E
100
AcDbEntity
  8
0
 62
     0
370
    -2
100
AcDbLine
 10
286.4599596967675
 20
31.98965276450207
 30
0.0
 11
288.8073216232758
 21
31.98965276450207
 31
0.0
  0
LINE
  5
2CB
330
26E
100
AcDbEntity
  8
0
 62
     0
370
    -2
100
AcDbLine
 10
286.9099596967675
 20
33.28965276450205
 30
0.0
 11
288.8073216232758
 21
33.28965276450205
 31
0.0
  0
LINE
  5
2CC
330
26E
100
AcDbEntity
  8
0
 62
     0
370
    -2
100
AcDbLine
 10
288.6273216232758
 20
32.16965276450207
 30
0.0
 11
288.6273216232758
 21
32.40583197850195
 31
0.0
  0
LINE
  5
2CD
330
26E
100
AcDbEntity
  8
0
 62
     0
370
    -2
100
AcDbLine
 10
288.6273216232758
 20
33.10965276450205
 30
0.0
 11
288.6273216232758
 21
32.76583197850195
 31
0.0
  0
SOLID
  5
2CE
330
26E
100
AcDbEntity
  8
0
 62
     0
100
AcDbTrace
 10
288.5973216232759
 20
32.16965276450207
 30
0.0
 11
288.6573216232759
 21
32.16965276450207
 31
0.0
 12
288.6273216232758
 22
31.98965276450207
 32
0.0
 13
288.6273216232758
 23
31.98965276450207
 33
0.0
  0
SOLID
  5
2CF
330
26E
100
AcDbEntity
  8
0
 62
     0
100
AcDbTrace
 10
288.5973216232759
 20
33.10965276450205
 30
0.0
 11
288.6573216232759
 21
33.10965276450205
 31
0.0
 12
288.6273216232758
 22
33.28965276450205
 32
0.0
 13
288.6273216232758
 23
33.28965276450205
 33
0.0
  0
MTEXT
  5
2D0
330
26E
100
AcDbEntity
  8
0
 62
     0
100
AcDbMText
 10
288.6273216232758
 20
32.58583197850201
 30
0.0
 40
0.18
 41
0.0
 71
     5
 72
     1
  1
\A1;1.30
 73
     1
 44
1.0
  0
POINT
  5
2D1
330
26E
100
AcDbEntity
  8
DEFPOINTS
 62
     0
100
AcDbPoint
 10
286.3974596967675
 20
31.98965276450207
 30
0.0
  0
POINT
  5
2D2
330
26E
100
AcDbEntity
  8
DEFPOINTS
 62
     0
100
AcDbPoint
 10
286.8474596967674
 20
33.28965276450205
 30
0.0
  0
POINT
  5
2D3
330
26E
100
AcDbEntity
  8
DEFPOINTS
 62
     0
100
AcDbPoint
 10
288.6273216232758
 20
33.28965276450205
 30
0.0
  0
ENDBLK
  5
27A
330
26E
100
AcDbEntity
  8
0
100
AcDbBlockEnd
  0
BLOCK
  5
29C
330
290
100
AcDbEntity
  8
0
100
AcDbBlockBegin
  2
*D10
 70
     1
 10
0.0
 20
0.0
 30
0.0
  3
*D10
  1

  0
LINE
  5
2BF
330
290
100
AcDbEntity
  8
0
 62
     0
370
    -2
100
AcDbLine
 10
286.4599596967675
 20
31.98965276450207
 30
0.0
 11
287.7124764881058
 21
31.98965276450207
 31
0.0
  0
LINE
  5
2C0
330
290
100
AcDbEntity
  8
0
 62
     0
370
    -2
100
AcDbLine
 10
286.6599596967674
 20
32.18965276450207
 30
0.0
 11
287.7124764881058
 21
32.18965276450207
 31
0.0
  0
LINE
  5
2C1
330
290
100
AcDbEntity
  8
0
 62
     0
370
    -2
100
AcDbLine
 10
287.5324764881058
 20
31.80965276450207
 30
0.0
 11
287.5324764881058
 21
31.62965276450207
 31
0.0
  0
LINE
  5
2C2
330
290
100
AcDbEntity
  8
0
 62
     0
370
    -2
100
AcDbLine
 10
287.5324764881058
 20
32.36965276450207
 30
0.0
 11
287.5324764881058
 21
32.63965276450207
 31
0.0
  0
LINE
  5
2C3
330
290
100
AcDbEntity
  8
0
 62
     0
370
    -2
100
AcDbLine
 10
287.5324764881058
 20
32.63965276450207
 30
0.0
 11
287.7124764881058
 21
32.63965276450207
 31
0.0
  0
SOLID
  5
2C4
330
290
100
AcDbEntity
  8
0
 62
     0
100
AcDbTrace
 10
287.5024764881057
 20
31.80965276450207
 30
0.0
 11
287.5624764881058
 21
31.80965276450207
 31
0.0
 12
287.5324764881058
 22
31.98965276450207
 32
0.0
 13
287.5324764881058
 23
31.98965276450207
 33
0.0
  0
SOLID
  5
2C5
330
290
100
AcDbEntity
  8
0
 62
     0
100
AcDbTrace
 10
287.5024764881057
 20
32.36965276450207
 30
0.0
 11
287.5624764881058
 21
32.36965276450207
 31
0.0
 12
287.5324764881058
 22
32.18965276450207
 32
0.0
 13
287.5324764881058
 23
32.18965276450207
 33
0.0
  0
MTEXT
  5
2C6
330
290
100
AcDbEntity
  8
0
 62
     0
100
AcDbMText
 10
288.0424764881058
 20
32.63965276450211
 30
0.0
 40
0.18
 41
0.0
 71
     5
 72
     1
  1
\A1;0.20
 73
     1
 44
1.0
  0
POINT
  5
2C7
330
290
100
AcDbEntity
  8
DEFPOINTS
 62
     0
100
AcDbPoint
 10
286.3974596967675
 20
31.98965276450207
 30
0.0
  0
POINT
  5
2C8
330
290
100
AcDbEntity
  8
DEFPOINTS
 62
     0
100
AcDbPoint
 10
286.5974596967674
 20
32.18965276450207
 30
0.0
  0
POINT
  5
2C9
330
290
100
AcDbEntity
  8
DEFPOINTS
 62
     0
100
AcDbPoint
 10
287.5324764881058
 20
32.18965276450207
 30
0.0
  0
ENDBLK
  5
29D
330
290
100
AcDbEntity
  8
0
100
AcDbBlockEnd
  0
BLOCK
  5
2E2
330
2D5
100
AcDbEntity
  8
0
100
AcDbBlockBegin
  2
*D11
 70
     1
 10
0.0
 20
0.0
 30
0.0
  3
*D11
  1

  0
LINE
  5
302
330
2D5
100
AcDbEntity
  8
0
 62
     0
370
    -2
100
AcDbLine
 10
287.5599596967674
 20
32.18965276450207
 30
0.0
 11
287.7901196358274
 21
32.18965276450207
 31
0.0
  0
LINE
  5
303
330
2D5
100
AcDbEntity
  8
0
 62
     0
370
    -2
100
AcDbLine
 10
287.5599596967674
 20
32.63965276450207
 30
0.0
 11
287.7901196358274
 21
32.63965276450207
 31
0.0
  0
LINE
  5
304
330
2D5
100
AcDbEntity
  8
0
 62
     0
370
    -2
100
AcDbLine
 10
287.6101196358274
 20
32.00965276450207
 30
0.0
 11
287.6101196358274
 21
31.82965276450207
 31
0.0
  0
LINE
  5
305
330
2D5
100
AcDbEntity
  8
0
 62
     0
370
    -2
100
AcDbLine
 10
287.6101196358274
 20
32.81965276450207
 30
0.0
 11
287.6101196358274
 21
32.99965276450207
 31
0.0
  0
LINE
  5
306
330
2D5
100
AcDbEntity
  8
0
 62
     0
370
    -2
100
AcDbLine
 10
287.6101196358274
 20
32.99965276450207
 30
0.0
 11
287.7901196358274
 21
32.99965276450207
 31
0.0
  0
SOLID
  5
307
330
2D5
100
AcDbEntity
  8
0
 62
     0
100
AcDbTrace
 10
287.5801196358276
 20
32.00965276450207
 30
0.0
 11
287.6401196358274
 21
32.00965276450207
 31
0.0
 12
287.6101196358274
 22
32.18965276450207
 32
0.0
 13
287.6101196358274
 23
32.18965276450207
 33
0.0
  0
SOLID
  5
308
330
2D5
100
AcDbEntity
  8
0
 62
     0
100
AcDbTrace
 10
287.5801196358276
 20
32.81965276450207
 30
0.0
 11
287.6401196358274
 21
32.81965276450207
 31
0.0
 12
287.6101196358274
 22
32.63965276450207
 32
0.0
 13
287.6101196358274
 23
32.63965276450207
 33
0.0
  0
MTEXT
  5
309
330
2D5
100
AcDbEntity
  8
0
 62
     0
100
AcDbMText
 10
288.1351196358274
 20
32.99965276450212
 30
0.0
 40
0.18
 41
0.0
 71
     5
 72
     1
  1
\A1;0.45
 73
     1
 44
1.0
  0
POINT
  5
30A
330
2D5
100
AcDbEntity
  8
DEFPOINTS
 62
     0
100
AcDbPoint
 10
287.4974596967675
 20
32.18965276450207
 30
0.0
  0
POINT
  5
30B
330
2D5
100
AcDbEntity
  8
DEFPOINTS
 62
     0
100
AcDbPoint
 10
287.4974596967675
 20
32.63965276450207
 30
0.0
  0
POINT
  5
30C
330
2D5
100
AcDbEntity
  8
DEFPOINTS
 62
     0
100
AcDbPoint
 10
287.6101196358274
 20
32.63965276450207
 30
0.0
  0
ENDBLK
  5
2E3
330
2D5
100
AcDbEntity
  8
0
100
AcDbBlockEnd
  0
BLOCK
  5
319
330
30E
100
AcDbEntity
  8
0
100
AcDbBlockBegin
  2
*D12
 70
     1
 10
0.0
 20
0.0
 30
0.0
  3
*D12
  1

  0
LINE
  5
325
330
30E
100
AcDbEntity
  8
0
 62
     0
370
    -2
100
AcDbLine
 10
286.1974596967675
 20
32.70215276450207
 30
0.0
 11
286.1974596967675
 21
33.8078346791596
 31
0.0
  0
LINE
  5
326
330
30E
100
AcDbEntity
  8
0
 62
     0
370
    -2
100
AcDbLine
 10
287.4974596967675
 20
32.70215276450207
 30
0.0
 11
287.4974596967675
 21
33.8078346791596
 31
0.0
  0
LINE
  5
327
330
30E
100
AcDbEntity
  8
0
 62
     0
370
    -2
100
AcDbLine
 10
286.3774596967676
 20
33.6278346791596
 30
0.0
 11
286.5324596967674
 21
33.6278346791596
 31
0.0
  0
LINE
  5
328
330
30E
100
AcDbEntity
  8
0
 62
     0
370
    -2
100
AcDbLine
 10
287.3174596967675
 20
33.6278346791596
 30
0.0
 11
287.1624596967675
 21
33.6278346791596
 31
0.0
  0
SOLID
  5
329
330
30E
100
AcDbEntity
  8
0
 62
     0
100
AcDbTrace
 10
286.3774596967676
 20
33.6578346791596
 30
0.0
 11
286.3774596967676
 21
33.5978346791596
 31
0.0
 12
286.1974596967675
 22
33.6278346791596
 32
0.0
 13
286.1974596967675
 23
33.6278346791596
 33
0.0
  0
SOLID
  5
32A
330
30E
100
AcDbEntity
  8
0
 62
     0
100
AcDbTrace
 10
287.3174596967675
 20
33.6578346791596
 30
0.0
 11
287.3174596967675
 21
33.5978346791596
 31
0.0
 12
287.4974596967675
 22
33.6278346791596
 32
0.0
 13
287.4974596967675
 23
33.6278346791596
 33
0.0
  0
MTEXT
  5
32B
330
30E
100
AcDbEntity
  8
0
 62
     0
100
AcDbMText
 10
286.8474596967674
 20
33.6278346791596
 30
0.0
 40
0.18
 41
0.0
 71
     5
 72
     1
  1
\A1;1.30
 73
     1
 44
1.0
  0
POINT
  5
32C
330
30E
100
AcDbEntity
  8
DEFPOINTS
 62
     0
100
AcDbPoint
 10
286.1974596967675
 20
32.63965276450207
 30
0.0
  0
POINT
  5
32D
330
30E
100
AcDbEntity
  8
DEFPOINTS
 62
     0
100
AcDbPoint
 10
287.4974596967675
 20
32.63965276450207
 30
0.0
  0
POINT
  5
32E
330
30E
100
AcDbEntity
  8
DEFPOINTS
 62
     0
100
AcDbPoint
 10
287.4974596967675
 20
33.6278346791596
 30
0.0
  0
ENDBLK
  5
31A
330
30E
100
AcDbEntity
  8
0
100
AcDbBlockEnd
  0
BLOCK
  5
33D
330
330
100
AcDbEntity
  8
0
100
AcDbBlockBegin
  2
*D13
 70
     1
 10
0.0
 20
0.0
 30
0.0
  3
*D13
  1

  0
LINE
  5
349
330
330
100
AcDbEntity
  8
0
 62
     0
370
    -2
100
AcDbLine
 10
286.5974596967674
 20
32.12715276450207
 30
0.0
 11
286.5974596967674
 21
31.54990116027494
 31
0.0
  0
LINE
  5
34A
330
330
100
AcDbEntity
  8
0
 62
     0
370
    -2
100
AcDbLine
 10
286.1974596967675
 20
32.1271527645021
 30
0.0
 11
286.1974596967675
 21
31.54990116027494
 31
0.0
  0
LINE
  5
34B
330
330
100
AcDbEntity
  8
0
 62
     0
370
    -2
100
AcDbLine
 10
286.7774596967675
 20
31.72990116027495
 30
0.0
 11
286.9574596967675
 21
31.72990116027495
 31
0.0
  0
LINE
  5
34C
330
330
100
AcDbEntity
  8
0
 62
     0
370
    -2
100
AcDbLine
 10
286.0174596967675
 20
31.72990116027495
 30
0.0
 11
285.8374596967674
 21
31.72990116027495
 31
0.0
  0
SOLID
  5
34D
330
330
100
AcDbEntity
  8
0
 62
     0
100
AcDbTrace
 10
286.7774596967675
 20
31.75990116027495
 30
0.0
 11
286.7774596967675
 21
31.69990116027495
 31
0.0
 12
286.5974596967674
 22
31.72990116027495
 32
0.0
 13
286.5974596967674
 23
31.72990116027495
 33
0.0
  0
SOLID
  5
34E
330
330
100
AcDbEntity
  8
0
 62
     0
100
AcDbTrace
 10
286.0174596967675
 20
31.75990116027495
 30
0.0
 11
286.0174596967675
 21
31.69990116027495
 31
0.0
 12
286.1974596967675
 22
31.72990116027495
 32
0.0
 13
286.1974596967675
 23
31.72990116027495
 33
0.0
  0
MTEXT
  5
34F
330
330
100
AcDbEntity
  8
0
 62
     0
100
AcDbMText
 10
285.5074596967675
 20
31.72990116027495
 30
0.0
 40
0.18
 41
0.0
 71
     5
 72
     1
  1
\A1;0.40
 73
     1
 44
1.0
  0
POINT
  5
350
330
330
100
AcDbEntity
  8
DEFPOINTS
 62
     0
100
AcDbPoint
 10
286.5974596967674
 20
32.18965276450207
 30
0.0
  0
POINT
  5
351
330
330
100
AcDbEntity
  8
DEFPOINTS
 62
     0
100
AcDbPoint
 10
286.1974596967675
 20
32.1896527645021
 30
0.0
  0
POINT
  5
352
330
330
100
AcDbEntity
  8
DEFPOINTS
 62
     0
100
AcDbPoint
 10
286.1974596967675
 20
31.72990116027495
 30
0.0
  0
ENDBLK
  5
33E
330
330
100
AcDbEntity
  8
0
100
AcDbBlockEnd
  0
ENDSEC
  0
SECTION
  2
ENTITIES
  0
TEXT
  5
36
330
1E
100
AcDbEntity
  8
0
  6
Continuous
100
AcDbText
 10
288.2851847370996
 20
41.32399999999999
 30
0.0
 40
0.1
  1
2
  7
ROMANC
100
AcDbText
  0
TEXT
  5
37
330
1E
100
AcDbEntity
  8
0
  6
Continuous
100
AcDbText
 10
285.3021847370996
 20
41.768
 30
0.0
 40
0.3
  1
ESCALA  1:50
  7
ROMANC
100
AcDbText
  0
TEXT
  5
3A
330
1E
100
AcDbEntity
  8
0
  6
Continuous
100
AcDbText
 10
285.2981847370997
 20
40.529
 30
0.0
 40
0.3
  1
P = 44.7dm
  7
ROMANC
100
AcDbText
  0
TEXT
  5
3B
330
1E
100
AcDbEntity
  8
0
  6
Continuous
100
AcDbText
 10
285.3211847370996
 20
41.09899999999998
 30
0.0
 40
0.3
  1
S = 131 dm
  7
ROMANC
100
AcDbText
  0
TEXT
  5
65
330
1E
100
AcDbEntity
  8
0
  6
Continuous
100
AcDbText
 10
285.3021847370996
 20
42.381
 30
0.0
 40
0.3
  1
TIPUS   NT131A
  7
ROMANC
100
AcDbText
  0
LINE
  5
71
330
1E
100
AcDbEntity
  8
0
  6
Continuous
100
AcDbLine
 10
281.3959999999998
 20
44.747
 30
0.0
 11
291.8959999999998
 21
44.747
 31
0.0
  0
LINE
  5
72
330
1E
100
AcDbEntity
  8
0
  6
Continuous
100
AcDbLine
 10
291.8959999999998
 20
44.747
 30
0.0
 11
291.8959999999998
 21
29.897
 31
0.0
  0
LINE
  5
73
330
1E
100
AcDbEntity
  8
0
  6
Continuous
100
AcDbLine
 10
291.8959999999998
 20
29.897
 30
0.0
 11
281.3959999999998
 21
29.897
 31
0.0
  0
LINE
  5
74
330
1E
100
AcDbEntity
  8
0
  6
Continuous
100
AcDbLine
 10
281.3959999999998
 20
29.897
 30
0.0
 11
281.3959999999998
 21
44.747
 31
0.0
  0
LWPOLYLINE
  5
268
330
1E
100
AcDbEntity
  8
0
100
AcDbPolyline
 90
        5
 70
     1
 43
0.0
 10
286.5974596967674
 20
32.18965276450207
 42
-0.9999999999999998
 10
286.1974596967675
 20
32.18965276450207
 10
286.1974596967675
 20
32.63965276450207
 42
-0.9999999999999998
 10
287.4974596967675
 20
32.63965276450207
 10
287.4974596967675
 20
32.18965276450207
  0
DIMENSION
  5
26D
330
1E
100
AcDbEntity
  8
0
100
AcDbDimension
  2
*D9
 10
288.6273216232758
 20
33.28965276450205
 30
0.0
 11
288.6273216232758
 21
32.58583197850201
 31
0.0
 70
   160
 71
     5
 42
1.299999999999968
  3
Standard
100
AcDbAlignedDimension
 13
286.3974596967675
 23
31.98965276450207
 33
0.0
 14
286.8474596967674
 24
33.28965276450205
 34
0.0
 50
90.0
100
AcDbRotatedDimension
1001
ACAD
1000
DSTYLE
1002
{
1070
   271
1070
     2
1002
}
  0
DIMENSION
  5
28F
330
1E
100
AcDbEntity
  8
0
100
AcDbDimension
  2
*D10
 10
287.5324764881058
 20
32.18965276450207
 30
0.0
 11
288.0424764881058
 21
32.63965276450211
 31
0.0
 70
   160
 71
     5
 42
0.1999999999999886
  3
Standard
100
AcDbAlignedDimension
 13
286.3974596967675
 23
31.98965276450207
 33
0.0
 14
286.5974596967674
 24
32.18965276450207
 34
0.0
 50
90.0
100
AcDbRotatedDimension
1001
ACAD
1000
DSTYLE
1002
{
1070
   271
1070
     2
1002
}
  0
DIMENSION
  5
2D4
330
1E
100
AcDbEntity
  8
0
100
AcDbDimension
  2
*D11
 10
287.6101196358274
 20
32.63965276450207
 30
0.0
 11
288.1351196358274
 21
32.99965276450212
 31
0.0
 70
   160
 71
     5
 42
0.450000000000003
  3
Standard
100
AcDbAlignedDimension
 13
287.4974596967675
 23
32.18965276450207
 33
0.0
 14
287.4974596967675
 24
32.63965276450207
 34
0.0
 50
90.0
100
AcDbRotatedDimension
1001
ACAD
1000
DSTYLE
1002
{
1070
   271
1070
     2
1002
}
  0
DIMENSION
  5
30D
330
1E
100
AcDbEntity
  8
0
100
AcDbDimension
  2
*D12
 10
287.4974596967675
 20
33.6278346791596
 30
0.0
 11
286.8474596967674
 21
33.6278346791596
 31
0.0
 70
    32
 71
     5
 42
1.299999999999954
  3
Standard
100
AcDbAlignedDimension
 13
286.1974596967675
 23
32.63965276450207
 33
0.0
 14
287.4974596967675
 24
32.63965276450207
 34
0.0
100
AcDbRotatedDimension
1001
ACAD
1000
DSTYLE
1002
{
1070
   271
1070
     2
1002
}
  0
DIMENSION
  5
32F
330
1E
100
AcDbEntity
  8
0
100
AcDbDimension
  2
*D13
 10
286.1974596967675
 20
31.72990116027495
 30
0.0
 11
285.5074596967675
 21
31.72990116027495
 31
0.0
 70
    32
 71
     5
 42
0.3999999999999772
  3
Standard
100
AcDbAlignedDimension
 13
286.5974596967674
 23
32.18965276450207
 33
0.0
 14
286.1974596967675
 24
32.1896527645021
 34
0.0
100
AcDbRotatedDimension
1001
ACAD
1000
DSTYLE
1002
{
1070
   271
1070
     2
1002
}
  0
ENDSEC
  0
SECTION
  2
OBJECTS
  0
DICTIONARY
  5
C
330
0
100
AcDbDictionary
281
     1
  3
ACAD_GROUP
350
D
  3
ACAD_LAYOUT
350
19
  3
ACAD_MLINESTYLE
350
16
  3
ACAD_PLOTSETTINGS
350
18
  3
ACAD_PLOTSTYLENAME
350
E
  3
AcDbVariableDictionary
350
354
  0
DICTIONARY
  5
D
102
{ACAD_REACTORS
330
C
102
}
330
C
100
AcDbDictionary
281
     1
  0
DICTIONARY
  5
19
102
{ACAD_REACTORS
330
C
102
}
330
C
100
AcDbDictionary
281
     1
  3
Model
350
21
  3
Presentación1
350
1D
  0
DICTIONARY
  5
16
102
{ACAD_REACTORS
330
C
102
}
330
C
100
AcDbDictionary
281
     1
  3
Standard
350
17
  0
DICTIONARY
  5
18
102
{ACAD_REACTORS
330
C
102
}
330
C
100
AcDbDictionary
281
     1
  0
ACDBDICTIONARYWDFLT
  5
E
102
{ACAD_REACTORS
330
C
102
}
330
C
100
AcDbDictionary
281
     1
  3
Normal
350
F
100
AcDbDictionaryWithDefault
340
F
  0
DICTIONARY
  5
354
102
{ACAD_REACTORS
330
C
102
}
330
C
100
AcDbDictionary
281
     1
  3
DIMASSOC
350
355
  0
LAYOUT
  5
21
102
{ACAD_REACTORS
330
19
102
}
330
19
100
AcDbPlotSettings
  1

  2
\\Servidor1w\LS8100
  4
A4
  6

 40
7.143749713897705
 41
6.170062541961669
 42
7.736404418945312
 43
7.14373779296875
 44
209.9733276367187
 45
296.9683227539062
 46
0.0
 47
0.0
 48
282.3595472704303
 49
30.79404247067571
140
291.0479970248163
141
43.93581070991974
142
1.0
143
0.05
 70
 11936
 72
     1
 73
     0
 74
     4
  7

 75
     0
147
20.0
148
-282.3595472704303
149
-30.79404247067571
100
AcDbLayout
  1
Model
 70
     1
 71
     0
 10
0.0
 20
0.0
 11
12.0
 21
9.0
 12
0.0
 22
0.0
 32
0.0
 14
0.0
 24
0.0
 34
0.0
 15
0.0
 25
0.0
 35
0.0
146
0.0
 13
0.0
 23
0.0
 33
0.0
 16
1.0
 26
0.0
 36
0.0
 17
0.0
 27
1.0
 37
0.0
 76
     0
330
1E
  0
LAYOUT
  5
1D
102
{ACAD_REACTORS
330
19
102
}
330
19
100
AcDbPlotSettings
  1

  2
Acrobat PDFWriter
  4

  6

 40
0.0
 41
0.0
 42
0.0
 43
0.0
 44
0.0
 45
0.0
 46
0.0
 47
0.0
 48
0.0
 49
0.0
140
0.0
141
0.0
142
1.0
143
1.0
 70
   688
 72
     0
 73
     0
 74
     5
  7

 75
    16
147
1.0
148
0.0
149
0.0
100
AcDbLayout
  1
Presentación1
 70
     0
 71
     1
 10
0.0
 20
0.0
 11
12.0
 21
9.0
 12
0.0
 22
0.0
 32
0.0
 14
1.000000000000000E+20
 24
1.000000000000000E+20
 34
1.000000000000000E+20
 15
-1.000000000000000E+20
 25
-1.000000000000000E+20
 35
-1.000000000000000E+20
146
0.0
 13
0.0
 23
0.0
 33
0.0
 16
1.0
 26
0.0
 36
0.0
 17
0.0
 27
1.0
 37
0.0
 76
     0
330
1A
  0
MLINESTYLE
  5
17
102
{ACAD_REACTORS
330
16
102
}
330
16
100
AcDbMlineStyle
  2
STANDARD
 70
     0
  3

 62
   256
 51
90.0
 52
90.0
 71
     2
 49
0.5
 62
   256
  6
BYLAYER
 49
-0.5
 62
   256
  6
BYLAYER
  0
ACDBPLACEHOLDER
  5
F
102
{ACAD_REACTORS
330
E
102
}
330
E
  0
DICTIONARYVAR
  5
355
102
{ACAD_REACTORS
330
354
102
}
330
354
100
DictionaryVariables
280
     0
  1
1
  0
ENDSEC
  0
EOF
