  0
SECTION
  2
HEADER
  9
$ACADVER
  1
AC1009
  9
$INSBASE
 10
0.0
 20
0.0
 30
0.0
  9
$EXTMIN
 10
318.829805
 20
29.85788
 30
0.0
  9
$EXTMAX
 10
329.371339
 20
44.72551
 30
0.0
  9
$LIMMIN
 10
0.0
 20
0.0
  9
$LIMMAX
 10
410.0
 20
287.0
  9
$ORTHOMODE
 70
     1
  9
$REGENMODE
 70
     1
  9
$FILLMODE
 70
     1
  9
$QTEXTMODE
 70
     0
  9
$MIRRTEXT
 70
     1
  9
$DRAGMODE
 70
     2
  9
$LTSCALE
 40
25.0
  9
$OSMODE
 70
     0
  9
$ATTMODE
 70
     1
  9
$TEXTSIZE
 40
0.1
  9
$TRACEWID
 40
1.0
  9
$TEXTSTYLE
  7
ROMANC
  9
$CLAYER
  8
0
  9
$CELTYPE
  6
BYLAYER
  9
$CECOLOR
 62
   256
  9
$DIMSCALE
 40
1.5
  9
$DIMASZ
 40
0.1
  9
$DIMEXO
 40
0.01
  9
$DIMDLI
 40
7.0
  9
$DIMRND
 40
0.0
  9
$DIMDLE
 40
0.0
  9
$DIMEXE
 40
0.01
  9
$DIMTP
 40
0.0
  9
$DIMTM
 40
0.0
  9
$DIMTXT
 40
0.05
  9
$DIMCEN
 40
0.0
  9
$DIMTSZ
 40
0.0
  9
$DIMTOL
 70
     0
  9
$DIMLIM
 70
     0
  9
$DIMTIH
 70
     0
  9
$DIMTOH
 70
     0
  9
$DIMSE1
 70
     0
  9
$DIMSE2
 70
     0
  9
$DIMTAD
 70
     1
  9
$DIMZIN
 70
     0
  9
$DIMBLK
  1

  9
$DIMASO
 70
     1
  9
$DIMSHO
 70
     0
  9
$DIMPOST
  1

  9
$DIMAPOST
  1

  9
$DIMALT
 70
     0
  9
$DIMALTD
 70
     2
  9
$DIMALTF
 40
25.4
  9
$DIMLFAC
 40
1.0
  9
$DIMTOFL
 70
     1
  9
$DIMTVP
 40
0.0
  9
$DIMTIX
 70
     1
  9
$DIMSOXD
 70
     0
  9
$DIMSAH
 70
     0
  9
$DIMBLK1
  1

  9
$DIMBLK2
  1

  9
$DIMSTYLE
  2
MERITXELL
  9
$DIMCLRD
 70
     0
  9
$DIMCLRE
 70
     0
  9
$DIMCLRT
 70
     0
  9
$DIMTFAC
 40
70.0
  9
$DIMGAP
 40
0.025
  9
$LUNITS
 70
     2
  9
$LUPREC
 70
     2
  9
$SKETCHINC
 40
1.0
  9
$FILLETRAD
 40
0.0
  9
$AUNITS
 70
     0
  9
$AUPREC
 70
     0
  9
$MENU
  1
acad
  9
$ELEVATION
 40
0.0
  9
$PELEVATION
 40
0.0
  9
$THICKNESS
 40
0.0
  9
$LIMCHECK
 70
     0
  9
$BLIPMODE
 70
     0
  9
$CHAMFERA
 40
0.0
  9
$CHAMFERB
 40
0.0
  9
$SKPOLY
 70
     0
  9
$TDCREATE
 40
2450927.46195
  9
$TDUPDATE
 40
2451227.68816
  9
$TDINDWG
 40
0.167777
  9
$TDUSRTIMER
 40
0.167777
  9
$USRTIMER
 70
     1
  9
$ANGBASE
 50
0.0
  9
$ANGDIR
 70
     0
  9
$PDMODE
 70
     0
  9
$PDSIZE
 40
0.0
  9
$PLINEWID
 40
0.0
  9
$COORDS
 70
     2
  9
$SPLFRAME
 70
     0
  9
$SPLINETYPE
 70
     6
  9
$SPLINESEGS
 70
     8
  9
$ATTDIA
 70
     0
  9
$ATTREQ
 70
     1
  9
$HANDLING
 70
     1
  9
$HANDSEED
  5
D4D
  9
$SURFTAB1
 70
     6
  9
$SURFTAB2
 70
     6
  9
$SURFTYPE
 70
     6
  9
$SURFU
 70
     6
  9
$SURFV
 70
     6
  9
$UCSNAME
  2

  9
$UCSORG
 10
0.0
 20
0.0
 30
0.0
  9
$UCSXDIR
 10
1.0
 20
0.0
 30
0.0
  9
$UCSYDIR
 10
0.0
 20
1.0
 30
0.0
  9
$PUCSNAME
  2

  9
$PUCSORG
 10
0.0
 20
0.0
 30
0.0
  9
$PUCSXDIR
 10
1.0
 20
0.0
 30
0.0
  9
$PUCSYDIR
 10
0.0
 20
1.0
 30
0.0
  9
$USERI1
 70
     0
  9
$USERI2
 70
     0
  9
$USERI3
 70
     0
  9
$USERI4
 70
     0
  9
$USERI5
 70
     0
  9
$USERR1
 40
0.0
  9
$USERR2
 40
0.0
  9
$USERR3
 40
0.0
  9
$USERR4
 40
0.0
  9
$USERR5
 40
0.0
  9
$WORLDVIEW
 70
     1
  9
$SHADEDGE
 70
     3
  9
$SHADEDIF
 70
    70
  9
$TILEMODE
 70
     1
  9
$MAXACTVP
 70
    16
  9
$PLIMCHECK
 70
     0
  9
$PEXTMIN
 10
1.000000E+020
 20
1.000000E+020
 30
1.000000E+020
  9
$PEXTMAX
 10
-1.000000E+020
 20
-1.000000E+020
 30
-1.000000E+020
  9
$PLIMMIN
 10
0.0
 20
0.0
  9
$PLIMMAX
 10
12.0
 20
9.0
  9
$UNITMODE
 70
     0
  9
$VISRETAIN
 70
     0
  9
$PLINEGEN
 70
     0
  9
$PSLTSCALE
 70
     0
  0
ENDSEC
  0
SECTION
  2
TABLES
  0
TABLE
  2
VPORT
 70
     6
  0
VPORT
  2
*ACTIVE
 70
     0
 10
0.0
 20
0.0
 11
1.0
 21
1.0
 12
324.100572
 22
37.291695
 13
0.0
 23
0.0
 14
1.0
 24
1.0
 15
10.0
 25
10.0
 16
0.0
 26
0.0
 36
1.0
 17
0.0
 27
0.0
 37
0.0
 40
15.002178
 41
1.732628
 42
50.0
 43
0.0
 44
0.0
 50
0.0
 51
0.0
 71
     0
 72
   100
 73
     1
 74
     0
 75
     0
 76
     0
 77
     0
 78
     1
  0
ENDTAB
  0
TABLE
  2
LTYPE
 70
     1
  0
LTYPE
  2
CONTINUOUS
 70
     0
  3
Solid line
 72
    65
 73
     0
 40
0.0
  0
ENDTAB
  0
TABLE
  2
LAYER
 70
     4
  0
LAYER
  2
0
 70
     0
 62
     7
  6
CONTINUOUS
  0
LAYER
  2
DEFPOINTS
 70
     0
 62
     7
  6
CONTINUOUS
  0
LAYER
  2
COTES
 70
     0
 62
     4
  6
CONTINUOUS
  0
LAYER
  2
SECCIO
 70
     0
 62
    30
  6
CONTINUOUS
  0
ENDTAB
  0
TABLE
  2
STYLE
 70
     2
  0
STYLE
  2
STANDARD
 70
     0
 40
0.0
 41
1.0
 50
0.0
 71
     0
 42
0.1
  3
txt
  4

  0
STYLE
  2
ROMANC
 70
     0
 40
0.0
 41
1.0
 50
0.0
 71
     0
 42
0.1
  3
romanc
  4

  0
ENDTAB
  0
TABLE
  2
VIEW
 70
     0
  0
ENDTAB
  0
TABLE
  2
UCS
 70
     0
  0
ENDTAB
  0
TABLE
  2
APPID
 70
     1
  0
APPID
  2
ACAD
 70
     0
  0
ENDTAB
  0
TABLE
  2
DIMSTYLE
 70
     2
  0
DIMSTYLE
  2
MERITXELL
 70
     0
  3

  4

  5

  6

  7

 40
1.5
 41
0.1
 42
0.01
 43
7.0
 44
0.01
 45
0.0
 46
0.0
 47
0.0
 48
0.0
140
0.05
141
0.1
142
0.0
143
25.4
144
1.0
145
0.0
146
70.0
147
0.09
 71
     0
 72
     0
 73
     0
 74
     0
 75
     0
 76
     0
 77
     1
 78
     0
170
     0
171
     2
172
     1
173
     0
174
     1
175
     0
176
     0
177
     0
178
     0
  0
DIMSTYLE
  2
STANDARD
 70
     0
  3

  4

  5
TICK
  6

  7

 40
1.0
 41
0.05
 42
0.08
 43
0.08
 44
0.08
 45
0.0
 46
1.25
 47
0.0
 48
0.0
140
0.08
141
-0.08
142
0.0
143
0.039
144
1.0
145
1.0
146
1.0
147
0.08
 71
     0
 72
     0
 73
     0
 74
     0
 75
     0
 76
     0
 77
     0
 78
     0
170
     0
171
     2
172
     0
173
     0
174
     0
175
     0
176
    71
177
    71
178
     7
  0
ENDTAB
  0
ENDSEC
  0
SECTION
  2
BLOCKS
  0
BLOCK
  8
0
  2
$MODEL_SPACE
 70
     0
 10
0.0
 20
0.0
 30
0.0
  3
$MODEL_SPACE
  1

  0
ENDBLK
  5
24
  8
0
  0
BLOCK
 67
     1
  8
0
  2
$PAPER_SPACE
 70
     0
 10
0.0
 20
0.0
 30
0.0
  3
$PAPER_SPACE
  1

  0
ENDBLK
  5
22
 67
     1
  8
0
  0
BLOCK
  8
0
  2
TICK
 70
     0
 10
0.0
 20
0.0
 30
0.0
  3
TICK
  1

  0
LINE
  5
387
  8
0
  6
BYBLOCK
 62
     6
 10
-1.0
 20
-1.0
 30
0.0
 11
1.0
 21
1.0
 31
0.0
  0
LINE
  5
388
  8
0
  6
BYBLOCK
 62
    71
 10
0.0
 20
0.0
 30
0.0
 11
-1.0
 21
0.0
 31
0.0
  0
ENDBLK
  5
38A
  8
0
  0
BLOCK
  8
0
  2
*D1
 70
     1
 10
0.0
 20
0.0
 30
0.0
  3
*D1
  1

  0
LINE
  5
800
  8
0
  6
BYBLOCK
 62
    71
 10
142.056455
 20
122.778217
 30
0.0
 11
142.056455
 21
123.002231
 31
0.0
  0
LINE
  5
801
  8
0
  6
BYBLOCK
 62
    71
 10
143.056455
 20
122.778217
 30
0.0
 11
143.056455
 21
123.002231
 31
0.0
  0
LINE
  5
802
  8
0
  6
BYBLOCK
 62
    71
 10
142.106455
 20
122.922231
 30
0.0
 11
143.006455
 21
122.922231
 31
0.0
  0
INSERT
  5
803
  8
0
  6
BYBLOCK
 62
    71
  2
TICK
 10
142.056455
 20
122.922231
 30
0.0
 41
0.05
 42
0.05
 43
0.05
 50
180.0
  0
INSERT
  5
804
  8
0
  6
BYBLOCK
 62
    71
  2
TICK
 10
143.056455
 20
122.922231
 30
0.0
 41
0.05
 42
0.05
 43
0.05
  0
TEXT
  5
805
  8
0
  6
BYBLOCK
 62
     7
 10
142.463121
 20
122.962231
 30
0.0
 40
0.08
  1
1.00
 72
     1
 11
142.556455
 21
123.002231
 31
0.0
 73
     2
  0
POINT
  5
806
  8
DEFPOINTS
  6
BYBLOCK
 62
     0
 10
142.056455
 20
122.698217
 30
0.0
  0
POINT
  5
807
  8
DEFPOINTS
  6
BYBLOCK
 62
     0
 10
143.056455
 20
122.698217
 30
0.0
  0
POINT
  5
808
  8
DEFPOINTS
  6
BYBLOCK
 62
     0
 10
143.056455
 20
122.922231
 30
0.0
  0
ENDBLK
  5
80A
  8
0
  0
BLOCK
  8
0
  2
*D2
 70
     1
 10
0.0
 20
0.0
 30
0.0
  3
*D2
  1

  0
LINE
  5
80C
  8
0
  6
BYBLOCK
 62
    71
 10
143.056455
 20
122.778217
 30
0.0
 11
143.056455
 21
123.002231
 31
0.0
  0
LINE
  5
80D
  8
0
  6
BYBLOCK
 62
    71
 10
144.056455
 20
122.478217
 30
0.0
 11
144.056455
 21
123.002231
 31
0.0
  0
LINE
  5
80E
  8
0
  6
BYBLOCK
 62
    71
 10
143.106455
 20
122.922231
 30
0.0
 11
144.006455
 21
122.922231
 31
0.0
  0
INSERT
  5
80F
  8
0
  6
BYBLOCK
 62
    71
  2
TICK
 10
143.056455
 20
122.922231
 30
0.0
 41
0.05
 42
0.05
 43
0.05
 50
180.0
  0
INSERT
  5
810
  8
0
  6
BYBLOCK
 62
    71
  2
TICK
 10
144.056455
 20
122.922231
 30
0.0
 41
0.05
 42
0.05
 43
0.05
  0
TEXT
  5
811
  8
0
  6
BYBLOCK
 62
     7
 10
143.463121
 20
122.962231
 30
0.0
 40
0.08
  1
1.00
 72
     1
 11
143.556455
 21
123.002231
 31
0.0
 73
     2
  0
POINT
  5
812
  8
DEFPOINTS
  6
BYBLOCK
 62
     0
 10
143.056455
 20
122.698217
 30
0.0
  0
POINT
  5
813
  8
DEFPOINTS
  6
BYBLOCK
 62
     0
 10
144.056455
 20
122.398217
 30
0.0
  0
POINT
  5
814
  8
DEFPOINTS
  6
BYBLOCK
 62
     0
 10
144.056455
 20
122.922231
 30
0.0
  0
ENDBLK
  5
816
  8
0
  0
BLOCK
  8
0
  2
*D3
 70
     1
 10
0.0
 20
0.0
 30
0.0
  3
*D3
  1

  0
LINE
  5
818
  8
0
  6
BYBLOCK
 62
    71
 10
143.056455
 20
124.948217
 30
0.0
 11
143.056455
 21
124.513095
 31
0.0
  0
LINE
  5
819
  8
0
  6
BYBLOCK
 62
    71
 10
143.056455
 20
124.513095
 30
0.0
 11
143.056455
 21
124.113095
 31
0.0
  0
INSERT
  5
81A
  8
0
  6
BYBLOCK
 62
    71
  2
TICK
 10
143.056455
 20
124.998217
 30
0.0
 41
0.05
 42
0.05
 43
0.05
 50
90.0
  0
TEXT
  5
81B
  8
0
  6
BYBLOCK
 62
     7
 10
143.016455
 20
124.139762
 30
0.0
 40
0.08
  1
R1.00
 50
90.0
 72
     1
 11
142.976455
 21
124.273095
 31
0.0
 73
     2
  0
POINT
  5
81C
  8
DEFPOINTS
  6
BYBLOCK
 62
     0
 10
143.056455
 20
124.998217
 30
0.0
  0
POINT
  5
81D
  8
DEFPOINTS
  6
BYBLOCK
 62
     0
 10
143.056455
 20
123.998217
 30
0.0
  0
ENDBLK
  5
81F
  8
0
  0
BLOCK
  8
0
  2
*D4
 70
     1
 10
0.0
 20
0.0
 30
0.0
  3
*D4
  1

  0
LINE
  5
821
  8
0
  6
BYBLOCK
 62
    71
 10
141.806455
 20
122.018217
 30
0.0
 11
141.806455
 21
121.65475
 31
0.0
  0
LINE
  5
822
  8
0
  6
BYBLOCK
 62
    71
 10
142.056455
 20
122.016422
 30
0.0
 11
142.056455
 21
121.65475
 31
0.0
  0
LINE
  5
823
  8
0
  6
BYBLOCK
 62
    71
 10
141.756455
 20
121.73475
 30
0.0
 11
141.706455
 21
121.73475
 31
0.0
  0
LINE
  5
824
  8
0
  6
BYBLOCK
 62
    71
 10
142.106455
 20
121.73475
 30
0.0
 11
142.156455
 21
121.73475
 31
0.0
  0
INSERT
  5
825
  8
0
  6
BYBLOCK
 62
    71
  2
TICK
 10
141.806455
 20
121.73475
 30
0.0
 41
0.05
 42
0.05
 43
0.05
  0
INSERT
  5
826
  8
0
  6
BYBLOCK
 62
    71
  2
TICK
 10
142.056455
 20
121.73475
 30
0.0
 41
0.05
 42
0.05
 43
0.05
 50
180.0
  0
TEXT
  5
827
  8
0
  6
BYBLOCK
 62
     7
 10
141.812907
 20
121.515081
 30
0.0
 40
0.08
  1
0.25
 72
     1
 11
141.926241
 21
121.555081
 31
0.0
 73
     2
  0
POINT
  5
828
  8
DEFPOINTS
  6
BYBLOCK
 62
     0
 10
141.806455
 20
122.098217
 30
0.0
  0
POINT
  5
829
  8
DEFPOINTS
  6
BYBLOCK
 62
     0
 10
142.056455
 20
122.096422
 30
0.0
  0
POINT
  5
82A
  8
DEFPOINTS
  6
BYBLOCK
 62
     0
 10
142.056455
 20
121.73475
 30
0.0
  0
ENDBLK
  5
82C
  8
0
  0
BLOCK
  8
0
  2
*D5
 70
     1
 10
0.0
 20
0.0
 30
0.0
  3
*D5
  1

  0
LINE
  5
82E
  8
0
  6
BYBLOCK
 62
    71
 10
144.056455
 20
122.01894
 30
0.0
 11
144.056455
 21
121.655685
 31
0.0
  0
LINE
  5
82F
  8
0
  6
BYBLOCK
 62
    71
 10
144.306455
 20
122.018217
 30
0.0
 11
144.306455
 21
121.655685
 31
0.0
  0
LINE
  5
830
  8
0
  6
BYBLOCK
 62
    71
 10
144.006455
 20
121.735685
 30
0.0
 11
143.956455
 21
121.735685
 31
0.0
  0
LINE
  5
831
  8
0
  6
BYBLOCK
 62
    71
 10
144.356455
 20
121.735685
 30
0.0
 11
144.406455
 21
121.735685
 31
0.0
  0
INSERT
  5
832
  8
0
  6
BYBLOCK
 62
    71
  2
TICK
 10
144.056455
 20
121.735685
 30
0.0
 41
0.05
 42
0.05
 43
0.05
  0
INSERT
  5
833
  8
0
  6
BYBLOCK
 62
    71
  2
TICK
 10
144.306455
 20
121.735685
 30
0.0
 41
0.05
 42
0.05
 43
0.05
 50
180.0
  0
TEXT
  5
834
  8
0
  6
BYBLOCK
 62
     7
 10
144.084034
 20
121.515081
 30
0.0
 40
0.08
  1
0.25
 72
     1
 11
144.197367
 21
121.555081
 31
0.0
 73
     2
  0
POINT
  5
835
  8
DEFPOINTS
  6
BYBLOCK
 62
     0
 10
144.056455
 20
122.09894
 30
0.0
  0
POINT
  5
836
  8
DEFPOINTS
  6
BYBLOCK
 62
     0
 10
144.306455
 20
122.098217
 30
0.0
  0
POINT
  5
837
  8
DEFPOINTS
  6
BYBLOCK
 62
     0
 10
144.306455
 20
121.735685
 30
0.0
  0
ENDBLK
  5
839
  8
0
  0
BLOCK
  8
0
  2
*D6
 70
     1
 10
0.0
 20
0.0
 30
0.0
  3
*D6
  1

  0
LINE
  5
83B
  8
0
  6
BYBLOCK
 62
    71
 10
144.386455
 20
122.098217
 30
0.0
 11
144.973154
 21
122.098217
 31
0.0
  0
LINE
  5
83C
  8
0
  6
BYBLOCK
 62
    71
 10
144.385022
 20
122.398217
 30
0.0
 11
144.973154
 21
122.398217
 31
0.0
  0
LINE
  5
83D
  8
0
  6
BYBLOCK
 62
    71
 10
144.893154
 20
122.148217
 30
0.0
 11
144.893154
 21
122.348217
 31
0.0
  0
INSERT
  5
83E
  8
0
  6
BYBLOCK
 62
    71
  2
TICK
 10
144.893154
 20
122.098217
 30
0.0
 41
0.05
 42
0.05
 43
0.05
 50
270.0
  0
INSERT
  5
83F
  8
0
  6
BYBLOCK
 62
    71
  2
TICK
 10
144.893154
 20
122.398217
 30
0.0
 41
0.05
 42
0.05
 43
0.05
 50
90.0
  0
TEXT
  5
840
  8
0
  6
BYBLOCK
 62
     7
 10
145.08328
 20
122.15045
 30
0.0
 40
0.08
  1
0.30
 50
90.0
 72
     1
 11
145.04328
 21
122.257116
 31
0.0
 73
     2
  0
POINT
  5
841
  8
DEFPOINTS
  6
BYBLOCK
 62
     0
 10
144.306455
 20
122.098217
 30
0.0
  0
POINT
  5
842
  8
DEFPOINTS
  6
BYBLOCK
 62
     0
 10
144.305022
 20
122.398217
 30
0.0
  0
POINT
  5
843
  8
DEFPOINTS
  6
BYBLOCK
 62
     0
 10
144.893154
 20
122.398217
 30
0.0
  0
ENDBLK
  5
845
  8
0
  0
BLOCK
  8
0
  2
*D7
 70
     1
 10
0.0
 20
0.0
 30
0.0
  3
*D7
  1

  0
LINE
  5
847
  8
0
  6
BYBLOCK
 62
    71
 10
144.385022
 20
122.398217
 30
0.0
 11
144.973154
 21
122.398217
 31
0.0
  0
LINE
  5
848
  8
0
  6
BYBLOCK
 62
    71
 10
144.387149
 20
124.00198
 30
0.0
 11
144.973154
 21
124.00198
 31
0.0
  0
LINE
  5
849
  8
0
  6
BYBLOCK
 62
    71
 10
144.893154
 20
122.448217
 30
0.0
 11
144.893154
 21
123.95198
 31
0.0
  0
INSERT
  5
84A
  8
0
  6
BYBLOCK
 62
    71
  2
TICK
 10
144.893154
 20
122.398217
 30
0.0
 41
0.05
 42
0.05
 43
0.05
 50
270.0
  0
INSERT
  5
84B
  8
0
  6
BYBLOCK
 62
    71
  2
TICK
 10
144.893154
 20
124.00198
 30
0.0
 41
0.05
 42
0.05
 43
0.05
 50
90.0
  0
TEXT
  5
84C
  8
0
  6
BYBLOCK
 62
     7
 10
144.853154
 20
123.100098
 30
0.0
 40
0.08
  1
1.60
 50
90.0
 72
     1
 11
144.813154
 21
123.200098
 31
0.0
 73
     2
  0
POINT
  5
84D
  8
DEFPOINTS
  6
BYBLOCK
 62
     0
 10
144.305022
 20
122.398217
 30
0.0
  0
POINT
  5
84E
  8
DEFPOINTS
  6
BYBLOCK
 62
     0
 10
144.307149
 20
124.00198
 30
0.0
  0
POINT
  5
84F
  8
DEFPOINTS
  6
BYBLOCK
 62
     0
 10
144.893154
 20
124.00198
 30
0.0
  0
ENDBLK
  5
851
  8
0
  0
BLOCK
  8
0
  2
*D8
 70
     1
 10
0.0
 20
0.0
 30
0.0
  3
*D8
  1

  0
LINE
  5
853
  8
0
  6
BYBLOCK
 62
    71
 10
144.385022
 20
124.00198
 30
0.0
 11
144.973154
 21
124.00198
 31
0.0
  0
LINE
  5
854
  8
0
  6
BYBLOCK
 62
    71
 10
143.971522
 20
124.998217
 30
0.0
 11
144.973154
 21
124.998217
 31
0.0
  0
LINE
  5
855
  8
0
  6
BYBLOCK
 62
    71
 10
144.893154
 20
124.05198
 30
0.0
 11
144.893154
 21
124.948217
 31
0.0
  0
INSERT
  5
856
  8
0
  6
BYBLOCK
 62
    71
  2
TICK
 10
144.893154
 20
124.00198
 30
0.0
 41
0.05
 42
0.05
 43
0.05
 50
270.0
  0
INSERT
  5
857
  8
0
  6
BYBLOCK
 62
    71
  2
TICK
 10
144.893154
 20
124.998217
 30
0.0
 41
0.05
 42
0.05
 43
0.05
 50
90.0
  0
TEXT
  5
858
  8
0
  6
BYBLOCK
 62
     7
 10
144.853154
 20
124.406765
 30
0.0
 40
0.08
  1
1.00
 50
90.0
 72
     1
 11
144.813154
 21
124.500098
 31
0.0
 73
     2
  0
POINT
  5
859
  8
DEFPOINTS
  6
BYBLOCK
 62
     0
 10
144.305022
 20
124.00198
 30
0.0
  0
POINT
  5
85A
  8
DEFPOINTS
  6
BYBLOCK
 62
     0
 10
143.891522
 20
124.998217
 30
0.0
  0
POINT
  5
85B
  8
DEFPOINTS
  6
BYBLOCK
 62
     0
 10
144.893154
 20
124.998217
 30
0.0
  0
ENDBLK
  5
85D
  8
0
  0
BLOCK
  8
0
  2
*D9
 70
     1
 10
0.0
 20
0.0
 30
0.0
  3
*D9
  1

  0
LINE
  5
85F
  8
0
  6
BYBLOCK
 62
    71
 10
143.884655
 20
124.998217
 30
0.0
 11
144.973154
 21
124.998217
 31
0.0
  0
LINE
  5
860
  8
0
  6
BYBLOCK
 62
    71
 10
143.392253
 20
125.248217
 30
0.0
 11
144.973154
 21
125.248217
 31
0.0
  0
LINE
  5
861
  8
0
  6
BYBLOCK
 62
    71
 10
144.893154
 20
124.948217
 30
0.0
 11
144.893154
 21
124.898217
 31
0.0
  0
LINE
  5
862
  8
0
  6
BYBLOCK
 62
    71
 10
144.893154
 20
125.298217
 30
0.0
 11
144.893154
 21
125.348217
 31
0.0
  0
INSERT
  5
863
  8
0
  6
BYBLOCK
 62
    71
  2
TICK
 10
144.893154
 20
124.998217
 30
0.0
 41
0.05
 42
0.05
 43
0.05
 50
90.0
  0
INSERT
  5
864
  8
0
  6
BYBLOCK
 62
    71
  2
TICK
 10
144.893154
 20
125.248217
 30
0.0
 41
0.05
 42
0.05
 43
0.05
 50
270.0
  0
TEXT
  5
865
  8
0
  6
BYBLOCK
 62
     7
 10
145.076459
 20
125.026897
 30
0.0
 40
0.08
  1
0.25
 50
90.0
 72
     1
 11
145.036459
 21
125.140231
 31
0.0
 73
     2
  0
POINT
  5
866
  8
DEFPOINTS
  6
BYBLOCK
 62
     0
 10
143.804655
 20
124.998217
 30
0.0
  0
POINT
  5
867
  8
DEFPOINTS
  6
BYBLOCK
 62
     0
 10
143.312253
 20
125.248217
 30
0.0
  0
POINT
  5
868
  8
DEFPOINTS
  6
BYBLOCK
 62
     0
 10
144.893154
 20
125.248217
 30
0.0
  0
ENDBLK
  5
86A
  8
0
  0
BLOCK
  8
0
  2
*D10
 70
     1
 10
0.0
 20
0.0
 30
0.0
  3
*D10
  1

  0
LINE
  5
86C
  8
0
  6
BYBLOCK
 62
    71
 10
143.136455
 20
122.398217
 30
0.0
 11
143.356559
 21
122.398217
 31
0.0
  0
LINE
  5
86D
  8
0
  6
BYBLOCK
 62
    71
 10
143.136455
 20
122.698217
 30
0.0
 11
143.356559
 21
122.698217
 31
0.0
  0
LINE
  5
86E
  8
0
  6
BYBLOCK
 62
    71
 10
143.276559
 20
122.448217
 30
0.0
 11
143.276559
 21
122.648217
 31
0.0
  0
INSERT
  5
86F
  8
0
  6
BYBLOCK
 62
    71
  2
TICK
 10
143.276559
 20
122.398217
 30
0.0
 41
0.05
 42
0.05
 43
0.05
 50
270.0
  0
INSERT
  5
870
  8
0
  6
BYBLOCK
 62
    71
  2
TICK
 10
143.276559
 20
122.698217
 30
0.0
 41
0.05
 42
0.05
 43
0.05
 50
90.0
  0
TEXT
  5
871
  8
0
  6
BYBLOCK
 62
     7
 10
143.218673
 20
122.446849
 30
0.0
 40
0.08
  1
0.30
 50
90.0
 72
     1
 11
143.178673
 21
122.553516
 31
0.0
 73
     2
  0
POINT
  5
872
  8
DEFPOINTS
  6
BYBLOCK
 62
     0
 10
143.056455
 20
122.398217
 30
0.0
  0
POINT
  5
873
  8
DEFPOINTS
  6
BYBLOCK
 62
     0
 10
143.056455
 20
122.698217
 30
0.0
  0
POINT
  5
874
  8
DEFPOINTS
  6
BYBLOCK
 62
     0
 10
143.276559
 20
122.698217
 30
0.0
  0
ENDBLK
  5
876
  8
0
  0
BLOCK
  8
0
  2
*D11
 70
     1
 10
0.0
 20
0.0
 30
0.0
  3
*D11
  1

  0
LINE
  5
878
  8
0
  6
BYBLOCK
 62
    71
 10
142.056455
 20
122.016422
 30
0.0
 11
142.056455
 21
121.655685
 31
0.0
  0
LINE
  5
879
  8
0
  6
BYBLOCK
 62
    71
 10
144.056455
 20
122.01894
 30
0.0
 11
144.056455
 21
121.655685
 31
0.0
  0
LINE
  5
87A
  8
0
  6
BYBLOCK
 62
    71
 10
142.106455
 20
121.735685
 30
0.0
 11
142.88377
 21
121.735685
 31
0.0
  0
LINE
  5
87B
  8
0
  6
BYBLOCK
 62
    71
 10
144.006455
 20
121.735685
 30
0.0
 11
143.28758
 21
121.735685
 31
0.0
  0
INSERT
  5
87C
  8
0
  6
BYBLOCK
 62
    71
  2
TICK
 10
142.056455
 20
121.735685
 30
0.0
 41
0.05
 42
0.05
 43
0.05
 50
180.0
  0
INSERT
  5
87D
  8
0
  6
BYBLOCK
 62
    71
  2
TICK
 10
144.056455
 20
121.735685
 30
0.0
 41
0.05
 42
0.05
 43
0.05
  0
TEXT
  5
87E
  8
0
  6
BYBLOCK
 62
     7
 10
142.979008
 20
121.692294
 30
0.0
 40
0.08
  1
2.00
 72
     1
 11
143.085675
 21
121.732294
 31
0.0
 73
     2
  0
POINT
  5
87F
  8
DEFPOINTS
  6
BYBLOCK
 62
     0
 10
142.056455
 20
122.096422
 30
0.0
  0
POINT
  5
880
  8
DEFPOINTS
  6
BYBLOCK
 62
     0
 10
144.056455
 20
122.09894
 30
0.0
  0
POINT
  5
881
  8
DEFPOINTS
  6
BYBLOCK
 62
     0
 10
144.056455
 20
121.735685
 30
0.0
  0
ENDBLK
  5
883
  8
0
  0
BLOCK
  8
0
  2
*D12
 70
     1
 10
0.0
 20
0.0
 30
0.0
  3
*D12
  1

  0
LINE
  5
885
  8
0
  6
BYBLOCK
 62
    71
 10
153.702968
 20
123.059563
 30
0.0
 11
153.702968
 21
123.328779
 31
0.0
  0
LINE
  5
886
  8
0
  6
BYBLOCK
 62
    71
 10
154.702968
 20
123.059563
 30
0.0
 11
154.702968
 21
123.328779
 31
0.0
  0
LINE
  5
887
  8
0
  6
BYBLOCK
 62
    71
 10
153.752968
 20
123.248779
 30
0.0
 11
154.652968
 21
123.248779
 31
0.0
  0
INSERT
  5
888
  8
0
  6
BYBLOCK
 62
    71
  2
TICK
 10
153.702968
 20
123.248779
 30
0.0
 41
0.05
 42
0.05
 43
0.05
 50
180.0
  0
INSERT
  5
889
  8
0
  6
BYBLOCK
 62
    71
  2
TICK
 10
154.702968
 20
123.248779
 30
0.0
 41
0.05
 42
0.05
 43
0.05
  0
TEXT
  5
88A
  8
0
  6
BYBLOCK
 62
     7
 10
154.109635
 20
123.288779
 30
0.0
 40
0.08
  1
1.00
 72
     1
 11
154.202968
 21
123.328779
 31
0.0
 73
     2
  0
POINT
  5
88B
  8
DEFPOINTS
  6
BYBLOCK
 62
     0
 10
153.702968
 20
122.979563
 30
0.0
  0
POINT
  5
88C
  8
DEFPOINTS
  6
BYBLOCK
 62
     0
 10
154.702968
 20
122.979563
 30
0.0
  0
POINT
  5
88D
  8
DEFPOINTS
  6
BYBLOCK
 62
     0
 10
154.702968
 20
123.248779
 30
0.0
  0
ENDBLK
  5
88F
  8
0
  0
BLOCK
  8
0
  2
*D13
 70
     1
 10
0.0
 20
0.0
 30
0.0
  3
*D13
  1

  0
LINE
  5
891
  8
0
  6
BYBLOCK
 62
    71
 10
154.702968
 20
123.059563
 30
0.0
 11
154.702968
 21
123.328779
 31
0.0
  0
LINE
  5
892
  8
0
  6
BYBLOCK
 62
    71
 10
155.502968
 20
122.759563
 30
0.0
 11
155.502968
 21
123.328779
 31
0.0
  0
LINE
  5
893
  8
0
  6
BYBLOCK
 62
    71
 10
154.752968
 20
123.248779
 30
0.0
 11
155.452968
 21
123.248779
 31
0.0
  0
INSERT
  5
894
  8
0
  6
BYBLOCK
 62
    71
  2
TICK
 10
154.702968
 20
123.248779
 30
0.0
 41
0.05
 42
0.05
 43
0.05
 50
180.0
  0
INSERT
  5
895
  8
0
  6
BYBLOCK
 62
    71
  2
TICK
 10
155.502968
 20
123.248779
 30
0.0
 41
0.05
 42
0.05
 43
0.05
  0
TEXT
  5
896
  8
0
  6
BYBLOCK
 62
     7
 10
154.996301
 20
123.288779
 30
0.0
 40
0.08
  1
0.80
 72
     1
 11
155.102968
 21
123.328779
 31
0.0
 73
     2
  0
POINT
  5
897
  8
DEFPOINTS
  6
BYBLOCK
 62
     0
 10
154.702968
 20
122.979563
 30
0.0
  0
POINT
  5
898
  8
DEFPOINTS
  6
BYBLOCK
 62
     0
 10
155.502968
 20
122.679563
 30
0.0
  0
POINT
  5
899
  8
DEFPOINTS
  6
BYBLOCK
 62
     0
 10
155.502968
 20
123.248779
 30
0.0
  0
ENDBLK
  5
89B
  8
0
  0
BLOCK
  8
0
  2
*D14
 70
     1
 10
0.0
 20
0.0
 30
0.0
  3
*D14
  1

  0
LINE
  5
89D
  8
0
  6
BYBLOCK
 62
    71
 10
154.782968
 20
122.679563
 30
0.0
 11
155.079849
 21
122.679563
 31
0.0
  0
LINE
  5
89E
  8
0
  6
BYBLOCK
 62
    71
 10
154.782968
 20
122.979563
 30
0.0
 11
155.079849
 21
122.979563
 31
0.0
  0
LINE
  5
89F
  8
0
  6
BYBLOCK
 62
    71
 10
154.999849
 20
122.729563
 30
0.0
 11
154.999849
 21
122.929563
 31
0.0
  0
INSERT
  5
8A0
  8
0
  6
BYBLOCK
 62
    71
  2
TICK
 10
154.999849
 20
122.679563
 30
0.0
 41
0.05
 42
0.05
 43
0.05
 50
270.0
  0
INSERT
  5
8A1
  8
0
  6
BYBLOCK
 62
    71
  2
TICK
 10
154.999849
 20
122.979563
 30
0.0
 41
0.05
 42
0.05
 43
0.05
 50
90.0
  0
TEXT
  5
8A2
  8
0
  6
BYBLOCK
 62
     7
 10
154.959849
 20
122.731909
 30
0.0
 40
0.08
  1
0.30
 50
90.0
 72
     1
 11
154.919849
 21
122.838576
 31
0.0
 73
     2
  0
POINT
  5
8A3
  8
DEFPOINTS
  6
BYBLOCK
 62
     0
 10
154.702968
 20
122.679563
 30
0.0
  0
POINT
  5
8A4
  8
DEFPOINTS
  6
BYBLOCK
 62
     0
 10
154.702968
 20
122.979563
 30
0.0
  0
POINT
  5
8A5
  8
DEFPOINTS
  6
BYBLOCK
 62
     0
 10
154.999849
 20
122.979563
 30
0.0
  0
ENDBLK
  5
8A7
  8
0
  0
BLOCK
  8
0
  2
*D15
 70
     1
 10
0.0
 20
0.0
 30
0.0
  3
*D15
  1

  0
LINE
  5
8A9
  8
0
  6
BYBLOCK
 62
    71
 10
153.452968
 20
122.299563
 30
0.0
 11
153.452968
 21
121.963135
 31
0.0
  0
LINE
  5
8AA
  8
0
  6
BYBLOCK
 62
    71
 10
153.702968
 20
122.296741
 30
0.0
 11
153.702968
 21
121.963135
 31
0.0
  0
LINE
  5
8AB
  8
0
  6
BYBLOCK
 62
    71
 10
153.402968
 20
122.043135
 30
0.0
 11
153.352968
 21
122.043135
 31
0.0
  0
LINE
  5
8AC
  8
0
  6
BYBLOCK
 62
    71
 10
153.752968
 20
122.043135
 30
0.0
 11
153.802968
 21
122.043135
 31
0.0
  0
INSERT
  5
8AD
  8
0
  6
BYBLOCK
 62
    71
  2
TICK
 10
153.452968
 20
122.043135
 30
0.0
 41
0.05
 42
0.05
 43
0.05
  0
INSERT
  5
8AE
  8
0
  6
BYBLOCK
 62
    71
  2
TICK
 10
153.702968
 20
122.043135
 30
0.0
 41
0.05
 42
0.05
 43
0.05
 50
180.0
  0
TEXT
  5
8AF
  8
0
  6
BYBLOCK
 62
     7
 10
153.147767
 20
122.083135
 30
0.0
 40
0.08
  1
0.25
 72
     1
 11
153.2611
 21
122.123135
 31
0.0
 73
     2
  0
POINT
  5
8B0
  8
DEFPOINTS
  6
BYBLOCK
 62
     0
 10
153.452968
 20
122.379563
 30
0.0
  0
POINT
  5
8B1
  8
DEFPOINTS
  6
BYBLOCK
 62
     0
 10
153.702968
 20
122.376741
 30
0.0
  0
POINT
  5
8B2
  8
DEFPOINTS
  6
BYBLOCK
 62
     0
 10
153.702968
 20
122.043135
 30
0.0
  0
ENDBLK
  5
8B4
  8
0
  0
BLOCK
  8
0
  2
*D16
 70
     1
 10
0.0
 20
0.0
 30
0.0
  3
*D16
  1

  0
LINE
  5
8B6
  8
0
  6
BYBLOCK
 62
    71
 10
153.702968
 20
122.296741
 30
0.0
 11
153.702968
 21
121.963135
 31
0.0
  0
LINE
  5
8B7
  8
0
  6
BYBLOCK
 62
    71
 10
155.502968
 20
122.300209
 30
0.0
 11
155.502968
 21
121.963135
 31
0.0
  0
LINE
  5
8B8
  8
0
  6
BYBLOCK
 62
    71
 10
153.752968
 20
122.043135
 30
0.0
 11
155.452968
 21
122.043135
 31
0.0
  0
INSERT
  5
8B9
  8
0
  6
BYBLOCK
 62
    71
  2
TICK
 10
153.702968
 20
122.043135
 30
0.0
 41
0.05
 42
0.05
 43
0.05
 50
180.0
  0
INSERT
  5
8BA
  8
0
  6
BYBLOCK
 62
    71
  2
TICK
 10
155.502968
 20
122.043135
 30
0.0
 41
0.05
 42
0.05
 43
0.05
  0
TEXT
  5
8BB
  8
0
  6
BYBLOCK
 62
     7
 10
154.502968
 20
122.083135
 30
0.0
 40
0.08
  1
1.80
 72
     1
 11
154.602968
 21
122.123135
 31
0.0
 73
     2
  0
POINT
  5
8BC
  8
DEFPOINTS
  6
BYBLOCK
 62
     0
 10
153.702968
 20
122.376741
 30
0.0
  0
POINT
  5
8BD
  8
DEFPOINTS
  6
BYBLOCK
 62
     0
 10
155.502968
 20
122.380209
 30
0.0
  0
POINT
  5
8BE
  8
DEFPOINTS
  6
BYBLOCK
 62
     0
 10
155.502968
 20
122.043135
 30
0.0
  0
ENDBLK
  5
8C0
  8
0
  0
BLOCK
  8
0
  2
*D17
 70
     1
 10
0.0
 20
0.0
 30
0.0
  3
*D17
  1

  0
LINE
  5
8C2
  8
0
  6
BYBLOCK
 62
    71
 10
155.502968
 20
122.300209
 30
0.0
 11
155.502968
 21
121.963135
 31
0.0
  0
LINE
  5
8C3
  8
0
  6
BYBLOCK
 62
    71
 10
155.752968
 20
122.299563
 30
0.0
 11
155.752968
 21
121.963135
 31
0.0
  0
LINE
  5
8C4
  8
0
  6
BYBLOCK
 62
    71
 10
155.452968
 20
122.043135
 30
0.0
 11
155.402968
 21
122.043135
 31
0.0
  0
LINE
  5
8C5
  8
0
  6
BYBLOCK
 62
    71
 10
155.802968
 20
122.043135
 30
0.0
 11
155.852968
 21
122.043135
 31
0.0
  0
INSERT
  5
8C6
  8
0
  6
BYBLOCK
 62
    71
  2
TICK
 10
155.502968
 20
122.043135
 30
0.0
 41
0.05
 42
0.05
 43
0.05
  0
INSERT
  5
8C7
  8
0
  6
BYBLOCK
 62
    71
  2
TICK
 10
155.752968
 20
122.043135
 30
0.0
 41
0.05
 42
0.05
 43
0.05
 50
180.0
  0
TEXT
  5
8C8
  8
0
  6
BYBLOCK
 62
     7
 10
155.846548
 20
122.083135
 30
0.0
 40
0.08
  1
0.25
 72
     1
 11
155.959882
 21
122.123135
 31
0.0
 73
     2
  0
POINT
  5
8C9
  8
DEFPOINTS
  6
BYBLOCK
 62
     0
 10
155.502968
 20
122.380209
 30
0.0
  0
POINT
  5
8CA
  8
DEFPOINTS
  6
BYBLOCK
 62
     0
 10
155.752968
 20
122.379563
 30
0.0
  0
POINT
  5
8CB
  8
DEFPOINTS
  6
BYBLOCK
 62
     0
 10
155.752968
 20
122.043135
 30
0.0
  0
ENDBLK
  5
8CD
  8
0
  0
BLOCK
  8
0
  2
*D18
 70
     1
 10
0.0
 20
0.0
 30
0.0
  3
*D18
  1

  0
LINE
  5
8CF
  8
0
  6
BYBLOCK
 62
    71
 10
155.832968
 20
122.379563
 30
0.0
 11
156.231073
 21
122.379563
 31
0.0
  0
LINE
  5
8D0
  8
0
  6
BYBLOCK
 62
    71
 10
155.833831
 20
122.679563
 30
0.0
 11
156.231073
 21
122.679563
 31
0.0
  0
LINE
  5
8D1
  8
0
  6
BYBLOCK
 62
    71
 10
156.151073
 20
122.429563
 30
0.0
 11
156.151073
 21
122.629563
 31
0.0
  0
INSERT
  5
8D2
  8
0
  6
BYBLOCK
 62
    71
  2
TICK
 10
156.151073
 20
122.379563
 30
0.0
 41
0.05
 42
0.05
 43
0.05
 50
270.0
  0
INSERT
  5
8D3
  8
0
  6
BYBLOCK
 62
    71
  2
TICK
 10
156.151073
 20
122.679563
 30
0.0
 41
0.05
 42
0.05
 43
0.05
 50
90.0
  0
TEXT
  5
8D4
  8
0
  6
BYBLOCK
 62
     7
 10
156.111073
 20
122.426864
 30
0.0
 40
0.08
  1
0.30
 50
90.0
 72
     1
 11
156.071073
 21
122.53353
 31
0.0
 73
     2
  0
POINT
  5
8D5
  8
DEFPOINTS
  6
BYBLOCK
 62
     0
 10
155.752968
 20
122.379563
 30
0.0
  0
POINT
  5
8D6
  8
DEFPOINTS
  6
BYBLOCK
 62
     0
 10
155.753831
 20
122.679563
 30
0.0
  0
POINT
  5
8D7
  8
DEFPOINTS
  6
BYBLOCK
 62
     0
 10
156.151073
 20
122.679563
 30
0.0
  0
ENDBLK
  5
8D9
  8
0
  0
BLOCK
  8
0
  2
*D19
 70
     1
 10
0.0
 20
0.0
 30
0.0
  3
*D19
  1

  0
LINE
  5
8DB
  8
0
  6
BYBLOCK
 62
    71
 10
155.833831
 20
122.679563
 30
0.0
 11
156.231073
 21
122.679563
 31
0.0
  0
LINE
  5
8DC
  8
0
  6
BYBLOCK
 62
    71
 10
155.833831
 20
123.579563
 30
0.0
 11
156.231073
 21
123.579563
 31
0.0
  0
LINE
  5
8DD
  8
0
  6
BYBLOCK
 62
    71
 10
156.151073
 20
122.729563
 30
0.0
 11
156.151073
 21
123.529563
 31
0.0
  0
INSERT
  5
8DE
  8
0
  6
BYBLOCK
 62
    71
  2
TICK
 10
156.151073
 20
122.679563
 30
0.0
 41
0.05
 42
0.05
 43
0.05
 50
270.0
  0
INSERT
  5
8DF
  8
0
  6
BYBLOCK
 62
    71
  2
TICK
 10
156.151073
 20
123.579563
 30
0.0
 41
0.05
 42
0.05
 43
0.05
 50
90.0
  0
TEXT
  5
8E0
  8
0
  6
BYBLOCK
 62
     7
 10
156.111073
 20
123.022896
 30
0.0
 40
0.08
  1
0.90
 50
90.0
 72
     1
 11
156.071073
 21
123.129563
 31
0.0
 73
     2
  0
POINT
  5
8E1
  8
DEFPOINTS
  6
BYBLOCK
 62
     0
 10
155.753831
 20
122.679563
 30
0.0
  0
POINT
  5
8E2
  8
DEFPOINTS
  6
BYBLOCK
 62
     0
 10
155.753831
 20
123.579563
 30
0.0
  0
POINT
  5
8E3
  8
DEFPOINTS
  6
BYBLOCK
 62
     0
 10
156.151073
 20
123.579563
 30
0.0
  0
ENDBLK
  5
8E5
  8
0
  0
BLOCK
  8
0
  2
*D20
 70
     1
 10
0.0
 20
0.0
 30
0.0
  3
*D20
  1

  0
LINE
  5
8E7
  8
0
  6
BYBLOCK
 62
    71
 10
155.833831
 20
123.579563
 30
0.0
 11
156.231073
 21
123.579563
 31
0.0
  0
LINE
  5
8E8
  8
0
  6
BYBLOCK
 62
    71
 10
155.398257
 20
124.479563
 30
0.0
 11
156.231073
 21
124.479563
 31
0.0
  0
LINE
  5
8E9
  8
0
  6
BYBLOCK
 62
    71
 10
156.151073
 20
123.629563
 30
0.0
 11
156.151073
 21
124.429563
 31
0.0
  0
INSERT
  5
8EA
  8
0
  6
BYBLOCK
 62
    71
  2
TICK
 10
156.151073
 20
123.579563
 30
0.0
 41
0.05
 42
0.05
 43
0.05
 50
270.0
  0
INSERT
  5
8EB
  8
0
  6
BYBLOCK
 62
    71
  2
TICK
 10
156.151073
 20
124.479563
 30
0.0
 41
0.05
 42
0.05
 43
0.05
 50
90.0
  0
TEXT
  5
8EC
  8
0
  6
BYBLOCK
 62
     7
 10
156.111073
 20
123.922896
 30
0.0
 40
0.08
  1
0.90
 50
90.0
 72
     1
 11
156.071073
 21
124.029563
 31
0.0
 73
     2
  0
POINT
  5
8ED
  8
DEFPOINTS
  6
BYBLOCK
 62
     0
 10
155.753831
 20
123.579563
 30
0.0
  0
POINT
  5
8EE
  8
DEFPOINTS
  6
BYBLOCK
 62
     0
 10
155.318257
 20
124.479563
 30
0.0
  0
POINT
  5
8EF
  8
DEFPOINTS
  6
BYBLOCK
 62
     0
 10
156.151073
 20
124.479563
 30
0.0
  0
ENDBLK
  5
8F1
  8
0
  0
BLOCK
  8
0
  2
*D21
 70
     1
 10
0.0
 20
0.0
 30
0.0
  3
*D21
  1

  0
LINE
  5
8F3
  8
0
  6
BYBLOCK
 62
    71
 10
155.398257
 20
124.479563
 30
0.0
 11
156.231073
 21
124.479563
 31
0.0
  0
LINE
  5
8F4
  8
0
  6
BYBLOCK
 62
    71
 10
154.851857
 20
124.729563
 30
0.0
 11
156.231073
 21
124.729563
 31
0.0
  0
LINE
  5
8F5
  8
0
  6
BYBLOCK
 62
    71
 10
156.151073
 20
124.429563
 30
0.0
 11
156.151073
 21
124.379563
 31
0.0
  0
LINE
  5
8F6
  8
0
  6
BYBLOCK
 62
    71
 10
156.151073
 20
124.779563
 30
0.0
 11
156.151073
 21
124.829563
 31
0.0
  0
INSERT
  5
8F7
  8
0
  6
BYBLOCK
 62
    71
  2
TICK
 10
156.151073
 20
124.479563
 30
0.0
 41
0.05
 42
0.05
 43
0.05
 50
90.0
  0
INSERT
  5
8F8
  8
0
  6
BYBLOCK
 62
    71
  2
TICK
 10
156.151073
 20
124.729563
 30
0.0
 41
0.05
 42
0.05
 43
0.05
 50
270.0
  0
TEXT
  5
8F9
  8
0
  6
BYBLOCK
 62
     7
 10
156.111073
 20
124.831595
 30
0.0
 40
0.08
  1
0.25
 50
90.0
 72
     1
 11
156.071073
 21
124.944928
 31
0.0
 73
     2
  0
POINT
  5
8FA
  8
DEFPOINTS
  6
BYBLOCK
 62
     0
 10
155.318257
 20
124.479563
 30
0.0
  0
POINT
  5
8FB
  8
DEFPOINTS
  6
BYBLOCK
 62
     0
 10
154.771857
 20
124.729563
 30
0.0
  0
POINT
  5
8FC
  8
DEFPOINTS
  6
BYBLOCK
 62
     0
 10
156.151073
 20
124.729563
 30
0.0
  0
ENDBLK
  5
8FE
  8
0
  0
BLOCK
  8
0
  2
*D22
 70
     1
 10
0.0
 20
0.0
 30
0.0
  3
*D22
  1

  0
LINE
  5
900
  8
0
  6
BYBLOCK
 62
    71
 10
154.399015
 20
124.404732
 30
0.0
 11
154.50153
 21
123.989971
 31
0.0
  0
LINE
  5
901
  8
0
  6
BYBLOCK
 62
    71
 10
154.50153
 20
123.989971
 30
0.0
 11
154.597507
 21
123.601656
 31
0.0
  0
INSERT
  5
902
  8
0
  6
BYBLOCK
 62
    71
  2
TICK
 10
154.387018
 20
124.453271
 30
0.0
 41
0.05
 42
0.05
 43
0.05
 50
103.883238
  0
TEXT
  5
903
  8
0
  6
BYBLOCK
 62
     7
 10
154.562756
 20
123.908962
 30
0.0
 40
0.08
  1
R0.90
 50
283.883238
 72
     1
 11
154.636779
 21
123.776177
 31
0.0
 73
     2
  0
POINT
  5
904
  8
DEFPOINTS
  6
BYBLOCK
 62
     0
 10
154.387018
 20
124.453271
 30
0.0
  0
POINT
  5
905
  8
DEFPOINTS
  6
BYBLOCK
 62
     0
 10
154.602968
 20
123.579563
 30
0.0
  0
ENDBLK
  5
907
  8
0
  0
BLOCK
  8
0
  2
VILADOMAT
 70
     0
 10
0.0
 20
0.0
 30
0.0
  3
VILADOMAT
  1

  0
DIMENSION
  5
90C
  8
COTES
  2
*D9
 10
-5.873182
 20
3.756356
 30
0.0
 11
-5.729876
 21
3.648369
 31
0.0
 12
-150.766336
 22
-121.491862
 32
0.0
 70
   128
  3
STANDARD
 13
-6.961681
 23
3.506356
 33
0.0
 14
-7.454083
 24
3.756356
 34
0.0
 50
90.0
  0
DIMENSION
  5
90D
  8
COTES
  2
*D8
 10
-5.873182
 20
3.506356
 30
0.0
 11
-5.953182
 21
3.008237
 31
0.0
 12
-150.766336
 22
-121.491862
 32
0.0
  3
STANDARD
 13
-6.461314
 23
2.510118
 33
0.0
 14
-6.874814
 24
3.506356
 34
0.0
 50
90.0
  0
DIMENSION
  5
90E
  8
COTES
  2
*D7
 10
-5.873182
 20
2.510118
 30
0.0
 11
-5.953182
 21
1.708237
 31
0.0
 12
-150.766336
 22
-121.491862
 32
0.0
  3
STANDARD
 13
-6.461314
 23
0.906356
 33
0.0
 14
-6.459187
 24
2.510118
 34
0.0
 50
90.0
  0
DIMENSION
  5
90F
  8
COTES
  2
*D6
 10
-5.873182
 20
0.906356
 30
0.0
 11
-5.723056
 21
0.765255
 31
0.0
 12
-150.766336
 22
-121.491862
 32
0.0
 70
   128
  3
STANDARD
 13
-6.459881
 23
0.606356
 33
0.0
 14
-6.461314
 24
0.906356
 34
0.0
 50
90.0
  0
DIMENSION
  5
910
  8
COTES
  2
*D5
 10
-6.459881
 20
0.243823
 30
0.0
 11
-6.568968
 21
0.06322
 31
0.0
 12
-150.766336
 22
-121.491862
 32
0.0
 70
   128
  3
STANDARD
 13
-6.709881
 23
0.607079
 33
0.0
 14
-6.459881
 24
0.606356
 34
0.0
  0
ARC
  5
911
  8
SECCIO
 10
-7.709881
 20
2.506356
 30
0.0
 40
1.25
 50
0.0
 51
180.0
  0
ARC
  5
912
  8
SECCIO
 10
-7.709881
 20
2.506356
 30
0.0
 40
1.0
 50
0.0
 51
180.0
  0
LINE
  5
913
  8
SECCIO
 10
-6.459881
 20
0.606356
 30
0.0
 11
-6.459881
 21
2.506356
 31
0.0
  0
LINE
  5
914
  8
SECCIO
 10
-8.709881
 20
2.506356
 30
0.0
 11
-8.709881
 21
1.206356
 31
0.0
  0
LINE
  5
915
  8
SECCIO
 10
-6.709881
 20
0.906356
 30
0.0
 11
-6.709881
 21
2.506356
 31
0.0
  0
LINE
  5
916
  8
SECCIO
 10
-8.959881
 20
2.506356
 30
0.0
 11
-8.959881
 21
0.606356
 31
0.0
  0
LINE
  5
917
  8
SECCIO
 10
-8.959881
 20
0.606356
 30
0.0
 11
-6.459881
 21
0.606356
 31
0.0
  0
DIMENSION
  5
918
  8
COTES
  2
*D11
 10
-6.709881
 20
0.243823
 30
0.0
 11
-7.680661
 21
0.240433
 31
0.0
 12
-150.766336
 22
-121.491862
 32
0.0
 70
   128
  3
STANDARD
 13
-8.709881
 23
0.60456
 33
0.0
 14
-6.709881
 24
0.607079
 34
0.0
  0
DIMENSION
  5
919
  8
COTES
  2
*D10
 10
-7.489777
 20
1.206356
 30
0.0
 11
-7.587663
 21
1.061654
 31
0.0
 12
-150.766336
 22
-121.491862
 32
0.0
 70
   128
  3
STANDARD
 13
-7.709881
 23
0.906356
 33
0.0
 14
-7.709881
 24
1.206356
 34
0.0
 50
90.0
  0
DIMENSION
  5
91A
  8
COTES
  2
*D4
 10
-8.709881
 20
0.242889
 30
0.0
 11
-8.840095
 21
0.06322
 31
0.0
 12
-150.766336
 22
-121.491862
 32
0.0
 70
   128
  3
STANDARD
 13
-8.959881
 23
0.606356
 33
0.0
 14
-8.709881
 24
0.60456
 34
0.0
  0
DIMENSION
  5
91B
  8
COTES
  2
*D3
 10
-7.709881
 20
2.506356
 30
0.0
 11
-7.789881
 21
2.781234
 31
0.0
 12
-150.766336
 22
-121.491862
 32
0.0
 70
     4
  3
STANDARD
 15
-7.709881
 25
3.506356
 35
0.0
 40
-0.485122
  0
DIMENSION
  5
91C
  8
COTES
  2
*D2
 10
-6.709881
 20
1.430369
 30
0.0
 11
-7.209881
 21
1.510369
 31
0.0
 12
-150.766336
 22
-121.491862
 32
0.0
  3
STANDARD
 13
-7.709881
 23
1.206356
 33
0.0
 14
-6.709881
 24
0.906356
 34
0.0
  0
DIMENSION
  5
91D
  8
COTES
  2
*D1
 10
-7.709881
 20
1.430369
 30
0.0
 11
-8.209881
 21
1.510369
 31
0.0
 12
-150.766336
 22
-121.491862
 32
0.0
  3
STANDARD
 13
-8.709881
 23
1.206356
 33
0.0
 14
-7.709881
 24
1.206356
 34
0.0
  0
LINE
  5
91E
  8
SECCIO
 10
-7.709881
 20
0.906356
 30
0.0
 11
-6.709881
 21
0.906356
 31
0.0
  0
LINE
  5
91F
  8
SECCIO
 10
-7.709881
 20
1.206356
 30
0.0
 11
-8.709881
 21
1.206356
 31
0.0
  0
LINE
  5
920
  8
SECCIO
 10
-7.709881
 20
0.906356
 30
0.0
 11
-7.709881
 21
1.206356
 31
0.0
  0
DIMENSION
  5
921
  8
COTES
  2
*D22
 10
-3.301087
 20
2.087702
 30
0.0
 11
-3.267276
 21
2.284316
 31
0.0
 12
-157.904055
 22
-121.491862
 32
0.0
 70
     4
  3
STANDARD
 15
-3.517037
 25
2.96141
 35
0.0
 40
-0.477242
  0
DIMENSION
  5
922
  8
COTES
  2
*D21
 10
-1.752982
 20
3.237702
 30
0.0
 11
-1.832982
 21
3.453066
 31
0.0
 12
-157.904055
 22
-121.491862
 32
0.0
 70
   128
  3
STANDARD
 13
-2.585798
 23
2.987702
 33
0.0
 14
-3.132198
 24
3.237702
 34
0.0
 50
90.0
  0
DIMENSION
  5
923
  8
COTES
  2
*D20
 10
-1.752982
 20
2.987702
 30
0.0
 11
-1.832982
 21
2.537702
 31
0.0
 12
-157.904055
 22
-121.491862
 32
0.0
  3
STANDARD
 13
-2.150224
 23
2.087702
 33
0.0
 14
-2.585798
 24
2.987702
 34
0.0
 50
90.0
  0
DIMENSION
  5
924
  8
COTES
  2
*D19
 10
-1.752982
 20
2.087702
 30
0.0
 11
-1.832982
 21
1.637702
 31
0.0
 12
-157.904055
 22
-121.491862
 32
0.0
  3
STANDARD
 13
-2.150224
 23
1.187702
 33
0.0
 14
-2.150224
 24
2.087702
 34
0.0
 50
90.0
  0
DIMENSION
  5
925
  8
COTES
  2
*D18
 10
-1.752982
 20
1.187702
 30
0.0
 11
-1.832982
 21
1.041669
 31
0.0
 12
-157.904055
 22
-121.491862
 32
0.0
 70
   128
  3
STANDARD
 13
-2.151087
 23
0.887702
 33
0.0
 14
-2.150224
 24
1.187702
 34
0.0
 50
90.0
  0
DIMENSION
  5
926
  8
COTES
  2
*D17
 10
-2.151087
 20
0.551273
 30
0.0
 11
-1.944173
 21
0.631273
 31
0.0
 12
-157.904055
 22
-121.491862
 32
0.0
 70
   128
  3
STANDARD
 13
-2.401087
 23
0.888348
 33
0.0
 14
-2.151087
 24
0.887702
 34
0.0
  0
DIMENSION
  5
927
  8
COTES
  2
*D16
 10
-2.401087
 20
0.551273
 30
0.0
 11
-3.301087
 21
0.631273
 31
0.0
 12
-157.904055
 22
-121.491862
 32
0.0
  3
STANDARD
 13
-4.201087
 23
0.88488
 33
0.0
 14
-2.401087
 24
0.888348
 34
0.0
  0
DIMENSION
  5
928
  8
COTES
  2
*D15
 10
-4.201087
 20
0.551273
 30
0.0
 11
-4.642955
 21
0.631273
 31
0.0
 12
-157.904055
 22
-121.491862
 32
0.0
 70
   128
  3
STANDARD
 13
-4.451087
 23
0.887702
 33
0.0
 14
-4.201087
 24
0.88488
 34
0.0
  0
DIMENSION
  5
929
  8
COTES
  2
*D14
 10
-2.904206
 20
1.487702
 30
0.0
 11
-2.984206
 21
1.346714
 31
0.0
 12
-157.904055
 22
-121.491862
 32
0.0
 70
   128
  3
STANDARD
 13
-3.201087
 23
1.187702
 33
0.0
 14
-3.201087
 24
1.487702
 34
0.0
 50
90.0
  0
DIMENSION
  5
92A
  8
COTES
  2
*D13
 10
-2.401087
 20
1.756918
 30
0.0
 11
-2.801087
 21
1.836918
 31
0.0
 12
-157.904055
 22
-121.491862
 32
0.0
  3
STANDARD
 13
-3.201087
 23
1.487702
 33
0.0
 14
-2.401087
 24
1.187702
 34
0.0
  0
DIMENSION
  5
92B
  8
COTES
  2
*D12
 10
-3.201087
 20
1.756918
 30
0.0
 11
-3.701087
 21
1.836918
 31
0.0
 12
-157.904055
 22
-121.491862
 32
0.0
  3
STANDARD
 13
-4.201087
 23
1.487702
 33
0.0
 14
-3.201087
 24
1.487702
 34
0.0
  0
LINE
  5
92C
  8
SECCIO
 10
-3.201087
 20
1.187702
 30
0.0
 11
-3.201087
 21
1.487702
 31
0.0
  0
LINE
  5
92D
  8
SECCIO
 10
-4.201087
 20
1.487702
 30
0.0
 11
-3.201087
 21
1.487702
 31
0.0
  0
LINE
  5
92E
  8
SECCIO
 10
-4.451087
 20
0.887702
 30
0.0
 11
-4.451087
 21
2.087702
 31
0.0
  0
ARC
  5
92F
  8
SECCIO
 10
-3.301087
 20
2.087702
 30
0.0
 40
1.15
 50
0.0
 51
180.0
  0
LINE
  5
930
  8
SECCIO
 10
-2.151087
 20
0.887702
 30
0.0
 11
-2.151087
 21
2.087702
 31
0.0
  0
LINE
  5
931
  8
SECCIO
 10
-3.201087
 20
1.187702
 30
0.0
 11
-2.401087
 21
1.187702
 31
0.0
  0
ARC
  5
932
  8
SECCIO
 10
-3.301087
 20
2.087702
 30
0.0
 40
0.9
 50
0.0
 51
180.0
  0
LINE
  5
933
  8
SECCIO
 10
-4.201087
 20
1.487702
 30
0.0
 11
-4.201087
 21
2.087702
 31
0.0
  0
LINE
  5
934
  8
SECCIO
 10
-2.401087
 20
1.187702
 30
0.0
 11
-2.401087
 21
2.087702
 31
0.0
  0
LINE
  5
935
  8
SECCIO
 10
-4.451087
 20
0.887702
 30
0.0
 11
-2.151087
 21
0.887702
 31
0.0
  0
ENDBLK
  5
937
  8
0
  0
BLOCK
  8
0
  2
*D31
 70
     1
 10
0.0
 20
0.0
 30
0.0
  3
*D31
  1

  0
LINE
  5
C00
  8
0
  6
BYBLOCK
 62
     0
 10
323.367982
 20
36.29349
 30
0.0
 11
325.267982
 21
36.29349
 31
0.0
  0
SOLID
  5
C01
  8
0
  6
BYBLOCK
 62
     0
 10
323.367982
 20
36.31849
 30
0.0
 11
323.367982
 21
36.26849
 31
0.0
 12
323.217982
 22
36.29349
 32
0.0
 13
323.217982
 23
36.29349
 33
0.0
  0
SOLID
  5
C02
  8
0
  6
BYBLOCK
 62
     0
 10
325.267982
 20
36.31849
 30
0.0
 11
325.267982
 21
36.26849
 31
0.0
 12
325.417982
 22
36.29349
 32
0.0
 13
325.417982
 23
36.29349
 33
0.0
  0
TEXT
  8
0
  40
0.075
  5
D39
  62
0
  72
0
  71
0
 10
324.168
 20
36.2357
 30
0.000000
  1
2.20
  7
ROMANC
  0
POINT
  5
C04
  8
DEFPOINTS
  6
BYBLOCK
 62
     0
 10
323.217982
 20
36.29349
 30
0.0
  0
POINT
  5
C05
  8
DEFPOINTS
  6
BYBLOCK
 62
     0
 10
325.417982
 20
36.29349
 30
0.0
  0
POINT
  5
C06
  8
DEFPOINTS
  6
BYBLOCK
 62
     0
 10
325.417982
 20
36.29349
 30
0.0
  0
ENDBLK
  5
C07
  8
0
  0
BLOCK
  8
0
  2
*D32
 70
     1
 10
0.0
 20
0.0
 30
0.0
  3
*D32
  1

  0
LINE
  5
C31
  8
0
  6
BYBLOCK
 62
     0
 10
324.332982
 20
36.79349
 30
0.0
 11
326.127934
 21
36.79349
 31
0.0
  0
LINE
  5
C32
  8
0
  6
BYBLOCK
 62
     0
 10
324.332982
 20
34.19349
 30
0.0
 11
326.127934
 21
34.19349
 31
0.0
  0
LINE
  5
C33
  8
0
  6
BYBLOCK
 62
     0
 10
326.112934
 20
36.64349
 30
0.0
 11
326.112934
 21
34.34349
 31
0.0
  0
SOLID
  5
C34
  8
0
  6
BYBLOCK
 62
     0
 10
326.087934
 20
36.64349
 30
0.0
 11
326.137934
 21
36.64349
 31
0.0
 12
326.112934
 22
36.79349
 32
0.0
 13
326.112934
 23
36.79349
 33
0.0
  0
SOLID
  5
C35
  8
0
  6
BYBLOCK
 62
     0
 10
326.087934
 20
34.34349
 30
0.0
 11
326.137934
 21
34.34349
 31
0.0
 12
326.112934
 22
34.19349
 32
0.0
 13
326.112934
 23
34.19349
 33
0.0
  0
TEXT
  8
0
  40
0.075
  5
D3A
  62
0
  72
0
  71
0
 10
325.888
 20
35.3607
 30
0.000000
  1
2.60
  7
ROMANC
  0
POINT
  5
C37
  8
DEFPOINTS
  6
BYBLOCK
 62
     0
 10
324.317982
 20
36.79349
 30
0.0
  0
POINT
  5
C38
  8
DEFPOINTS
  6
BYBLOCK
 62
     0
 10
324.317982
 20
34.19349
 30
0.0
  0
POINT
  5
C39
  8
DEFPOINTS
  6
BYBLOCK
 62
     0
 10
326.112934
 20
34.19349
 30
0.0
  0
ENDBLK
  5
C3A
  8
0
  0
BLOCK
  8
0
  2
*D33
 70
     1
 10
0.0
 20
0.0
 30
0.0
  3
*D33
  1

  0
LINE
  5
C18
  8
0
  6
BYBLOCK
 62
     0
 10
325.282982
 20
34.64349
 30
0.0
 11
325.720676
 21
34.64349
 31
0.0
  0
LINE
  5
C19
  8
0
  6
BYBLOCK
 62
     0
 10
325.432982
 20
36.29349
 30
0.0
 11
325.720676
 21
36.29349
 31
0.0
  0
LINE
  5
C1A
  8
0
  6
BYBLOCK
 62
     0
 10
325.705676
 20
34.79349
 30
0.0
 11
325.705676
 21
36.14349
 31
0.0
  0
SOLID
  5
C1B
  8
0
  6
BYBLOCK
 62
     0
 10
325.680676
 20
34.79349
 30
0.0
 11
325.730676
 21
34.79349
 31
0.0
 12
325.705676
 22
34.64349
 32
0.0
 13
325.705676
 23
34.64349
 33
0.0
  0
SOLID
  5
C1C
  8
0
  6
BYBLOCK
 62
     0
 10
325.680676
 20
36.14349
 30
0.0
 11
325.730676
 21
36.14349
 31
0.0
 12
325.705676
 22
36.29349
 32
0.0
 13
325.705676
 23
36.29349
 33
0.0
  0
TEXT
  8
0
  40
0.075
  5
D3B
  62
0
  72
0
  71
0
 10
325.481
 20
35.3357
 30
0.000000
  1
1.65
  7
ROMANC
  0
POINT
  5
C1E
  8
DEFPOINTS
  6
BYBLOCK
 62
     0
 10
325.267982
 20
34.64349
 30
0.0
  0
POINT
  5
C1F
  8
DEFPOINTS
  6
BYBLOCK
 62
     0
 10
325.417982
 20
36.29349
 30
0.0
  0
POINT
  5
C20
  8
DEFPOINTS
  6
BYBLOCK
 62
     0
 10
325.705676
 20
36.29349
 30
0.0
  0
ENDBLK
  5
C21
  8
0
  0
BLOCK
  8
0
  2
*D34
 70
     1
 10
0.0
 20
0.0
 30
0.0
  3
*D34
  1

  0
LINE
  5
C25
  8
0
  6
BYBLOCK
 62
     0
 10
324.682982
 20
34.64349
 30
0.0
 11
325.720676
 21
34.64349
 31
0.0
  0
LINE
  5
C26
  8
0
  6
BYBLOCK
 62
     0
 10
324.332982
 20
34.19349
 30
0.0
 11
325.720676
 21
34.19349
 31
0.0
  0
LINE
  5
C27
  8
0
  6
BYBLOCK
 62
     0
 10
325.705676
 20
34.49349
 30
0.0
 11
325.705676
 21
34.34349
 31
0.0
  0
SOLID
  5
C28
  8
0
  6
BYBLOCK
 62
     0
 10
325.680676
 20
34.49349
 30
0.0
 11
325.730676
 21
34.49349
 31
0.0
 12
325.705676
 22
34.64349
 32
0.0
 13
325.705676
 23
34.64349
 33
0.0
  0
SOLID
  5
C29
  8
0
  6
BYBLOCK
 62
     0
 10
325.680676
 20
34.34349
 30
0.0
 11
325.730676
 21
34.34349
 31
0.0
 12
325.705676
 22
34.19349
 32
0.0
 13
325.705676
 23
34.19349
 33
0.0
  0
TEXT
  8
0
  40
0.075
  5
D3C
  62
0
  72
0
  71
0
 10
325.481
 20
34.2857
 30
0.000000
  1
0.45
  7
ROMANC
  0
POINT
  5
C2B
  8
DEFPOINTS
  6
BYBLOCK
 62
     0
 10
324.667982
 20
34.64349
 30
0.0
  0
POINT
  5
C2C
  8
DEFPOINTS
  6
BYBLOCK
 62
     0
 10
324.317982
 20
34.19349
 30
0.0
  0
POINT
  5
C2D
  8
DEFPOINTS
  6
BYBLOCK
 62
     0
 10
325.705676
 20
34.19349
 30
0.0
  0
ENDBLK
  5
C2E
  8
0
  0
BLOCK
  8
0
  2
*D35
 70
     1
 10
0.0
 20
0.0
 30
0.0
  3
*D35
  1

  0
LINE
  5
C3D
  8
0
  6
BYBLOCK
 62
     0
 10
323.967982
 20
34.62849
 30
0.0
 11
323.967982
 21
33.907158
 31
0.0
  0
LINE
  5
C3E
  8
0
  6
BYBLOCK
 62
     0
 10
324.667982
 20
34.62849
 30
0.0
 11
324.667982
 21
33.907158
 31
0.0
  0
LINE
  5
C3F
  8
0
  6
BYBLOCK
 62
     0
 10
324.117982
 20
33.922158
 30
0.0
 11
324.517982
 21
33.922158
 31
0.0
  0
SOLID
  5
C40
  8
0
  6
BYBLOCK
 62
     0
 10
324.117982
 20
33.947158
 30
0.0
 11
324.117982
 21
33.897158
 31
0.0
 12
323.967982
 22
33.922158
 32
0.0
 13
323.967982
 23
33.922158
 33
0.0
  0
SOLID
  5
C41
  8
0
  6
BYBLOCK
 62
     0
 10
324.517982
 20
33.947158
 30
0.0
 11
324.517982
 21
33.897158
 31
0.0
 12
324.667982
 22
33.922158
 32
0.0
 13
324.667982
 23
33.922158
 33
0.0
  0
TEXT
  8
0
  40
0.075
  5
D3D
  62
0
  72
0
  71
0
 10
324.168
 20
33.8644
 30
0.000000
  1
0.70
  7
ROMANC
  0
POINT
  5
C43
  8
DEFPOINTS
  6
BYBLOCK
 62
     0
 10
323.967982
 20
34.64349
 30
0.0
  0
POINT
  5
C44
  8
DEFPOINTS
  6
BYBLOCK
 62
     0
 10
324.667982
 20
34.64349
 30
0.0
  0
POINT
  5
C45
  8
DEFPOINTS
  6
BYBLOCK
 62
     0
 10
324.667982
 20
33.922158
 30
0.0
  0
ENDBLK
  5
C46
  8
0
  0
BLOCK
  8
0
  2
*D36
 70
     1
 10
0.0
 20
0.0
 30
0.0
  3
*D36
  1

  0
LINE
  5
C4A
  8
0
  6
BYBLOCK
 62
     0
 10
323.367982
 20
34.62849
 30
0.0
 11
323.367982
 21
33.596718
 31
0.0
  0
LINE
  5
C4B
  8
0
  6
BYBLOCK
 62
     0
 10
325.267982
 20
34.62849
 30
0.0
 11
325.267982
 21
33.596718
 31
0.0
  0
LINE
  5
C4C
  8
0
  6
BYBLOCK
 62
     0
 10
323.517982
 20
33.611718
 30
0.0
 11
325.117982
 21
33.611718
 31
0.0
  0
SOLID
  5
C4D
  8
0
  6
BYBLOCK
 62
     0
 10
323.517982
 20
33.636718
 30
0.0
 11
323.517982
 21
33.586718
 31
0.0
 12
323.367982
 22
33.611718
 32
0.0
 13
323.367982
 23
33.611718
 33
0.0
  0
SOLID
  5
C4E
  8
0
  6
BYBLOCK
 62
     0
 10
325.117982
 20
33.636718
 30
0.0
 11
325.117982
 21
33.586718
 31
0.0
 12
325.267982
 22
33.611718
 32
0.0
 13
325.267982
 23
33.611718
 33
0.0
  0
TEXT
  8
0
  40
0.075
  5
D3E
  62
0
  72
0
  71
0
 10
324.168
 20
33.5540
 30
0.000000
  1
1.90
  7
ROMANC
  0
POINT
  5
C50
  8
DEFPOINTS
  6
BYBLOCK
 62
     0
 10
323.367982
 20
34.64349
 30
0.0
  0
POINT
  5
C51
  8
DEFPOINTS
  6
BYBLOCK
 62
     0
 10
325.267982
 20
34.64349
 30
0.0
  0
POINT
  5
C52
  8
DEFPOINTS
  6
BYBLOCK
 62
     0
 10
325.267982
 20
33.611718
 30
0.0
  0
ENDBLK
  5
C53
  8
0
  0
BLOCK
  8
0
  2
*D37
 70
     1
 10
0.0
 20
0.0
 30
0.0
  3
*D37
  1

  0
LINE
  5
C73
  8
0
  6
BYBLOCK
 62
     0
 10
325.060262
 20
33.57795
 30
0.0
 11
325.060262
 21
33.135822
 31
0.0
  0
LINE
  5
C74
  8
0
  6
BYBLOCK
 62
     0
 10
321.660262
 20
33.57795
 30
0.0
 11
321.660262
 21
33.135822
 31
0.0
  0
LINE
  5
C75
  8
0
  6
BYBLOCK
 62
     0
 10
324.910262
 20
33.150822
 30
0.0
 11
321.810262
 21
33.150822
 31
0.0
  0
SOLID
  5
C76
  8
0
  6
BYBLOCK
 62
     0
 10
324.910262
 20
33.175822
 30
0.0
 11
324.910262
 21
33.125822
 31
0.0
 12
325.060262
 22
33.150822
 32
0.0
 13
325.060262
 23
33.150822
 33
0.0
  0
SOLID
  5
C77
  8
0
  6
BYBLOCK
 62
     0
 10
321.810262
 20
33.175822
 30
0.0
 11
321.810262
 21
33.125822
 31
0.0
 12
321.660262
 22
33.150822
 32
0.0
 13
321.660262
 23
33.150822
 33
0.0
  0
TEXT
  8
0
  40
0.075
  5
D3F
  62
0
  72
0
  71
0
 10
323.210
 20
33.0931
 30
0.000000
  1
3.40
  7
ROMANC
  0
POINT
  5
C79
  8
DEFPOINTS
  6
BYBLOCK
 62
     0
 10
325.060262
 20
33.59295
 30
0.0
  0
POINT
  5
C7A
  8
DEFPOINTS
  6
BYBLOCK
 62
     0
 10
321.660262
 20
33.59295
 30
0.0
  0
POINT
  5
C7B
  8
DEFPOINTS
  6
BYBLOCK
 62
     0
 10
321.660262
 20
33.150822
 30
0.0
  0
ENDBLK
  5
C7C
  8
0
  0
BLOCK
  8
0
  2
*D38
 70
     1
 10
0.0
 20
0.0
 30
0.0
  3
*D38
  1

  0
LINE
  5
C99
  8
0
  6
BYBLOCK
 62
     0
 10
325.060262
 20
33.57795
 30
0.0
 11
325.060262
 21
33.135822
 31
0.0
  0
LINE
  5
C9A
  8
0
  6
BYBLOCK
 62
     0
 10
326.810262
 20
33.77795
 30
0.0
 11
326.810262
 21
33.135822
 31
0.0
  0
LINE
  5
C9B
  8
0
  6
BYBLOCK
 62
     0
 10
325.210262
 20
33.150822
 30
0.0
 11
326.660262
 21
33.150822
 31
0.0
  0
SOLID
  5
C9C
  8
0
  6
BYBLOCK
 62
     0
 10
325.210262
 20
33.175822
 30
0.0
 11
325.210262
 21
33.125822
 31
0.0
 12
325.060262
 22
33.150822
 32
0.0
 13
325.060262
 23
33.150822
 33
0.0
  0
SOLID
  5
C9D
  8
0
  6
BYBLOCK
 62
     0
 10
326.660262
 20
33.175822
 30
0.0
 11
326.660262
 21
33.125822
 31
0.0
 12
326.810262
 22
33.150822
 32
0.0
 13
326.810262
 23
33.150822
 33
0.0
  0
TEXT
  8
0
  40
0.075
  5
D40
  62
0
  72
0
  71
0
 10
325.785
 20
33.0931
 30
0.000000
  1
1.75
  7
ROMANC
  0
POINT
  5
C9F
  8
DEFPOINTS
  6
BYBLOCK
 62
     0
 10
325.060262
 20
33.59295
 30
0.0
  0
POINT
  5
CA0
  8
DEFPOINTS
  6
BYBLOCK
 62
     0
 10
326.810262
 20
33.79295
 30
0.0
  0
POINT
  5
CA1
  8
DEFPOINTS
  6
BYBLOCK
 62
     0
 10
326.810262
 20
33.150822
 30
0.0
  0
ENDBLK
  5
CA2
  8
0
  0
BLOCK
  8
0
  2
*D39
 70
     1
 10
0.0
 20
0.0
 30
0.0
  3
*D39
  1

  0
LINE
  5
C8D
  8
0
  6
BYBLOCK
 62
     0
 10
321.660262
 20
33.77795
 30
0.0
 11
321.660262
 21
33.135822
 31
0.0
  0
LINE
  5
C8E
  8
0
  6
BYBLOCK
 62
     0
 10
320.560262
 20
33.77795
 30
0.0
 11
320.560262
 21
33.135822
 31
0.0
  0
LINE
  5
C8F
  8
0
  6
BYBLOCK
 62
     0
 10
321.510262
 20
33.150822
 30
0.0
 11
320.710262
 21
33.150822
 31
0.0
  0
SOLID
  5
C90
  8
0
  6
BYBLOCK
 62
     0
 10
321.510262
 20
33.175822
 30
0.0
 11
321.510262
 21
33.125822
 31
0.0
 12
321.660262
 22
33.150822
 32
0.0
 13
321.660262
 23
33.150822
 33
0.0
  0
SOLID
  5
C91
  8
0
  6
BYBLOCK
 62
     0
 10
320.710262
 20
33.175822
 30
0.0
 11
320.710262
 21
33.125822
 31
0.0
 12
320.560262
 22
33.150822
 32
0.0
 13
320.560262
 23
33.150822
 33
0.0
  0
TEXT
  8
0
  40
0.075
  5
D41
  62
0
  72
0
  71
0
 10
320.960
 20
33.0931
 30
0.000000
  1
1.10
  7
ROMANC
  0
POINT
  5
C93
  8
DEFPOINTS
  6
BYBLOCK
 62
     0
 10
321.660262
 20
33.79295
 30
0.0
  0
POINT
  5
C94
  8
DEFPOINTS
  6
BYBLOCK
 62
     0
 10
320.560262
 20
33.79295
 30
0.0
  0
POINT
  5
C95
  8
DEFPOINTS
  6
BYBLOCK
 62
     0
 10
320.560262
 20
33.150822
 30
0.0
  0
ENDBLK
  5
C96
  8
0
  0
BLOCK
  8
0
  2
*D40
 70
     1
 10
0.0
 20
0.0
 30
0.0
  3
*D40
  1

  0
LINE
  5
CA5
  8
0
  6
BYBLOCK
 62
     0
 10
325.075262
 20
33.79295
 30
0.0
 11
327.251511
 21
33.79295
 31
0.0
  0
LINE
  5
CA6
  8
0
  6
BYBLOCK
 62
     0
 10
325.075262
 20
33.59295
 30
0.0
 11
327.251511
 21
33.59295
 31
0.0
  0
LINE
  5
CA7
  8
0
  6
BYBLOCK
 62
     0
 10
327.236511
 20
33.94295
 30
0.0
 11
327.236511
 21
34.09295
 31
0.0
  0
LINE
  5
CA8
  8
0
  6
BYBLOCK
 62
     0
 10
327.236511
 20
33.44295
 30
0.0
 11
327.236511
 21
33.29295
 31
0.0
  0
LINE
  5
CA9
  8
0
  6
BYBLOCK
 62
     0
 10
327.236511
 20
33.79295
 30
0.0
 11
327.236511
 21
33.59295
 31
0.0
  0
SOLID
  5
CAA
  8
0
  6
BYBLOCK
 62
     0
 10
327.211511
 20
33.94295
 30
0.0
 11
327.261511
 21
33.94295
 31
0.0
 12
327.236511
 22
33.79295
 32
0.0
 13
327.236511
 23
33.79295
 33
0.0
  0
SOLID
  5
CAB
  8
0
  6
BYBLOCK
 62
     0
 10
327.211511
 20
33.44295
 30
0.0
 11
327.261511
 21
33.44295
 31
0.0
 12
327.236511
 22
33.59295
 32
0.0
 13
327.236511
 23
33.59295
 33
0.0
  0
TEXT
  8
0
  40
0.075
  5
D42
  62
0
  72
0
  71
0
 10
327.012
 20
33.5602
 30
0.000000
  1
0.20
  7
ROMANC
  0
POINT
  5
CAD
  8
DEFPOINTS
  6
BYBLOCK
 62
     0
 10
325.060262
 20
33.79295
 30
0.0
  0
POINT
  5
CAE
  8
DEFPOINTS
  6
BYBLOCK
 62
     0
 10
325.060262
 20
33.59295
 30
0.0
  0
POINT
  5
CAF
  8
DEFPOINTS
  6
BYBLOCK
 62
     0
 10
327.236511
 20
33.59295
 30
0.0
  0
ENDBLK
  5
CB0
  8
0
  0
BLOCK
  8
0
  2
*D41
 70
     1
 10
0.0
 20
0.0
 30
0.0
  3
*D41
  1

  0
LINE
  5
CB4
  8
0
  6
BYBLOCK
 62
     0
 10
326.825262
 20
33.79295
 30
0.0
 11
327.251511
 21
33.79295
 31
0.0
  0
LINE
  5
CB5
  8
0
  6
BYBLOCK
 62
     0
 10
326.825262
 20
35.76295
 30
0.0
 11
327.251511
 21
35.76295
 31
0.0
  0
LINE
  5
CB6
  8
0
  6
BYBLOCK
 62
     0
 10
327.236511
 20
33.94295
 30
0.0
 11
327.236511
 21
35.61295
 31
0.0
  0
SOLID
  5
CB7
  8
0
  6
BYBLOCK
 62
     0
 10
327.211511
 20
33.94295
 30
0.0
 11
327.261511
 21
33.94295
 31
0.0
 12
327.236511
 22
33.79295
 32
0.0
 13
327.236511
 23
33.79295
 33
0.0
  0
SOLID
  5
CB8
  8
0
  6
BYBLOCK
 62
     0
 10
327.211511
 20
35.61295
 30
0.0
 11
327.261511
 21
35.61295
 31
0.0
 12
327.236511
 22
35.76295
 32
0.0
 13
327.236511
 23
35.76295
 33
0.0
  0
TEXT
  8
0
  40
0.075
  5
D43
  62
0
  72
0
  71
0
 10
327.012
 20
34.6452
 30
0.000000
  1
1.97
  7
ROMANC
  0
POINT
  5
CBA
  8
DEFPOINTS
  6
BYBLOCK
 62
     0
 10
326.810262
 20
33.79295
 30
0.0
  0
POINT
  5
CBB
  8
DEFPOINTS
  6
BYBLOCK
 62
     0
 10
326.810262
 20
35.76295
 30
0.0
  0
POINT
  5
CBC
  8
DEFPOINTS
  6
BYBLOCK
 62
     0
 10
327.236511
 20
35.76295
 30
0.0
  0
ENDBLK
  5
CBD
  8
0
  0
BLOCK
  8
0
  2
*D42
 70
     1
 10
0.0
 20
0.0
 30
0.0
  3
*D42
  1

  0
LINE
  5
CC1
  8
0
  6
BYBLOCK
 62
     0
 10
320.560262
 20
33.77795
 30
0.0
 11
320.560262
 21
32.751151
 31
0.0
  0
LINE
  5
CC2
  8
0
  6
BYBLOCK
 62
     0
 10
326.810262
 20
33.77795
 30
0.0
 11
326.810262
 21
32.751151
 31
0.0
  0
LINE
  5
CC3
  8
0
  6
BYBLOCK
 62
     0
 10
320.710262
 20
32.766151
 30
0.0
 11
326.660262
 21
32.766151
 31
0.0
  0
SOLID
  5
CC4
  8
0
  6
BYBLOCK
 62
     0
 10
320.710262
 20
32.791151
 30
0.0
 11
320.710262
 21
32.741151
 31
0.0
 12
320.560262
 22
32.766151
 32
0.0
 13
320.560262
 23
32.766151
 33
0.0
  0
SOLID
  5
CC5
  8
0
  6
BYBLOCK
 62
     0
 10
326.660262
 20
32.791151
 30
0.0
 11
326.660262
 21
32.741151
 31
0.0
 12
326.810262
 22
32.766151
 32
0.0
 13
326.810262
 23
32.766151
 33
0.0
  0
TEXT
  8
0
  40
0.075
  5
D44
  62
0
  72
0
  71
0
 10
323.535
 20
32.7084
 30
0.000000
  1
6.25
  7
ROMANC
  0
POINT
  5
CC7
  8
DEFPOINTS
  6
BYBLOCK
 62
     0
 10
320.560262
 20
33.79295
 30
0.0
  0
POINT
  5
CC8
  8
DEFPOINTS
  6
BYBLOCK
 62
     0
 10
326.810262
 20
33.79295
 30
0.0
  0
POINT
  5
CC9
  8
DEFPOINTS
  6
BYBLOCK
 62
     0
 10
326.810262
 20
32.766151
 30
0.0
  0
ENDBLK
  5
CCA
  8
0
  0
BLOCK
  8
0
  2
*D43
 70
     1
 10
0.0
 20
0.0
 30
0.0
  3
*D43
  1

  0
LINE
  5
CCE
  8
0
  6
BYBLOCK
 62
     0
 10
326.825262
 20
35.76295
 30
0.0
 11
327.65907
 21
35.76295
 31
0.0
  0
LINE
  5
CCF
  8
0
  6
BYBLOCK
 62
     0
 10
325.075262
 20
33.59295
 30
0.0
 11
327.65907
 21
33.59295
 31
0.0
  0
LINE
  5
CD0
  8
0
  6
BYBLOCK
 62
     0
 10
327.64407
 20
35.61295
 30
0.0
 11
327.64407
 21
33.74295
 31
0.0
  0
SOLID
  5
CD1
  8
0
  6
BYBLOCK
 62
     0
 10
327.61907
 20
35.61295
 30
0.0
 11
327.66907
 21
35.61295
 31
0.0
 12
327.64407
 22
35.76295
 32
0.0
 13
327.64407
 23
35.76295
 33
0.0
  0
SOLID
  5
CD2
  8
0
  6
BYBLOCK
 62
     0
 10
327.61907
 20
33.74295
 30
0.0
 11
327.66907
 21
33.74295
 31
0.0
 12
327.64407
 22
33.59295
 32
0.0
 13
327.64407
 23
33.59295
 33
0.0
  0
TEXT
  8
0
  40
0.075
  5
D45
  62
0
  72
0
  71
0
 10
327.419
 20
34.5452
 30
0.000000
  1
2.17
  7
ROMANC
  0
POINT
  5
CD4
  8
DEFPOINTS
  6
BYBLOCK
 62
     0
 10
326.810262
 20
35.76295
 30
0.0
  0
POINT
  5
CD5
  8
DEFPOINTS
  6
BYBLOCK
 62
     0
 10
325.060262
 20
33.59295
 30
0.0
  0
POINT
  5
CD6
  8
DEFPOINTS
  6
BYBLOCK
 62
     0
 10
327.64407
 20
33.59295
 30
0.0
  0
ENDBLK
  5
CD7
  8
0
  0
ENDSEC
  0
SECTION
  2
ENTITIES
  0
LINE
  5
27
  8
0
 10
329.348696
 20
29.863623
 30
0.0
 11
329.348696
 21
44.713623
 31
0.0
  0
LINE
  5
28
  8
0
 10
318.848696
 20
44.713623
 30
0.0
 11
318.848696
 21
29.863623
 31
0.0
  0
LINE
  5
29
  8
0
 10
318.848696
 20
29.863623
 30
0.0
 11
329.348696
 21
29.863623
 31
0.0
  0
TEXT
  5
2A
  8
0
 10
321.773149
 20
42.309482
 30
0.0
 40
0.3
  1
TIPUS   NT1299A
  7
ROMANC
  0
TEXT
  5
2D
  8
0
 10
321.735227
 20
40.527599
 30
0.0
 40
0.3
  1
P = 168,4 dm
  7
ROMANC
  0
TEXT
  5
2E
  8
0
 10
321.786243
 20
41.225178
 30
0.0
 40
0.3
  1
S = 1299 dm
  7
ROMANC
  0
TEXT
  5
2F
  8
0
 10
321.773149
 20
41.823768
 30
0.0
 40
0.3
  1
ESCALA  1:50
  7
ROMANC
  0
TEXT
  5
30
  8
0
 10
325.189422
 20
41.531094
 30
0.0
 40
0.1
  1
2
  7
ROMANC
  0
LINE
  5
31
  8
0
 10
329.348696
 20
44.713623
 30
0.0
 11
318.848696
 21
44.713623
 31
0.0
  0
LINE
  5
CDF
  8
0
 10
321.645262
 20
33.57795
 30
0.0
 11
321.645262
 21
33.77795
 31
0.0
  0
LINE
  5
CE0
  8
0
 10
321.645262
 20
33.77795
 30
0.0
 11
320.545262
 21
33.77795
 31
0.0
  0
LINE
  5
CE1
  8
0
 10
320.545262
 20
33.77795
 30
0.0
 11
320.545262
 21
35.77795
 31
0.0
  0
LINE
  5
CE2
  8
0
 10
320.545262
 20
35.77795
 30
0.0
 11
326.825262
 21
35.77795
 31
0.0
  0
LINE
  5
CE3
  8
0
 10
326.825262
 20
35.77795
 30
0.0
 11
326.825262
 21
33.77795
 31
0.0
  0
LINE
  5
CE4
  8
0
 10
326.825262
 20
33.77795
 30
0.0
 11
325.075262
 21
33.77795
 31
0.0
  0
LINE
  5
CE5
  8
0
 10
325.075262
 20
33.77795
 30
0.0
 11
325.075262
 21
33.57795
 31
0.0
  0
LINE
  5
CE6
  8
0
 10
325.075262
 20
33.57795
 30
0.0
 11
321.645262
 21
33.57795
 31
0.0
  0
LINE
  5
CE7
  8
0
 10
321.652762
 20
33.58545
 30
0.0
 11
321.652762
 21
33.78545
 31
0.0
  0
LINE
  5
CE8
  8
0
 10
321.652762
 20
33.78545
 30
0.0
 11
320.552762
 21
33.78545
 31
0.0
  0
LINE
  5
CE9
  8
0
 10
320.552762
 20
33.78545
 30
0.0
 11
320.552762
 21
35.77045
 31
0.0
  0
LINE
  5
CEA
  8
0
 10
320.552762
 20
35.77045
 30
0.0
 11
326.817762
 21
35.77045
 31
0.0
  0
LINE
  5
CEB
  8
0
 10
326.817762
 20
35.77045
 30
0.0
 11
326.817762
 21
33.78545
 31
0.0
  0
LINE
  5
CEC
  8
0
 10
326.817762
 20
33.78545
 30
0.0
 11
325.067762
 21
33.78545
 31
0.0
  0
LINE
  5
CED
  8
0
 10
325.067762
 20
33.78545
 30
0.0
 11
325.067762
 21
33.58545
 31
0.0
  0
LINE
  5
CEE
  8
0
 10
325.067762
 20
33.58545
 30
0.0
 11
321.652762
 21
33.58545
 31
0.0
  0
LINE
  5
CEF
  8
0
 10
321.660262
 20
33.59295
 30
0.0
 11
321.660262
 21
33.79295
 31
0.0
  0
LINE
  5
CF0
  8
0
 10
321.660262
 20
33.79295
 30
0.0
 11
320.560262
 21
33.79295
 31
0.0
  0
LINE
  5
CF1
  8
0
 10
320.560262
 20
33.79295
 30
0.0
 11
320.560262
 21
35.76295
 31
0.0
  0
LINE
  5
CF2
  8
0
 10
320.560262
 20
35.76295
 30
0.0
 11
326.810262
 21
35.76295
 31
0.0
  0
LINE
  5
CF3
  8
0
 10
326.810262
 20
35.76295
 30
0.0
 11
326.810262
 21
33.79295
 31
0.0
  0
LINE
  5
CF4
  8
0
 10
326.810262
 20
33.79295
 30
0.0
 11
325.060262
 21
33.79295
 31
0.0
  0
LINE
  5
CF5
  8
0
 10
325.060262
 20
33.79295
 30
0.0
 11
325.060262
 21
33.59295
 31
0.0
  0
LINE
  5
CF6
  8
0
 10
325.060262
 20
33.59295
 30
0.0
 11
321.660262
 21
33.59295
 31
0.0
  0
LINE
  5
CF7
  8
0
  6
BYBLOCK
 62
     0
 10
326.825262
 20
35.76295
 30
0.0
 11
327.65907
 21
35.76295
 31
0.0
  0
LINE
  5
CF8
  8
0
  6
BYBLOCK
 62
     0
 10
325.075262
 20
33.59295
 30
0.0
 11
327.65907
 21
33.59295
 31
0.0
  0
LINE
  5
CF9
  8
0
  6
BYBLOCK
 62
     0
 10
327.64407
 20
35.61295
 30
0.0
 11
327.64407
 21
33.74295
 31
0.0
  0
SOLID
  5
CFA
  8
0
  6
BYBLOCK
 62
     0
 10
327.61907
 20
35.61295
 30
0.0
 11
327.66907
 21
35.61295
 31
0.0
 12
327.64407
 22
35.76295
 32
0.0
 13
327.64407
 23
35.76295
 33
0.0
  0
SOLID
  5
CFB
  8
0
  6
BYBLOCK
 62
     0
 10
327.61907
 20
33.74295
 30
0.0
 11
327.66907
 21
33.74295
 31
0.0
 12
327.64407
 22
33.59295
 32
0.0
 13
327.64407
 23
33.59295
 33
0.0
  0
TEXT
  8
0
  40
0.075
  5
D46
  62
0
  72
0
  71
0
 10
327.419
 20
34.5452
 30
0.000000
  1
2.17
  7
ROMANC
  0
POINT
  5
CFD
  8
DEFPOINTS
  6
BYBLOCK
 62
     0
 10
326.810262
 20
35.76295
 30
0.0
  0
POINT
  5
CFE
  8
DEFPOINTS
  6
BYBLOCK
 62
     0
 10
325.060262
 20
33.59295
 30
0.0
  0
POINT
  5
CFF
  8
DEFPOINTS
  6
BYBLOCK
 62
     0
 10
327.64407
 20
33.59295
 30
0.0
  0
LINE
  5
D00
  8
0
  6
BYBLOCK
 62
     0
 10
320.560262
 20
33.77795
 30
0.0
 11
320.560262
 21
32.751151
 31
0.0
  0
LINE
  5
D01
  8
0
  6
BYBLOCK
 62
     0
 10
326.810262
 20
33.77795
 30
0.0
 11
326.810262
 21
32.751151
 31
0.0
  0
LINE
  5
D02
  8
0
  6
BYBLOCK
 62
     0
 10
320.710262
 20
32.766151
 30
0.0
 11
326.660262
 21
32.766151
 31
0.0
  0
SOLID
  5
D03
  8
0
  6
BYBLOCK
 62
     0
 10
320.710262
 20
32.791151
 30
0.0
 11
320.710262
 21
32.741151
 31
0.0
 12
320.560262
 22
32.766151
 32
0.0
 13
320.560262
 23
32.766151
 33
0.0
  0
SOLID
  5
D04
  8
0
  6
BYBLOCK
 62
     0
 10
326.660262
 20
32.791151
 30
0.0
 11
326.660262
 21
32.741151
 31
0.0
 12
326.810262
 22
32.766151
 32
0.0
 13
326.810262
 23
32.766151
 33
0.0
  0
TEXT
  8
0
  40
0.075
  5
D47
  62
0
  72
0
  71
0
 10
323.535
 20
32.7084
 30
0.000000
  1
6.25
  7
ROMANC
  0
POINT
  5
D06
  8
DEFPOINTS
  6
BYBLOCK
 62
     0
 10
320.560262
 20
33.79295
 30
0.0
  0
POINT
  5
D07
  8
DEFPOINTS
  6
BYBLOCK
 62
     0
 10
326.810262
 20
33.79295
 30
0.0
  0
POINT
  5
D08
  8
DEFPOINTS
  6
BYBLOCK
 62
     0
 10
326.810262
 20
32.766151
 30
0.0
  0
LINE
  5
D09
  8
0
  6
BYBLOCK
 62
     0
 10
326.825262
 20
33.79295
 30
0.0
 11
327.251511
 21
33.79295
 31
0.0
  0
LINE
  5
D0A
  8
0
  6
BYBLOCK
 62
     0
 10
326.825262
 20
35.76295
 30
0.0
 11
327.251511
 21
35.76295
 31
0.0
  0
LINE
  5
D0B
  8
0
  6
BYBLOCK
 62
     0
 10
327.236511
 20
33.94295
 30
0.0
 11
327.236511
 21
35.61295
 31
0.0
  0
SOLID
  5
D0C
  8
0
  6
BYBLOCK
 62
     0
 10
327.211511
 20
33.94295
 30
0.0
 11
327.261511
 21
33.94295
 31
0.0
 12
327.236511
 22
33.79295
 32
0.0
 13
327.236511
 23
33.79295
 33
0.0
  0
SOLID
  5
D0D
  8
0
  6
BYBLOCK
 62
     0
 10
327.211511
 20
35.61295
 30
0.0
 11
327.261511
 21
35.61295
 31
0.0
 12
327.236511
 22
35.76295
 32
0.0
 13
327.236511
 23
35.76295
 33
0.0
  0
TEXT
  8
0
  40
0.075
  5
D48
  62
0
  72
0
  71
0
 10
327.012
 20
34.6452
 30
0.000000
  1
1.97
  7
ROMANC
  0
POINT
  5
D0F
  8
DEFPOINTS
  6
BYBLOCK
 62
     0
 10
326.810262
 20
33.79295
 30
0.0
  0
POINT
  5
D10
  8
DEFPOINTS
  6
BYBLOCK
 62
     0
 10
326.810262
 20
35.76295
 30
0.0
  0
POINT
  5
D11
  8
DEFPOINTS
  6
BYBLOCK
 62
     0
 10
327.236511
 20
35.76295
 30
0.0
  0
LINE
  5
D12
  8
0
  6
BYBLOCK
 62
     0
 10
325.075262
 20
33.79295
 30
0.0
 11
327.251511
 21
33.79295
 31
0.0
  0
LINE
  5
D13
  8
0
  6
BYBLOCK
 62
     0
 10
325.075262
 20
33.59295
 30
0.0
 11
327.251511
 21
33.59295
 31
0.0
  0
LINE
  5
D14
  8
0
  6
BYBLOCK
 62
     0
 10
327.236511
 20
33.94295
 30
0.0
 11
327.236511
 21
34.09295
 31
0.0
  0
LINE
  5
D15
  8
0
  6
BYBLOCK
 62
     0
 10
327.236511
 20
33.44295
 30
0.0
 11
327.236511
 21
33.29295
 31
0.0
  0
LINE
  5
D16
  8
0
  6
BYBLOCK
 62
     0
 10
327.236511
 20
33.79295
 30
0.0
 11
327.236511
 21
33.59295
 31
0.0
  0
SOLID
  5
D17
  8
0
  6
BYBLOCK
 62
     0
 10
327.211511
 20
33.94295
 30
0.0
 11
327.261511
 21
33.94295
 31
0.0
 12
327.236511
 22
33.79295
 32
0.0
 13
327.236511
 23
33.79295
 33
0.0
  0
SOLID
  5
D18
  8
0
  6
BYBLOCK
 62
     0
 10
327.211511
 20
33.44295
 30
0.0
 11
327.261511
 21
33.44295
 31
0.0
 12
327.236511
 22
33.59295
 32
0.0
 13
327.236511
 23
33.59295
 33
0.0
  0
TEXT
  8
0
  40
0.075
  5
D49
  62
0
  72
0
  71
0
 10
327.012
 20
33.5602
 30
0.000000
  1
0.20
  7
ROMANC
  0
POINT
  5
D1A
  8
DEFPOINTS
  6
BYBLOCK
 62
     0
 10
325.060262
 20
33.79295
 30
0.0
  0
POINT
  5
D1B
  8
DEFPOINTS
  6
BYBLOCK
 62
     0
 10
325.060262
 20
33.59295
 30
0.0
  0
POINT
  5
D1C
  8
DEFPOINTS
  6
BYBLOCK
 62
     0
 10
327.236511
 20
33.59295
 30
0.0
  0
LINE
  5
D1D
  8
0
  6
BYBLOCK
 62
     0
 10
321.660262
 20
33.77795
 30
0.0
 11
321.660262
 21
33.135822
 31
0.0
  0
LINE
  5
D1E
  8
0
  6
BYBLOCK
 62
     0
 10
320.560262
 20
33.77795
 30
0.0
 11
320.560262
 21
33.135822
 31
0.0
  0
LINE
  5
D1F
  8
0
  6
BYBLOCK
 62
     0
 10
321.510262
 20
33.150822
 30
0.0
 11
320.710262
 21
33.150822
 31
0.0
  0
SOLID
  5
D20
  8
0
  6
BYBLOCK
 62
     0
 10
321.510262
 20
33.175822
 30
0.0
 11
321.510262
 21
33.125822
 31
0.0
 12
321.660262
 22
33.150822
 32
0.0
 13
321.660262
 23
33.150822
 33
0.0
  0
SOLID
  5
D21
  8
0
  6
BYBLOCK
 62
     0
 10
320.710262
 20
33.175822
 30
0.0
 11
320.710262
 21
33.125822
 31
0.0
 12
320.560262
 22
33.150822
 32
0.0
 13
320.560262
 23
33.150822
 33
0.0
  0
TEXT
  8
0
  40
0.075
  5
D4A
  62
0
  72
0
  71
0
 10
320.960
 20
33.0931
 30
0.000000
  1
1.10
  7
ROMANC
  0
POINT
  5
D23
  8
DEFPOINTS
  6
BYBLOCK
 62
     0
 10
321.660262
 20
33.79295
 30
0.0
  0
POINT
  5
D24
  8
DEFPOINTS
  6
BYBLOCK
 62
     0
 10
320.560262
 20
33.79295
 30
0.0
  0
POINT
  5
D25
  8
DEFPOINTS
  6
BYBLOCK
 62
     0
 10
320.560262
 20
33.150822
 30
0.0
  0
LINE
  5
D26
  8
0
  6
BYBLOCK
 62
     0
 10
325.060262
 20
33.57795
 30
0.0
 11
325.060262
 21
33.135822
 31
0.0
  0
LINE
  5
D27
  8
0
  6
BYBLOCK
 62
     0
 10
326.810262
 20
33.77795
 30
0.0
 11
326.810262
 21
33.135822
 31
0.0
  0
LINE
  5
D28
  8
0
  6
BYBLOCK
 62
     0
 10
325.210262
 20
33.150822
 30
0.0
 11
326.660262
 21
33.150822
 31
0.0
  0
SOLID
  5
D29
  8
0
  6
BYBLOCK
 62
     0
 10
325.210262
 20
33.175822
 30
0.0
 11
325.210262
 21
33.125822
 31
0.0
 12
325.060262
 22
33.150822
 32
0.0
 13
325.060262
 23
33.150822
 33
0.0
  0
SOLID
  5
D2A
  8
0
  6
BYBLOCK
 62
     0
 10
326.660262
 20
33.175822
 30
0.0
 11
326.660262
 21
33.125822
 31
0.0
 12
326.810262
 22
33.150822
 32
0.0
 13
326.810262
 23
33.150822
 33
0.0
  0
TEXT
  8
0
  40
0.075
  5
D4B
  62
0
  72
0
  71
0
 10
325.785
 20
33.0931
 30
0.000000
  1
1.75
  7
ROMANC
  0
POINT
  5
D2C
  8
DEFPOINTS
  6
BYBLOCK
 62
     0
 10
325.060262
 20
33.59295
 30
0.0
  0
POINT
  5
D2D
  8
DEFPOINTS
  6
BYBLOCK
 62
     0
 10
326.810262
 20
33.79295
 30
0.0
  0
POINT
  5
D2E
  8
DEFPOINTS
  6
BYBLOCK
 62
     0
 10
326.810262
 20
33.150822
 30
0.0
  0
LINE
  5
D2F
  8
0
  6
BYBLOCK
 62
     0
 10
325.060262
 20
33.57795
 30
0.0
 11
325.060262
 21
33.135822
 31
0.0
  0
LINE
  5
D30
  8
0
  6
BYBLOCK
 62
     0
 10
321.660262
 20
33.57795
 30
0.0
 11
321.660262
 21
33.135822
 31
0.0
  0
LINE
  5
D31
  8
0
  6
BYBLOCK
 62
     0
 10
324.910262
 20
33.150822
 30
0.0
 11
321.810262
 21
33.150822
 31
0.0
  0
SOLID
  5
D32
  8
0
  6
BYBLOCK
 62
     0
 10
324.910262
 20
33.175822
 30
0.0
 11
324.910262
 21
33.125822
 31
0.0
 12
325.060262
 22
33.150822
 32
0.0
 13
325.060262
 23
33.150822
 33
0.0
  0
SOLID
  5
D33
  8
0
  6
BYBLOCK
 62
     0
 10
321.810262
 20
33.175822
 30
0.0
 11
321.810262
 21
33.125822
 31
0.0
 12
321.660262
 22
33.150822
 32
0.0
 13
321.660262
 23
33.150822
 33
0.0
  0
TEXT
  8
0
  40
0.075
  5
D4C
  62
0
  72
0
  71
0
 10
323.210
 20
33.0931
 30
0.000000
  1
3.40
  7
ROMANC
  0
POINT
  5
D35
  8
DEFPOINTS
  6
BYBLOCK
 62
     0
 10
325.060262
 20
33.59295
 30
0.0
  0
POINT
  5
D36
  8
DEFPOINTS
  6
BYBLOCK
 62
     0
 10
321.660262
 20
33.59295
 30
0.0
  0
POINT
  5
D37
  8
DEFPOINTS
  6
BYBLOCK
 62
     0
 10
321.660262
 20
33.150822
 30
0.0
  0
ENDSEC
  0
EOF
