  0
SECTION
  2
HEADER
  9
$ACADVER
  1
AC1009
  9
$INSBASE
 10
0.0
 20
0.0
 30
0.0
  9
$EXTMIN
 10
318.82980479256929
 20
29.857880341654891
 30
-0.0015258207003583
  9
$EXTMAX
 10
329.37133875136641
 20
44.725510029733982
 30
0.0000000349246037
  9
$LIMMIN
 10
0.0
 20
0.0
  9
$LIMMAX
 10
410.0
 20
287.0
  9
$ORTHOMODE
 70
     0
  9
$REGENMODE
 70
     1
  9
$FILLMODE
 70
     1
  9
$QTEXTMODE
 70
     0
  9
$MIRRTEXT
 70
     1
  9
$DRAGMODE
 70
     2
  9
$LTSCALE
 40
25.0
  9
$OSMODE
 70
    37
  9
$ATTMODE
 70
     1
  9
$TEXTSIZE
 40
0.1
  9
$TRACEWID
 40
1.0
  9
$TEXTSTYLE
  7
ROMANC
  9
$CLAYER
  8
0
  9
$CELTYPE
  6
BYLAYER
  9
$CECOLOR
 62
   256
  9
$DIMSCALE
 40
1.5
  9
$DIMASZ
 40
0.1
  9
$DIMEXO
 40
0.01
  9
$DIMDLI
 40
7.0
  9
$DIMRND
 40
0.0
  9
$DIMDLE
 40
0.0
  9
$DIMEXE
 40
0.01
  9
$DIMTP
 40
0.0
  9
$DIMTM
 40
0.0
  9
$DIMTXT
 40
0.05
  9
$DIMCEN
 40
0.0
  9
$DIMTSZ
 40
0.0
  9
$DIMTOL
 70
     0
  9
$DIMLIM
 70
     0
  9
$DIMTIH
 70
     0
  9
$DIMTOH
 70
     0
  9
$DIMSE1
 70
     0
  9
$DIMSE2
 70
     0
  9
$DIMTAD
 70
     1
  9
$DIMZIN
 70
     0
  9
$DIMBLK
  1

  9
$DIMASO
 70
     1
  9
$DIMSHO
 70
     0
  9
$DIMPOST
  1

  9
$DIMAPOST
  1

  9
$DIMALT
 70
     0
  9
$DIMALTD
 70
     2
  9
$DIMALTF
 40
25.399999999999999
  9
$DIMLFAC
 40
1.0
  9
$DIMTOFL
 70
     1
  9
$DIMTVP
 40
0.0
  9
$DIMTIX
 70
     1
  9
$DIMSOXD
 70
     0
  9
$DIMSAH
 70
     0
  9
$DIMBLK1
  1

  9
$DIMBLK2
  1

  9
$DIMSTYLE
  2
MERITXELL
  9
$DIMCLRD
 70
     0
  9
$DIMCLRE
 70
     0
  9
$DIMCLRT
 70
     0
  9
$DIMTFAC
 40
70.0
  9
$DIMGAP
 40
0.025
  9
$LUNITS
 70
     2
  9
$LUPREC
 70
     2
  9
$SKETCHINC
 40
1.0
  9
$FILLETRAD
 40
0.0
  9
$AUNITS
 70
     0
  9
$AUPREC
 70
     0
  9
$MENU
  1
acad
  9
$ELEVATION
 40
0.0
  9
$PELEVATION
 40
0.0
  9
$THICKNESS
 40
0.0
  9
$LIMCHECK
 70
     0
  9
$BLIPMODE
 70
     0
  9
$CHAMFERA
 40
0.0
  9
$CHAMFERB
 40
0.0
  9
$SKPOLY
 70
     0
  9
$TDCREATE
 40
2450927.4619499999
  9
$TDUPDATE
 40
2452452.6698421058
  9
$TDINDWG
 40
0.2014596991
  9
$TDUSRTIMER
 40
0.2014575347
  9
$USRTIMER
 70
     1
  9
$ANGBASE
 50
0.0
  9
$ANGDIR
 70
     0
  9
$PDMODE
 70
     0
  9
$PDSIZE
 40
0.0
  9
$PLINEWID
 40
0.0
  9
$COORDS
 70
     1
  9
$SPLFRAME
 70
     0
  9
$SPLINETYPE
 70
     6
  9
$SPLINESEGS
 70
     8
  9
$ATTDIA
 70
     0
  9
$ATTREQ
 70
     1
  9
$HANDLING
 70
 10241
  9
$HANDSEED
  5
1076
  9
$SURFTAB1
 70
     6
  9
$SURFTAB2
 70
     6
  9
$SURFTYPE
 70
     6
  9
$SURFU
 70
     6
  9
$SURFV
 70
     6
  9
$UCSNAME
  2

  9
$UCSORG
 10
0.0
 20
0.0
 30
0.0
  9
$UCSXDIR
 10
1.0
 20
0.0
 30
0.0
  9
$UCSYDIR
 10
0.0
 20
1.0
 30
0.0
  9
$PUCSNAME
  2

  9
$PUCSORG
 10
0.0
 20
0.0
 30
0.0
  9
$PUCSXDIR
 10
1.0
 20
0.0
 30
0.0
  9
$PUCSYDIR
 10
0.0
 20
1.0
 30
0.0
  9
$USERI1
 70
     0
  9
$USERI2
 70
     0
  9
$USERI3
 70
     0
  9
$USERI4
 70
     0
  9
$USERI5
 70
     0
  9
$USERR1
 40
0.0
  9
$USERR2
 40
0.0
  9
$USERR3
 40
0.0
  9
$USERR4
 40
0.0
  9
$USERR5
 40
0.0
  9
$WORLDVIEW
 70
     1
  9
$SHADEDGE
 70
     3
  9
$SHADEDIF
 70
    70
  9
$TILEMODE
 70
     1
  9
$MAXACTVP
 70
    16
  9
$PLIMCHECK
 70
     0
  9
$PEXTMIN
 10
3.9362580827869351
 20
4.0403954307453773
 30
0.0
  9
$PEXTMAX
 10
256.66066045761102
 20
281.77870660474991
 30
0.0
  9
$PLIMMIN
 10
-6.043083190917967
 20
-6.720414161682128
  9
$PLIMMAX
 10
204.01491546630839
 20
290.20558071136458
  9
$UNITMODE
 70
     0
  9
$VISRETAIN
 70
     0
  9
$PLINEGEN
 70
     0
  9
$PSLTSCALE
 70
     0
  0
ENDSEC
  0
SECTION
  2
TABLES
  0
TABLE
  2
VPORT
 70
     2
  0
VPORT
  2
*ACTIVE
 70
     0
 10
0.0
 20
0.0
 11
1.0
 21
1.0
 12
324.10057177196791
 22
37.291695185694437
 13
0.0
 23
0.0
 14
1.0
 24
1.0
 15
10.0
 25
10.0
 16
0.0
 26
0.0
 36
1.0
 17
0.0
 27
0.0
 37
0.0
 40
14.978032878832151
 41
1.454770755885997
 42
50.0
 43
0.0
 44
0.0
 50
0.0
 51
0.0
 71
     0
 72
   100
 73
     1
 74
     0
 75
     0
 76
     0
 77
     0
 78
     1
  0
ENDTAB
  0
TABLE
  2
LTYPE
 70
     1
  0
LTYPE
  2
CONTINUOUS
 70
     0
  3
Solid line
 72
    65
 73
     0
 40
0.0
  0
ENDTAB
  0
TABLE
  2
LAYER
 70
     5
  0
LAYER
  2
0
 70
     0
 62
     7
  6
CONTINUOUS
  0
LAYER
  2
DEFPOINTS
 70
     0
 62
     7
  6
CONTINUOUS
  0
LAYER
  2
COTES
 70
     0
 62
     4
  6
CONTINUOUS
  0
LAYER
  2
SECCIO
 70
     0
 62
    30
  6
CONTINUOUS
  0
LAYER
  2
FINESTRA
 70
     0
 62
     7
  6
CONTINUOUS
  0
ENDTAB
  0
TABLE
  2
STYLE
 70
     2
  0
STYLE
  2
STANDARD
 70
     0
 40
0.0
 41
1.0
 50
0.0
 71
     0
 42
0.1
  3
txt
  4

  0
STYLE
  2
ROMANC
 70
     0
 40
0.0
 41
1.0
 50
0.0
 71
     0
 42
0.1
  3
romanc
  4

  0
ENDTAB
  0
TABLE
  2
VIEW
 70
     0
  0
ENDTAB
  0
TABLE
  2
UCS
 70
     0
  0
ENDTAB
  0
TABLE
  2
APPID
 70
     1
  0
APPID
  2
ACAD
 70
     0
  0
ENDTAB
  0
TABLE
  2
DIMSTYLE
 70
     2
  0
DIMSTYLE
  2
MERITXELL
 70
     0
  3

  4

  5

  6

  7

 40
1.5
 41
0.1
 42
0.01
 43
7.0
 44
0.01
 45
0.0
 46
0.0
 47
0.0
 48
0.0
140
0.05
141
0.1
142
0.0
143
25.399999999999999
144
1.0
145
0.0
146
70.0
147
0.09
 71
     0
 72
     0
 73
     0
 74
     0
 75
     0
 76
     0
 77
     1
 78
     0
170
     0
171
     2
172
     1
173
     0
174
     1
175
     0
176
     0
177
     0
178
     0
  0
DIMSTYLE
  2
STANDARD
 70
     0
  3

  4

  5
TICK
  6

  7

 40
1.0
 41
0.05
 42
0.08
 43
0.08
 44
0.08
 45
0.0
 46
1.25
 47
0.0
 48
0.0
140
0.08
141
-0.08
142
0.0
143
0.039
144
1.0
145
1.0
146
1.0
147
0.08
 71
     0
 72
     0
 73
     0
 74
     0
 75
     0
 76
     0
 77
     0
 78
     0
170
     0
171
     2
172
     0
173
     0
174
     0
175
     0
176
    71
177
    71
178
     7
  0
ENDTAB
  0
ENDSEC
  0
SECTION
  2
BLOCKS
  0
BLOCK
  8
0
  2
$MODEL_SPACE
 70
     0
 10
0.0
 20
0.0
 30
0.0
  3
$MODEL_SPACE
  1

  0
ENDBLK
  5
24
  8
0
  0
BLOCK
 67
     1
  8
0
  2
$PAPER_SPACE
 70
     0
 10
0.0
 20
0.0
 30
0.0
  3
$PAPER_SPACE
  1

  0
ENDBLK
  5
22
 67
     1
  8
0
  0
BLOCK
  8
0
  2
TICK
 70
     0
 10
0.0
 20
0.0
 30
0.0
  3
TICK
  1

  0
LINE
  5
387
  8
0
  6
BYBLOCK
 62
     6
 10
-1.0
 20
-1.0
 30
0.0
 11
1.0
 21
1.0
 31
0.0
  0
LINE
  5
388
  8
0
  6
BYBLOCK
 62
    71
 10
0.0
 20
0.0
 30
0.0
 11
-1.0
 21
0.0
 31
0.0
  0
ENDBLK
  5
38A
  8
0
  0
BLOCK
  8
0
  2
*D1
 70
     1
 10
0.0
 20
0.0
 30
0.0
  3
*D1
  1

  0
LINE
  5
800
  8
0
  6
BYBLOCK
 62
    71
 10
142.0564547008901
 20
122.7782171102962
 30
0.0
 11
142.0564547008901
 21
123.0022307698278
 31
0.0
  0
LINE
  5
801
  8
0
  6
BYBLOCK
 62
    71
 10
143.05645470088999
 20
122.7782171102962
 30
0.0
 11
143.05645470088999
 21
123.0022307698278
 31
0.0
  0
LINE
  5
802
  8
0
  6
BYBLOCK
 62
    71
 10
142.10645470089011
 20
122.92223076982781
 30
0.0
 11
143.00645470089
 21
122.92223076982781
 31
0.0
  0
INSERT
  5
803
  8
0
  6
BYBLOCK
 62
    71
  2
TICK
 10
142.0564547008901
 20
122.92223076982781
 30
0.0
 41
0.05
 42
0.05
 43
0.05
 50
180.0
  0
INSERT
  5
804
  8
0
  6
BYBLOCK
 62
    71
  2
TICK
 10
143.05645470088999
 20
122.92223076982781
 30
0.0
 41
0.05
 42
0.05
 43
0.05
  0
TEXT
  5
805
  8
0
  6
BYBLOCK
 62
     7
 10
142.46312136755671
 20
122.9622307698277
 30
0.0
 40
0.08
  1
1.00
 72
     1
 11
142.5564547008901
 21
123.0022307698278
 31
0.0
 73
     2
  0
POINT
  5
806
  8
DEFPOINTS
  6
BYBLOCK
 62
     0
 10
142.0564547008901
 20
122.6982171102962
 30
0.0
  0
POINT
  5
807
  8
DEFPOINTS
  6
BYBLOCK
 62
     0
 10
143.05645470088999
 20
122.6982171102962
 30
0.0
  0
POINT
  5
808
  8
DEFPOINTS
  6
BYBLOCK
 62
     0
 10
143.05645470088999
 20
122.92223076982781
 30
0.0
  0
ENDBLK
  5
80A
  8
0
  0
BLOCK
  8
0
  2
*D2
 70
     1
 10
0.0
 20
0.0
 30
0.0
  3
*D2
  1

  0
LINE
  5
80C
  8
0
  6
BYBLOCK
 62
    71
 10
143.05645470088999
 20
122.7782171102962
 30
0.0
 11
143.05645470088999
 21
123.0022307698278
 31
0.0
  0
LINE
  5
80D
  8
0
  6
BYBLOCK
 62
    71
 10
144.0564547008901
 20
122.4782171102962
 30
0.0
 11
144.0564547008901
 21
123.0022307698278
 31
0.0
  0
LINE
  5
80E
  8
0
  6
BYBLOCK
 62
    71
 10
143.10645470089011
 20
122.92223076982781
 30
0.0
 11
144.00645470089
 21
122.92223076982781
 31
0.0
  0
INSERT
  5
80F
  8
0
  6
BYBLOCK
 62
    71
  2
TICK
 10
143.05645470088999
 20
122.92223076982781
 30
0.0
 41
0.05
 42
0.05
 43
0.05
 50
180.0
  0
INSERT
  5
810
  8
0
  6
BYBLOCK
 62
    71
  2
TICK
 10
144.0564547008901
 20
122.92223076982781
 30
0.0
 41
0.05
 42
0.05
 43
0.05
  0
TEXT
  5
811
  8
0
  6
BYBLOCK
 62
     7
 10
143.46312136755671
 20
122.9622307698277
 30
0.0
 40
0.08
  1
1.00
 72
     1
 11
143.5564547008901
 21
123.0022307698278
 31
0.0
 73
     2
  0
POINT
  5
812
  8
DEFPOINTS
  6
BYBLOCK
 62
     0
 10
143.05645470088999
 20
122.6982171102962
 30
0.0
  0
POINT
  5
813
  8
DEFPOINTS
  6
BYBLOCK
 62
     0
 10
144.0564547008901
 20
122.3982171102962
 30
0.0
  0
POINT
  5
814
  8
DEFPOINTS
  6
BYBLOCK
 62
     0
 10
144.0564547008901
 20
122.92223076982781
 30
0.0
  0
ENDBLK
  5
816
  8
0
  0
BLOCK
  8
0
  2
*D3
 70
     1
 10
0.0
 20
0.0
 30
0.0
  3
*D3
  1

  0
LINE
  5
818
  8
0
  6
BYBLOCK
 62
    71
 10
143.05645470088999
 20
124.9482171102962
 30
0.0
 11
143.05645470088999
 21
124.5130954532914
 31
0.0
  0
LINE
  5
819
  8
0
  6
BYBLOCK
 62
    71
 10
143.05645470088999
 20
124.5130954532914
 30
0.0
 11
143.05645470088999
 21
124.11309545329129
 31
0.0
  0
INSERT
  5
81A
  8
0
  6
BYBLOCK
 62
    71
  2
TICK
 10
143.05645470088999
 20
124.9982171102962
 30
0.0
 41
0.05
 42
0.05
 43
0.05
 50
90.0
  0
TEXT
  5
81B
  8
0
  6
BYBLOCK
 62
     7
 10
143.01645470089011
 20
124.13976211995799
 30
0.0
 40
0.08
  1
R1.00
 50
90.0
 72
     1
 11
142.97645470089009
 21
124.2730954532914
 31
0.0
 73
     2
  0
POINT
  5
81C
  8
DEFPOINTS
  6
BYBLOCK
 62
     0
 10
143.05645470088999
 20
124.9982171102962
 30
0.0
  0
POINT
  5
81D
  8
DEFPOINTS
  6
BYBLOCK
 62
     0
 10
143.05645470088999
 20
123.9982171102962
 30
0.0
  0
ENDBLK
  5
81F
  8
0
  0
BLOCK
  8
0
  2
*D4
 70
     1
 10
0.0
 20
0.0
 30
0.0
  3
*D4
  1

  0
LINE
  5
821
  8
0
  6
BYBLOCK
 62
    71
 10
141.8064547008901
 20
122.01821711029631
 30
0.0
 11
141.8064547008901
 21
121.6547504873182
 31
0.0
  0
LINE
  5
822
  8
0
  6
BYBLOCK
 62
    71
 10
142.0564547008901
 20
122.01642196181071
 30
0.0
 11
142.0564547008901
 21
121.6547504873182
 31
0.0
  0
LINE
  5
823
  8
0
  6
BYBLOCK
 62
    71
 10
141.75645470089
 20
121.73475048731819
 30
0.0
 11
141.70645470089011
 21
121.73475048731819
 31
0.0
  0
LINE
  5
824
  8
0
  6
BYBLOCK
 62
    71
 10
142.10645470089011
 20
121.73475048731819
 30
0.0
 11
142.15645470089001
 21
121.73475048731819
 31
0.0
  0
INSERT
  5
825
  8
0
  6
BYBLOCK
 62
    71
  2
TICK
 10
141.8064547008901
 20
121.73475048731819
 30
0.0
 41
0.05
 42
0.05
 43
0.05
  0
INSERT
  5
826
  8
0
  6
BYBLOCK
 62
    71
  2
TICK
 10
142.0564547008901
 20
121.73475048731819
 30
0.0
 41
0.05
 42
0.05
 43
0.05
 50
180.0
  0
TEXT
  5
827
  8
0
  6
BYBLOCK
 62
     7
 10
141.8129072631657
 20
121.5150813509253
 30
0.0
 40
0.08
  1
0.25
 72
     1
 11
141.9262405964991
 21
121.55508135092541
 31
0.0
 73
     2
  0
POINT
  5
828
  8
DEFPOINTS
  6
BYBLOCK
 62
     0
 10
141.8064547008901
 20
122.0982171102962
 30
0.0
  0
POINT
  5
829
  8
DEFPOINTS
  6
BYBLOCK
 62
     0
 10
142.0564547008901
 20
122.09642196181051
 30
0.0
  0
POINT
  5
82A
  8
DEFPOINTS
  6
BYBLOCK
 62
     0
 10
142.0564547008901
 20
121.73475048731819
 30
0.0
  0
ENDBLK
  5
82C
  8
0
  0
BLOCK
  8
0
  2
*D5
 70
     1
 10
0.0
 20
0.0
 30
0.0
  3
*D5
  1

  0
LINE
  5
82E
  8
0
  6
BYBLOCK
 62
    71
 10
144.0564547008901
 20
122.0189400884807
 30
0.0
 11
144.0564547008901
 21
121.65568450961899
 31
0.0
  0
LINE
  5
82F
  8
0
  6
BYBLOCK
 62
    71
 10
144.30645470088999
 20
122.01821711029631
 30
0.0
 11
144.30645470088999
 21
121.65568450961899
 31
0.0
  0
LINE
  5
830
  8
0
  6
BYBLOCK
 62
    71
 10
144.00645470089
 20
121.73568450961901
 30
0.0
 11
143.95645470089011
 21
121.73568450961901
 31
0.0
  0
LINE
  5
831
  8
0
  6
BYBLOCK
 62
    71
 10
144.35645470089011
 20
121.73568450961901
 30
0.0
 11
144.40645470089009
 21
121.73568450961901
 31
0.0
  0
INSERT
  5
832
  8
0
  6
BYBLOCK
 62
    71
  2
TICK
 10
144.0564547008901
 20
121.73568450961901
 30
0.0
 41
0.05
 42
0.05
 43
0.05
  0
INSERT
  5
833
  8
0
  6
BYBLOCK
 62
    71
  2
TICK
 10
144.30645470088999
 20
121.73568450961901
 30
0.0
 41
0.05
 42
0.05
 43
0.05
 50
180.0
  0
TEXT
  5
834
  8
0
  6
BYBLOCK
 62
     7
 10
144.08403413452109
 20
121.5150813509253
 30
0.0
 40
0.08
  1
0.25
 72
     1
 11
144.19736746785441
 21
121.55508135092541
 31
0.0
 73
     2
  0
POINT
  5
835
  8
DEFPOINTS
  6
BYBLOCK
 62
     0
 10
144.0564547008901
 20
122.0989400884808
 30
0.0
  0
POINT
  5
836
  8
DEFPOINTS
  6
BYBLOCK
 62
     0
 10
144.30645470088999
 20
122.0982171102962
 30
0.0
  0
POINT
  5
837
  8
DEFPOINTS
  6
BYBLOCK
 62
     0
 10
144.30645470088999
 20
121.73568450961901
 30
0.0
  0
ENDBLK
  5
839
  8
0
  0
BLOCK
  8
0
  2
*D6
 70
     1
 10
0.0
 20
0.0
 30
0.0
  3
*D6
  1

  0
LINE
  5
83B
  8
0
  6
BYBLOCK
 62
    71
 10
144.38645470089011
 20
122.0982171102962
 30
0.0
 11
144.9731539305435
 21
122.0982171102962
 31
0.0
  0
LINE
  5
83C
  8
0
  6
BYBLOCK
 62
    71
 10
144.3850215320364
 20
122.3982171102962
 30
0.0
 11
144.9731539305435
 21
122.3982171102962
 31
0.0
  0
LINE
  5
83D
  8
0
  6
BYBLOCK
 62
    71
 10
144.89315393054341
 20
122.1482171102962
 30
0.0
 11
144.89315393054341
 21
122.3482171102961
 31
0.0
  0
INSERT
  5
83E
  8
0
  6
BYBLOCK
 62
    71
  2
TICK
 10
144.89315393054341
 20
122.0982171102962
 30
0.0
 41
0.05
 42
0.05
 43
0.05
 50
270.0
  0
INSERT
  5
83F
  8
0
  6
BYBLOCK
 62
    71
  2
TICK
 10
144.89315393054341
 20
122.3982171102962
 30
0.0
 41
0.05
 42
0.05
 43
0.05
 50
90.0
  0
TEXT
  5
840
  8
0
  6
BYBLOCK
 62
     7
 10
145.0832795267952
 20
122.1504496643212
 30
0.0
 40
0.08
  1
0.30
 50
90.0
 72
     1
 11
145.0432795267952
 21
122.2571163309879
 31
0.0
 73
     2
  0
POINT
  5
841
  8
DEFPOINTS
  6
BYBLOCK
 62
     0
 10
144.30645470088999
 20
122.0982171102962
 30
0.0
  0
POINT
  5
842
  8
DEFPOINTS
  6
BYBLOCK
 62
     0
 10
144.30502153203631
 20
122.3982171102962
 30
0.0
  0
POINT
  5
843
  8
DEFPOINTS
  6
BYBLOCK
 62
     0
 10
144.89315393054341
 20
122.3982171102962
 30
0.0
  0
ENDBLK
  5
845
  8
0
  0
BLOCK
  8
0
  2
*D7
 70
     1
 10
0.0
 20
0.0
 30
0.0
  3
*D7
  1

  0
LINE
  5
847
  8
0
  6
BYBLOCK
 62
    71
 10
144.3850215320364
 20
122.3982171102962
 30
0.0
 11
144.9731539305435
 21
122.3982171102962
 31
0.0
  0
LINE
  5
848
  8
0
  6
BYBLOCK
 62
    71
 10
144.38714900562351
 20
124.0019798712444
 30
0.0
 11
144.9731539305435
 21
124.0019798712444
 31
0.0
  0
LINE
  5
849
  8
0
  6
BYBLOCK
 62
    71
 10
144.89315393054341
 20
122.4482171102962
 30
0.0
 11
144.89315393054341
 21
123.9519798712444
 31
0.0
  0
INSERT
  5
84A
  8
0
  6
BYBLOCK
 62
    71
  2
TICK
 10
144.89315393054341
 20
122.3982171102962
 30
0.0
 41
0.05
 42
0.05
 43
0.05
 50
270.0
  0
INSERT
  5
84B
  8
0
  6
BYBLOCK
 62
    71
  2
TICK
 10
144.89315393054341
 20
124.0019798712444
 30
0.0
 41
0.05
 42
0.05
 43
0.05
 50
90.0
  0
TEXT
  5
84C
  8
0
  6
BYBLOCK
 62
     7
 10
144.85315393054341
 20
123.10009849077031
 30
0.0
 40
0.08
  1
1.60
 50
90.0
 72
     1
 11
144.81315393054351
 21
123.2000984907702
 31
0.0
 73
     2
  0
POINT
  5
84D
  8
DEFPOINTS
  6
BYBLOCK
 62
     0
 10
144.30502153203631
 20
122.3982171102962
 30
0.0
  0
POINT
  5
84E
  8
DEFPOINTS
  6
BYBLOCK
 62
     0
 10
144.3071490056235
 20
124.0019798712444
 30
0.0
  0
POINT
  5
84F
  8
DEFPOINTS
  6
BYBLOCK
 62
     0
 10
144.89315393054341
 20
124.0019798712444
 30
0.0
  0
ENDBLK
  5
851
  8
0
  0
BLOCK
  8
0
  2
*D8
 70
     1
 10
0.0
 20
0.0
 30
0.0
  3
*D8
  1

  0
LINE
  5
853
  8
0
  6
BYBLOCK
 62
    71
 10
144.3850215320364
 20
124.0019798712444
 30
0.0
 11
144.9731539305435
 21
124.0019798712444
 31
0.0
  0
LINE
  5
854
  8
0
  6
BYBLOCK
 62
    71
 10
143.97152215272141
 20
124.9982171102962
 30
0.0
 11
144.9731539305435
 21
124.9982171102962
 31
0.0
  0
LINE
  5
855
  8
0
  6
BYBLOCK
 62
    71
 10
144.89315393054341
 20
124.0519798712444
 30
0.0
 11
144.89315393054341
 21
124.9482171102962
 31
0.0
  0
INSERT
  5
856
  8
0
  6
BYBLOCK
 62
    71
  2
TICK
 10
144.89315393054341
 20
124.0019798712444
 30
0.0
 41
0.05
 42
0.05
 43
0.05
 50
270.0
  0
INSERT
  5
857
  8
0
  6
BYBLOCK
 62
    71
  2
TICK
 10
144.89315393054341
 20
124.9982171102962
 30
0.0
 41
0.05
 42
0.05
 43
0.05
 50
90.0
  0
TEXT
  5
858
  8
0
  6
BYBLOCK
 62
     7
 10
144.85315393054341
 20
124.40676515743689
 30
0.0
 40
0.08
  1
1.00
 50
90.0
 72
     1
 11
144.81315393054351
 21
124.5000984907703
 31
0.0
 73
     2
  0
POINT
  5
859
  8
DEFPOINTS
  6
BYBLOCK
 62
     0
 10
144.30502153203631
 20
124.0019798712444
 30
0.0
  0
POINT
  5
85A
  8
DEFPOINTS
  6
BYBLOCK
 62
     0
 10
143.89152215272151
 20
124.9982171102962
 30
0.0
  0
POINT
  5
85B
  8
DEFPOINTS
  6
BYBLOCK
 62
     0
 10
144.89315393054341
 20
124.9982171102962
 30
0.0
  0
ENDBLK
  5
85D
  8
0
  0
BLOCK
  8
0
  2
*D9
 70
     1
 10
0.0
 20
0.0
 30
0.0
  3
*D9
  1

  0
LINE
  5
85F
  8
0
  6
BYBLOCK
 62
    71
 10
143.88465470907201
 20
124.9982171102962
 30
0.0
 11
144.9731539305435
 21
124.9982171102962
 31
0.0
  0
LINE
  5
860
  8
0
  6
BYBLOCK
 62
    71
 10
143.39225280000031
 20
125.2482171102962
 30
0.0
 11
144.9731539305435
 21
125.2482171102962
 31
0.0
  0
LINE
  5
861
  8
0
  6
BYBLOCK
 62
    71
 10
144.89315393054341
 20
124.9482171102962
 30
0.0
 11
144.89315393054341
 21
124.8982171102962
 31
0.0
  0
LINE
  5
862
  8
0
  6
BYBLOCK
 62
    71
 10
144.89315393054341
 20
125.29821711029621
 30
0.0
 11
144.89315393054341
 21
125.3482171102962
 31
0.0
  0
INSERT
  5
863
  8
0
  6
BYBLOCK
 62
    71
  2
TICK
 10
144.89315393054341
 20
124.9982171102962
 30
0.0
 41
0.05
 42
0.05
 43
0.05
 50
90.0
  0
INSERT
  5
864
  8
0
  6
BYBLOCK
 62
    71
  2
TICK
 10
144.89315393054341
 20
125.2482171102962
 30
0.0
 41
0.05
 42
0.05
 43
0.05
 50
270.0
  0
TEXT
  5
865
  8
0
  6
BYBLOCK
 62
     7
 10
145.07645926392499
 20
125.0268973837714
 30
0.0
 40
0.08
  1
0.25
 50
90.0
 72
     1
 11
145.036459263925
 21
125.1402307171048
 31
0.0
 73
     2
  0
POINT
  5
866
  8
DEFPOINTS
  6
BYBLOCK
 62
     0
 10
143.804654709072
 20
124.9982171102962
 30
0.0
  0
POINT
  5
867
  8
DEFPOINTS
  6
BYBLOCK
 62
     0
 10
143.31225280000041
 20
125.2482171102962
 30
0.0
  0
POINT
  5
868
  8
DEFPOINTS
  6
BYBLOCK
 62
     0
 10
144.89315393054341
 20
125.2482171102962
 30
0.0
  0
ENDBLK
  5
86A
  8
0
  0
BLOCK
  8
0
  2
*D10
 70
     1
 10
0.0
 20
0.0
 30
0.0
  3
*D10
  1

  0
LINE
  5
86C
  8
0
  6
BYBLOCK
 62
    71
 10
143.13645470089011
 20
122.3982171102962
 30
0.0
 11
143.35655919962241
 21
122.3982171102962
 31
0.0
  0
LINE
  5
86D
  8
0
  6
BYBLOCK
 62
    71
 10
143.13645470089011
 20
122.6982171102962
 30
0.0
 11
143.35655919962241
 21
122.6982171102962
 31
0.0
  0
LINE
  5
86E
  8
0
  6
BYBLOCK
 62
    71
 10
143.2765591996224
 20
122.4482171102962
 30
0.0
 11
143.2765591996224
 21
122.6482171102962
 31
0.0
  0
INSERT
  5
86F
  8
0
  6
BYBLOCK
 62
    71
  2
TICK
 10
143.2765591996224
 20
122.3982171102962
 30
0.0
 41
0.05
 42
0.05
 43
0.05
 50
270.0
  0
INSERT
  5
870
  8
0
  6
BYBLOCK
 62
    71
  2
TICK
 10
143.2765591996224
 20
122.6982171102962
 30
0.0
 41
0.05
 42
0.05
 43
0.05
 50
90.0
  0
TEXT
  5
871
  8
0
  6
BYBLOCK
 62
     7
 10
143.21867318288309
 20
122.4468488754007
 30
0.0
 40
0.08
  1
0.30
 50
90.0
 72
     1
 11
143.1786731828831
 21
122.5535155420674
 31
0.0
 73
     2
  0
POINT
  5
872
  8
DEFPOINTS
  6
BYBLOCK
 62
     0
 10
143.05645470088999
 20
122.3982171102962
 30
0.0
  0
POINT
  5
873
  8
DEFPOINTS
  6
BYBLOCK
 62
     0
 10
143.05645470088999
 20
122.6982171102962
 30
0.0
  0
POINT
  5
874
  8
DEFPOINTS
  6
BYBLOCK
 62
     0
 10
143.2765591996224
 20
122.6982171102962
 30
0.0
  0
ENDBLK
  5
876
  8
0
  0
BLOCK
  8
0
  2
*D11
 70
     1
 10
0.0
 20
0.0
 30
0.0
  3
*D11
  1

  0
LINE
  5
878
  8
0
  6
BYBLOCK
 62
    71
 10
142.0564547008901
 20
122.01642196181071
 30
0.0
 11
142.0564547008901
 21
121.65568450961899
 31
0.0
  0
LINE
  5
879
  8
0
  6
BYBLOCK
 62
    71
 10
144.0564547008901
 20
122.0189400884807
 30
0.0
 11
144.0564547008901
 21
121.65568450961899
 31
0.0
  0
LINE
  5
87A
  8
0
  6
BYBLOCK
 62
    71
 10
142.10645470089011
 20
121.73568450961901
 30
0.0
 11
142.8837700001543
 21
121.73568450961901
 31
0.0
  0
LINE
  5
87B
  8
0
  6
BYBLOCK
 62
    71
 10
144.00645470089
 20
121.73568450961901
 30
0.0
 11
143.28757952396381
 21
121.73568450961901
 31
0.0
  0
INSERT
  5
87C
  8
0
  6
BYBLOCK
 62
    71
  2
TICK
 10
142.0564547008901
 20
121.73568450961901
 30
0.0
 41
0.05
 42
0.05
 43
0.05
 50
180.0
  0
INSERT
  5
87D
  8
0
  6
BYBLOCK
 62
    71
  2
TICK
 10
144.0564547008901
 20
121.73568450961901
 30
0.0
 41
0.05
 42
0.05
 43
0.05
  0
TEXT
  5
87E
  8
0
  6
BYBLOCK
 62
     7
 10
142.9790080953924
 20
121.6922940680802
 30
0.0
 40
0.08
  1
2.00
 72
     1
 11
143.085674762059
 21
121.73229406808029
 31
0.0
 73
     2
  0
POINT
  5
87F
  8
DEFPOINTS
  6
BYBLOCK
 62
     0
 10
142.0564547008901
 20
122.09642196181051
 30
0.0
  0
POINT
  5
880
  8
DEFPOINTS
  6
BYBLOCK
 62
     0
 10
144.0564547008901
 20
122.0989400884808
 30
0.0
  0
POINT
  5
881
  8
DEFPOINTS
  6
BYBLOCK
 62
     0
 10
144.0564547008901
 20
121.73568450961901
 30
0.0
  0
ENDBLK
  5
883
  8
0
  0
BLOCK
  8
0
  2
*D12
 70
     1
 10
0.0
 20
0.0
 30
0.0
  3
*D12
  1

  0
LINE
  5
885
  8
0
  6
BYBLOCK
 62
    71
 10
153.70296790503531
 20
123.0595630964863
 30
0.0
 11
153.70296790503531
 21
123.32877949182949
 31
0.0
  0
LINE
  5
886
  8
0
  6
BYBLOCK
 62
    71
 10
154.70296790503531
 20
123.0595630964863
 30
0.0
 11
154.70296790503531
 21
123.32877949182949
 31
0.0
  0
LINE
  5
887
  8
0
  6
BYBLOCK
 62
    71
 10
153.7529679050354
 20
123.2487794918295
 30
0.0
 11
154.65296790503541
 21
123.2487794918295
 31
0.0
  0
INSERT
  5
888
  8
0
  6
BYBLOCK
 62
    71
  2
TICK
 10
153.70296790503531
 20
123.2487794918295
 30
0.0
 41
0.05
 42
0.05
 43
0.05
 50
180.0
  0
INSERT
  5
889
  8
0
  6
BYBLOCK
 62
    71
  2
TICK
 10
154.70296790503531
 20
123.2487794918295
 30
0.0
 41
0.05
 42
0.05
 43
0.05
  0
TEXT
  5
88A
  8
0
  6
BYBLOCK
 62
     7
 10
154.109634571702
 20
123.2887794918295
 30
0.0
 40
0.08
  1
1.00
 72
     1
 11
154.20296790503539
 21
123.32877949182949
 31
0.0
 73
     2
  0
POINT
  5
88B
  8
DEFPOINTS
  6
BYBLOCK
 62
     0
 10
153.70296790503531
 20
122.9795630964862
 30
0.0
  0
POINT
  5
88C
  8
DEFPOINTS
  6
BYBLOCK
 62
     0
 10
154.70296790503531
 20
122.9795630964862
 30
0.0
  0
POINT
  5
88D
  8
DEFPOINTS
  6
BYBLOCK
 62
     0
 10
154.70296790503531
 20
123.2487794918295
 30
0.0
  0
ENDBLK
  5
88F
  8
0
  0
BLOCK
  8
0
  2
*D13
 70
     1
 10
0.0
 20
0.0
 30
0.0
  3
*D13
  1

  0
LINE
  5
891
  8
0
  6
BYBLOCK
 62
    71
 10
154.70296790503531
 20
123.0595630964863
 30
0.0
 11
154.70296790503531
 21
123.32877949182949
 31
0.0
  0
LINE
  5
892
  8
0
  6
BYBLOCK
 62
    71
 10
155.5029679050354
 20
122.7595630964863
 30
0.0
 11
155.5029679050354
 21
123.32877949182949
 31
0.0
  0
LINE
  5
893
  8
0
  6
BYBLOCK
 62
    71
 10
154.7529679050354
 20
123.2487794918295
 30
0.0
 11
155.45296790503539
 21
123.2487794918295
 31
0.0
  0
INSERT
  5
894
  8
0
  6
BYBLOCK
 62
    71
  2
TICK
 10
154.70296790503531
 20
123.2487794918295
 30
0.0
 41
0.05
 42
0.05
 43
0.05
 50
180.0
  0
INSERT
  5
895
  8
0
  6
BYBLOCK
 62
    71
  2
TICK
 10
155.5029679050354
 20
123.2487794918295
 30
0.0
 41
0.05
 42
0.05
 43
0.05
  0
TEXT
  5
896
  8
0
  6
BYBLOCK
 62
     7
 10
154.99630123836869
 20
123.2887794918295
 30
0.0
 40
0.08
  1
0.80
 72
     1
 11
155.10296790503531
 21
123.32877949182949
 31
0.0
 73
     2
  0
POINT
  5
897
  8
DEFPOINTS
  6
BYBLOCK
 62
     0
 10
154.70296790503531
 20
122.9795630964862
 30
0.0
  0
POINT
  5
898
  8
DEFPOINTS
  6
BYBLOCK
 62
     0
 10
155.5029679050354
 20
122.67956309648631
 30
0.0
  0
POINT
  5
899
  8
DEFPOINTS
  6
BYBLOCK
 62
     0
 10
155.5029679050354
 20
123.2487794918295
 30
0.0
  0
ENDBLK
  5
89B
  8
0
  0
BLOCK
  8
0
  2
*D14
 70
     1
 10
0.0
 20
0.0
 30
0.0
  3
*D14
  1

  0
LINE
  5
89D
  8
0
  6
BYBLOCK
 62
    71
 10
154.78296790503541
 20
122.67956309648631
 30
0.0
 11
155.07984944010209
 21
122.67956309648631
 31
0.0
  0
LINE
  5
89E
  8
0
  6
BYBLOCK
 62
    71
 10
154.78296790503541
 20
122.9795630964862
 30
0.0
 11
155.07984944010209
 21
122.9795630964862
 31
0.0
  0
LINE
  5
89F
  8
0
  6
BYBLOCK
 62
    71
 10
154.99984944010211
 20
122.7295630964863
 30
0.0
 11
154.99984944010211
 21
122.92956309648631
 31
0.0
  0
INSERT
  5
8A0
  8
0
  6
BYBLOCK
 62
    71
  2
TICK
 10
154.99984944010211
 20
122.67956309648631
 30
0.0
 41
0.05
 42
0.05
 43
0.05
 50
270.0
  0
INSERT
  5
8A1
  8
0
  6
BYBLOCK
 62
    71
  2
TICK
 10
154.99984944010211
 20
122.9795630964862
 30
0.0
 41
0.05
 42
0.05
 43
0.05
 50
90.0
  0
TEXT
  5
8A2
  8
0
  6
BYBLOCK
 62
     7
 10
154.95984944010209
 20
122.7319089327306
 30
0.0
 40
0.08
  1
0.30
 50
90.0
 72
     1
 11
154.9198494401021
 21
122.8385755993973
 31
0.0
 73
     2
  0
POINT
  5
8A3
  8
DEFPOINTS
  6
BYBLOCK
 62
     0
 10
154.70296790503531
 20
122.67956309648631
 30
0.0
  0
POINT
  5
8A4
  8
DEFPOINTS
  6
BYBLOCK
 62
     0
 10
154.70296790503531
 20
122.9795630964862
 30
0.0
  0
POINT
  5
8A5
  8
DEFPOINTS
  6
BYBLOCK
 62
     0
 10
154.99984944010211
 20
122.9795630964862
 30
0.0
  0
ENDBLK
  5
8A7
  8
0
  0
BLOCK
  8
0
  2
*D15
 70
     1
 10
0.0
 20
0.0
 30
0.0
  3
*D15
  1

  0
LINE
  5
8A9
  8
0
  6
BYBLOCK
 62
    71
 10
153.45296790503531
 20
122.2995630964863
 30
0.0
 11
153.45296790503531
 21
121.96313494361149
 31
0.0
  0
LINE
  5
8AA
  8
0
  6
BYBLOCK
 62
    71
 10
153.70296790503531
 20
122.2967412612234
 30
0.0
 11
153.70296790503531
 21
121.96313494361149
 31
0.0
  0
LINE
  5
8AB
  8
0
  6
BYBLOCK
 62
    71
 10
153.40296790503541
 20
122.04313494361141
 30
0.0
 11
153.3529679050354
 21
122.04313494361141
 31
0.0
  0
LINE
  5
8AC
  8
0
  6
BYBLOCK
 62
    71
 10
153.7529679050354
 20
122.04313494361141
 30
0.0
 11
153.8029679050353
 21
122.04313494361141
 31
0.0
  0
INSERT
  5
8AD
  8
0
  6
BYBLOCK
 62
    71
  2
TICK
 10
153.45296790503531
 20
122.04313494361141
 30
0.0
 41
0.05
 42
0.05
 43
0.05
  0
INSERT
  5
8AE
  8
0
  6
BYBLOCK
 62
    71
  2
TICK
 10
153.70296790503531
 20
122.04313494361141
 30
0.0
 41
0.05
 42
0.05
 43
0.05
 50
180.0
  0
TEXT
  5
8AF
  8
0
  6
BYBLOCK
 62
     7
 10
153.14776654915551
 20
122.0831349436114
 30
0.0
 40
0.08
  1
0.25
 72
     1
 11
153.26109988248891
 21
122.1231349436115
 31
0.0
 73
     2
  0
POINT
  5
8B0
  8
DEFPOINTS
  6
BYBLOCK
 62
     0
 10
153.45296790503531
 20
122.37956309648629
 30
0.0
  0
POINT
  5
8B1
  8
DEFPOINTS
  6
BYBLOCK
 62
     0
 10
153.70296790503531
 20
122.3767412612234
 30
0.0
  0
POINT
  5
8B2
  8
DEFPOINTS
  6
BYBLOCK
 62
     0
 10
153.70296790503531
 20
122.04313494361141
 30
0.0
  0
ENDBLK
  5
8B4
  8
0
  0
BLOCK
  8
0
  2
*D16
 70
     1
 10
0.0
 20
0.0
 30
0.0
  3
*D16
  1

  0
LINE
  5
8B6
  8
0
  6
BYBLOCK
 62
    71
 10
153.70296790503531
 20
122.2967412612234
 30
0.0
 11
153.70296790503531
 21
121.96313494361149
 31
0.0
  0
LINE
  5
8B7
  8
0
  6
BYBLOCK
 62
    71
 10
155.5029679050354
 20
122.3002093719615
 30
0.0
 11
155.5029679050354
 21
121.96313494361149
 31
0.0
  0
LINE
  5
8B8
  8
0
  6
BYBLOCK
 62
    71
 10
153.7529679050354
 20
122.04313494361141
 30
0.0
 11
155.45296790503539
 21
122.04313494361141
 31
0.0
  0
INSERT
  5
8B9
  8
0
  6
BYBLOCK
 62
    71
  2
TICK
 10
153.70296790503531
 20
122.04313494361141
 30
0.0
 41
0.05
 42
0.05
 43
0.05
 50
180.0
  0
INSERT
  5
8BA
  8
0
  6
BYBLOCK
 62
    71
  2
TICK
 10
155.5029679050354
 20
122.04313494361141
 30
0.0
 41
0.05
 42
0.05
 43
0.05
  0
TEXT
  5
8BB
  8
0
  6
BYBLOCK
 62
     7
 10
154.5029679050354
 20
122.0831349436114
 30
0.0
 40
0.08
  1
1.80
 72
     1
 11
154.6029679050354
 21
122.1231349436115
 31
0.0
 73
     2
  0
POINT
  5
8BC
  8
DEFPOINTS
  6
BYBLOCK
 62
     0
 10
153.70296790503531
 20
122.3767412612234
 30
0.0
  0
POINT
  5
8BD
  8
DEFPOINTS
  6
BYBLOCK
 62
     0
 10
155.5029679050354
 20
122.3802093719615
 30
0.0
  0
POINT
  5
8BE
  8
DEFPOINTS
  6
BYBLOCK
 62
     0
 10
155.5029679050354
 20
122.04313494361141
 30
0.0
  0
ENDBLK
  5
8C0
  8
0
  0
BLOCK
  8
0
  2
*D17
 70
     1
 10
0.0
 20
0.0
 30
0.0
  3
*D17
  1

  0
LINE
  5
8C2
  8
0
  6
BYBLOCK
 62
    71
 10
155.5029679050354
 20
122.3002093719615
 30
0.0
 11
155.5029679050354
 21
121.96313494361149
 31
0.0
  0
LINE
  5
8C3
  8
0
  6
BYBLOCK
 62
    71
 10
155.7529679050354
 20
122.2995630964863
 30
0.0
 11
155.7529679050354
 21
121.96313494361149
 31
0.0
  0
LINE
  5
8C4
  8
0
  6
BYBLOCK
 62
    71
 10
155.45296790503539
 20
122.04313494361141
 30
0.0
 11
155.40296790503541
 21
122.04313494361141
 31
0.0
  0
LINE
  5
8C5
  8
0
  6
BYBLOCK
 62
    71
 10
155.8029679050353
 20
122.04313494361141
 30
0.0
 11
155.85296790503531
 21
122.04313494361141
 31
0.0
  0
INSERT
  5
8C6
  8
0
  6
BYBLOCK
 62
    71
  2
TICK
 10
155.5029679050354
 20
122.04313494361141
 30
0.0
 41
0.05
 42
0.05
 43
0.05
  0
INSERT
  5
8C7
  8
0
  6
BYBLOCK
 62
    71
  2
TICK
 10
155.7529679050354
 20
122.04313494361141
 30
0.0
 41
0.05
 42
0.05
 43
0.05
 50
180.0
  0
TEXT
  5
8C8
  8
0
  6
BYBLOCK
 62
     7
 10
155.8465484414474
 20
122.0831349436114
 30
0.0
 40
0.08
  1
0.25
 72
     1
 11
155.95988177478071
 21
122.1231349436115
 31
0.0
 73
     2
  0
POINT
  5
8C9
  8
DEFPOINTS
  6
BYBLOCK
 62
     0
 10
155.5029679050354
 20
122.3802093719615
 30
0.0
  0
POINT
  5
8CA
  8
DEFPOINTS
  6
BYBLOCK
 62
     0
 10
155.7529679050354
 20
122.37956309648629
 30
0.0
  0
POINT
  5
8CB
  8
DEFPOINTS
  6
BYBLOCK
 62
     0
 10
155.7529679050354
 20
122.04313494361141
 30
0.0
  0
ENDBLK
  5
8CD
  8
0
  0
BLOCK
  8
0
  2
*D18
 70
     1
 10
0.0
 20
0.0
 30
0.0
  3
*D18
  1

  0
LINE
  5
8CF
  8
0
  6
BYBLOCK
 62
    71
 10
155.83296790503539
 20
122.37956309648629
 30
0.0
 11
156.23107267077759
 21
122.37956309648629
 31
0.0
  0
LINE
  5
8D0
  8
0
  6
BYBLOCK
 62
    71
 10
155.83383076986391
 20
122.67956309648631
 30
0.0
 11
156.23107267077759
 21
122.67956309648631
 31
0.0
  0
LINE
  5
8D1
  8
0
  6
BYBLOCK
 62
    71
 10
156.15107267077761
 20
122.42956309648631
 30
0.0
 11
156.15107267077761
 21
122.62956309648629
 31
0.0
  0
INSERT
  5
8D2
  8
0
  6
BYBLOCK
 62
    71
  2
TICK
 10
156.15107267077761
 20
122.37956309648629
 30
0.0
 41
0.05
 42
0.05
 43
0.05
 50
270.0
  0
INSERT
  5
8D3
  8
0
  6
BYBLOCK
 62
    71
  2
TICK
 10
156.15107267077761
 20
122.67956309648631
 30
0.0
 41
0.05
 42
0.05
 43
0.05
 50
90.0
  0
TEXT
  5
8D4
  8
0
  6
BYBLOCK
 62
     7
 10
156.11107267077759
 20
122.426863623489
 30
0.0
 40
0.08
  1
0.30
 50
90.0
 72
     1
 11
156.0710726707776
 21
122.5335302901557
 31
0.0
 73
     2
  0
POINT
  5
8D5
  8
DEFPOINTS
  6
BYBLOCK
 62
     0
 10
155.7529679050354
 20
122.37956309648629
 30
0.0
  0
POINT
  5
8D6
  8
DEFPOINTS
  6
BYBLOCK
 62
     0
 10
155.7538307698639
 20
122.67956309648631
 30
0.0
  0
POINT
  5
8D7
  8
DEFPOINTS
  6
BYBLOCK
 62
     0
 10
156.15107267077761
 20
122.67956309648631
 30
0.0
  0
ENDBLK
  5
8D9
  8
0
  0
BLOCK
  8
0
  2
*D19
 70
     1
 10
0.0
 20
0.0
 30
0.0
  3
*D19
  1

  0
LINE
  5
8DB
  8
0
  6
BYBLOCK
 62
    71
 10
155.83383076986391
 20
122.67956309648631
 30
0.0
 11
156.23107267077759
 21
122.67956309648631
 31
0.0
  0
LINE
  5
8DC
  8
0
  6
BYBLOCK
 62
    71
 10
155.83383076986391
 20
123.5795630964863
 30
0.0
 11
156.23107267077759
 21
123.5795630964863
 31
0.0
  0
LINE
  5
8DD
  8
0
  6
BYBLOCK
 62
    71
 10
156.15107267077761
 20
122.7295630964863
 30
0.0
 11
156.15107267077761
 21
123.5295630964863
 31
0.0
  0
INSERT
  5
8DE
  8
0
  6
BYBLOCK
 62
    71
  2
TICK
 10
156.15107267077761
 20
122.67956309648631
 30
0.0
 41
0.05
 42
0.05
 43
0.05
 50
270.0
  0
INSERT
  5
8DF
  8
0
  6
BYBLOCK
 62
    71
  2
TICK
 10
156.15107267077761
 20
123.5795630964863
 30
0.0
 41
0.05
 42
0.05
 43
0.05
 50
90.0
  0
TEXT
  5
8E0
  8
0
  6
BYBLOCK
 62
     7
 10
156.11107267077759
 20
123.0228964298196
 30
0.0
 40
0.08
  1
0.90
 50
90.0
 72
     1
 11
156.0710726707776
 21
123.12956309648629
 31
0.0
 73
     2
  0
POINT
  5
8E1
  8
DEFPOINTS
  6
BYBLOCK
 62
     0
 10
155.7538307698639
 20
122.67956309648631
 30
0.0
  0
POINT
  5
8E2
  8
DEFPOINTS
  6
BYBLOCK
 62
     0
 10
155.7538307698639
 20
123.5795630964863
 30
0.0
  0
POINT
  5
8E3
  8
DEFPOINTS
  6
BYBLOCK
 62
     0
 10
156.15107267077761
 20
123.5795630964863
 30
0.0
  0
ENDBLK
  5
8E5
  8
0
  0
BLOCK
  8
0
  2
*D20
 70
     1
 10
0.0
 20
0.0
 30
0.0
  3
*D20
  1

  0
LINE
  5
8E7
  8
0
  6
BYBLOCK
 62
    71
 10
155.83383076986391
 20
123.5795630964863
 30
0.0
 11
156.23107267077759
 21
123.5795630964863
 31
0.0
  0
LINE
  5
8E8
  8
0
  6
BYBLOCK
 62
    71
 10
155.39825697378521
 20
124.4795630964863
 30
0.0
 11
156.23107267077759
 21
124.4795630964863
 31
0.0
  0
LINE
  5
8E9
  8
0
  6
BYBLOCK
 62
    71
 10
156.15107267077761
 20
123.62956309648629
 30
0.0
 11
156.15107267077761
 21
124.42956309648631
 31
0.0
  0
INSERT
  5
8EA
  8
0
  6
BYBLOCK
 62
    71
  2
TICK
 10
156.15107267077761
 20
123.5795630964863
 30
0.0
 41
0.05
 42
0.05
 43
0.05
 50
270.0
  0
INSERT
  5
8EB
  8
0
  6
BYBLOCK
 62
    71
  2
TICK
 10
156.15107267077761
 20
124.4795630964863
 30
0.0
 41
0.05
 42
0.05
 43
0.05
 50
90.0
  0
TEXT
  5
8EC
  8
0
  6
BYBLOCK
 62
     7
 10
156.11107267077759
 20
123.9228964298196
 30
0.0
 40
0.08
  1
0.90
 50
90.0
 72
     1
 11
156.0710726707776
 21
124.0295630964862
 31
0.0
 73
     2
  0
POINT
  5
8ED
  8
DEFPOINTS
  6
BYBLOCK
 62
     0
 10
155.7538307698639
 20
123.5795630964863
 30
0.0
  0
POINT
  5
8EE
  8
DEFPOINTS
  6
BYBLOCK
 62
     0
 10
155.31825697378531
 20
124.4795630964863
 30
0.0
  0
POINT
  5
8EF
  8
DEFPOINTS
  6
BYBLOCK
 62
     0
 10
156.15107267077761
 20
124.4795630964863
 30
0.0
  0
ENDBLK
  5
8F1
  8
0
  0
BLOCK
  8
0
  2
*D21
 70
     1
 10
0.0
 20
0.0
 30
0.0
  3
*D21
  1

  0
LINE
  5
8F3
  8
0
  6
BYBLOCK
 62
    71
 10
155.39825697378521
 20
124.4795630964863
 30
0.0
 11
156.23107267077759
 21
124.4795630964863
 31
0.0
  0
LINE
  5
8F4
  8
0
  6
BYBLOCK
 62
    71
 10
154.8518573287063
 20
124.7295630964863
 30
0.0
 11
156.23107267077759
 21
124.7295630964863
 31
0.0
  0
LINE
  5
8F5
  8
0
  6
BYBLOCK
 62
    71
 10
156.15107267077761
 20
124.42956309648631
 30
0.0
 11
156.15107267077761
 21
124.37956309648629
 31
0.0
  0
LINE
  5
8F6
  8
0
  6
BYBLOCK
 62
    71
 10
156.15107267077761
 20
124.7795630964863
 30
0.0
 11
156.15107267077761
 21
124.8295630964862
 31
0.0
  0
INSERT
  5
8F7
  8
0
  6
BYBLOCK
 62
    71
  2
TICK
 10
156.15107267077761
 20
124.4795630964863
 30
0.0
 41
0.05
 42
0.05
 43
0.05
 50
90.0
  0
INSERT
  5
8F8
  8
0
  6
BYBLOCK
 62
    71
  2
TICK
 10
156.15107267077761
 20
124.7295630964863
 30
0.0
 41
0.05
 42
0.05
 43
0.05
 50
270.0
  0
TEXT
  5
8F9
  8
0
  6
BYBLOCK
 62
     7
 10
156.11107267077759
 20
124.8315945057487
 30
0.0
 40
0.08
  1
0.25
 50
90.0
 72
     1
 11
156.0710726707776
 21
124.944927839082
 31
0.0
 73
     2
  0
POINT
  5
8FA
  8
DEFPOINTS
  6
BYBLOCK
 62
     0
 10
155.31825697378531
 20
124.4795630964863
 30
0.0
  0
POINT
  5
8FB
  8
DEFPOINTS
  6
BYBLOCK
 62
     0
 10
154.77185732870629
 20
124.7295630964863
 30
0.0
  0
POINT
  5
8FC
  8
DEFPOINTS
  6
BYBLOCK
 62
     0
 10
156.15107267077761
 20
124.7295630964863
 30
0.0
  0
ENDBLK
  5
8FE
  8
0
  0
BLOCK
  8
0
  2
*D22
 70
     1
 10
0.0
 20
0.0
 30
0.0
  3
*D22
  1

  0
LINE
  5
900
  8
0
  6
BYBLOCK
 62
    71
 10
154.39901546347721
 20
124.4047318074676
 30
0.0
 11
154.5015297473135
 21
123.9899705091762
 31
0.0
  0
LINE
  5
901
  8
0
  6
BYBLOCK
 62
    71
 10
154.5015297473135
 20
123.9899705091762
 30
0.0
 11
154.5975073668701
 21
123.6016558216557
 31
0.0
  0
INSERT
  5
902
  8
0
  6
BYBLOCK
 62
    71
  2
TICK
 10
154.38701826103261
 20
124.45327114340751
 30
0.0
 41
0.05
 42
0.05
 43
0.05
 50
103.8832381077352
  0
TEXT
  5
903
  8
0
  6
BYBLOCK
 62
     7
 10
154.5627559939621
 20
123.9089615107105
 30
0.0
 40
0.08
  1
R0.90
 50
283.88323810773528
 72
     1
 11
154.63677925655159
 21
123.77617722057531
 31
0.0
 73
     2
  0
POINT
  5
904
  8
DEFPOINTS
  6
BYBLOCK
 62
     0
 10
154.38701826103261
 20
124.45327114340751
 30
0.0
  0
POINT
  5
905
  8
DEFPOINTS
  6
BYBLOCK
 62
     0
 10
154.6029679050354
 20
123.5795630964863
 30
0.0
  0
ENDBLK
  5
907
  8
0
  0
BLOCK
  8
0
  2
VILADOMAT
 70
     0
 10
0.0
 20
0.0
 30
0.0
  3
VILADOMAT
  1

  0
DIMENSION
  5
90C
  8
COTES
  2
*D9
 10
-5.8731817866832614
 20
3.7563555602024219
 30
0.0
 11
-5.7298764533016433
 21
3.6483691670110261
 31
0.0
 12
-150.76633571722681
 22
-121.4918615500937
 32
0.0
 70
   128
  3
STANDARD
 13
-6.9616810081547822
 23
3.5063555602024219
 33
0.0
 14
-7.4540829172264012
 24
3.7563555602024219
 34
0.0
 50
90.0
  0
DIMENSION
  5
90D
  8
COTES
  2
*D8
 10
-5.8731817866832614
 20
3.5063555602024219
 30
0.0
 11
-5.9531817866832721
 21
3.0082369406764808
 31
0.0
 12
-150.76633571722681
 22
-121.4918615500937
 32
0.0
  3
STANDARD
 13
-6.461314185190389
 23
2.5101183211505562
 33
0.0
 14
-6.8748135645052733
 24
3.5063555602024219
 34
0.0
 50
90.0
  0
DIMENSION
  5
90E
  8
COTES
  2
*D7
 10
-5.8731817866832614
 20
2.5101183211505562
 30
0.0
 11
-5.9531817866832721
 21
1.7082369406764979
 31
0.0
 12
-150.76633571722681
 22
-121.4918615500937
 32
0.0
  3
STANDARD
 13
-6.461314185190389
 23
0.9063555602024278
 33
0.0
 14
-6.4591867116031372
 24
2.5101183211505562
 34
0.0
 50
90.0
  0
DIMENSION
  5
90F
  8
COTES
  2
*D6
 10
-5.8731817866832614
 20
0.9063555602024278
 30
0.0
 11
-5.7230561904315476
 21
0.7652547808940824
 31
0.0
 12
-150.76633571722681
 22
-121.4918615500937
 32
0.0
 70
   128
  3
STANDARD
 13
-6.4598810163366522
 23
0.6063555602024593
 33
0.0
 14
-6.461314185190389
 24
0.9063555602024278
 34
0.0
 50
90.0
  0
DIMENSION
  5
910
  8
COTES
  2
*D5
 10
-6.4598810163366522
 20
0.2438229595251613
 30
0.0
 11
-6.5689682493722614
 21
0.0632198008316323
 31
0.0
 12
-150.76633571722681
 22
-121.4918615500937
 32
0.0
 70
   128
  3
STANDARD
 13
-6.7098810163366522
 23
0.6070785383869861
 33
0.0
 14
-6.4598810163366522
 24
0.6063555602024593
 34
0.0
  0
ARC
  5
911
  8
SECCIO
 10
-7.7098810163366522
 20
2.506355560202421
 30
0.0
 40
1.25
 50
0.0
 51
180.0
  0
ARC
  5
912
  8
SECCIO
 10
-7.7098810163366522
 20
2.506355560202421
 30
0.0
 40
1.0
 50
0.0000000000007994
 51
179.9999999999992
  0
LINE
  5
913
  8
SECCIO
 10
-6.4598810163366522
 20
0.6063555602024593
 30
0.0
 11
-6.4598810163366522
 21
2.506355560202421
 31
0.0
  0
LINE
  5
914
  8
SECCIO
 10
-8.7098810163366522
 20
2.5063555602024361
 30
0.0
 11
-8.7098810163366522
 21
1.206355560202425
 31
0.0
  0
LINE
  5
915
  8
SECCIO
 10
-6.7098810163366522
 20
0.9063555602024278
 30
0.0
 11
-6.7098810163366522
 21
2.5063555602024361
 31
0.0
  0
LINE
  5
916
  8
SECCIO
 10
-8.9598810163366522
 20
2.506355560202421
 30
0.0
 11
-8.9598810163366522
 21
0.6063555602024593
 31
0.0
  0
LINE
  5
917
  8
SECCIO
 10
-8.9598810163366522
 20
0.6063555602024593
 30
0.0
 11
-6.4598810163366522
 21
0.6063555602024593
 31
0.0
  0
DIMENSION
  5
918
  8
COTES
  2
*D11
 10
-6.7098810163366522
 20
0.2438229595251613
 30
0.0
 11
-7.6806609551676681
 21
0.2404325179864486
 31
0.0
 12
-150.76633571722681
 22
-121.4918615500937
 32
0.0
 70
   128
  3
STANDARD
 13
-8.7098810163366522
 23
0.6045604117168324
 33
0.0
 14
-6.7098810163366522
 24
0.6070785383869861
 34
0.0
  0
DIMENSION
  5
919
  8
COTES
  2
*D10
 10
-7.4897765176043247
 20
1.206355560202425
 30
0.0
 11
-7.5876625343437061
 21
1.0616539919735839
 31
0.0
 12
-150.76633571722681
 22
-121.4918615500937
 32
0.0
 70
   128
  3
STANDARD
 13
-7.7098810163366522
 23
0.9063555602024278
 33
0.0
 14
-7.7098810163366522
 24
1.206355560202425
 34
0.0
 50
90.0
  0
DIMENSION
  5
91A
  8
COTES
  2
*D4
 10
-8.7098810163366522
 20
0.242888937224393
 30
0.0
 11
-8.840095120727625
 21
0.0632198008316323
 31
0.0
 12
-150.76633571722681
 22
-121.4918615500937
 32
0.0
 70
   128
  3
STANDARD
 13
-8.9598810163366522
 23
0.6063555602024593
 33
0.0
 14
-8.7098810163366522
 24
0.6045604117168324
 34
0.0
  0
DIMENSION
  5
91B
  8
COTES
  2
*D3
 10
-7.7098810163366522
 20
2.5063555602024361
 30
0.0
 11
-7.789881016336663
 21
2.781233903197601
 31
0.0
 12
-150.76633571722681
 22
-121.4918615500937
 32
0.0
 70
     4
  3
STANDARD
 15
-7.7098810163366522
 25
3.5063555602024219
 35
0.0
 40
-0.4851216570048282
  0
DIMENSION
  5
91C
  8
COTES
  2
*D2
 10
-6.7098810163366522
 20
1.4303692197340181
 30
0.0
 11
-7.2098810163366522
 21
1.5103692197340151
 31
0.0
 12
-150.76633571722681
 22
-121.4918615500937
 32
0.0
  3
STANDARD
 13
-7.7098810163366522
 23
1.206355560202425
 33
0.0
 14
-6.7098810163366522
 24
0.9063555602024278
 34
0.0
  0
DIMENSION
  5
91D
  8
COTES
  2
*D1
 10
-7.7098810163366522
 20
1.4303692197340181
 30
0.0
 11
-8.2098810163366522
 21
1.5103692197340151
 31
0.0
 12
-150.76633571722681
 22
-121.4918615500937
 32
0.0
  3
STANDARD
 13
-8.7098810163366522
 23
1.206355560202425
 33
0.0
 14
-7.7098810163366522
 24
1.206355560202425
 34
0.0
  0
LINE
  5
91E
  8
SECCIO
 10
-7.7098810163366522
 20
0.9063555602024422
 30
0.0
 11
-6.7098810163366522
 21
0.9063555602024138
 31
0.0
  0
LINE
  5
91F
  8
SECCIO
 10
-7.7098810163366522
 20
1.206355560202425
 30
0.0
 11
-8.7098810163366522
 21
1.206355560202425
 31
0.0
  0
LINE
  5
920
  8
SECCIO
 10
-7.7098810163366522
 20
0.9063555602024278
 30
0.0
 11
-7.7098810163366522
 21
1.206355560202425
 31
0.0
  0
DIMENSION
  5
921
  8
COTES
  2
*D22
 10
-3.3010871391148831
 20
2.0877015463924651
 30
0.0
 11
-3.2672757875985781
 21
2.2843156704815311
 31
0.0
 12
-157.90405504415031
 22
-121.4918615500937
 32
0.0
 70
     4
  3
STANDARD
 15
-3.5170367831175309
 25
2.9614095933138311
 35
0.0
 40
-0.4772424521868898
  0
DIMENSION
  5
922
  8
COTES
  2
*D21
 10
-1.7529823733725891
 20
3.2377015463924712
 30
0.0
 11
-1.8329823733726001
 21
3.453066288988238
 31
0.0
 12
-157.90405504415031
 22
-121.4918615500937
 32
0.0
 70
   128
  3
STANDARD
 13
-2.5857980703650001
 23
2.9877015463924712
 33
0.0
 14
-3.1321977154439642
 24
3.2377015463924712
 34
0.0
 50
90.0
  0
DIMENSION
  5
923
  8
COTES
  2
*D20
 10
-1.7529823733725891
 20
2.9877015463924712
 30
0.0
 11
-1.8329823733726001
 21
2.5377015463924688
 31
0.0
 12
-157.90405504415031
 22
-121.4918615500937
 32
0.0
  3
STANDARD
 13
-2.1502242742863871
 23
2.0877015463924651
 33
0.0
 14
-2.5857980703650001
 24
2.9877015463924712
 34
0.0
 50
90.0
  0
DIMENSION
  5
924
  8
COTES
  2
*D19
 10
-1.7529823733725891
 20
2.0877015463924651
 30
0.0
 11
-1.8329823733726001
 21
1.6377015463924629
 31
0.0
 12
-157.90405504415031
 22
-121.4918615500937
 32
0.0
  3
STANDARD
 13
-2.1502242742863871
 23
1.1877015463924601
 33
0.0
 14
-2.1502242742863871
 24
2.0877015463924651
 34
0.0
 50
90.0
  0
DIMENSION
  5
925
  8
COTES
  2
*D18
 10
-1.7529823733725891
 20
1.1877015463924601
 30
0.0
 11
-1.8329823733726001
 21
1.041668740061922
 31
0.0
 12
-157.90405504415031
 22
-121.4918615500937
 32
0.0
 70
   128
  3
STANDARD
 13
-2.1510871391149049
 23
0.8877015463924634
 33
0.0
 14
-2.1502242742863871
 24
1.1877015463924601
 34
0.0
 50
90.0
  0
DIMENSION
  5
926
  8
COTES
  2
*D17
 10
-2.1510871391149049
 20
0.5512733935177039
 30
0.0
 11
-1.9441732693694289
 21
0.6312733935177022
 31
0.0
 12
-157.90405504415031
 22
-121.4918615500937
 32
0.0
 70
   128
  3
STANDARD
 13
-2.4010871391148769
 23
0.8883478218676684
 33
0.0
 14
-2.1510871391149049
 24
0.8877015463924634
 34
0.0
  0
DIMENSION
  5
927
  8
COTES
  2
*D16
 10
-2.4010871391148769
 20
0.5512733935177039
 30
0.0
 11
-3.3010871391148831
 21
0.6312733935177022
 31
0.0
 12
-157.90405504415031
 22
-121.4918615500937
 32
0.0
  3
STANDARD
 13
-4.2010871391148878
 23
0.884879711129585
 33
0.0
 14
-2.4010871391148769
 24
0.8883478218676684
 34
0.0
  0
DIMENSION
  5
928
  8
COTES
  2
*D15
 10
-4.2010871391148878
 20
0.5512733935177039
 30
0.0
 11
-4.6429551616613747
 21
0.6312733935177022
 31
0.0
 12
-157.90405504415031
 22
-121.4918615500937
 32
0.0
 70
   128
  3
STANDARD
 13
-4.4510871391148612
 23
0.8877015463924634
 33
0.0
 14
-4.2010871391148878
 24
0.884879711129585
 34
0.0
  0
DIMENSION
  5
929
  8
COTES
  2
*D14
 10
-2.90420560404803
 20
1.487701546392443
 30
0.0
 11
-2.9842056040480411
 21
1.3467140493034699
 31
0.0
 12
-157.90405504415031
 22
-121.4918615500937
 32
0.0
 70
   128
  3
STANDARD
 13
-3.2010871391148878
 23
1.1877015463924601
 33
0.0
 14
-3.2010871391148878
 24
1.487701546392443
 34
0.0
 50
90.0
  0
DIMENSION
  5
92A
  8
COTES
  2
*D13
 10
-2.4010871391148769
 20
1.7569179417357781
 30
0.0
 11
-2.8010871391148831
 21
1.836917941735777
 31
0.0
 12
-157.90405504415031
 22
-121.4918615500937
 32
0.0
  3
STANDARD
 13
-3.2010871391148878
 23
1.487701546392443
 33
0.0
 14
-2.4010871391148769
 24
1.1877015463924601
 34
0.0
  0
DIMENSION
  5
92B
  8
COTES
  2
*D12
 10
-3.2010871391148878
 20
1.7569179417357781
 30
0.0
 11
-3.7010871391148878
 21
1.836917941735777
 31
0.0
 12
-157.90405504415031
 22
-121.4918615500937
 32
0.0
  3
STANDARD
 13
-4.2010871391148878
 23
1.4877015463924561
 33
0.0
 14
-3.2010871391148878
 24
1.487701546392443
 34
0.0
  0
LINE
  5
92C
  8
SECCIO
 10
-3.2010871391148878
 20
1.1877015463924601
 30
0.0
 11
-3.2010871391148878
 21
1.487701546392443
 31
0.0
  0
LINE
  5
92D
  8
SECCIO
 10
-4.2010871391148878
 20
1.4877015463924561
 30
0.0
 11
-3.2010871391148878
 21
1.487701546392443
 31
0.0
  0
LINE
  5
92E
  8
SECCIO
 10
-4.4510871391148612
 20
0.8877015463924634
 30
0.0
 11
-4.4510871391148878
 21
2.0877015463924651
 31
0.0
  0
ARC
  5
92F
  8
SECCIO
 10
-3.3010871391148831
 20
2.0877015463924651
 30
0.0
 40
1.150000000000005
 50
0.0
 51
180.0
  0
LINE
  5
930
  8
SECCIO
 10
-2.1510871391149049
 20
0.8877015463924634
 30
0.0
 11
-2.1510871391148778
 21
2.0877015463924651
 31
0.0
  0
LINE
  5
931
  8
SECCIO
 10
-3.2010871391148878
 20
1.1877015463924601
 30
0.0
 11
-2.4010871391148769
 21
1.1877015463924601
 31
0.0
  0
ARC
  5
932
  8
SECCIO
 10
-3.3010871391148831
 20
2.0877015463924651
 30
0.0
 40
0.9000000000000055
 50
0.0
 51
180.0
  0
LINE
  5
933
  8
SECCIO
 10
-4.2010871391148878
 20
1.4877015463924561
 30
0.0
 11
-4.2010871391148878
 21
2.0877015463924651
 31
0.0
  0
LINE
  5
934
  8
SECCIO
 10
-2.4010871391148769
 20
1.1877015463924601
 30
0.0
 11
-2.4010871391148769
 21
2.0877015463924651
 31
0.0
  0
LINE
  5
935
  8
SECCIO
 10
-4.4510871391148612
 20
0.8877015463924634
 30
0.0
 11
-2.1510871391149049
 21
0.8877015463924634
 31
0.0
  0
ENDBLK
  5
937
  8
0
  0
BLOCK
  8
0
  2
*D24
 70
     1
 10
0.0
 20
0.0
 30
0.0
  3
*D24
  1

  0
LINE
  5
FDA
  8
0
 62
     0
 10
323.0126124344323
 20
34.31542667550309
 30
0.0
 11
323.0126124344323
 21
34.020665815681831
 31
0.0
  0
LINE
  5
FDB
  8
0
 62
     0
 10
323.71261243443251
 20
34.31542667550309
 30
0.0
 11
323.71261243443251
 21
34.020665815681831
 31
0.0
  0
LINE
  5
FDC
  8
0
 62
     0
 10
323.16261243443239
 20
34.035665815681831
 30
0.0
 11
323.56261243443242
 21
34.035665815681831
 31
0.0
  0
SOLID
  5
FDD
  8
0
 62
     0
 10
323.16261243443239
 20
34.06066581568183
 30
0.0
 11
323.16261243443239
 21
34.010665815681833
 31
0.0
 12
323.0126124344323
 22
34.035665815681831
 32
0.0
 13
323.0126124344323
 23
34.035665815681831
 33
0.0
  0
SOLID
  5
FDE
  8
0
 62
     0
 10
323.56261243443242
 20
34.06066581568183
 30
0.0
 11
323.56261243443242
 21
34.010665815681833
 31
0.0
 12
323.71261243443251
 22
34.035665815681831
 32
0.0
 13
323.71261243443251
 23
34.035665815681831
 33
0.0
  0
TEXT
  5
FDF
  8
0
 62
     0
 10
323.23761243443238
 20
34.073165815681847
 30
0.0
 40
0.075
  1
0.70
  7
ROMANC
  0
POINT
  5
FE0
  8
DEFPOINTS
 62
     0
 10
323.0126124344323
 20
34.330426675503091
 30
0.0
  0
POINT
  5
FE1
  8
DEFPOINTS
 62
     0
 10
323.71261243443251
 20
34.330426675503091
 30
0.0
  0
POINT
  5
FE2
  8
DEFPOINTS
 62
     0
 10
323.71261243443251
 20
34.035665815681831
 30
0.0
  0
ENDBLK
  5
FE4
  8
0
  0
BLOCK
  8
0
  2
*D25
 70
     1
 10
0.0
 20
0.0
 30
0.0
  3
*D25
  1

  0
LINE
  5
FE7
  8
0
 62
     0
 10
323.06261243443248
 20
35.330426675503091
 30
0.0
 11
323.6626124344325
 21
35.330426675503091
 31
0.0
  0
SOLID
  5
FE8
  8
0
 62
     0
 10
323.06261243443248
 20
35.355426675503089
 30
0.0
 11
323.06261243443248
 21
35.305426675503092
 31
0.0
 12
322.91261243443239
 22
35.330426675503091
 32
0.0
 13
322.91261243443239
 23
35.330426675503091
 33
0.0
  0
SOLID
  5
FE9
  8
0
 62
     0
 10
323.6626124344325
 20
35.355426675503089
 30
0.0
 11
323.6626124344325
 21
35.305426675503092
 31
0.0
 12
323.81261243443242
 22
35.330426675503091
 32
0.0
 13
323.81261243443242
 23
35.330426675503091
 33
0.0
  0
TEXT
  5
FEA
  8
0
 62
     0
 10
323.23761243443238
 20
35.367926675503092
 30
0.0
 40
0.075
  1
0.90
  7
ROMANC
  0
POINT
  5
FEB
  8
DEFPOINTS
 62
     0
 10
322.91261243443239
 20
35.330426675503091
 30
0.0
  0
POINT
  5
FEC
  8
DEFPOINTS
 62
     0
 10
323.81261243443242
 20
35.330426675503091
 30
0.0
  0
POINT
  5
FED
  8
DEFPOINTS
 62
     0
 10
323.81261243443242
 20
35.330426675503091
 30
0.0
  0
ENDBLK
  5
FEF
  8
0
  0
BLOCK
  8
0
  2
*D26
 70
     1
 10
0.0
 20
0.0
 30
0.0
  3
*D26
  1

  0
LINE
  5
FF2
  8
0
 62
     0
 10
323.7276124344325
 20
34.330426675503091
 30
0.0
 11
324.03416807738739
 21
34.330426675503091
 31
0.0
  0
LINE
  5
FF3
  8
0
 62
     0
 10
323.82761243443241
 20
35.330426675503091
 30
0.0
 11
324.03416807738739
 21
35.330426675503091
 31
0.0
  0
LINE
  5
FF4
  8
0
 62
     0
 10
324.01916807738729
 20
34.480426675503089
 30
0.0
 11
324.01916807738729
 21
35.180426675503092
 31
0.0
  0
SOLID
  5
FF5
  8
0
 62
     0
 10
323.99416807738749
 20
34.480426675503089
 30
0.0
 11
324.04416807738733
 21
34.480426675503089
 31
0.0
 12
324.01916807738729
 22
34.330426675503091
 32
0.0
 13
324.01916807738729
 23
34.330426675503091
 33
0.0
  0
SOLID
  5
FF6
  8
0
 62
     0
 10
323.99416807738749
 20
35.180426675503092
 30
0.0
 11
324.04416807738733
 21
35.180426675503092
 31
0.0
 12
324.01916807738729
 22
35.330426675503091
 32
0.0
 13
324.01916807738729
 23
35.330426675503091
 33
0.0
  0
TEXT
  5
FF7
  8
0
 62
     0
 10
323.98166807738738
 20
34.710783818360277
 30
0.0
 40
0.075
  1
1.00
 50
90.0
  7
ROMANC
  0
POINT
  5
FF8
  8
DEFPOINTS
 62
     0
 10
323.71261243443251
 20
34.330426675503091
 30
0.0
  0
POINT
  5
FF9
  8
DEFPOINTS
 62
     0
 10
323.81261243443242
 20
35.330426675503091
 30
0.0
  0
POINT
  5
FFA
  8
DEFPOINTS
 62
     0
 10
324.01916807738729
 20
35.330426675503091
 30
0.0
  0
ENDBLK
  5
FFC
  8
0
  0
BLOCK
  8
0
  2
*D27
 70
     1
 10
0.0
 20
0.0
 30
0.0
  3
*D27
  1

  0
LINE
  5
FFF
  8
0
 62
     0
 10
323.39844317542833
 20
35.979030849178137
 30
0.0
 11
324.29339277114792
 21
35.979030849178137
 31
0.0
  0
LINE
  5
1000
  8
0
 62
     0
 10
323.7276124344325
 20
34.330426675503091
 30
0.0
 11
324.29339277114792
 21
34.330426675503091
 31
0.0
  0
LINE
  5
1001
  8
0
 62
     0
 10
324.27839277114811
 20
35.82903084917816
 30
0.0
 11
324.27839277114811
 21
34.480426675503089
 31
0.0
  0
SOLID
  5
1002
  8
0
 62
     0
 10
324.25339277114813
 20
35.82903084917816
 30
0.0
 11
324.30339277114808
 21
35.82903084917816
 31
0.0
 12
324.27839277114811
 22
35.979030849178137
 32
0.0
 13
324.27839277114811
 23
35.979030849178137
 33
0.0
  0
SOLID
  5
1003
  8
0
 62
     0
 10
324.25339277114813
 20
34.480426675503089
 30
0.0
 11
324.30339277114808
 21
34.480426675503089
 31
0.0
 12
324.27839277114811
 22
34.330426675503091
 32
0.0
 13
324.27839277114811
 23
34.330426675503091
 33
0.0
  0
TEXT
  5
1004
  8
0
 62
     0
 10
324.24089277114808
 20
35.035085905197811
 30
0.0
 40
0.075
  1
1.65
 50
90.0
  7
ROMANC
  0
POINT
  5
1005
  8
DEFPOINTS
 62
     0
 10
323.3834431754284
 20
35.979030849178137
 30
0.0
  0
POINT
  5
1006
  8
DEFPOINTS
 62
     0
 10
323.71261243443251
 20
34.330426675503091
 30
0.0
  0
POINT
  5
1007
  8
DEFPOINTS
 62
     0
 10
324.27839277114811
 20
34.330426675503091
 30
0.0
  0
ENDBLK
  5
1009
  8
0
  0
ENDSEC
  0
SECTION
  2
ENTITIES
  0
TEXT
  5
2A
  8
0
 10
321.7731487472426
 20
42.309482000000003
 30
0.0
 40
0.3
  1
TIPUS   NT126D
  7
ROMANC
  0
TEXT
  5
2D
  8
0
 10
321.7819632635875
 20
40.496460447924562
 30
0.0
 40
0.3
  1
P = 44,5 dm
  7
ROMANC
  0
TEXT
  5
2E
  8
0
 10
321.76027798308689
 20
41.105813329174069
 30
0.0
 40
0.3
  1
S = 126 dm
  7
ROMANC
  0
TEXT
  5
2F
  8
0
 10
321.7731487472426
 20
41.70440332917407
 30
0.0
 40
0.3
  1
ESCALA  1:50
  7
ROMANC
  0
TEXT
  5
30
  8
0
 10
324.93560928566183
 20
41.411729329174072
 30
0.0
 40
0.1
  1
2
  7
ROMANC
  0
POLYLINE
  5
ED8
  8
0
 66
     1
 10
0.0
 20
0.0
 30
0.0
 70
     1
  0
VERTEX
  5
1029
  8
0
 10
329.34869600000002
 20
29.86362299999999
 30
0.0
  0
VERTEX
  5
102A
  8
0
 10
329.34869600000002
 20
44.713622999999998
 30
0.0
  0
VERTEX
  5
102B
  8
0
 10
318.84869600000002
 20
44.713622999999998
 30
0.0
  0
VERTEX
  5
102C
  8
0
 10
318.84869600000002
 20
29.86362299999999
 30
0.0
  0
SEQEND
  5
102D
  8
0
  0
POLYLINE
  5
FD5
  8
0
 66
     1
 10
0.0
 20
0.0
 30
0.0
 70
     1
  0
VERTEX
  5
102E
  8
0
 10
323.0126124344323
 20
34.330426675503091
 30
0.0
  0
VERTEX
  5
102F
  8
0
 10
322.91261243443239
 20
35.330426675503091
 30
0.0
  0
VERTEX
  5
1030
  8
0
 10
322.91673039300912
 20
35.418160537090429
 30
0.0
  0
VERTEX
  5
1031
  8
0
 10
322.93537895798067
 20
35.534556659061813
 30
0.0
  0
VERTEX
  5
1032
  8
0
 10
322.96592051791902
 20
35.637300668423642
 30
0.0
  0
VERTEX
  5
1033
  8
0
 10
323.00630081475123
 20
35.727430936075649
 30
0.0
  0
VERTEX
  5
1034
  8
0
 10
323.06084090746799
 20
35.812607124177497
 30
0.0
  0
VERTEX
  5
1035
  8
0
 10
323.11565818258458
 20
35.873802020124288
 30
0.0
  0
VERTEX
  5
1036
  8
0
 10
323.18300699644902
 20
35.926409926192598
 30
0.0
  0
VERTEX
  5
1037
  8
0
 10
323.25328964082519
 20
35.96095360611961
 30
0.0
  0
VERTEX
  5
1038
  8
0
 10
323.32933481335431
 20
35.978646930224137
 30
0.0
  0
VERTEX
  5
1039
  8
0
 10
323.36261243443761
 20
35.980426675503089
 30
0.0
  0
VERTEX
  5
103A
  8
0
 10
323.40427391641907
 20
35.977635022853228
 30
0.0
  0
VERTEX
  5
103B
  8
0
 10
323.47476166381489
 20
35.959917073050597
 30
0.0
  0
VERTEX
  5
103C
  8
0
 10
323.54772684775412
 20
35.922882523967139
 30
0.0
  0
VERTEX
  5
103D
  8
0
 10
323.60834484193759
 20
35.874956529114478
 30
0.0
  0
VERTEX
  5
103E
  8
0
 10
323.67218432152492
 20
35.802177115596791
 30
0.0
  0
VERTEX
  5
103F
  8
0
 10
323.71677483745179
 20
35.731423268829261
 30
0.0
  0
VERTEX
  5
1040
  8
0
 10
323.75699924025338
 20
35.643438311181171
 30
0.0
  0
VERTEX
  5
1041
  8
0
 10
323.78754452102669
 20
35.54434456621442
 30
0.0
  0
VERTEX
  5
1042
  8
0
 10
323.80625730512742
 20
35.439280958626931
 30
0.0
  0
VERTEX
  5
1043
  8
0
 10
323.81261243443242
 20
35.330426675503091
 30
0.0
  0
VERTEX
  5
1044
  8
0
 10
323.71261243443251
 20
34.330426675503091
 30
0.0
  0
SEQEND
  5
1045
  8
0
  0
DIMENSION
  5
FD8
  8
0
  2
*D24
 10
323.71261243443251
 20
34.035665815681831
 30
0.0
 11
323.36261243443249
 21
34.110665815681848
 31
0.0
 70
     0
 13
323.0126124344323
 23
34.330426675503091
 33
0.0
 14
323.71261243443251
 24
34.330426675503091
 34
0.0
1001
ACAD
1000
DSTYLE
1002
{
1070
   141
1040
0.0
1070
   147
1040
0.025
1002
}
  0
DIMENSION
  5
FE5
  8
0
  2
*D25
 10
323.81261243443242
 20
35.330426675503091
 30
0.0
 11
323.36261243443249
 21
35.405426675503087
 31
0.0
 70
     0
 13
322.91261243443239
 23
35.330426675503091
 33
0.0
 14
323.81261243443242
 24
35.330426675503091
 34
0.0
1001
ACAD
1000
DSTYLE
1002
{
1070
   141
1040
0.0
1070
   147
1040
0.025
1002
}
  0
DIMENSION
  5
FF0
  8
0
  2
*D26
 10
324.01916807738729
 20
35.330426675503091
 30
0.0
 11
323.94416807738742
 21
34.830426675503141
 31
0.0
 70
     0
 13
323.71261243443251
 23
34.330426675503091
 33
0.0
 14
323.81261243443242
 24
35.330426675503091
 34
0.0
 50
90.0
1001
ACAD
1000
DSTYLE
1002
{
1070
   141
1040
0.0
1070
   147
1040
0.025
1002
}
  0
DIMENSION
  5
FFD
  8
0
  2
*D27
 10
324.27839277114811
 20
34.330426675503091
 30
0.0
 11
324.20339277114812
 21
35.154728762340667
 31
0.0
 70
     0
 13
323.3834431754284
 23
35.979030849178137
 33
0.0
 14
323.71261243443251
 24
34.330426675503091
 34
0.0
 50
90.0
1001
ACAD
1000
DSTYLE
1002
{
1070
   141
1040
0.0
1070
   147
1040
0.025
1002
}
  0
POLYLINE
  5
100A
  8
0
 66
     1
 10
0.0
 20
0.0
 30
0.0
 70
     1
  0
VERTEX
  5
1046
  8
0
 10
323.00582502771641
 20
34.322926675503091
 30
0.0
  0
VERTEX
  5
1047
  8
0
 10
322.9050948659733
 20
35.330228292935672
 30
0.0
  0
VERTEX
  5
1048
  8
0
 10
322.90925834696282
 20
35.418932017866851
 30
0.0
  0
VERTEX
  5
1049
  8
0
 10
322.92805067807609
 20
35.53622546471987
 30
0.0
  0
VERTEX
  5
104A
  8
0
 10
322.95887295519759
 20
35.63991382692253
 30
0.0
  0
VERTEX
  5
104B
  8
0
 10
322.99968419298972
 20
35.731005970219591
 30
0.0
  0
VERTEX
  5
104C
  8
0
 10
323.05485094251281
 20
35.817160818887352
 30
0.0
  0
VERTEX
  5
104D
  8
0
 10
323.11051628713858
 20
35.87930245152026
 30
0.0
  0
VERTEX
  5
104E
  8
0
 10
323.17900197754051
 20
35.932798401351398
 30
0.0
  0
VERTEX
  5
104F
  8
0
 10
323.25075282586158
 20
35.968063698508239
 30
0.0
  0
VERTEX
  5
1050
  8
0
 10
323.32827663793307
 20
35.986101055610341
 30
0.0
  0
VERTEX
  5
1051
  8
0
 10
323.36266306494713
 20
35.987940101766462
 30
0.0
  0
VERTEX
  5
1052
  8
0
 10
323.40544822274558
 20
35.985073153845711
 30
0.0
  0
VERTEX
  5
1053
  8
0
 10
323.477405952693
 20
35.966985706108737
 30
0.0
  0
VERTEX
  5
1054
  8
0
 10
323.5517900749166
 20
35.929230954091423
 30
0.0
  0
VERTEX
  5
1055
  8
0
 10
323.61353244826529
 20
35.880415998942212
 30
0.0
  0
VERTEX
  5
1056
  8
0
 10
323.67821339831539
 20
35.806677277373097
 30
0.0
  0
VERTEX
  5
1057
  8
0
 10
323.72338729140182
 20
35.734997758917451
 30
0.0
  0
VERTEX
  5
1058
  8
0
 10
323.7640228841218
 20
35.6461133838744
 30
0.0
  0
VERTEX
  5
1059
  8
0
 10
323.79484750464258
 20
35.54611341637542
 30
0.0
  0
VERTEX
  5
105A
  8
0
 10
323.81371874798327
 20
35.440160133617127
 30
0.0
  0
VERTEX
  5
105B
  8
0
 10
323.82013428642648
 20
35.330271128284679
 30
0.0
  0
VERTEX
  5
105C
  8
0
 10
323.7193998411484
 20
34.322926675503091
 30
0.0
  0
SEQEND
  5
105D
  8
0
  0
POLYLINE
  5
100B
  8
0
 66
     1
 10
0.0
 20
0.0
 30
0.0
 70
     1
  0
VERTEX
  5
105E
  8
0
 10
322.9990376210007
 20
34.31542667550309
 30
0.0
  0
VERTEX
  5
105F
  8
0
 10
322.89757729751432
 20
35.330029910368253
 30
0.0
  0
VERTEX
  5
1060
  8
0
 10
322.90178630091668
 20
35.419703498643258
 30
0.0
  0
VERTEX
  5
1061
  8
0
 10
322.92072239817151
 20
35.537894270377912
 30
0.0
  0
VERTEX
  5
1062
  8
0
 10
322.95182539247622
 20
35.642526985421391
 30
0.0
  0
VERTEX
  5
1063
  8
0
 10
322.9930675712281
 20
35.734581004363562
 30
0.0
  0
VERTEX
  5
1064
  8
0
 10
323.04886097755758
 20
35.821714513597229
 30
0.0
  0
VERTEX
  5
1065
  8
0
 10
323.10537439169298
 20
35.884802882916269
 30
0.0
  0
VERTEX
  5
1066
  8
0
 10
323.17499695863182
 20
35.939186876510199
 30
0.0
  0
VERTEX
  5
1067
  8
0
 10
323.24821601089809
 20
35.975173790896882
 30
0.0
  0
VERTEX
  5
1068
  8
0
 10
323.32721846251178
 20
35.99355518099653
 30
0.0
  0
VERTEX
  5
1069
  8
0
 10
323.36271369545682
 20
35.995453528029849
 30
0.0
  0
VERTEX
  5
106A
  8
0
 10
323.40662252907208
 20
35.992511284838201
 30
0.0
  0
VERTEX
  5
106B
  8
0
 10
323.48005024157101
 20
35.974054339166877
 30
0.0
  0
VERTEX
  5
106C
  8
0
 10
323.55585330207907
 20
35.9355793842157
 30
0.0
  0
VERTEX
  5
106D
  8
0
 10
323.61872005459281
 20
35.88587546876996
 30
0.0
  0
VERTEX
  5
106E
  8
0
 10
323.6842424751058
 20
35.81117743914939
 30
0.0
  0
VERTEX
  5
106F
  8
0
 10
323.72999974535162
 20
35.738572249005642
 30
0.0
  0
VERTEX
  5
1070
  8
0
 10
323.77104652799051
 20
35.648788456567601
 30
0.0
  0
VERTEX
  5
1071
  8
0
 10
323.80215048825869
 20
35.547882266536398
 30
0.0
  0
VERTEX
  5
1072
  8
0
 10
323.8211801908393
 20
35.44103930860733
 30
0.0
  0
VERTEX
  5
1073
  8
0
 10
323.82765613842042
 20
35.330115581066281
 30
0.0
  0
VERTEX
  5
1074
  8
0
 10
323.72618724786417
 20
34.31542667550309
 30
0.0
  0
SEQEND
  5
1075
  8
0
  0
VIEWPORT
  5
1011
 67
     1
  8
0
 10
98.985916137695327
 20
141.74258327484131
 30
0.0
 40
536.20151019986463
 41
314.14770257568352
 68
     1
 69
     1
1001
ACAD
1000
MVIEW
1002
{
1070
    16
1010
0.0
1020
0.0
1030
0.0
1010
0.0
1020
0.0
1030
1.0
1040
0.0
1040
314.14770257568352
1040
98.985916137695327
1040
141.74258327484131
1040
50.0
1040
0.0
1040
0.0
1070
     0
1070
   100
1070
     1
1070
     1
1070
     0
1070
     0
1070
     0
1070
     0
1040
0.0
1040
0.0
1040
0.0
1040
10.0
1040
10.0
1040
10.0
1040
10.0
1070
     0
1002
{
1002
}
1002
}
  0
VIEWPORT
  5
1013
 67
     1
  8
FINESTRA
 10
98.051767153722722
 20
142.9095510177477
 30
0.0
 40
188.2310181418714
 41
277.73831117400459
 68
     2
 69
     2
1001
ACAD
1000
MVIEW
1002
{
1070
    16
1010
0.0
1020
0.0
1030
0.0
1010
0.0
1020
0.0
1030
1.0
1040
0.0
1040
13.886915558700229
1040
324.10057177196791
1040
37.291695185694437
1040
50.0
1040
0.0
1040
0.0
1070
     0
1070
   100
1070
     1
1070
     0
1070
     0
1070
     0
1070
     0
1070
     1
1040
0.0
1040
0.0
1040
0.0
1040
1.0
1040
1.0
1040
10.0
1040
10.0
1070
     0
1002
{
1002
}
1002
}
  0
ENDSEC
  0
EOF
