  0
SECTION
  2
HEADER
  9
$ACADVER
  1
AC1009
  9
$INSBASE
 10
0.0
 20
0.0
 30
0.0
  9
$EXTMIN
 10
318.82980479256929
 20
29.857880341654891
 30
-0.0015258207003583
  9
$EXTMAX
 10
329.37133875136641
 20
44.725510029733982
 30
0.0000000349246037
  9
$LIMMIN
 10
0.0
 20
0.0
  9
$LIMMAX
 10
410.0
 20
287.0
  9
$ORTHOMODE
 70
     1
  9
$REGENMODE
 70
     1
  9
$FILLMODE
 70
     1
  9
$QTEXTMODE
 70
     0
  9
$MIRRTEXT
 70
     1
  9
$DRAGMODE
 70
     2
  9
$LTSCALE
 40
25.0
  9
$OSMODE
 70
    37
  9
$ATTMODE
 70
     1
  9
$TEXTSIZE
 40
0.1
  9
$TRACEWID
 40
1.0
  9
$TEXTSTYLE
  7
ROMANC
  9
$CLAYER
  8
0
  9
$CELTYPE
  6
BYLAYER
  9
$CECOLOR
 62
   256
  9
$DIMSCALE
 40
1.5
  9
$DIMASZ
 40
0.1
  9
$DIMEXO
 40
0.01
  9
$DIMDLI
 40
7.0
  9
$DIMRND
 40
0.0
  9
$DIMDLE
 40
0.0
  9
$DIMEXE
 40
0.01
  9
$DIMTP
 40
0.0
  9
$DIMTM
 40
0.0
  9
$DIMTXT
 40
0.05
  9
$DIMCEN
 40
0.0
  9
$DIMTSZ
 40
0.0
  9
$DIMTOL
 70
     0
  9
$DIMLIM
 70
     0
  9
$DIMTIH
 70
     0
  9
$DIMTOH
 70
     0
  9
$DIMSE1
 70
     0
  9
$DIMSE2
 70
     0
  9
$DIMTAD
 70
     1
  9
$DIMZIN
 70
     0
  9
$DIMBLK
  1

  9
$DIMASO
 70
     1
  9
$DIMSHO
 70
     0
  9
$DIMPOST
  1

  9
$DIMAPOST
  1

  9
$DIMALT
 70
     0
  9
$DIMALTD
 70
     2
  9
$DIMALTF
 40
25.399999999999999
  9
$DIMLFAC
 40
1.0
  9
$DIMTOFL
 70
     1
  9
$DIMTVP
 40
0.0
  9
$DIMTIX
 70
     1
  9
$DIMSOXD
 70
     0
  9
$DIMSAH
 70
     0
  9
$DIMBLK1
  1

  9
$DIMBLK2
  1

  9
$DIMSTYLE
  2
MERITXELL
  9
$DIMCLRD
 70
     0
  9
$DIMCLRE
 70
     0
  9
$DIMCLRT
 70
     0
  9
$DIMTFAC
 40
70.0
  9
$DIMGAP
 40
0.025
  9
$LUNITS
 70
     2
  9
$LUPREC
 70
     2
  9
$SKETCHINC
 40
1.0
  9
$FILLETRAD
 40
0.0
  9
$AUNITS
 70
     0
  9
$AUPREC
 70
     0
  9
$MENU
  1
acad
  9
$ELEVATION
 40
0.0
  9
$PELEVATION
 40
0.0
  9
$THICKNESS
 40
0.0
  9
$LIMCHECK
 70
     0
  9
$BLIPMODE
 70
     0
  9
$CHAMFERA
 40
0.0
  9
$CHAMFERB
 40
0.0
  9
$SKPOLY
 70
     0
  9
$TDCREATE
 40
2450927.4619499999
  9
$TDUPDATE
 40
2452452.6705739931
  9
$TDINDWG
 40
0.2121803935
  9
$TDUSRTIMER
 40
0.2121803935
  9
$USRTIMER
 70
     1
  9
$ANGBASE
 50
0.0
  9
$ANGDIR
 70
     0
  9
$PDMODE
 70
     0
  9
$PDSIZE
 40
0.0
  9
$PLINEWID
 40
0.0
  9
$COORDS
 70
     1
  9
$SPLFRAME
 70
     0
  9
$SPLINETYPE
 70
     6
  9
$SPLINESEGS
 70
     8
  9
$ATTDIA
 70
     0
  9
$ATTREQ
 70
     1
  9
$HANDLING
 70
 10241
  9
$HANDSEED
  5
110C
  9
$SURFTAB1
 70
     6
  9
$SURFTAB2
 70
     6
  9
$SURFTYPE
 70
     6
  9
$SURFU
 70
     6
  9
$SURFV
 70
     6
  9
$UCSNAME
  2

  9
$UCSORG
 10
0.0
 20
0.0
 30
0.0
  9
$UCSXDIR
 10
1.0
 20
0.0
 30
0.0
  9
$UCSYDIR
 10
0.0
 20
1.0
 30
0.0
  9
$PUCSNAME
  2

  9
$PUCSORG
 10
0.0
 20
0.0
 30
0.0
  9
$PUCSXDIR
 10
1.0
 20
0.0
 30
0.0
  9
$PUCSYDIR
 10
0.0
 20
1.0
 30
0.0
  9
$USERI1
 70
     0
  9
$USERI2
 70
     0
  9
$USERI3
 70
     0
  9
$USERI4
 70
     0
  9
$USERI5
 70
     0
  9
$USERR1
 40
0.0
  9
$USERR2
 40
0.0
  9
$USERR3
 40
0.0
  9
$USERR4
 40
0.0
  9
$USERR5
 40
0.0
  9
$WORLDVIEW
 70
     1
  9
$SHADEDGE
 70
     3
  9
$SHADEDIF
 70
    70
  9
$TILEMODE
 70
     1
  9
$MAXACTVP
 70
    16
  9
$PLIMCHECK
 70
     0
  9
$PEXTMIN
 10
3.934800455223181
 20
4.0310114969073521
 30
-0.0000000349181948
  9
$PEXTMAX
 10
192.17799899456901
 20
281.78748296647541
 30
0.0000000814935746
  9
$PLIMMIN
 10
-6.043083190917967
 20
-6.720414161682128
  9
$PLIMMAX
 10
204.01491546630839
 20
290.20558071136458
  9
$UNITMODE
 70
     0
  9
$VISRETAIN
 70
     0
  9
$PLINEGEN
 70
     0
  9
$PSLTSCALE
 70
     0
  0
ENDSEC
  0
SECTION
  2
TABLES
  0
TABLE
  2
VPORT
 70
     2
  0
VPORT
  2
*ACTIVE
 70
     0
 10
0.0
 20
0.0
 11
1.0
 21
1.0
 12
324.10057177196791
 22
37.291695185694437
 13
0.0
 23
0.0
 14
1.0
 24
1.0
 15
10.0
 25
10.0
 16
0.0
 26
0.0
 36
1.0
 17
0.0
 27
0.0
 37
0.0
 40
14.978032878832151
 41
1.454770755885997
 42
50.0
 43
0.0
 44
0.0
 50
0.0
 51
0.0
 71
     0
 72
   100
 73
     1
 74
     0
 75
     0
 76
     0
 77
     0
 78
     1
  0
ENDTAB
  0
TABLE
  2
LTYPE
 70
     1
  0
LTYPE
  2
CONTINUOUS
 70
     0
  3
Solid line
 72
    65
 73
     0
 40
0.0
  0
ENDTAB
  0
TABLE
  2
LAYER
 70
     3
  0
LAYER
  2
0
 70
     0
 62
     7
  6
CONTINUOUS
  0
LAYER
  2
DEFPOINTS
 70
     0
 62
     7
  6
CONTINUOUS
  0
LAYER
  2
FINESTRA
 70
     0
 62
     7
  6
CONTINUOUS
  0
ENDTAB
  0
TABLE
  2
STYLE
 70
     2
  0
STYLE
  2
STANDARD
 70
     0
 40
0.0
 41
1.0
 50
0.0
 71
     0
 42
0.1
  3
txt
  4

  0
STYLE
  2
ROMANC
 70
     0
 40
0.0
 41
1.0
 50
0.0
 71
     0
 42
0.1
  3
romanc
  4

  0
ENDTAB
  0
TABLE
  2
VIEW
 70
     0
  0
ENDTAB
  0
TABLE
  2
UCS
 70
     0
  0
ENDTAB
  0
TABLE
  2
APPID
 70
     1
  0
APPID
  2
ACAD
 70
     0
  0
ENDTAB
  0
TABLE
  2
DIMSTYLE
 70
     1
  0
DIMSTYLE
  2
MERITXELL
 70
     0
  3

  4

  5

  6

  7

 40
1.5
 41
0.1
 42
0.01
 43
7.0
 44
0.01
 45
0.0
 46
0.0
 47
0.0
 48
0.0
140
0.05
141
0.1
142
0.0
143
25.399999999999999
144
1.0
145
0.0
146
70.0
147
0.09
 71
     0
 72
     0
 73
     0
 74
     0
 75
     0
 76
     0
 77
     1
 78
     0
170
     0
171
     2
172
     1
173
     0
174
     1
175
     0
176
     0
177
     0
178
     0
  0
ENDTAB
  0
ENDSEC
  0
SECTION
  2
BLOCKS
  0
BLOCK
  8
0
  2
$MODEL_SPACE
 70
     0
 10
0.0
 20
0.0
 30
0.0
  3
$MODEL_SPACE
  1

  0
ENDBLK
  5
24
  8
0
  0
BLOCK
 67
     1
  8
0
  2
$PAPER_SPACE
 70
     0
 10
0.0
 20
0.0
 30
0.0
  3
$PAPER_SPACE
  1

  0
ENDBLK
  5
22
 67
     1
  8
0
  0
BLOCK
  8
0
  2
*D0
 70
     1
 10
0.0
 20
0.0
 30
0.0
  3
*D0
  1

  0
LINE
  5
105E
  8
0
 62
     0
 10
322.06349418293041
 20
34.550188526935571
 30
0.0
 11
322.06349418293041
 21
34.196356008773861
 31
0.0
  0
LINE
  5
105F
  8
0
 62
     0
 10
324.86349418293042
 20
34.550188526935571
 30
0.0
 11
324.86349418293042
 21
34.196356008773861
 31
0.0
  0
LINE
  5
1060
  8
0
 62
     0
 10
322.2134941829305
 20
34.211356008773862
 30
0.0
 11
324.7134941829305
 21
34.211356008773862
 31
0.0
  0
SOLID
  5
1061
  8
0
 62
     0
 10
322.2134941829305
 20
34.236356008773861
 30
0.0
 11
322.2134941829305
 21
34.186356008773863
 31
0.0
 12
322.06349418293041
 22
34.211356008773862
 32
0.0
 13
322.06349418293041
 23
34.211356008773862
 33
0.0
  0
SOLID
  5
1062
  8
0
 62
     0
 10
324.7134941829305
 20
34.236356008773861
 30
0.0
 11
324.7134941829305
 21
34.186356008773863
 31
0.0
 12
324.86349418293042
 22
34.211356008773862
 32
0.0
 13
324.86349418293042
 23
34.211356008773862
 33
0.0
  0
TEXT
  5
1063
  8
0
 62
     0
 10
323.33849418293028
 20
34.248856008773849
 30
0.0
 40
0.075
  1
2.80
  7
ROMANC
  0
POINT
  5
1064
  8
DEFPOINTS
 62
     0
 10
322.06349418293041
 20
34.565188526935572
 30
0.0
  0
POINT
  5
1065
  8
DEFPOINTS
 62
     0
 10
324.86349418293042
 20
34.565188526935572
 30
0.0
  0
POINT
  5
1066
  8
DEFPOINTS
 62
     0
 10
324.86349418293042
 20
34.211356008773862
 30
0.0
  0
ENDBLK
  5
1033
  8
0
  0
BLOCK
  8
0
  2
*D1
 70
     1
 10
0.0
 20
0.0
 30
0.0
  3
*D1
  1

  0
LINE
  5
1055
  8
0
 62
     0
 10
324.87849418293041
 20
34.565188526935572
 30
0.0
 11
325.18245322106878
 21
34.565188526935572
 31
0.0
  0
LINE
  5
1056
  8
0
 62
     0
 10
324.87849418293041
 20
36.065188526935572
 30
0.0
 11
325.18245322106878
 21
36.065188526935572
 31
0.0
  0
LINE
  5
1057
  8
0
 62
     0
 10
325.1674532210688
 20
34.715188526935577
 30
0.0
 11
325.1674532210688
 21
35.91518852693558
 31
0.0
  0
SOLID
  5
1058
  8
0
 62
     0
 10
325.14245322106882
 20
34.715188526935577
 30
0.0
 11
325.19245322106889
 21
34.715188526935577
 31
0.0
 12
325.1674532210688
 22
34.565188526935572
 32
0.0
 13
325.1674532210688
 23
34.565188526935572
 33
0.0
  0
SOLID
  5
1059
  8
0
 62
     0
 10
325.14245322106882
 20
35.91518852693558
 30
0.0
 11
325.19245322106889
 21
35.91518852693558
 31
0.0
 12
325.1674532210688
 22
36.065188526935572
 32
0.0
 13
325.1674532210688
 23
36.065188526935572
 33
0.0
  0
TEXT
  5
105A
  8
0
 62
     0
 10
325.12995322106877
 20
35.195545669792779
 30
0.0
 40
0.075
  1
1.50
 50
90.0
  7
ROMANC
  0
POINT
  5
105B
  8
DEFPOINTS
 62
     0
 10
324.86349418293042
 20
34.565188526935572
 30
0.0
  0
POINT
  5
105C
  8
DEFPOINTS
 62
     0
 10
324.86349418293042
 20
36.065188526935572
 30
0.0
  0
POINT
  5
105D
  8
DEFPOINTS
 62
     0
 10
325.1674532210688
 20
36.065188526935572
 30
0.0
  0
ENDBLK
  5
1040
  8
0
  0
BLOCK
  8
0
  2
*D2
 70
     1
 10
0.0
 20
0.0
 30
0.0
  3
*D2
  1

  0
LINE
  5
10AE
  8
0
 62
     0
 10
323.58389671681709
 20
36.503626810497181
 30
0.0
 11
324.47764373711408
 21
36.503626810497181
 31
0.0
  0
LINE
  5
10AF
  8
0
 62
     0
 10
323.83389671681709
 20
34.903626810497137
 30
0.0
 11
324.47764373711408
 21
34.903626810497137
 31
0.0
  0
LINE
  5
10B0
  8
0
 62
     0
 10
324.46264373711409
 20
36.353626810497182
 30
0.0
 11
324.46264373711409
 21
35.053626810497143
 31
0.0
  0
SOLID
  5
10B1
  8
0
 62
     0
 10
324.43764373711412
 20
36.353626810497182
 30
0.0
 11
324.48764373711413
 21
36.353626810497182
 31
0.0
 12
324.46264373711409
 22
36.503626810497181
 32
0.0
 13
324.46264373711409
 23
36.503626810497181
 33
0.0
  0
SOLID
  5
10B2
  8
0
 62
     0
 10
324.43764373711412
 20
35.053626810497143
 30
0.0
 11
324.48764373711413
 21
35.053626810497143
 31
0.0
 12
324.46264373711409
 22
34.903626810497137
 32
0.0
 13
324.46264373711409
 23
34.903626810497137
 33
0.0
  0
TEXT
  5
10B3
  8
0
 62
     0
 10
324.42514373711413
 20
35.583983953354348
 30
0.0
 40
0.075
  1
1.60
 50
90.0
  7
ROMANC
  0
POINT
  5
10B4
  8
DEFPOINTS
 62
     0
 10
323.56889671681711
 20
36.503626810497181
 30
0.0
  0
POINT
  5
10B5
  8
DEFPOINTS
 62
     0
 10
323.81889671681699
 20
34.903626810497137
 30
0.0
  0
POINT
  5
10B6
  8
DEFPOINTS
 62
     0
 10
324.46264373711409
 20
34.903626810497137
 30
0.0
  0
ENDBLK
  5
108C
  8
0
  0
BLOCK
  8
0
  2
*D3
 70
     1
 10
0.0
 20
0.0
 30
0.0
  3
*D3
  1

  0
LINE
  5
108F
  8
0
 62
     0
 10
323.2688967168171
 20
36.0536268104971
 30
0.0
 11
323.86889671681718
 21
36.0536268104971
 31
0.0
  0
SOLID
  5
1090
  8
0
 62
     0
 10
323.2688967168171
 20
36.078626810497099
 30
0.0
 11
323.2688967168171
 21
36.028626810497101
 31
0.0
 12
323.11889671681712
 22
36.0536268104971
 32
0.0
 13
323.11889671681712
 23
36.0536268104971
 33
0.0
  0
SOLID
  5
1091
  8
0
 62
     0
 10
323.86889671681718
 20
36.078626810497099
 30
0.0
 11
323.86889671681718
 21
36.028626810497101
 31
0.0
 12
324.0188967168171
 22
36.0536268104971
 32
0.0
 13
324.0188967168171
 23
36.0536268104971
 33
0.0
  0
TEXT
  5
1092
  8
0
 62
     0
 10
323.44389671681711
 20
36.091126810497101
 30
0.0
 40
0.075
  1
0.90
  7
ROMANC
  0
POINT
  5
1093
  8
DEFPOINTS
 62
     0
 10
323.11889671681712
 20
36.0536268104971
 30
0.0
  0
POINT
  5
1094
  8
DEFPOINTS
 62
     0
 10
324.0188967168171
 20
36.0536268104971
 30
0.0
  0
POINT
  5
1095
  8
DEFPOINTS
 62
     0
 10
324.0188967168171
 20
36.0536268104971
 30
0.0
  0
ENDBLK
  5
1097
  8
0
  0
BLOCK
  8
0
  2
*D4
 70
     1
 10
0.0
 20
0.0
 30
0.0
  3
*D4
  1

  0
LINE
  5
10A5
  8
0
 62
     0
 10
324.03389671681708
 20
36.0536268104971
 30
0.0
 11
324.23109281029639
 21
36.0536268104971
 31
0.0
  0
LINE
  5
10A6
  8
0
 62
     0
 10
324.00889671681699
 20
35.00362681049711
 30
0.0
 11
324.23109281029639
 21
35.00362681049711
 31
0.0
  0
LINE
  5
10A7
  8
0
 62
     0
 10
324.21609281029629
 20
35.903626810497109
 30
0.0
 11
324.21609281029629
 21
35.153626810497101
 31
0.0
  0
SOLID
  5
10A8
  8
0
 62
     0
 10
324.19109281029631
 20
35.903626810497109
 30
0.0
 11
324.24109281029632
 21
35.903626810497109
 31
0.0
 12
324.21609281029629
 22
36.0536268104971
 32
0.0
 13
324.21609281029629
 23
36.0536268104971
 33
0.0
  0
SOLID
  5
10A9
  8
0
 62
     0
 10
324.19109281029631
 20
35.153626810497101
 30
0.0
 11
324.24109281029632
 21
35.153626810497101
 31
0.0
 12
324.21609281029629
 22
35.00362681049711
 32
0.0
 13
324.21609281029629
 23
35.00362681049711
 33
0.0
  0
TEXT
  5
10AA
  8
0
 62
     0
 10
324.17859281029632
 20
35.408983953354301
 30
0.0
 40
0.075
  1
1.05
 50
90.0
  7
ROMANC
  0
POINT
  5
10AB
  8
DEFPOINTS
 62
     0
 10
324.0188967168171
 20
36.0536268104971
 30
0.0
  0
POINT
  5
10AC
  8
DEFPOINTS
 62
     0
 10
323.99389671681712
 20
35.00362681049711
 30
0.0
  0
POINT
  5
10AD
  8
DEFPOINTS
 62
     0
 10
324.21609281029629
 20
35.00362681049711
 30
0.0
  0
ENDBLK
  5
10A4
  8
0
  0
BLOCK
  8
0
  2
*D5
 70
     1
 10
0.0
 20
0.0
 30
0.0
  3
*D5
  1

  0
LINE
  5
10B9
  8
0
 62
     0
 10
323.6438967168171
 20
34.988626810497109
 30
0.0
 11
323.6438967168171
 21
34.678160820035828
 31
0.0
  0
LINE
  5
10BA
  8
0
 62
     0
 10
323.99389671681712
 20
34.988626810497109
 30
0.0
 11
323.99389671681712
 21
34.678160820035828
 31
0.0
  0
LINE
  5
10BB
  8
0
 62
     0
 10
323.49389671681712
 20
34.693160820035828
 30
0.0
 11
323.34389671681708
 21
34.693160820035828
 31
0.0
  0
LINE
  5
10BC
  8
0
 62
     0
 10
324.1438967168171
 20
34.693160820035828
 30
0.0
 11
324.29389671681707
 21
34.693160820035828
 31
0.0
  0
LINE
  5
10BD
  8
0
 62
     0
 10
323.6438967168171
 20
34.693160820035828
 30
0.0
 11
323.99389671681712
 21
34.693160820035828
 31
0.0
  0
SOLID
  5
10BE
  8
0
 62
     0
 10
323.49389671681712
 20
34.718160820035827
 30
0.0
 11
323.49389671681712
 21
34.668160820035837
 31
0.0
 12
323.6438967168171
 22
34.693160820035828
 32
0.0
 13
323.6438967168171
 23
34.693160820035828
 33
0.0
  0
SOLID
  5
10BF
  8
0
 62
     0
 10
324.1438967168171
 20
34.718160820035827
 30
0.0
 11
324.1438967168171
 21
34.668160820035837
 31
0.0
 12
323.99389671681712
 22
34.693160820035828
 32
0.0
 13
323.99389671681712
 23
34.693160820035828
 33
0.0
  0
TEXT
  5
10C0
  8
0
 62
     0
 10
323.69389671681711
 20
34.73066082003583
 30
0.0
 40
0.075
  1
0.35
  7
ROMANC
  0
POINT
  5
10C1
  8
DEFPOINTS
 62
     0
 10
323.6438967168171
 20
35.00362681049711
 30
0.0
  0
POINT
  5
10C2
  8
DEFPOINTS
 62
     0
 10
323.99389671681712
 20
35.00362681049711
 30
0.0
  0
POINT
  5
10C3
  8
DEFPOINTS
 62
     0
 10
323.99389671681712
 20
34.693160820035828
 30
0.0
  0
ENDBLK
  5
10C5
  8
0
  0
BLOCK
  8
0
  2
*D6
 70
     1
 10
0.0
 20
0.0
 30
0.0
  3
*D6
  1

  0
LINE
  5
10C8
  8
0
 62
     0
 10
323.1438967168171
 20
34.988626810497109
 30
0.0
 11
323.1438967168171
 21
34.678160820035828
 31
0.0
  0
LINE
  5
10C9
  8
0
 62
     0
 10
323.6438967168171
 20
34.988626810497109
 30
0.0
 11
323.6438967168171
 21
34.678160820035828
 31
0.0
  0
LINE
  5
10CA
  8
0
 62
     0
 10
323.29389671681702
 20
34.693160820035828
 30
0.0
 11
323.49389671681712
 21
34.693160820035828
 31
0.0
  0
SOLID
  5
10CB
  8
0
 62
     0
 10
323.29389671681702
 20
34.718160820035827
 30
0.0
 11
323.29389671681702
 21
34.668160820035837
 31
0.0
 12
323.1438967168171
 22
34.693160820035828
 32
0.0
 13
323.1438967168171
 23
34.693160820035828
 33
0.0
  0
SOLID
  5
10CC
  8
0
 62
     0
 10
323.49389671681712
 20
34.718160820035827
 30
0.0
 11
323.49389671681712
 21
34.668160820035837
 31
0.0
 12
323.6438967168171
 22
34.693160820035828
 32
0.0
 13
323.6438967168171
 23
34.693160820035828
 33
0.0
  0
TEXT
  5
10CD
  8
0
 62
     0
 10
323.2688967168171
 20
34.73066082003583
 30
0.0
 40
0.075
  1
0.50
  7
ROMANC
  0
POINT
  5
10CE
  8
DEFPOINTS
 62
     0
 10
323.1438967168171
 20
35.00362681049711
 30
0.0
  0
POINT
  5
10CF
  8
DEFPOINTS
 62
     0
 10
323.6438967168171
 20
35.00362681049711
 30
0.0
  0
POINT
  5
10D0
  8
DEFPOINTS
 62
     0
 10
323.6438967168171
 20
34.693160820035828
 30
0.0
  0
ENDBLK
  5
10D2
  8
0
  0
BLOCK
  8
0
  2
*D7
 70
     1
 10
0.0
 20
0.0
 30
0.0
  3
*D7
  1

  0
LINE
  5
10D5
  8
0
 62
     0
 10
323.1438967168171
 20
34.988626810497109
 30
0.0
 11
323.1438967168171
 21
34.462561551066372
 31
0.0
  0
LINE
  5
10D6
  8
0
 62
     0
 10
323.99389671681712
 20
34.988626810497109
 30
0.0
 11
323.99389671681712
 21
34.462561551066372
 31
0.0
  0
LINE
  5
10D7
  8
0
 62
     0
 10
323.29389671681702
 20
34.477561551066373
 30
0.0
 11
323.84389671681708
 21
34.477561551066373
 31
0.0
  0
SOLID
  5
10D8
  8
0
 62
     0
 10
323.29389671681702
 20
34.502561551066371
 30
0.0
 11
323.29389671681702
 21
34.45256155106636
 31
0.0
 12
323.1438967168171
 22
34.477561551066373
 32
0.0
 13
323.1438967168171
 23
34.477561551066373
 33
0.0
  0
SOLID
  5
10D9
  8
0
 62
     0
 10
323.84389671681708
 20
34.502561551066371
 30
0.0
 11
323.84389671681708
 21
34.45256155106636
 31
0.0
 12
323.99389671681712
 22
34.477561551066373
 32
0.0
 13
323.99389671681712
 23
34.477561551066373
 33
0.0
  0
TEXT
  5
10DA
  8
0
 62
     0
 10
323.44389671681711
 20
34.515061551066367
 30
0.0
 40
0.075
  1
0.85
  7
ROMANC
  0
POINT
  5
10DB
  8
DEFPOINTS
 62
     0
 10
323.1438967168171
 20
35.00362681049711
 30
0.0
  0
POINT
  5
10DC
  8
DEFPOINTS
 62
     0
 10
323.99389671681712
 20
35.00362681049711
 30
0.0
  0
POINT
  5
10DD
  8
DEFPOINTS
 62
     0
 10
323.99389671681712
 20
34.477561551066373
 30
0.0
  0
ENDBLK
  5
10DF
  8
0
  0
ENDSEC
  0
SECTION
  2
ENTITIES
  0
TEXT
  5
2A
  8
0
 10
321.7731487472426
 20
42.309482000000003
 30
0.0
 40
0.3
  1
TIPUS   NT126E
  7
ROMANC
  0
TEXT
  5
2D
  8
0
 10
321.7819632635875
 20
40.496460447924562
 30
0.0
 40
0.3
  1
P = 44,4 dm
  7
ROMANC
  0
TEXT
  5
2E
  8
0
 10
321.76027798308689
 20
41.105813329174069
 30
0.0
 40
0.3
  1
S = 126 dm
  7
ROMANC
  0
TEXT
  5
2F
  8
0
 10
321.7731487472426
 20
41.70440332917407
 30
0.0
 40
0.3
  1
ESCALA  1:50
  7
ROMANC
  0
TEXT
  5
30
  8
0
 10
324.93560928566183
 20
41.411729329174072
 30
0.0
 40
0.1
  1
2
  7
ROMANC
  0
POLYLINE
  5
ED8
  8
0
 66
     1
 10
0.0
 20
0.0
 30
0.0
 70
     1
  0
VERTEX
  5
10F5
  8
0
 10
329.34869600000002
 20
29.86362299999999
 30
0.0
  0
VERTEX
  5
10F6
  8
0
 10
329.34869600000002
 20
44.713622999999998
 30
0.0
  0
VERTEX
  5
10F7
  8
0
 10
318.84869600000002
 20
44.713622999999998
 30
0.0
  0
VERTEX
  5
10F8
  8
0
 10
318.84869600000002
 20
29.86362299999999
 30
0.0
  0
SEQEND
  5
10F9
  8
0
  0
DIMENSION
  5
1080
  8
0
  2
*D2
 10
324.46264373711409
 20
34.903626810497137
 30
0.0
 11
324.3876437371141
 21
35.703626810497212
 31
0.0
 70
     0
 13
323.56889671681711
 23
36.503626810497181
 33
0.0
 14
323.81889671681699
 24
34.903626810497137
 34
0.0
 50
90.0
1001
ACAD
1000
DSTYLE
1002
{
1070
   141
1040
0.0
1070
   147
1040
0.025
1002
}
  0
DIMENSION
  5
108D
  8
0
  2
*D3
 10
324.0188967168171
 20
36.0536268104971
 30
0.0
 11
323.56889671681711
 21
36.12862681049711
 31
0.0
 70
     0
 13
323.11889671681712
 23
36.0536268104971
 33
0.0
 14
324.0188967168171
 24
36.0536268104971
 34
0.0
1001
ACAD
1000
DSTYLE
1002
{
1070
   141
1040
0.0
1070
   147
1040
0.025
1002
}
  0
DIMENSION
  5
1098
  8
0
  2
*D4
 10
324.21609281029629
 20
35.00362681049711
 30
0.0
 11
324.1410928102963
 21
35.528626810497151
 31
0.0
 70
     0
 13
324.0188967168171
 23
36.0536268104971
 33
0.0
 14
323.99389671681712
 24
35.00362681049711
 34
0.0
 50
90.0
1001
ACAD
1000
DSTYLE
1002
{
1070
   141
1040
0.0
1070
   147
1040
0.025
1002
}
  0
DIMENSION
  5
10B7
  8
0
  2
*D5
 10
323.99389671681712
 20
34.693160820035828
 30
0.0
 11
323.81889671681699
 21
34.768160820035831
 31
0.0
 70
     0
 13
323.6438967168171
 23
35.00362681049711
 33
0.0
 14
323.99389671681712
 24
35.00362681049711
 34
0.0
1001
ACAD
1000
DSTYLE
1002
{
1070
   141
1040
0.0
1070
   147
1040
0.025
1002
}
  0
DIMENSION
  5
10C6
  8
0
  2
*D6
 10
323.6438967168171
 20
34.693160820035828
 30
0.0
 11
323.3938967168171
 21
34.768160820035831
 31
0.0
 70
     0
 13
323.1438967168171
 23
35.00362681049711
 33
0.0
 14
323.6438967168171
 24
35.00362681049711
 34
0.0
1001
ACAD
1000
DSTYLE
1002
{
1070
   141
1040
0.0
1070
   147
1040
0.025
1002
}
  0
DIMENSION
  5
10D3
  8
0
  2
*D7
 10
323.99389671681712
 20
34.477561551066373
 30
0.0
 11
323.56889671681711
 21
34.552561551066368
 31
0.0
 70
     0
 13
323.1438967168171
 23
35.00362681049711
 33
0.0
 14
323.99389671681712
 24
35.00362681049711
 34
0.0
1001
ACAD
1000
DSTYLE
1002
{
1070
   141
1040
0.0
1070
   147
1040
0.025
1002
}
  0
POLYLINE
  5
10E0
  8
0
 66
     1
 10
0.0
 20
0.0
 30
0.0
 70
     1
  0
VERTEX
  5
10FA
  8
0
 10
324.0188967168171
 20
36.0536268104971
 30
0.0
 42
1.0000000000001741
  0
VERTEX
  5
10FB
  8
0
 10
323.11889671681712
 20
36.0536268104971
 30
0.0
  0
VERTEX
  5
10FC
  8
0
 10
323.1438967168171
 20
35.00362681049711
 30
0.0
  0
VERTEX
  5
10FD
  8
0
 10
323.6438967168171
 20
35.00362681049711
 30
0.0
 42
0.5714285714283346
  0
VERTEX
  5
10FE
  8
0
 10
323.99389671681712
 20
35.00362681049711
 30
0.0
  0
SEQEND
  5
10FF
  8
0
  0
POLYLINE
  5
10E1
  8
0
 66
     1
 10
0.0
 20
0.0
 30
0.0
 70
     1
  0
VERTEX
  5
1100
  8
0
 10
324.02639670803501
 20
36.053537168581563
 30
0.0
 42
1.0001959576801871
  0
VERTEX
  5
1101
  8
0
 10
323.11139672559932
 20
36.053537168581563
 30
0.0
  0
VERTEX
  5
1102
  8
0
 10
323.13657316269649
 20
34.99612681049711
 30
0.0
  0
VERTEX
  5
1103
  8
0
 10
323.63966223352782
 20
34.99612681049711
 30
0.0
 42
0.5677411066647072
  0
VERTEX
  5
1104
  8
0
 10
324.00134862855901
 20
35.001517830591688
 30
0.0
  0
SEQEND
  5
1105
  8
0
  0
POLYLINE
  5
10E2
  8
0
 66
     1
 10
0.0
 20
0.0
 30
0.0
 70
     1
  0
VERTEX
  5
1106
  8
0
 10
324.0338966819748
 20
36.053446800987139
 30
0.0
 42
1.0003871919923191
  0
VERTEX
  5
1107
  8
0
 10
323.10389675165948
 20
36.05344680098716
 30
0.0
  0
VERTEX
  5
1108
  8
0
 10
323.12924960857578
 20
34.988626810497109
 30
0.0
  0
VERTEX
  5
1109
  8
0
 10
323.63552550860811
 20
34.988626810497109
 30
0.0
 42
0.5642882725275649
  0
VERTEX
  5
110A
  8
0
 10
324.00880140389762
 20
34.999445121750149
 30
0.0
  0
SEQEND
  5
110B
  8
0
  0
VIEWPORT
  5
1011
 67
     1
  8
0
 10
98.985916137695327
 20
141.74258327484131
 30
0.0
 40
536.20151019986463
 41
314.14770257568358
 68
     1
 69
     1
1001
ACAD
1000
MVIEW
1002
{
1070
    16
1010
0.0
1020
0.0
1030
0.0
1010
0.0
1020
0.0
1030
1.0
1040
0.0
1040
314.14770257568358
1040
98.985916137695327
1040
141.74258327484131
1040
50.0
1040
0.0
1040
0.0
1070
     0
1070
   100
1070
     1
1070
     1
1070
     0
1070
     0
1070
     0
1070
     0
1040
0.0
1040
0.0
1040
0.0
1040
10.0
1040
10.0
1040
10.0
1040
10.0
1070
     0
1002
{
1002
}
1002
}
  0
VIEWPORT
  5
1013
 67
     1
  8
FINESTRA
 10
98.051767153722722
 20
142.9095510177477
 30
0.0
 40
188.2310181418714
 41
277.73831117400459
 68
     2
 69
     2
1001
ACAD
1000
MVIEW
1002
{
1070
    16
1010
0.0
1020
0.0
1030
0.0
1010
0.0
1020
0.0
1030
1.0
1040
0.0
1040
13.886915558700229
1040
324.10057177196791
1040
37.291695185694437
1040
50.0
1040
0.0
1040
0.0
1070
     0
1070
   100
1070
     1
1070
     0
1070
     0
1070
     0
1070
     0
1070
     1
1040
0.0
1040
0.0
1040
0.0
1040
1.0
1040
1.0
1040
10.0
1040
10.0
1070
     0
1002
{
1002
}
1002
}
  0
ENDSEC
  0
EOF
