  0
SECTION
  2
HEADER
  9
$ACADVER
  1
AC1015
  9
$ACADMAINTVER
 70
    13
  9
$DWGCODEPAGE
  3
ANSI_1252
  9
$INSBASE
 10
0.0
 20
0.0
 30
0.0
  9
$EXTMIN
 10
313.1169519930659
 20
30.2638493817211
 30
0.0
  9
$EXTMAX
 10
329.2173387644618
 20
45.11384938172105
 30
0.0
  9
$LIMMIN
 10
0.0
 20
0.0
  9
$LIMMAX
 10
410.0
 20
287.0
  9
$ORTHOMODE
 70
     1
  9
$REGENMODE
 70
     1
  9
$FILLMODE
 70
     1
  9
$QTEXTMODE
 70
     0
  9
$MIRRTEXT
 70
     1
  9
$LTSCALE
 40
25.0
  9
$ATTMODE
 70
     1
  9
$TEXTSIZE
 40
0.1
  9
$TRACEWID
 40
1.0
  9
$TEXTSTYLE
  7
ROMANC
  9
$CLAYER
  8
0
  9
$CELTYPE
  6
BYLAYER
  9
$CECOLOR
 62
   256
  9
$CELTSCALE
 40
1.0
  9
$DISPSILH
 70
     0
  9
$DIMSCALE
 40
1.5
  9
$DIMASZ
 40
0.1
  9
$DIMEXO
 40
0.01
  9
$DIMDLI
 40
7.0
  9
$DIMRND
 40
0.0
  9
$DIMDLE
 40
0.0
  9
$DIMEXE
 40
0.01
  9
$DIMTP
 40
0.0
  9
$DIMTM
 40
0.0
  9
$DIMTXT
 40
0.05
  9
$DIMCEN
 40
0.0
  9
$DIMTSZ
 40
0.0
  9
$DIMTOL
 70
     0
  9
$DIMLIM
 70
     0
  9
$DIMTIH
 70
     0
  9
$DIMTOH
 70
     0
  9
$DIMSE1
 70
     0
  9
$DIMSE2
 70
     0
  9
$DIMTAD
 70
     1
  9
$DIMZIN
 70
     0
  9
$DIMBLK
  1

  9
$DIMASO
 70
     1
  9
$DIMSHO
 70
     0
  9
$DIMPOST
  1

  9
$DIMAPOST
  1

  9
$DIMALT
 70
     0
  9
$DIMALTD
 70
     2
  9
$DIMALTF
 40
25.4
  9
$DIMLFAC
 40
1.0
  9
$DIMTOFL
 70
     1
  9
$DIMTVP
 40
0.0
  9
$DIMTIX
 70
     1
  9
$DIMSOXD
 70
     0
  9
$DIMSAH
 70
     0
  9
$DIMBLK1
  1

  9
$DIMBLK2
  1

  9
$DIMSTYLE
  2
MERITXELL
  9
$DIMCLRD
 70
     0
  9
$DIMCLRE
 70
     0
  9
$DIMCLRT
 70
     0
  9
$DIMTFAC
 40
70.0
  9
$DIMGAP
 40
0.025
  9
$DIMJUST
 70
     0
  9
$DIMSD1
 70
     0
  9
$DIMSD2
 70
     0
  9
$DIMTOLJ
 70
     1
  9
$DIMTZIN
 70
     0
  9
$DIMALTZ
 70
     0
  9
$DIMALTTZ
 70
     0
  9
$DIMUPT
 70
     0
  9
$DIMDEC
 70
     2
  9
$DIMTDEC
 70
     2
  9
$DIMALTU
 70
     2
  9
$DIMALTTD
 70
     2
  9
$DIMTXSTY
  7
ROMANC
  9
$DIMAUNIT
 70
     0
  9
$DIMADEC
 70
     0
  9
$DIMALTRND
 40
0.0
  9
$DIMAZIN
 70
     0
  9
$DIMDSEP
 70
    46
  9
$DIMATFIT
 70
     3
  9
$DIMFRAC
 70
     0
  9
$DIMLDRBLK
  1

  9
$DIMLUNIT
 70
     2
  9
$DIMLWD
 70
    -2
  9
$DIMLWE
 70
    -2
  9
$DIMTMOVE
 70
     2
  9
$LUNITS
 70
     2
  9
$LUPREC
 70
     2
  9
$SKETCHINC
 40
1.0
  9
$FILLETRAD
 40
0.0
  9
$AUNITS
 70
     0
  9
$AUPREC
 70
     0
  9
$MENU
  1
acad
  9
$ELEVATION
 40
0.0
  9
$PELEVATION
 40
0.0
  9
$THICKNESS
 40
0.0
  9
$LIMCHECK
 70
     0
  9
$CHAMFERA
 40
0.0
  9
$CHAMFERB
 40
0.0
  9
$CHAMFERC
 40
0.0
  9
$CHAMFERD
 40
0.0
  9
$SKPOLY
 70
     0
  9
$TDCREATE
 40
2450927.503616667
  9
$TDUCREATE
 40
2450927.420283333
  9
$TDUPDATE
 40
2453525.475042199
  9
$TDUUPDATE
 40
2453525.391708865
  9
$TDINDWG
 40
0.2603246528
  9
$TDUSRTIMER
 40
0.2603224884
  9
$USRTIMER
 70
     1
  9
$ANGBASE
 50
0.0
  9
$ANGDIR
 70
     0
  9
$PDMODE
 70
     0
  9
$PDSIZE
 40
0.0
  9
$PLINEWID
 40
0.0
  9
$SPLFRAME
 70
     0
  9
$SPLINETYPE
 70
     6
  9
$SPLINESEGS
 70
     8
  9
$HANDSEED
  5
122C
  9
$SURFTAB1
 70
     6
  9
$SURFTAB2
 70
     6
  9
$SURFTYPE
 70
     6
  9
$SURFU
 70
     6
  9
$SURFV
 70
     6
  9
$UCSBASE
  2

  9
$UCSNAME
  2

  9
$UCSORG
 10
0.0
 20
0.0
 30
0.0
  9
$UCSXDIR
 10
1.0
 20
0.0
 30
0.0
  9
$UCSYDIR
 10
0.0
 20
1.0
 30
0.0
  9
$UCSORTHOREF
  2

  9
$UCSORTHOVIEW
 70
     0
  9
$UCSORGTOP
 10
0.0
 20
0.0
 30
0.0
  9
$UCSORGBOTTOM
 10
0.0
 20
0.0
 30
0.0
  9
$UCSORGLEFT
 10
0.0
 20
0.0
 30
0.0
  9
$UCSORGRIGHT
 10
0.0
 20
0.0
 30
0.0
  9
$UCSORGFRONT
 10
0.0
 20
0.0
 30
0.0
  9
$UCSORGBACK
 10
0.0
 20
0.0
 30
0.0
  9
$PUCSBASE
  2

  9
$PUCSNAME
  2

  9
$PUCSORG
 10
0.0
 20
0.0
 30
0.0
  9
$PUCSXDIR
 10
1.0
 20
0.0
 30
0.0
  9
$PUCSYDIR
 10
0.0
 20
1.0
 30
0.0
  9
$PUCSORTHOREF
  2

  9
$PUCSORTHOVIEW
 70
     0
  9
$PUCSORGTOP
 10
0.0
 20
0.0
 30
0.0
  9
$PUCSORGBOTTOM
 10
0.0
 20
0.0
 30
0.0
  9
$PUCSORGLEFT
 10
0.0
 20
0.0
 30
0.0
  9
$PUCSORGRIGHT
 10
0.0
 20
0.0
 30
0.0
  9
$PUCSORGFRONT
 10
0.0
 20
0.0
 30
0.0
  9
$PUCSORGBACK
 10
0.0
 20
0.0
 30
0.0
  9
$USERI1
 70
     0
  9
$USERI2
 70
     0
  9
$USERI3
 70
     0
  9
$USERI4
 70
     0
  9
$USERI5
 70
     0
  9
$USERR1
 40
0.0
  9
$USERR2
 40
0.0
  9
$USERR3
 40
0.0
  9
$USERR4
 40
0.0
  9
$USERR5
 40
0.0
  9
$WORLDVIEW
 70
     1
  9
$SHADEDGE
 70
     3
  9
$SHADEDIF
 70
    70
  9
$TILEMODE
 70
     1
  9
$MAXACTVP
 70
    16
  9
$PINSBASE
 10
0.0
 20
0.0
 30
0.0
  9
$PLIMCHECK
 70
     0
  9
$PEXTMIN
 10
0.2112398939039579
 20
0.2346383041533784
 30
-0.0015258207003583
  9
$PEXTMAX
 10
7.732634235667847
 20
11.26153171017695
 30
0.0000000349246037
  9
$PLIMMIN
 10
-0.2417233276367187
 20
-0.2688165664672852
  9
$PLIMMAX
 10
8.160596618652341
 20
11.60822322845459
  9
$UNITMODE
 70
     0
  9
$VISRETAIN
 70
     0
  9
$PLINEGEN
 70
     0
  9
$PSLTSCALE
 70
     0
  9
$TREEDEPTH
 70
  3020
  9
$CMLSTYLE
  2
STANDARD
  9
$CMLJUST
 70
     0
  9
$CMLSCALE
 40
1.0
  9
$PROXYGRAPHICS
 70
     1
  9
$MEASUREMENT
 70
     0
  9
$CELWEIGHT
370
    -1
  9
$ENDCAPS
280
     0
  9
$JOINSTYLE
280
     0
  9
$LWDISPLAY
290
     0
  9
$INSUNITS
 70
     0
  9
$HYPERLINKBASE
  1

  9
$STYLESHEET
  1

  9
$XEDIT
290
     1
  9
$CEPSNTYPE
380
     0
  9
$PSTYLEMODE
290
     1
  9
$FINGERPRINTGUID
  2
{85A93EE0-FB4C-11D3-A568-0008C769B1B5}
  9
$VERSIONGUID
  2
{7E10D833-BE1C-48CA-8A0D-A710D06665F0}
  9
$EXTNAMES
290
     1
  9
$PSVPSCALE
 40
0.0
  9
$OLESTARTUP
290
     0
  0
ENDSEC
  0
SECTION
  2
CLASSES
  0
CLASS
  1
DICTIONARYVAR
  2
AcDbDictionaryVar
  3
AutoCAD 2000
 90
        0
280
     0
281
     0
  0
CLASS
  1
LWPOLYLINE
  2
AcDbPolyline
  3
AutoCAD 2000
 90
    32768
280
     0
281
     1
  0
CLASS
  1
ACDBDICTIONARYWDFLT
  2
AcDbDictionaryWithDefault
  3
AutoCAD 2000
 90
        0
280
     0
281
     0
  0
CLASS
  1
ACDBPLACEHOLDER
  2
AcDbPlaceHolder
  3
AutoCAD 2000
 90
        0
280
     0
281
     0
  0
CLASS
  1
LAYOUT
  2
AcDbLayout
  3
AutoCAD 2000
 90
        0
280
     0
281
     0
  0
ENDSEC
  0
SECTION
  2
TABLES
  0
TABLE
  2
VPORT
  5
8
330
0
100
AcDbSymbolTable
 70
     3
  0
VPORT
  5
122B
330
8
100
AcDbSymbolTableRecord
100
AcDbViewportTableRecord
  2
*Active
 70
     0
 10
0.0
 20
0.0
 11
1.0
 21
1.0
 12
322.5483416503833
 22
37.44677087861319
 13
0.0
 23
0.0
 14
1.0
 24
1.0
 15
10.0
 25
10.0
 16
0.0
 26
0.0
 36
1.0
 17
0.0
 27
0.0
 37
0.0
 40
16.71737531898441
 41
1.380110497237569
 42
50.0
 43
0.0
 44
0.0
 50
0.0
 51
0.0
 71
     0
 72
   100
 73
     1
 74
     0
 75
     0
 76
     0
 77
     0
 78
     1
281
     0
 65
     1
110
0.0
120
0.0
130
0.0
111
1.0
121
0.0
131
0.0
112
0.0
122
1.0
132
0.0
 79
     0
146
0.0
  0
ENDTAB
  0
TABLE
  2
LTYPE
  5
5
330
0
100
AcDbSymbolTable
 70
     1
  0
LTYPE
  5
11
330
5
100
AcDbSymbolTableRecord
100
AcDbLinetypeTableRecord
  2
BYBLOCK
 70
     0
  3

 72
    65
 73
     0
 40
0.0
  0
LTYPE
  5
12
330
5
100
AcDbSymbolTableRecord
100
AcDbLinetypeTableRecord
  2
BYLAYER
 70
     0
  3

 72
    65
 73
     0
 40
0.0
  0
LTYPE
  5
13
330
5
100
AcDbSymbolTableRecord
100
AcDbLinetypeTableRecord
  2
CONTINUOUS
 70
     0
  3
Solid line
 72
    65
 73
     0
 40
0.0
  0
ENDTAB
  0
TABLE
  2
LAYER
  5
2
330
0
100
AcDbSymbolTable
 70
     5
  0
LAYER
  5
E
330
2
100
AcDbSymbolTableRecord
100
AcDbLayerTableRecord
  2
0
 70
     0
 62
     7
  6
CONTINUOUS
370
    -3
390
FBF
  0
LAYER
  5
70C
330
2
100
AcDbSymbolTableRecord
100
AcDbLayerTableRecord
  2
DEFPOINTS
 70
     0
 62
     7
  6
CONTINUOUS
290
     0
370
    -3
390
FBF
  0
LAYER
  5
908
330
2
100
AcDbSymbolTableRecord
100
AcDbLayerTableRecord
  2
COTES
 70
     0
 62
     4
  6
CONTINUOUS
370
    -3
390
FBF
  0
LAYER
  5
909
330
2
100
AcDbSymbolTableRecord
100
AcDbLayerTableRecord
  2
SECCIO
 70
     0
 62
    30
  6
CONTINUOUS
370
    -3
390
FBF
  0
LAYER
  5
FD0
330
2
100
AcDbSymbolTableRecord
100
AcDbLayerTableRecord
  2
Finestra
 70
     0
 62
     7
  6
CONTINUOUS
290
     0
370
    -3
390
FBF
  0
ENDTAB
  0
TABLE
  2
STYLE
  5
3
330
0
100
AcDbSymbolTable
 70
     2
  0
STYLE
  5
F
330
3
100
AcDbSymbolTableRecord
100
AcDbTextStyleTableRecord
  2
STANDARD
 70
     0
 40
0.0
 41
1.0
 50
0.0
 71
     0
 42
0.1
  3
txt
  4

  0
STYLE
  5
1C
330
3
100
AcDbSymbolTableRecord
100
AcDbTextStyleTableRecord
  2
ROMANC
 70
     0
 40
0.0
 41
1.0
 50
0.0
 71
     0
 42
0.1
  3
romanc
  4

  0
ENDTAB
  0
TABLE
  2
VIEW
  5
6
330
0
100
AcDbSymbolTable
 70
     0
  0
ENDTAB
  0
TABLE
  2
UCS
  5
7
330
0
100
AcDbSymbolTable
 70
     0
  0
ENDTAB
  0
TABLE
  2
APPID
  5
9
330
0
100
AcDbSymbolTable
 70
     1
  0
APPID
  5
10
330
9
100
AcDbSymbolTableRecord
100
AcDbRegAppTableRecord
  2
ACAD
 70
     0
  0
ENDTAB
  0
TABLE
  2
DIMSTYLE
  5
A
330
0
100
AcDbSymbolTable
 70
     2
100
AcDbDimStyleTable
 71
     1
340
1F
  0
DIMSTYLE
105
1F
102
{ACAD_REACTORS
330
11AF
330
11BC
330
11C9
330
11DF
330
11EC
102
}
330
A
100
AcDbSymbolTableRecord
100
AcDbDimStyleTableRecord
  2
MERITXELL
 70
     0
 40
1.5
 41
0.1
 42
0.01
 43
7.0
 44
0.01
 73
     0
 74
     0
 77
     1
140
0.05
141
0.1
146
70.0
172
     1
174
     1
271
     2
272
     2
279
     2
340
1C
  0
DIMSTYLE
105
90A
102
{ACAD_REACTORS
330
91D
330
91C
330
91B
330
91A
330
910
330
90F
330
90E
330
90D
330
90C
330
919
330
918
330
92B
330
92A
330
929
330
928
330
927
330
926
330
925
330
924
330
923
330
922
330
921
102
}
330
A
100
AcDbSymbolTableRecord
100
AcDbDimStyleTableRecord
  2
STANDARD
 70
     0
 41
0.05
 42
0.08
 43
0.08
 44
0.08
 46
1.25
 73
     0
 74
     0
140
0.08
141
-0.08
143
0.039
145
1.0
147
0.08
176
    71
177
    71
178
     7
271
     2
272
     2
279
     2
340
F
341
386
342
386
  0
ENDTAB
  0
TABLE
  2
BLOCK_RECORD
  5
1
330
0
100
AcDbSymbolTable
 70
    36
  0
BLOCK_RECORD
  5
17
330
1
100
AcDbSymbolTableRecord
100
AcDbBlockTableRecord
  2
*MODEL_SPACE
340
FC2
  0
BLOCK_RECORD
  5
14
330
1
100
AcDbSymbolTableRecord
100
AcDbBlockTableRecord
  2
*PAPER_SPACE
340
FC3
  0
BLOCK_RECORD
  5
386
330
1
100
AcDbSymbolTableRecord
100
AcDbBlockTableRecord
  2
TICK
340
0
102
{BLKREFS
331
803
331
804
331
80F
331
810
331
81A
331
825
331
826
331
832
331
833
331
83E
331
83F
331
84A
331
84B
331
856
331
857
331
863
331
864
331
86F
331
870
331
87C
331
87D
331
888
331
889
331
894
331
895
331
8A0
331
8A1
331
8AD
331
8AE
331
8B9
331
8BA
331
8C6
331
8C7
331
8D2
331
8D3
331
8DE
331
8DF
331
8EA
331
8EB
331
8F7
331
8F8
331
902
102
}
  0
BLOCK_RECORD
  5
7FF
330
1
100
AcDbSymbolTableRecord
100
AcDbBlockTableRecord
  2
*D1
340
0
  0
BLOCK_RECORD
  5
80B
330
1
100
AcDbSymbolTableRecord
100
AcDbBlockTableRecord
  2
*D2
340
0
  0
BLOCK_RECORD
  5
817
330
1
100
AcDbSymbolTableRecord
100
AcDbBlockTableRecord
  2
*D3
340
0
  0
BLOCK_RECORD
  5
820
330
1
100
AcDbSymbolTableRecord
100
AcDbBlockTableRecord
  2
*D4
340
0
  0
BLOCK_RECORD
  5
82D
330
1
100
AcDbSymbolTableRecord
100
AcDbBlockTableRecord
  2
*D5
340
0
  0
BLOCK_RECORD
  5
83A
330
1
100
AcDbSymbolTableRecord
100
AcDbBlockTableRecord
  2
*D6
340
0
  0
BLOCK_RECORD
  5
846
330
1
100
AcDbSymbolTableRecord
100
AcDbBlockTableRecord
  2
*D7
340
0
  0
BLOCK_RECORD
  5
852
330
1
100
AcDbSymbolTableRecord
100
AcDbBlockTableRecord
  2
*D8
340
0
  0
BLOCK_RECORD
  5
85E
330
1
100
AcDbSymbolTableRecord
100
AcDbBlockTableRecord
  2
*D9
340
0
  0
BLOCK_RECORD
  5
86B
330
1
100
AcDbSymbolTableRecord
100
AcDbBlockTableRecord
  2
*D10
340
0
  0
BLOCK_RECORD
  5
877
330
1
100
AcDbSymbolTableRecord
100
AcDbBlockTableRecord
  2
*D11
340
0
  0
BLOCK_RECORD
  5
884
330
1
100
AcDbSymbolTableRecord
100
AcDbBlockTableRecord
  2
*D12
340
0
  0
BLOCK_RECORD
  5
890
330
1
100
AcDbSymbolTableRecord
100
AcDbBlockTableRecord
  2
*D13
340
0
  0
BLOCK_RECORD
  5
89C
330
1
100
AcDbSymbolTableRecord
100
AcDbBlockTableRecord
  2
*D14
340
0
  0
BLOCK_RECORD
  5
8A8
330
1
100
AcDbSymbolTableRecord
100
AcDbBlockTableRecord
  2
*D15
340
0
  0
BLOCK_RECORD
  5
8B5
330
1
100
AcDbSymbolTableRecord
100
AcDbBlockTableRecord
  2
*D16
340
0
  0
BLOCK_RECORD
  5
8C1
330
1
100
AcDbSymbolTableRecord
100
AcDbBlockTableRecord
  2
*D17
340
0
  0
BLOCK_RECORD
  5
8CE
330
1
100
AcDbSymbolTableRecord
100
AcDbBlockTableRecord
  2
*D18
340
0
  0
BLOCK_RECORD
  5
8DA
330
1
100
AcDbSymbolTableRecord
100
AcDbBlockTableRecord
  2
*D19
340
0
  0
BLOCK_RECORD
  5
8E6
330
1
100
AcDbSymbolTableRecord
100
AcDbBlockTableRecord
  2
*D20
340
0
  0
BLOCK_RECORD
  5
8F2
330
1
100
AcDbSymbolTableRecord
100
AcDbBlockTableRecord
  2
*D21
340
0
  0
BLOCK_RECORD
  5
8FF
330
1
100
AcDbSymbolTableRecord
100
AcDbBlockTableRecord
  2
*D22
340
0
  0
BLOCK_RECORD
  5
90B
330
1
100
AcDbSymbolTableRecord
100
AcDbBlockTableRecord
  2
VILADOMAT
340
0
  0
BLOCK_RECORD
  5
1003
330
1
100
AcDbSymbolTableRecord
100
AcDbBlockTableRecord
  2
*D24
340
0
  0
BLOCK_RECORD
  5
1010
330
1
100
AcDbSymbolTableRecord
100
AcDbBlockTableRecord
  2
*D25
340
0
  0
BLOCK_RECORD
  5
102F
330
1
100
AcDbSymbolTableRecord
100
AcDbBlockTableRecord
  2
*D26
340
0
  0
BLOCK_RECORD
  5
103C
330
1
100
AcDbSymbolTableRecord
100
AcDbBlockTableRecord
  2
*D27
340
0
  0
BLOCK_RECORD
  5
1060
330
1
100
AcDbSymbolTableRecord
100
AcDbBlockTableRecord
  2
*D28
340
0
  0
BLOCK_RECORD
  5
1076
330
1
100
AcDbSymbolTableRecord
100
AcDbBlockTableRecord
  2
*D29
340
0
  0
BLOCK_RECORD
  5
1095
330
1
100
AcDbSymbolTableRecord
100
AcDbBlockTableRecord
  2
*D30
340
0
  0
BLOCK_RECORD
  5
11B0
330
1
100
AcDbSymbolTableRecord
100
AcDbBlockTableRecord
  2
*D31
340
0
  0
BLOCK_RECORD
  5
11BD
330
1
100
AcDbSymbolTableRecord
100
AcDbBlockTableRecord
  2
*D32
340
0
  0
BLOCK_RECORD
  5
11CA
330
1
100
AcDbSymbolTableRecord
100
AcDbBlockTableRecord
  2
*D33
340
0
  0
BLOCK_RECORD
  5
11E0
330
1
100
AcDbSymbolTableRecord
100
AcDbBlockTableRecord
  2
*D34
340
0
  0
BLOCK_RECORD
  5
11ED
330
1
100
AcDbSymbolTableRecord
100
AcDbBlockTableRecord
  2
*D35
340
0
  0
ENDTAB
  0
ENDSEC
  0
SECTION
  2
BLOCKS
  0
BLOCK
  5
23
330
17
100
AcDbEntity
  8
0
100
AcDbBlockBegin
  2
*MODEL_SPACE
 70
     0
 10
0.0
 20
0.0
 30
0.0
  3
*MODEL_SPACE
  1

  0
ENDBLK
  5
24
330
17
100
AcDbEntity
  8
0
100
AcDbBlockEnd
  0
BLOCK
  5
21
330
14
100
AcDbEntity
 67
     1
  8
0
100
AcDbBlockBegin
  2
*PAPER_SPACE
 70
     0
 10
0.0
 20
0.0
 30
0.0
  3
*PAPER_SPACE
  1

  0
ENDBLK
  5
22
330
14
100
AcDbEntity
 67
     1
  8
0
100
AcDbBlockEnd
  0
BLOCK
  5
389
330
386
100
AcDbEntity
  8
0
100
AcDbBlockBegin
  2
TICK
 70
     0
 10
0.0
 20
0.0
 30
0.0
  3
TICK
  1

  0
LINE
  5
387
330
386
100
AcDbEntity
  8
0
  6
ByBlock
 62
     6
100
AcDbLine
 10
-1.0
 20
-1.0
 30
0.0
 11
1.0
 21
1.0
 31
0.0
  0
LINE
  5
388
330
386
100
AcDbEntity
  8
0
  6
ByBlock
 62
    71
100
AcDbLine
 10
0.0
 20
0.0
 30
0.0
 11
-1.0
 21
0.0
 31
0.0
  0
ENDBLK
  5
38A
330
386
100
AcDbEntity
  8
0
100
AcDbBlockEnd
  0
BLOCK
  5
809
330
7FF
100
AcDbEntity
  8
0
100
AcDbBlockBegin
  2
*D1
 70
     1
 10
0.0
 20
0.0
 30
0.0
  3
*D1
  1

  0
LINE
  5
800
330
7FF
100
AcDbEntity
  8
0
  6
ByBlock
 62
    71
100
AcDbLine
 10
142.0564547008901
 20
122.7782171102962
 30
0.0
 11
142.0564547008901
 21
123.0022307698278
 31
0.0
  0
LINE
  5
801
330
7FF
100
AcDbEntity
  8
0
  6
ByBlock
 62
    71
100
AcDbLine
 10
143.05645470089
 20
122.7782171102962
 30
0.0
 11
143.05645470089
 21
123.0022307698278
 31
0.0
  0
LINE
  5
802
330
7FF
100
AcDbEntity
  8
0
  6
ByBlock
 62
    71
100
AcDbLine
 10
142.1064547008901
 20
122.9222307698278
 30
0.0
 11
143.00645470089
 21
122.9222307698278
 31
0.0
  0
INSERT
  5
803
330
7FF
100
AcDbEntity
  8
0
  6
ByBlock
 62
    71
100
AcDbBlockReference
  2
TICK
 10
142.0564547008901
 20
122.9222307698278
 30
0.0
 41
0.05
 42
0.05
 43
0.05
 50
180.0
  0
INSERT
  5
804
330
7FF
100
AcDbEntity
  8
0
  6
ByBlock
 62
    71
100
AcDbBlockReference
  2
TICK
 10
143.05645470089
 20
122.9222307698278
 30
0.0
 41
0.05
 42
0.05
 43
0.05
  0
TEXT
  5
805
330
7FF
100
AcDbEntity
  8
0
  6
ByBlock
 62
     7
100
AcDbText
 10
142.4631213675567
 20
122.9622307698277
 30
0.0
 40
0.08
  1
1.00
 72
     1
 11
142.5564547008901
 21
123.0022307698278
 31
0.0
100
AcDbText
 73
     2
  0
POINT
  5
806
330
7FF
100
AcDbEntity
  8
DEFPOINTS
  6
ByBlock
 62
     0
100
AcDbPoint
 10
142.0564547008901
 20
122.6982171102962
 30
0.0
  0
POINT
  5
807
330
7FF
100
AcDbEntity
  8
DEFPOINTS
  6
ByBlock
 62
     0
100
AcDbPoint
 10
143.05645470089
 20
122.6982171102962
 30
0.0
  0
POINT
  5
808
330
7FF
100
AcDbEntity
  8
DEFPOINTS
  6
ByBlock
 62
     0
100
AcDbPoint
 10
143.05645470089
 20
122.9222307698278
 30
0.0
  0
ENDBLK
  5
80A
330
7FF
100
AcDbEntity
  8
0
100
AcDbBlockEnd
  0
BLOCK
  5
815
330
80B
100
AcDbEntity
  8
0
100
AcDbBlockBegin
  2
*D2
 70
     1
 10
0.0
 20
0.0
 30
0.0
  3
*D2
  1

  0
LINE
  5
80C
330
80B
100
AcDbEntity
  8
0
  6
ByBlock
 62
    71
100
AcDbLine
 10
143.05645470089
 20
122.7782171102962
 30
0.0
 11
143.05645470089
 21
123.0022307698278
 31
0.0
  0
LINE
  5
80D
330
80B
100
AcDbEntity
  8
0
  6
ByBlock
 62
    71
100
AcDbLine
 10
144.0564547008901
 20
122.4782171102962
 30
0.0
 11
144.0564547008901
 21
123.0022307698278
 31
0.0
  0
LINE
  5
80E
330
80B
100
AcDbEntity
  8
0
  6
ByBlock
 62
    71
100
AcDbLine
 10
143.1064547008901
 20
122.9222307698278
 30
0.0
 11
144.00645470089
 21
122.9222307698278
 31
0.0
  0
INSERT
  5
80F
330
80B
100
AcDbEntity
  8
0
  6
ByBlock
 62
    71
100
AcDbBlockReference
  2
TICK
 10
143.05645470089
 20
122.9222307698278
 30
0.0
 41
0.05
 42
0.05
 43
0.05
 50
180.0
  0
INSERT
  5
810
330
80B
100
AcDbEntity
  8
0
  6
ByBlock
 62
    71
100
AcDbBlockReference
  2
TICK
 10
144.0564547008901
 20
122.9222307698278
 30
0.0
 41
0.05
 42
0.05
 43
0.05
  0
TEXT
  5
811
330
80B
100
AcDbEntity
  8
0
  6
ByBlock
 62
     7
100
AcDbText
 10
143.4631213675567
 20
122.9622307698277
 30
0.0
 40
0.08
  1
1.00
 72
     1
 11
143.5564547008901
 21
123.0022307698278
 31
0.0
100
AcDbText
 73
     2
  0
POINT
  5
812
330
80B
100
AcDbEntity
  8
DEFPOINTS
  6
ByBlock
 62
     0
100
AcDbPoint
 10
143.05645470089
 20
122.6982171102962
 30
0.0
  0
POINT
  5
813
330
80B
100
AcDbEntity
  8
DEFPOINTS
  6
ByBlock
 62
     0
100
AcDbPoint
 10
144.0564547008901
 20
122.3982171102962
 30
0.0
  0
POINT
  5
814
330
80B
100
AcDbEntity
  8
DEFPOINTS
  6
ByBlock
 62
     0
100
AcDbPoint
 10
144.0564547008901
 20
122.9222307698278
 30
0.0
  0
ENDBLK
  5
816
330
80B
100
AcDbEntity
  8
0
100
AcDbBlockEnd
  0
BLOCK
  5
81E
330
817
100
AcDbEntity
  8
0
100
AcDbBlockBegin
  2
*D3
 70
     1
 10
0.0
 20
0.0
 30
0.0
  3
*D3
  1

  0
LINE
  5
818
330
817
100
AcDbEntity
  8
0
  6
ByBlock
 62
    71
100
AcDbLine
 10
143.05645470089
 20
124.9482171102962
 30
0.0
 11
143.05645470089
 21
124.5130954532914
 31
0.0
  0
LINE
  5
819
330
817
100
AcDbEntity
  8
0
  6
ByBlock
 62
    71
100
AcDbLine
 10
143.05645470089
 20
124.5130954532914
 30
0.0
 11
143.05645470089
 21
124.1130954532913
 31
0.0
  0
INSERT
  5
81A
330
817
100
AcDbEntity
  8
0
  6
ByBlock
 62
    71
100
AcDbBlockReference
  2
TICK
 10
143.05645470089
 20
124.9982171102962
 30
0.0
 41
0.05
 42
0.05
 43
0.05
 50
90.0
  0
TEXT
  5
81B
330
817
100
AcDbEntity
  8
0
  6
ByBlock
 62
     7
100
AcDbText
 10
143.0164547008901
 20
124.139762119958
 30
0.0
 40
0.08
  1
R1.00
 50
90.0
 72
     1
 11
142.9764547008901
 21
124.2730954532914
 31
0.0
100
AcDbText
 73
     2
  0
POINT
  5
81C
330
817
100
AcDbEntity
  8
DEFPOINTS
  6
ByBlock
 62
     0
100
AcDbPoint
 10
143.05645470089
 20
124.9982171102962
 30
0.0
  0
POINT
  5
81D
330
817
100
AcDbEntity
  8
DEFPOINTS
  6
ByBlock
 62
     0
100
AcDbPoint
 10
143.05645470089
 20
123.9982171102962
 30
0.0
  0
ENDBLK
  5
81F
330
817
100
AcDbEntity
  8
0
100
AcDbBlockEnd
  0
BLOCK
  5
82B
330
820
100
AcDbEntity
  8
0
100
AcDbBlockBegin
  2
*D4
 70
     1
 10
0.0
 20
0.0
 30
0.0
  3
*D4
  1

  0
LINE
  5
821
330
820
100
AcDbEntity
  8
0
  6
ByBlock
 62
    71
100
AcDbLine
 10
141.8064547008901
 20
122.0182171102963
 30
0.0
 11
141.8064547008901
 21
121.6547504873182
 31
0.0
  0
LINE
  5
822
330
820
100
AcDbEntity
  8
0
  6
ByBlock
 62
    71
100
AcDbLine
 10
142.0564547008901
 20
122.0164219618107
 30
0.0
 11
142.0564547008901
 21
121.6547504873182
 31
0.0
  0
LINE
  5
823
330
820
100
AcDbEntity
  8
0
  6
ByBlock
 62
    71
100
AcDbLine
 10
141.75645470089
 20
121.7347504873182
 30
0.0
 11
141.7064547008901
 21
121.7347504873182
 31
0.0
  0
LINE
  5
824
330
820
100
AcDbEntity
  8
0
  6
ByBlock
 62
    71
100
AcDbLine
 10
142.1064547008901
 20
121.7347504873182
 30
0.0
 11
142.15645470089
 21
121.7347504873182
 31
0.0
  0
INSERT
  5
825
330
820
100
AcDbEntity
  8
0
  6
ByBlock
 62
    71
100
AcDbBlockReference
  2
TICK
 10
141.8064547008901
 20
121.7347504873182
 30
0.0
 41
0.05
 42
0.05
 43
0.05
  0
INSERT
  5
826
330
820
100
AcDbEntity
  8
0
  6
ByBlock
 62
    71
100
AcDbBlockReference
  2
TICK
 10
142.0564547008901
 20
121.7347504873182
 30
0.0
 41
0.05
 42
0.05
 43
0.05
 50
180.0
  0
TEXT
  5
827
330
820
100
AcDbEntity
  8
0
  6
ByBlock
 62
     7
100
AcDbText
 10
141.8129072631657
 20
121.5150813509253
 30
0.0
 40
0.08
  1
0.25
 72
     1
 11
141.9262405964991
 21
121.5550813509254
 31
0.0
100
AcDbText
 73
     2
  0
POINT
  5
828
330
820
100
AcDbEntity
  8
DEFPOINTS
  6
ByBlock
 62
     0
100
AcDbPoint
 10
141.8064547008901
 20
122.0982171102962
 30
0.0
  0
POINT
  5
829
330
820
100
AcDbEntity
  8
DEFPOINTS
  6
ByBlock
 62
     0
100
AcDbPoint
 10
142.0564547008901
 20
122.0964219618105
 30
0.0
  0
POINT
  5
82A
330
820
100
AcDbEntity
  8
DEFPOINTS
  6
ByBlock
 62
     0
100
AcDbPoint
 10
142.0564547008901
 20
121.7347504873182
 30
0.0
  0
ENDBLK
  5
82C
330
820
100
AcDbEntity
  8
0
100
AcDbBlockEnd
  0
BLOCK
  5
838
330
82D
100
AcDbEntity
  8
0
100
AcDbBlockBegin
  2
*D5
 70
     1
 10
0.0
 20
0.0
 30
0.0
  3
*D5
  1

  0
LINE
  5
82E
330
82D
100
AcDbEntity
  8
0
  6
ByBlock
 62
    71
100
AcDbLine
 10
144.0564547008901
 20
122.0189400884807
 30
0.0
 11
144.0564547008901
 21
121.655684509619
 31
0.0
  0
LINE
  5
82F
330
82D
100
AcDbEntity
  8
0
  6
ByBlock
 62
    71
100
AcDbLine
 10
144.30645470089
 20
122.0182171102963
 30
0.0
 11
144.30645470089
 21
121.655684509619
 31
0.0
  0
LINE
  5
830
330
82D
100
AcDbEntity
  8
0
  6
ByBlock
 62
    71
100
AcDbLine
 10
144.00645470089
 20
121.735684509619
 30
0.0
 11
143.9564547008901
 21
121.735684509619
 31
0.0
  0
LINE
  5
831
330
82D
100
AcDbEntity
  8
0
  6
ByBlock
 62
    71
100
AcDbLine
 10
144.3564547008901
 20
121.735684509619
 30
0.0
 11
144.4064547008901
 21
121.735684509619
 31
0.0
  0
INSERT
  5
832
330
82D
100
AcDbEntity
  8
0
  6
ByBlock
 62
    71
100
AcDbBlockReference
  2
TICK
 10
144.0564547008901
 20
121.735684509619
 30
0.0
 41
0.05
 42
0.05
 43
0.05
  0
INSERT
  5
833
330
82D
100
AcDbEntity
  8
0
  6
ByBlock
 62
    71
100
AcDbBlockReference
  2
TICK
 10
144.30645470089
 20
121.735684509619
 30
0.0
 41
0.05
 42
0.05
 43
0.05
 50
180.0
  0
TEXT
  5
834
330
82D
100
AcDbEntity
  8
0
  6
ByBlock
 62
     7
100
AcDbText
 10
144.0840341345211
 20
121.5150813509253
 30
0.0
 40
0.08
  1
0.25
 72
     1
 11
144.1973674678544
 21
121.5550813509254
 31
0.0
100
AcDbText
 73
     2
  0
POINT
  5
835
330
82D
100
AcDbEntity
  8
DEFPOINTS
  6
ByBlock
 62
     0
100
AcDbPoint
 10
144.0564547008901
 20
122.0989400884808
 30
0.0
  0
POINT
  5
836
330
82D
100
AcDbEntity
  8
DEFPOINTS
  6
ByBlock
 62
     0
100
AcDbPoint
 10
144.30645470089
 20
122.0982171102962
 30
0.0
  0
POINT
  5
837
330
82D
100
AcDbEntity
  8
DEFPOINTS
  6
ByBlock
 62
     0
100
AcDbPoint
 10
144.30645470089
 20
121.735684509619
 30
0.0
  0
ENDBLK
  5
839
330
82D
100
AcDbEntity
  8
0
100
AcDbBlockEnd
  0
BLOCK
  5
844
330
83A
100
AcDbEntity
  8
0
100
AcDbBlockBegin
  2
*D6
 70
     1
 10
0.0
 20
0.0
 30
0.0
  3
*D6
  1

  0
LINE
  5
83B
330
83A
100
AcDbEntity
  8
0
  6
ByBlock
 62
    71
100
AcDbLine
 10
144.3864547008901
 20
122.0982171102962
 30
0.0
 11
144.9731539305435
 21
122.0982171102962
 31
0.0
  0
LINE
  5
83C
330
83A
100
AcDbEntity
  8
0
  6
ByBlock
 62
    71
100
AcDbLine
 10
144.3850215320364
 20
122.3982171102962
 30
0.0
 11
144.9731539305435
 21
122.3982171102962
 31
0.0
  0
LINE
  5
83D
330
83A
100
AcDbEntity
  8
0
  6
ByBlock
 62
    71
100
AcDbLine
 10
144.8931539305434
 20
122.1482171102962
 30
0.0
 11
144.8931539305434
 21
122.3482171102961
 31
0.0
  0
INSERT
  5
83E
330
83A
100
AcDbEntity
  8
0
  6
ByBlock
 62
    71
100
AcDbBlockReference
  2
TICK
 10
144.8931539305434
 20
122.0982171102962
 30
0.0
 41
0.05
 42
0.05
 43
0.05
 50
270.0
  0
INSERT
  5
83F
330
83A
100
AcDbEntity
  8
0
  6
ByBlock
 62
    71
100
AcDbBlockReference
  2
TICK
 10
144.8931539305434
 20
122.3982171102962
 30
0.0
 41
0.05
 42
0.05
 43
0.05
 50
90.0
  0
TEXT
  5
840
330
83A
100
AcDbEntity
  8
0
  6
ByBlock
 62
     7
100
AcDbText
 10
145.0832795267952
 20
122.1504496643212
 30
0.0
 40
0.08
  1
0.30
 50
90.0
 72
     1
 11
145.0432795267952
 21
122.2571163309879
 31
0.0
100
AcDbText
 73
     2
  0
POINT
  5
841
330
83A
100
AcDbEntity
  8
DEFPOINTS
  6
ByBlock
 62
     0
100
AcDbPoint
 10
144.30645470089
 20
122.0982171102962
 30
0.0
  0
POINT
  5
842
330
83A
100
AcDbEntity
  8
DEFPOINTS
  6
ByBlock
 62
     0
100
AcDbPoint
 10
144.3050215320363
 20
122.3982171102962
 30
0.0
  0
POINT
  5
843
330
83A
100
AcDbEntity
  8
DEFPOINTS
  6
ByBlock
 62
     0
100
AcDbPoint
 10
144.8931539305434
 20
122.3982171102962
 30
0.0
  0
ENDBLK
  5
845
330
83A
100
AcDbEntity
  8
0
100
AcDbBlockEnd
  0
BLOCK
  5
850
330
846
100
AcDbEntity
  8
0
100
AcDbBlockBegin
  2
*D7
 70
     1
 10
0.0
 20
0.0
 30
0.0
  3
*D7
  1

  0
LINE
  5
847
330
846
100
AcDbEntity
  8
0
  6
ByBlock
 62
    71
100
AcDbLine
 10
144.3850215320364
 20
122.3982171102962
 30
0.0
 11
144.9731539305435
 21
122.3982171102962
 31
0.0
  0
LINE
  5
848
330
846
100
AcDbEntity
  8
0
  6
ByBlock
 62
    71
100
AcDbLine
 10
144.3871490056235
 20
124.0019798712444
 30
0.0
 11
144.9731539305435
 21
124.0019798712444
 31
0.0
  0
LINE
  5
849
330
846
100
AcDbEntity
  8
0
  6
ByBlock
 62
    71
100
AcDbLine
 10
144.8931539305434
 20
122.4482171102962
 30
0.0
 11
144.8931539305434
 21
123.9519798712444
 31
0.0
  0
INSERT
  5
84A
330
846
100
AcDbEntity
  8
0
  6
ByBlock
 62
    71
100
AcDbBlockReference
  2
TICK
 10
144.8931539305434
 20
122.3982171102962
 30
0.0
 41
0.05
 42
0.05
 43
0.05
 50
270.0
  0
INSERT
  5
84B
330
846
100
AcDbEntity
  8
0
  6
ByBlock
 62
    71
100
AcDbBlockReference
  2
TICK
 10
144.8931539305434
 20
124.0019798712444
 30
0.0
 41
0.05
 42
0.05
 43
0.05
 50
90.0
  0
TEXT
  5
84C
330
846
100
AcDbEntity
  8
0
  6
ByBlock
 62
     7
100
AcDbText
 10
144.8531539305434
 20
123.1000984907703
 30
0.0
 40
0.08
  1
1.60
 50
90.0
 72
     1
 11
144.8131539305435
 21
123.2000984907702
 31
0.0
100
AcDbText
 73
     2
  0
POINT
  5
84D
330
846
100
AcDbEntity
  8
DEFPOINTS
  6
ByBlock
 62
     0
100
AcDbPoint
 10
144.3050215320363
 20
122.3982171102962
 30
0.0
  0
POINT
  5
84E
330
846
100
AcDbEntity
  8
DEFPOINTS
  6
ByBlock
 62
     0
100
AcDbPoint
 10
144.3071490056235
 20
124.0019798712444
 30
0.0
  0
POINT
  5
84F
330
846
100
AcDbEntity
  8
DEFPOINTS
  6
ByBlock
 62
     0
100
AcDbPoint
 10
144.8931539305434
 20
124.0019798712444
 30
0.0
  0
ENDBLK
  5
851
330
846
100
AcDbEntity
  8
0
100
AcDbBlockEnd
  0
BLOCK
  5
85C
330
852
100
AcDbEntity
  8
0
100
AcDbBlockBegin
  2
*D8
 70
     1
 10
0.0
 20
0.0
 30
0.0
  3
*D8
  1

  0
LINE
  5
853
330
852
100
AcDbEntity
  8
0
  6
ByBlock
 62
    71
100
AcDbLine
 10
144.3850215320364
 20
124.0019798712444
 30
0.0
 11
144.9731539305435
 21
124.0019798712444
 31
0.0
  0
LINE
  5
854
330
852
100
AcDbEntity
  8
0
  6
ByBlock
 62
    71
100
AcDbLine
 10
143.9715221527214
 20
124.9982171102962
 30
0.0
 11
144.9731539305435
 21
124.9982171102962
 31
0.0
  0
LINE
  5
855
330
852
100
AcDbEntity
  8
0
  6
ByBlock
 62
    71
100
AcDbLine
 10
144.8931539305434
 20
124.0519798712444
 30
0.0
 11
144.8931539305434
 21
124.9482171102962
 31
0.0
  0
INSERT
  5
856
330
852
100
AcDbEntity
  8
0
  6
ByBlock
 62
    71
100
AcDbBlockReference
  2
TICK
 10
144.8931539305434
 20
124.0019798712444
 30
0.0
 41
0.05
 42
0.05
 43
0.05
 50
270.0
  0
INSERT
  5
857
330
852
100
AcDbEntity
  8
0
  6
ByBlock
 62
    71
100
AcDbBlockReference
  2
TICK
 10
144.8931539305434
 20
124.9982171102962
 30
0.0
 41
0.05
 42
0.05
 43
0.05
 50
90.0
  0
TEXT
  5
858
330
852
100
AcDbEntity
  8
0
  6
ByBlock
 62
     7
100
AcDbText
 10
144.8531539305434
 20
124.4067651574369
 30
0.0
 40
0.08
  1
1.00
 50
90.0
 72
     1
 11
144.8131539305435
 21
124.5000984907703
 31
0.0
100
AcDbText
 73
     2
  0
POINT
  5
859
330
852
100
AcDbEntity
  8
DEFPOINTS
  6
ByBlock
 62
     0
100
AcDbPoint
 10
144.3050215320363
 20
124.0019798712444
 30
0.0
  0
POINT
  5
85A
330
852
100
AcDbEntity
  8
DEFPOINTS
  6
ByBlock
 62
     0
100
AcDbPoint
 10
143.8915221527215
 20
124.9982171102962
 30
0.0
  0
POINT
  5
85B
330
852
100
AcDbEntity
  8
DEFPOINTS
  6
ByBlock
 62
     0
100
AcDbPoint
 10
144.8931539305434
 20
124.9982171102962
 30
0.0
  0
ENDBLK
  5
85D
330
852
100
AcDbEntity
  8
0
100
AcDbBlockEnd
  0
BLOCK
  5
869
330
85E
100
AcDbEntity
  8
0
100
AcDbBlockBegin
  2
*D9
 70
     1
 10
0.0
 20
0.0
 30
0.0
  3
*D9
  1

  0
LINE
  5
85F
330
85E
100
AcDbEntity
  8
0
  6
ByBlock
 62
    71
100
AcDbLine
 10
143.884654709072
 20
124.9982171102962
 30
0.0
 11
144.9731539305435
 21
124.9982171102962
 31
0.0
  0
LINE
  5
860
330
85E
100
AcDbEntity
  8
0
  6
ByBlock
 62
    71
100
AcDbLine
 10
143.3922528000003
 20
125.2482171102962
 30
0.0
 11
144.9731539305435
 21
125.2482171102962
 31
0.0
  0
LINE
  5
861
330
85E
100
AcDbEntity
  8
0
  6
ByBlock
 62
    71
100
AcDbLine
 10
144.8931539305434
 20
124.9482171102962
 30
0.0
 11
144.8931539305434
 21
124.8982171102962
 31
0.0
  0
LINE
  5
862
330
85E
100
AcDbEntity
  8
0
  6
ByBlock
 62
    71
100
AcDbLine
 10
144.8931539305434
 20
125.2982171102962
 30
0.0
 11
144.8931539305434
 21
125.3482171102962
 31
0.0
  0
INSERT
  5
863
330
85E
100
AcDbEntity
  8
0
  6
ByBlock
 62
    71
100
AcDbBlockReference
  2
TICK
 10
144.8931539305434
 20
124.9982171102962
 30
0.0
 41
0.05
 42
0.05
 43
0.05
 50
90.0
  0
INSERT
  5
864
330
85E
100
AcDbEntity
  8
0
  6
ByBlock
 62
    71
100
AcDbBlockReference
  2
TICK
 10
144.8931539305434
 20
125.2482171102962
 30
0.0
 41
0.05
 42
0.05
 43
0.05
 50
270.0
  0
TEXT
  5
865
330
85E
100
AcDbEntity
  8
0
  6
ByBlock
 62
     7
100
AcDbText
 10
145.076459263925
 20
125.0268973837714
 30
0.0
 40
0.08
  1
0.25
 50
90.0
 72
     1
 11
145.036459263925
 21
125.1402307171048
 31
0.0
100
AcDbText
 73
     2
  0
POINT
  5
866
330
85E
100
AcDbEntity
  8
DEFPOINTS
  6
ByBlock
 62
     0
100
AcDbPoint
 10
143.804654709072
 20
124.9982171102962
 30
0.0
  0
POINT
  5
867
330
85E
100
AcDbEntity
  8
DEFPOINTS
  6
ByBlock
 62
     0
100
AcDbPoint
 10
143.3122528000004
 20
125.2482171102962
 30
0.0
  0
POINT
  5
868
330
85E
100
AcDbEntity
  8
DEFPOINTS
  6
ByBlock
 62
     0
100
AcDbPoint
 10
144.8931539305434
 20
125.2482171102962
 30
0.0
  0
ENDBLK
  5
86A
330
85E
100
AcDbEntity
  8
0
100
AcDbBlockEnd
  0
BLOCK
  5
875
330
86B
100
AcDbEntity
  8
0
100
AcDbBlockBegin
  2
*D10
 70
     1
 10
0.0
 20
0.0
 30
0.0
  3
*D10
  1

  0
LINE
  5
86C
330
86B
100
AcDbEntity
  8
0
  6
ByBlock
 62
    71
100
AcDbLine
 10
143.1364547008901
 20
122.3982171102962
 30
0.0
 11
143.3565591996224
 21
122.3982171102962
 31
0.0
  0
LINE
  5
86D
330
86B
100
AcDbEntity
  8
0
  6
ByBlock
 62
    71
100
AcDbLine
 10
143.1364547008901
 20
122.6982171102962
 30
0.0
 11
143.3565591996224
 21
122.6982171102962
 31
0.0
  0
LINE
  5
86E
330
86B
100
AcDbEntity
  8
0
  6
ByBlock
 62
    71
100
AcDbLine
 10
143.2765591996224
 20
122.4482171102962
 30
0.0
 11
143.2765591996224
 21
122.6482171102962
 31
0.0
  0
INSERT
  5
86F
330
86B
100
AcDbEntity
  8
0
  6
ByBlock
 62
    71
100
AcDbBlockReference
  2
TICK
 10
143.2765591996224
 20
122.3982171102962
 30
0.0
 41
0.05
 42
0.05
 43
0.05
 50
270.0
  0
INSERT
  5
870
330
86B
100
AcDbEntity
  8
0
  6
ByBlock
 62
    71
100
AcDbBlockReference
  2
TICK
 10
143.2765591996224
 20
122.6982171102962
 30
0.0
 41
0.05
 42
0.05
 43
0.05
 50
90.0
  0
TEXT
  5
871
330
86B
100
AcDbEntity
  8
0
  6
ByBlock
 62
     7
100
AcDbText
 10
143.2186731828831
 20
122.4468488754007
 30
0.0
 40
0.08
  1
0.30
 50
90.0
 72
     1
 11
143.1786731828831
 21
122.5535155420674
 31
0.0
100
AcDbText
 73
     2
  0
POINT
  5
872
330
86B
100
AcDbEntity
  8
DEFPOINTS
  6
ByBlock
 62
     0
100
AcDbPoint
 10
143.05645470089
 20
122.3982171102962
 30
0.0
  0
POINT
  5
873
330
86B
100
AcDbEntity
  8
DEFPOINTS
  6
ByBlock
 62
     0
100
AcDbPoint
 10
143.05645470089
 20
122.6982171102962
 30
0.0
  0
POINT
  5
874
330
86B
100
AcDbEntity
  8
DEFPOINTS
  6
ByBlock
 62
     0
100
AcDbPoint
 10
143.2765591996224
 20
122.6982171102962
 30
0.0
  0
ENDBLK
  5
876
330
86B
100
AcDbEntity
  8
0
100
AcDbBlockEnd
  0
BLOCK
  5
882
330
877
100
AcDbEntity
  8
0
100
AcDbBlockBegin
  2
*D11
 70
     1
 10
0.0
 20
0.0
 30
0.0
  3
*D11
  1

  0
LINE
  5
878
330
877
100
AcDbEntity
  8
0
  6
ByBlock
 62
    71
100
AcDbLine
 10
142.0564547008901
 20
122.0164219618107
 30
0.0
 11
142.0564547008901
 21
121.655684509619
 31
0.0
  0
LINE
  5
879
330
877
100
AcDbEntity
  8
0
  6
ByBlock
 62
    71
100
AcDbLine
 10
144.0564547008901
 20
122.0189400884807
 30
0.0
 11
144.0564547008901
 21
121.655684509619
 31
0.0
  0
LINE
  5
87A
330
877
100
AcDbEntity
  8
0
  6
ByBlock
 62
    71
100
AcDbLine
 10
142.1064547008901
 20
121.735684509619
 30
0.0
 11
142.8837700001543
 21
121.735684509619
 31
0.0
  0
LINE
  5
87B
330
877
100
AcDbEntity
  8
0
  6
ByBlock
 62
    71
100
AcDbLine
 10
144.00645470089
 20
121.735684509619
 30
0.0
 11
143.2875795239638
 21
121.735684509619
 31
0.0
  0
INSERT
  5
87C
330
877
100
AcDbEntity
  8
0
  6
ByBlock
 62
    71
100
AcDbBlockReference
  2
TICK
 10
142.0564547008901
 20
121.735684509619
 30
0.0
 41
0.05
 42
0.05
 43
0.05
 50
180.0
  0
INSERT
  5
87D
330
877
100
AcDbEntity
  8
0
  6
ByBlock
 62
    71
100
AcDbBlockReference
  2
TICK
 10
144.0564547008901
 20
121.735684509619
 30
0.0
 41
0.05
 42
0.05
 43
0.05
  0
TEXT
  5
87E
330
877
100
AcDbEntity
  8
0
  6
ByBlock
 62
     7
100
AcDbText
 10
142.9790080953924
 20
121.6922940680802
 30
0.0
 40
0.08
  1
2.00
 72
     1
 11
143.085674762059
 21
121.7322940680803
 31
0.0
100
AcDbText
 73
     2
  0
POINT
  5
87F
330
877
100
AcDbEntity
  8
DEFPOINTS
  6
ByBlock
 62
     0
100
AcDbPoint
 10
142.0564547008901
 20
122.0964219618105
 30
0.0
  0
POINT
  5
880
330
877
100
AcDbEntity
  8
DEFPOINTS
  6
ByBlock
 62
     0
100
AcDbPoint
 10
144.0564547008901
 20
122.0989400884808
 30
0.0
  0
POINT
  5
881
330
877
100
AcDbEntity
  8
DEFPOINTS
  6
ByBlock
 62
     0
100
AcDbPoint
 10
144.0564547008901
 20
121.735684509619
 30
0.0
  0
ENDBLK
  5
883
330
877
100
AcDbEntity
  8
0
100
AcDbBlockEnd
  0
BLOCK
  5
88E
330
884
100
AcDbEntity
  8
0
100
AcDbBlockBegin
  2
*D12
 70
     1
 10
0.0
 20
0.0
 30
0.0
  3
*D12
  1

  0
LINE
  5
885
330
884
100
AcDbEntity
  8
0
  6
ByBlock
 62
    71
100
AcDbLine
 10
153.7029679050353
 20
123.0595630964863
 30
0.0
 11
153.7029679050353
 21
123.3287794918295
 31
0.0
  0
LINE
  5
886
330
884
100
AcDbEntity
  8
0
  6
ByBlock
 62
    71
100
AcDbLine
 10
154.7029679050353
 20
123.0595630964863
 30
0.0
 11
154.7029679050353
 21
123.3287794918295
 31
0.0
  0
LINE
  5
887
330
884
100
AcDbEntity
  8
0
  6
ByBlock
 62
    71
100
AcDbLine
 10
153.7529679050354
 20
123.2487794918295
 30
0.0
 11
154.6529679050354
 21
123.2487794918295
 31
0.0
  0
INSERT
  5
888
330
884
100
AcDbEntity
  8
0
  6
ByBlock
 62
    71
100
AcDbBlockReference
  2
TICK
 10
153.7029679050353
 20
123.2487794918295
 30
0.0
 41
0.05
 42
0.05
 43
0.05
 50
180.0
  0
INSERT
  5
889
330
884
100
AcDbEntity
  8
0
  6
ByBlock
 62
    71
100
AcDbBlockReference
  2
TICK
 10
154.7029679050353
 20
123.2487794918295
 30
0.0
 41
0.05
 42
0.05
 43
0.05
  0
TEXT
  5
88A
330
884
100
AcDbEntity
  8
0
  6
ByBlock
 62
     7
100
AcDbText
 10
154.109634571702
 20
123.2887794918295
 30
0.0
 40
0.08
  1
1.00
 72
     1
 11
154.2029679050354
 21
123.3287794918295
 31
0.0
100
AcDbText
 73
     2
  0
POINT
  5
88B
330
884
100
AcDbEntity
  8
DEFPOINTS
  6
ByBlock
 62
     0
100
AcDbPoint
 10
153.7029679050353
 20
122.9795630964862
 30
0.0
  0
POINT
  5
88C
330
884
100
AcDbEntity
  8
DEFPOINTS
  6
ByBlock
 62
     0
100
AcDbPoint
 10
154.7029679050353
 20
122.9795630964862
 30
0.0
  0
POINT
  5
88D
330
884
100
AcDbEntity
  8
DEFPOINTS
  6
ByBlock
 62
     0
100
AcDbPoint
 10
154.7029679050353
 20
123.2487794918295
 30
0.0
  0
ENDBLK
  5
88F
330
884
100
AcDbEntity
  8
0
100
AcDbBlockEnd
  0
BLOCK
  5
89A
330
890
100
AcDbEntity
  8
0
100
AcDbBlockBegin
  2
*D13
 70
     1
 10
0.0
 20
0.0
 30
0.0
  3
*D13
  1

  0
LINE
  5
891
330
890
100
AcDbEntity
  8
0
  6
ByBlock
 62
    71
100
AcDbLine
 10
154.7029679050353
 20
123.0595630964863
 30
0.0
 11
154.7029679050353
 21
123.3287794918295
 31
0.0
  0
LINE
  5
892
330
890
100
AcDbEntity
  8
0
  6
ByBlock
 62
    71
100
AcDbLine
 10
155.5029679050354
 20
122.7595630964863
 30
0.0
 11
155.5029679050354
 21
123.3287794918295
 31
0.0
  0
LINE
  5
893
330
890
100
AcDbEntity
  8
0
  6
ByBlock
 62
    71
100
AcDbLine
 10
154.7529679050354
 20
123.2487794918295
 30
0.0
 11
155.4529679050354
 21
123.2487794918295
 31
0.0
  0
INSERT
  5
894
330
890
100
AcDbEntity
  8
0
  6
ByBlock
 62
    71
100
AcDbBlockReference
  2
TICK
 10
154.7029679050353
 20
123.2487794918295
 30
0.0
 41
0.05
 42
0.05
 43
0.05
 50
180.0
  0
INSERT
  5
895
330
890
100
AcDbEntity
  8
0
  6
ByBlock
 62
    71
100
AcDbBlockReference
  2
TICK
 10
155.5029679050354
 20
123.2487794918295
 30
0.0
 41
0.05
 42
0.05
 43
0.05
  0
TEXT
  5
896
330
890
100
AcDbEntity
  8
0
  6
ByBlock
 62
     7
100
AcDbText
 10
154.9963012383687
 20
123.2887794918295
 30
0.0
 40
0.08
  1
0.80
 72
     1
 11
155.1029679050353
 21
123.3287794918295
 31
0.0
100
AcDbText
 73
     2
  0
POINT
  5
897
330
890
100
AcDbEntity
  8
DEFPOINTS
  6
ByBlock
 62
     0
100
AcDbPoint
 10
154.7029679050353
 20
122.9795630964862
 30
0.0
  0
POINT
  5
898
330
890
100
AcDbEntity
  8
DEFPOINTS
  6
ByBlock
 62
     0
100
AcDbPoint
 10
155.5029679050354
 20
122.6795630964863
 30
0.0
  0
POINT
  5
899
330
890
100
AcDbEntity
  8
DEFPOINTS
  6
ByBlock
 62
     0
100
AcDbPoint
 10
155.5029679050354
 20
123.2487794918295
 30
0.0
  0
ENDBLK
  5
89B
330
890
100
AcDbEntity
  8
0
100
AcDbBlockEnd
  0
BLOCK
  5
8A6
330
89C
100
AcDbEntity
  8
0
100
AcDbBlockBegin
  2
*D14
 70
     1
 10
0.0
 20
0.0
 30
0.0
  3
*D14
  1

  0
LINE
  5
89D
330
89C
100
AcDbEntity
  8
0
  6
ByBlock
 62
    71
100
AcDbLine
 10
154.7829679050354
 20
122.6795630964863
 30
0.0
 11
155.0798494401021
 21
122.6795630964863
 31
0.0
  0
LINE
  5
89E
330
89C
100
AcDbEntity
  8
0
  6
ByBlock
 62
    71
100
AcDbLine
 10
154.7829679050354
 20
122.9795630964862
 30
0.0
 11
155.0798494401021
 21
122.9795630964862
 31
0.0
  0
LINE
  5
89F
330
89C
100
AcDbEntity
  8
0
  6
ByBlock
 62
    71
100
AcDbLine
 10
154.9998494401021
 20
122.7295630964863
 30
0.0
 11
154.9998494401021
 21
122.9295630964863
 31
0.0
  0
INSERT
  5
8A0
330
89C
100
AcDbEntity
  8
0
  6
ByBlock
 62
    71
100
AcDbBlockReference
  2
TICK
 10
154.9998494401021
 20
122.6795630964863
 30
0.0
 41
0.05
 42
0.05
 43
0.05
 50
270.0
  0
INSERT
  5
8A1
330
89C
100
AcDbEntity
  8
0
  6
ByBlock
 62
    71
100
AcDbBlockReference
  2
TICK
 10
154.9998494401021
 20
122.9795630964862
 30
0.0
 41
0.05
 42
0.05
 43
0.05
 50
90.0
  0
TEXT
  5
8A2
330
89C
100
AcDbEntity
  8
0
  6
ByBlock
 62
     7
100
AcDbText
 10
154.9598494401021
 20
122.7319089327306
 30
0.0
 40
0.08
  1
0.30
 50
90.0
 72
     1
 11
154.9198494401021
 21
122.8385755993973
 31
0.0
100
AcDbText
 73
     2
  0
POINT
  5
8A3
330
89C
100
AcDbEntity
  8
DEFPOINTS
  6
ByBlock
 62
     0
100
AcDbPoint
 10
154.7029679050353
 20
122.6795630964863
 30
0.0
  0
POINT
  5
8A4
330
89C
100
AcDbEntity
  8
DEFPOINTS
  6
ByBlock
 62
     0
100
AcDbPoint
 10
154.7029679050353
 20
122.9795630964862
 30
0.0
  0
POINT
  5
8A5
330
89C
100
AcDbEntity
  8
DEFPOINTS
  6
ByBlock
 62
     0
100
AcDbPoint
 10
154.9998494401021
 20
122.9795630964862
 30
0.0
  0
ENDBLK
  5
8A7
330
89C
100
AcDbEntity
  8
0
100
AcDbBlockEnd
  0
BLOCK
  5
8B3
330
8A8
100
AcDbEntity
  8
0
100
AcDbBlockBegin
  2
*D15
 70
     1
 10
0.0
 20
0.0
 30
0.0
  3
*D15
  1

  0
LINE
  5
8A9
330
8A8
100
AcDbEntity
  8
0
  6
ByBlock
 62
    71
100
AcDbLine
 10
153.4529679050353
 20
122.2995630964863
 30
0.0
 11
153.4529679050353
 21
121.9631349436115
 31
0.0
  0
LINE
  5
8AA
330
8A8
100
AcDbEntity
  8
0
  6
ByBlock
 62
    71
100
AcDbLine
 10
153.7029679050353
 20
122.2967412612234
 30
0.0
 11
153.7029679050353
 21
121.9631349436115
 31
0.0
  0
LINE
  5
8AB
330
8A8
100
AcDbEntity
  8
0
  6
ByBlock
 62
    71
100
AcDbLine
 10
153.4029679050354
 20
122.0431349436114
 30
0.0
 11
153.3529679050354
 21
122.0431349436114
 31
0.0
  0
LINE
  5
8AC
330
8A8
100
AcDbEntity
  8
0
  6
ByBlock
 62
    71
100
AcDbLine
 10
153.7529679050354
 20
122.0431349436114
 30
0.0
 11
153.8029679050353
 21
122.0431349436114
 31
0.0
  0
INSERT
  5
8AD
330
8A8
100
AcDbEntity
  8
0
  6
ByBlock
 62
    71
100
AcDbBlockReference
  2
TICK
 10
153.4529679050353
 20
122.0431349436114
 30
0.0
 41
0.05
 42
0.05
 43
0.05
  0
INSERT
  5
8AE
330
8A8
100
AcDbEntity
  8
0
  6
ByBlock
 62
    71
100
AcDbBlockReference
  2
TICK
 10
153.7029679050353
 20
122.0431349436114
 30
0.0
 41
0.05
 42
0.05
 43
0.05
 50
180.0
  0
TEXT
  5
8AF
330
8A8
100
AcDbEntity
  8
0
  6
ByBlock
 62
     7
100
AcDbText
 10
153.1477665491555
 20
122.0831349436114
 30
0.0
 40
0.08
  1
0.25
 72
     1
 11
153.2610998824889
 21
122.1231349436115
 31
0.0
100
AcDbText
 73
     2
  0
POINT
  5
8B0
330
8A8
100
AcDbEntity
  8
DEFPOINTS
  6
ByBlock
 62
     0
100
AcDbPoint
 10
153.4529679050353
 20
122.3795630964863
 30
0.0
  0
POINT
  5
8B1
330
8A8
100
AcDbEntity
  8
DEFPOINTS
  6
ByBlock
 62
     0
100
AcDbPoint
 10
153.7029679050353
 20
122.3767412612234
 30
0.0
  0
POINT
  5
8B2
330
8A8
100
AcDbEntity
  8
DEFPOINTS
  6
ByBlock
 62
     0
100
AcDbPoint
 10
153.7029679050353
 20
122.0431349436114
 30
0.0
  0
ENDBLK
  5
8B4
330
8A8
100
AcDbEntity
  8
0
100
AcDbBlockEnd
  0
BLOCK
  5
8BF
330
8B5
100
AcDbEntity
  8
0
100
AcDbBlockBegin
  2
*D16
 70
     1
 10
0.0
 20
0.0
 30
0.0
  3
*D16
  1

  0
LINE
  5
8B6
330
8B5
100
AcDbEntity
  8
0
  6
ByBlock
 62
    71
100
AcDbLine
 10
153.7029679050353
 20
122.2967412612234
 30
0.0
 11
153.7029679050353
 21
121.9631349436115
 31
0.0
  0
LINE
  5
8B7
330
8B5
100
AcDbEntity
  8
0
  6
ByBlock
 62
    71
100
AcDbLine
 10
155.5029679050354
 20
122.3002093719615
 30
0.0
 11
155.5029679050354
 21
121.9631349436115
 31
0.0
  0
LINE
  5
8B8
330
8B5
100
AcDbEntity
  8
0
  6
ByBlock
 62
    71
100
AcDbLine
 10
153.7529679050354
 20
122.0431349436114
 30
0.0
 11
155.4529679050354
 21
122.0431349436114
 31
0.0
  0
INSERT
  5
8B9
330
8B5
100
AcDbEntity
  8
0
  6
ByBlock
 62
    71
100
AcDbBlockReference
  2
TICK
 10
153.7029679050353
 20
122.0431349436114
 30
0.0
 41
0.05
 42
0.05
 43
0.05
 50
180.0
  0
INSERT
  5
8BA
330
8B5
100
AcDbEntity
  8
0
  6
ByBlock
 62
    71
100
AcDbBlockReference
  2
TICK
 10
155.5029679050354
 20
122.0431349436114
 30
0.0
 41
0.05
 42
0.05
 43
0.05
  0
TEXT
  5
8BB
330
8B5
100
AcDbEntity
  8
0
  6
ByBlock
 62
     7
100
AcDbText
 10
154.5029679050354
 20
122.0831349436114
 30
0.0
 40
0.08
  1
1.80
 72
     1
 11
154.6029679050354
 21
122.1231349436115
 31
0.0
100
AcDbText
 73
     2
  0
POINT
  5
8BC
330
8B5
100
AcDbEntity
  8
DEFPOINTS
  6
ByBlock
 62
     0
100
AcDbPoint
 10
153.7029679050353
 20
122.3767412612234
 30
0.0
  0
POINT
  5
8BD
330
8B5
100
AcDbEntity
  8
DEFPOINTS
  6
ByBlock
 62
     0
100
AcDbPoint
 10
155.5029679050354
 20
122.3802093719615
 30
0.0
  0
POINT
  5
8BE
330
8B5
100
AcDbEntity
  8
DEFPOINTS
  6
ByBlock
 62
     0
100
AcDbPoint
 10
155.5029679050354
 20
122.0431349436114
 30
0.0
  0
ENDBLK
  5
8C0
330
8B5
100
AcDbEntity
  8
0
100
AcDbBlockEnd
  0
BLOCK
  5
8CC
330
8C1
100
AcDbEntity
  8
0
100
AcDbBlockBegin
  2
*D17
 70
     1
 10
0.0
 20
0.0
 30
0.0
  3
*D17
  1

  0
LINE
  5
8C2
330
8C1
100
AcDbEntity
  8
0
  6
ByBlock
 62
    71
100
AcDbLine
 10
155.5029679050354
 20
122.3002093719615
 30
0.0
 11
155.5029679050354
 21
121.9631349436115
 31
0.0
  0
LINE
  5
8C3
330
8C1
100
AcDbEntity
  8
0
  6
ByBlock
 62
    71
100
AcDbLine
 10
155.7529679050354
 20
122.2995630964863
 30
0.0
 11
155.7529679050354
 21
121.9631349436115
 31
0.0
  0
LINE
  5
8C4
330
8C1
100
AcDbEntity
  8
0
  6
ByBlock
 62
    71
100
AcDbLine
 10
155.4529679050354
 20
122.0431349436114
 30
0.0
 11
155.4029679050354
 21
122.0431349436114
 31
0.0
  0
LINE
  5
8C5
330
8C1
100
AcDbEntity
  8
0
  6
ByBlock
 62
    71
100
AcDbLine
 10
155.8029679050353
 20
122.0431349436114
 30
0.0
 11
155.8529679050353
 21
122.0431349436114
 31
0.0
  0
INSERT
  5
8C6
330
8C1
100
AcDbEntity
  8
0
  6
ByBlock
 62
    71
100
AcDbBlockReference
  2
TICK
 10
155.5029679050354
 20
122.0431349436114
 30
0.0
 41
0.05
 42
0.05
 43
0.05
  0
INSERT
  5
8C7
330
8C1
100
AcDbEntity
  8
0
  6
ByBlock
 62
    71
100
AcDbBlockReference
  2
TICK
 10
155.7529679050354
 20
122.0431349436114
 30
0.0
 41
0.05
 42
0.05
 43
0.05
 50
180.0
  0
TEXT
  5
8C8
330
8C1
100
AcDbEntity
  8
0
  6
ByBlock
 62
     7
100
AcDbText
 10
155.8465484414474
 20
122.0831349436114
 30
0.0
 40
0.08
  1
0.25
 72
     1
 11
155.9598817747807
 21
122.1231349436115
 31
0.0
100
AcDbText
 73
     2
  0
POINT
  5
8C9
330
8C1
100
AcDbEntity
  8
DEFPOINTS
  6
ByBlock
 62
     0
100
AcDbPoint
 10
155.5029679050354
 20
122.3802093719615
 30
0.0
  0
POINT
  5
8CA
330
8C1
100
AcDbEntity
  8
DEFPOINTS
  6
ByBlock
 62
     0
100
AcDbPoint
 10
155.7529679050354
 20
122.3795630964863
 30
0.0
  0
POINT
  5
8CB
330
8C1
100
AcDbEntity
  8
DEFPOINTS
  6
ByBlock
 62
     0
100
AcDbPoint
 10
155.7529679050354
 20
122.0431349436114
 30
0.0
  0
ENDBLK
  5
8CD
330
8C1
100
AcDbEntity
  8
0
100
AcDbBlockEnd
  0
BLOCK
  5
8D8
330
8CE
100
AcDbEntity
  8
0
100
AcDbBlockBegin
  2
*D18
 70
     1
 10
0.0
 20
0.0
 30
0.0
  3
*D18
  1

  0
LINE
  5
8CF
330
8CE
100
AcDbEntity
  8
0
  6
ByBlock
 62
    71
100
AcDbLine
 10
155.8329679050354
 20
122.3795630964863
 30
0.0
 11
156.2310726707776
 21
122.3795630964863
 31
0.0
  0
LINE
  5
8D0
330
8CE
100
AcDbEntity
  8
0
  6
ByBlock
 62
    71
100
AcDbLine
 10
155.8338307698639
 20
122.6795630964863
 30
0.0
 11
156.2310726707776
 21
122.6795630964863
 31
0.0
  0
LINE
  5
8D1
330
8CE
100
AcDbEntity
  8
0
  6
ByBlock
 62
    71
100
AcDbLine
 10
156.1510726707776
 20
122.4295630964863
 30
0.0
 11
156.1510726707776
 21
122.6295630964863
 31
0.0
  0
INSERT
  5
8D2
330
8CE
100
AcDbEntity
  8
0
  6
ByBlock
 62
    71
100
AcDbBlockReference
  2
TICK
 10
156.1510726707776
 20
122.3795630964863
 30
0.0
 41
0.05
 42
0.05
 43
0.05
 50
270.0
  0
INSERT
  5
8D3
330
8CE
100
AcDbEntity
  8
0
  6
ByBlock
 62
    71
100
AcDbBlockReference
  2
TICK
 10
156.1510726707776
 20
122.6795630964863
 30
0.0
 41
0.05
 42
0.05
 43
0.05
 50
90.0
  0
TEXT
  5
8D4
330
8CE
100
AcDbEntity
  8
0
  6
ByBlock
 62
     7
100
AcDbText
 10
156.1110726707776
 20
122.426863623489
 30
0.0
 40
0.08
  1
0.30
 50
90.0
 72
     1
 11
156.0710726707776
 21
122.5335302901557
 31
0.0
100
AcDbText
 73
     2
  0
POINT
  5
8D5
330
8CE
100
AcDbEntity
  8
DEFPOINTS
  6
ByBlock
 62
     0
100
AcDbPoint
 10
155.7529679050354
 20
122.3795630964863
 30
0.0
  0
POINT
  5
8D6
330
8CE
100
AcDbEntity
  8
DEFPOINTS
  6
ByBlock
 62
     0
100
AcDbPoint
 10
155.7538307698639
 20
122.6795630964863
 30
0.0
  0
POINT
  5
8D7
330
8CE
100
AcDbEntity
  8
DEFPOINTS
  6
ByBlock
 62
     0
100
AcDbPoint
 10
156.1510726707776
 20
122.6795630964863
 30
0.0
  0
ENDBLK
  5
8D9
330
8CE
100
AcDbEntity
  8
0
100
AcDbBlockEnd
  0
BLOCK
  5
8E4
330
8DA
100
AcDbEntity
  8
0
100
AcDbBlockBegin
  2
*D19
 70
     1
 10
0.0
 20
0.0
 30
0.0
  3
*D19
  1

  0
LINE
  5
8DB
330
8DA
100
AcDbEntity
  8
0
  6
ByBlock
 62
    71
100
AcDbLine
 10
155.8338307698639
 20
122.6795630964863
 30
0.0
 11
156.2310726707776
 21
122.6795630964863
 31
0.0
  0
LINE
  5
8DC
330
8DA
100
AcDbEntity
  8
0
  6
ByBlock
 62
    71
100
AcDbLine
 10
155.8338307698639
 20
123.5795630964863
 30
0.0
 11
156.2310726707776
 21
123.5795630964863
 31
0.0
  0
LINE
  5
8DD
330
8DA
100
AcDbEntity
  8
0
  6
ByBlock
 62
    71
100
AcDbLine
 10
156.1510726707776
 20
122.7295630964863
 30
0.0
 11
156.1510726707776
 21
123.5295630964863
 31
0.0
  0
INSERT
  5
8DE
330
8DA
100
AcDbEntity
  8
0
  6
ByBlock
 62
    71
100
AcDbBlockReference
  2
TICK
 10
156.1510726707776
 20
122.6795630964863
 30
0.0
 41
0.05
 42
0.05
 43
0.05
 50
270.0
  0
INSERT
  5
8DF
330
8DA
100
AcDbEntity
  8
0
  6
ByBlock
 62
    71
100
AcDbBlockReference
  2
TICK
 10
156.1510726707776
 20
123.5795630964863
 30
0.0
 41
0.05
 42
0.05
 43
0.05
 50
90.0
  0
TEXT
  5
8E0
330
8DA
100
AcDbEntity
  8
0
  6
ByBlock
 62
     7
100
AcDbText
 10
156.1110726707776
 20
123.0228964298196
 30
0.0
 40
0.08
  1
0.90
 50
90.0
 72
     1
 11
156.0710726707776
 21
123.1295630964863
 31
0.0
100
AcDbText
 73
     2
  0
POINT
  5
8E1
330
8DA
100
AcDbEntity
  8
DEFPOINTS
  6
ByBlock
 62
     0
100
AcDbPoint
 10
155.7538307698639
 20
122.6795630964863
 30
0.0
  0
POINT
  5
8E2
330
8DA
100
AcDbEntity
  8
DEFPOINTS
  6
ByBlock
 62
     0
100
AcDbPoint
 10
155.7538307698639
 20
123.5795630964863
 30
0.0
  0
POINT
  5
8E3
330
8DA
100
AcDbEntity
  8
DEFPOINTS
  6
ByBlock
 62
     0
100
AcDbPoint
 10
156.1510726707776
 20
123.5795630964863
 30
0.0
  0
ENDBLK
  5
8E5
330
8DA
100
AcDbEntity
  8
0
100
AcDbBlockEnd
  0
BLOCK
  5
8F0
330
8E6
100
AcDbEntity
  8
0
100
AcDbBlockBegin
  2
*D20
 70
     1
 10
0.0
 20
0.0
 30
0.0
  3
*D20
  1

  0
LINE
  5
8E7
330
8E6
100
AcDbEntity
  8
0
  6
ByBlock
 62
    71
100
AcDbLine
 10
155.8338307698639
 20
123.5795630964863
 30
0.0
 11
156.2310726707776
 21
123.5795630964863
 31
0.0
  0
LINE
  5
8E8
330
8E6
100
AcDbEntity
  8
0
  6
ByBlock
 62
    71
100
AcDbLine
 10
155.3982569737852
 20
124.4795630964863
 30
0.0
 11
156.2310726707776
 21
124.4795630964863
 31
0.0
  0
LINE
  5
8E9
330
8E6
100
AcDbEntity
  8
0
  6
ByBlock
 62
    71
100
AcDbLine
 10
156.1510726707776
 20
123.6295630964863
 30
0.0
 11
156.1510726707776
 21
124.4295630964863
 31
0.0
  0
INSERT
  5
8EA
330
8E6
100
AcDbEntity
  8
0
  6
ByBlock
 62
    71
100
AcDbBlockReference
  2
TICK
 10
156.1510726707776
 20
123.5795630964863
 30
0.0
 41
0.05
 42
0.05
 43
0.05
 50
270.0
  0
INSERT
  5
8EB
330
8E6
100
AcDbEntity
  8
0
  6
ByBlock
 62
    71
100
AcDbBlockReference
  2
TICK
 10
156.1510726707776
 20
124.4795630964863
 30
0.0
 41
0.05
 42
0.05
 43
0.05
 50
90.0
  0
TEXT
  5
8EC
330
8E6
100
AcDbEntity
  8
0
  6
ByBlock
 62
     7
100
AcDbText
 10
156.1110726707776
 20
123.9228964298196
 30
0.0
 40
0.08
  1
0.90
 50
90.0
 72
     1
 11
156.0710726707776
 21
124.0295630964862
 31
0.0
100
AcDbText
 73
     2
  0
POINT
  5
8ED
330
8E6
100
AcDbEntity
  8
DEFPOINTS
  6
ByBlock
 62
     0
100
AcDbPoint
 10
155.7538307698639
 20
123.5795630964863
 30
0.0
  0
POINT
  5
8EE
330
8E6
100
AcDbEntity
  8
DEFPOINTS
  6
ByBlock
 62
     0
100
AcDbPoint
 10
155.3182569737853
 20
124.4795630964863
 30
0.0
  0
POINT
  5
8EF
330
8E6
100
AcDbEntity
  8
DEFPOINTS
  6
ByBlock
 62
     0
100
AcDbPoint
 10
156.1510726707776
 20
124.4795630964863
 30
0.0
  0
ENDBLK
  5
8F1
330
8E6
100
AcDbEntity
  8
0
100
AcDbBlockEnd
  0
BLOCK
  5
8FD
330
8F2
100
AcDbEntity
  8
0
100
AcDbBlockBegin
  2
*D21
 70
     1
 10
0.0
 20
0.0
 30
0.0
  3
*D21
  1

  0
LINE
  5
8F3
330
8F2
100
AcDbEntity
  8
0
  6
ByBlock
 62
    71
100
AcDbLine
 10
155.3982569737852
 20
124.4795630964863
 30
0.0
 11
156.2310726707776
 21
124.4795630964863
 31
0.0
  0
LINE
  5
8F4
330
8F2
100
AcDbEntity
  8
0
  6
ByBlock
 62
    71
100
AcDbLine
 10
154.8518573287063
 20
124.7295630964863
 30
0.0
 11
156.2310726707776
 21
124.7295630964863
 31
0.0
  0
LINE
  5
8F5
330
8F2
100
AcDbEntity
  8
0
  6
ByBlock
 62
    71
100
AcDbLine
 10
156.1510726707776
 20
124.4295630964863
 30
0.0
 11
156.1510726707776
 21
124.3795630964863
 31
0.0
  0
LINE
  5
8F6
330
8F2
100
AcDbEntity
  8
0
  6
ByBlock
 62
    71
100
AcDbLine
 10
156.1510726707776
 20
124.7795630964863
 30
0.0
 11
156.1510726707776
 21
124.8295630964862
 31
0.0
  0
INSERT
  5
8F7
330
8F2
100
AcDbEntity
  8
0
  6
ByBlock
 62
    71
100
AcDbBlockReference
  2
TICK
 10
156.1510726707776
 20
124.4795630964863
 30
0.0
 41
0.05
 42
0.05
 43
0.05
 50
90.0
  0
INSERT
  5
8F8
330
8F2
100
AcDbEntity
  8
0
  6
ByBlock
 62
    71
100
AcDbBlockReference
  2
TICK
 10
156.1510726707776
 20
124.7295630964863
 30
0.0
 41
0.05
 42
0.05
 43
0.05
 50
270.0
  0
TEXT
  5
8F9
330
8F2
100
AcDbEntity
  8
0
  6
ByBlock
 62
     7
100
AcDbText
 10
156.1110726707776
 20
124.8315945057487
 30
0.0
 40
0.08
  1
0.25
 50
90.0
 72
     1
 11
156.0710726707776
 21
124.944927839082
 31
0.0
100
AcDbText
 73
     2
  0
POINT
  5
8FA
330
8F2
100
AcDbEntity
  8
DEFPOINTS
  6
ByBlock
 62
     0
100
AcDbPoint
 10
155.3182569737853
 20
124.4795630964863
 30
0.0
  0
POINT
  5
8FB
330
8F2
100
AcDbEntity
  8
DEFPOINTS
  6
ByBlock
 62
     0
100
AcDbPoint
 10
154.7718573287063
 20
124.7295630964863
 30
0.0
  0
POINT
  5
8FC
330
8F2
100
AcDbEntity
  8
DEFPOINTS
  6
ByBlock
 62
     0
100
AcDbPoint
 10
156.1510726707776
 20
124.7295630964863
 30
0.0
  0
ENDBLK
  5
8FE
330
8F2
100
AcDbEntity
  8
0
100
AcDbBlockEnd
  0
BLOCK
  5
906
330
8FF
100
AcDbEntity
  8
0
100
AcDbBlockBegin
  2
*D22
 70
     1
 10
0.0
 20
0.0
 30
0.0
  3
*D22
  1

  0
LINE
  5
900
330
8FF
100
AcDbEntity
  8
0
  6
ByBlock
 62
    71
100
AcDbLine
 10
154.3990154634772
 20
124.4047318074676
 30
0.0
 11
154.5015297473135
 21
123.9899705091762
 31
0.0
  0
LINE
  5
901
330
8FF
100
AcDbEntity
  8
0
  6
ByBlock
 62
    71
100
AcDbLine
 10
154.5015297473135
 20
123.9899705091762
 30
0.0
 11
154.5975073668701
 21
123.6016558216557
 31
0.0
  0
INSERT
  5
902
330
8FF
100
AcDbEntity
  8
0
  6
ByBlock
 62
    71
100
AcDbBlockReference
  2
TICK
 10
154.3870182610326
 20
124.4532711434075
 30
0.0
 41
0.05
 42
0.05
 43
0.05
 50
103.8832381077352
  0
TEXT
  5
903
330
8FF
100
AcDbEntity
  8
0
  6
ByBlock
 62
     7
100
AcDbText
 10
154.5627559939621
 20
123.9089615107105
 30
0.0
 40
0.08
  1
R0.90
 50
283.8832381077353
 72
     1
 11
154.6367792565516
 21
123.7761772205753
 31
0.0
100
AcDbText
 73
     2
  0
POINT
  5
904
330
8FF
100
AcDbEntity
  8
DEFPOINTS
  6
ByBlock
 62
     0
100
AcDbPoint
 10
154.3870182610326
 20
124.4532711434075
 30
0.0
  0
POINT
  5
905
330
8FF
100
AcDbEntity
  8
DEFPOINTS
  6
ByBlock
 62
     0
100
AcDbPoint
 10
154.6029679050354
 20
123.5795630964863
 30
0.0
  0
ENDBLK
  5
907
330
8FF
100
AcDbEntity
  8
0
100
AcDbBlockEnd
  0
BLOCK
  5
936
330
90B
100
AcDbEntity
  8
0
100
AcDbBlockBegin
  2
VILADOMAT
 70
     0
 10
0.0
 20
0.0
 30
0.0
  3
VILADOMAT
  1

  0
DIMENSION
  5
90C
330
90B
100
AcDbEntity
  8
COTES
100
AcDbDimension
  2
*D9
 10
-5.873181786683261
 20
3.756355560202422
 30
0.0
 11
-5.729876453301643
 21
3.648369167011026
 31
0.0
 12
-150.7663357172268
 22
-121.4918615500937
 32
0.0
 70
   128
 71
     5
 42
-1.0
  3
STANDARD
100
AcDbAlignedDimension
 13
-6.961681008154782
 23
3.506355560202422
 33
0.0
 14
-7.454082917226401
 24
3.756355560202422
 34
0.0
 50
90.0
100
AcDbRotatedDimension
  0
DIMENSION
  5
90D
330
90B
100
AcDbEntity
  8
COTES
100
AcDbDimension
  2
*D8
 10
-5.873181786683261
 20
3.506355560202422
 30
0.0
 11
-5.953181786683272
 21
3.008236940676481
 31
0.0
 12
-150.7663357172268
 22
-121.4918615500937
 32
0.0
 71
     5
 42
-1.0
  3
STANDARD
100
AcDbAlignedDimension
 13
-6.461314185190389
 23
2.510118321150556
 33
0.0
 14
-6.874813564505273
 24
3.506355560202422
 34
0.0
 50
90.0
100
AcDbRotatedDimension
  0
DIMENSION
  5
90E
330
90B
100
AcDbEntity
  8
COTES
100
AcDbDimension
  2
*D7
 10
-5.873181786683261
 20
2.510118321150556
 30
0.0
 11
-5.953181786683272
 21
1.708236940676498
 31
0.0
 12
-150.7663357172268
 22
-121.4918615500937
 32
0.0
 71
     5
 42
-1.0
  3
STANDARD
100
AcDbAlignedDimension
 13
-6.461314185190389
 23
0.9063555602024278
 33
0.0
 14
-6.459186711603137
 24
2.510118321150556
 34
0.0
 50
90.0
100
AcDbRotatedDimension
  0
DIMENSION
  5
90F
330
90B
100
AcDbEntity
  8
COTES
100
AcDbDimension
  2
*D6
 10
-5.873181786683261
 20
0.9063555602024278
 30
0.0
 11
-5.723056190431548
 21
0.7652547808940824
 31
0.0
 12
-150.7663357172268
 22
-121.4918615500937
 32
0.0
 70
   128
 71
     5
 42
-1.0
  3
STANDARD
100
AcDbAlignedDimension
 13
-6.459881016336652
 23
0.6063555602024593
 33
0.0
 14
-6.461314185190389
 24
0.9063555602024278
 34
0.0
 50
90.0
100
AcDbRotatedDimension
  0
DIMENSION
  5
910
330
90B
100
AcDbEntity
  8
COTES
100
AcDbDimension
  2
*D5
 10
-6.459881016336652
 20
0.2438229595251613
 30
0.0
 11
-6.568968249372261
 21
0.0632198008316323
 31
0.0
 12
-150.7663357172268
 22
-121.4918615500937
 32
0.0
 70
   128
 71
     5
 42
-1.0
  3
STANDARD
100
AcDbAlignedDimension
 13
-6.709881016336652
 23
0.6070785383869861
 33
0.0
 14
-6.459881016336652
 24
0.6063555602024593
 34
0.0
100
AcDbRotatedDimension
  0
ARC
  5
911
330
90B
100
AcDbEntity
  8
SECCIO
100
AcDbCircle
 10
-7.709881016336652
 20
2.506355560202421
 30
0.0
 40
1.25
100
AcDbArc
 50
0.0
 51
180.0
  0
ARC
  5
912
330
90B
100
AcDbEntity
  8
SECCIO
100
AcDbCircle
 10
-7.709881016336652
 20
2.506355560202421
 30
0.0
 40
1.0
100
AcDbArc
 50
0.0000000000007994
 51
179.9999999999992
  0
LINE
  5
913
330
90B
100
AcDbEntity
  8
SECCIO
100
AcDbLine
 10
-6.459881016336652
 20
0.6063555602024593
 30
0.0
 11
-6.459881016336652
 21
2.506355560202421
 31
0.0
  0
LINE
  5
914
330
90B
100
AcDbEntity
  8
SECCIO
100
AcDbLine
 10
-8.709881016336652
 20
2.506355560202436
 30
0.0
 11
-8.709881016336652
 21
1.206355560202425
 31
0.0
  0
LINE
  5
915
330
90B
100
AcDbEntity
  8
SECCIO
100
AcDbLine
 10
-6.709881016336652
 20
0.9063555602024278
 30
0.0
 11
-6.709881016336652
 21
2.506355560202436
 31
0.0
  0
LINE
  5
916
330
90B
100
AcDbEntity
  8
SECCIO
100
AcDbLine
 10
-8.959881016336652
 20
2.506355560202421
 30
0.0
 11
-8.959881016336652
 21
0.6063555602024593
 31
0.0
  0
LINE
  5
917
330
90B
100
AcDbEntity
  8
SECCIO
100
AcDbLine
 10
-8.959881016336652
 20
0.6063555602024593
 30
0.0
 11
-6.459881016336652
 21
0.6063555602024593
 31
0.0
  0
DIMENSION
  5
918
330
90B
100
AcDbEntity
  8
COTES
100
AcDbDimension
  2
*D11
 10
-6.709881016336652
 20
0.2438229595251613
 30
0.0
 11
-7.680660955167668
 21
0.2404325179864486
 31
0.0
 12
-150.7663357172268
 22
-121.4918615500937
 32
0.0
 70
   128
 71
     5
 42
-1.0
  3
STANDARD
100
AcDbAlignedDimension
 13
-8.709881016336652
 23
0.6045604117168324
 33
0.0
 14
-6.709881016336652
 24
0.6070785383869861
 34
0.0
100
AcDbRotatedDimension
  0
DIMENSION
  5
919
330
90B
100
AcDbEntity
  8
COTES
100
AcDbDimension
  2
*D10
 10
-7.489776517604325
 20
1.206355560202425
 30
0.0
 11
-7.587662534343706
 21
1.061653991973584
 31
0.0
 12
-150.7663357172268
 22
-121.4918615500937
 32
0.0
 70
   128
 71
     5
 42
-1.0
  3
STANDARD
100
AcDbAlignedDimension
 13
-7.709881016336652
 23
0.9063555602024278
 33
0.0
 14
-7.709881016336652
 24
1.206355560202425
 34
0.0
 50
90.0
100
AcDbRotatedDimension
  0
DIMENSION
  5
91A
330
90B
100
AcDbEntity
  8
COTES
100
AcDbDimension
  2
*D4
 10
-8.709881016336652
 20
0.242888937224393
 30
0.0
 11
-8.840095120727625
 21
0.0632198008316323
 31
0.0
 12
-150.7663357172268
 22
-121.4918615500937
 32
0.0
 70
   128
 71
     5
 42
-1.0
  3
STANDARD
100
AcDbAlignedDimension
 13
-8.959881016336652
 23
0.6063555602024593
 33
0.0
 14
-8.709881016336652
 24
0.6045604117168324
 34
0.0
100
AcDbRotatedDimension
  0
DIMENSION
  5
91B
330
90B
100
AcDbEntity
  8
COTES
100
AcDbDimension
  2
*D3
 10
-7.709881016336652
 20
2.506355560202436
 30
0.0
 11
-7.789881016336663
 21
2.781233903197601
 31
0.0
 12
-150.7663357172268
 22
-121.4918615500937
 32
0.0
 70
     4
 71
     5
 42
-1.0
  3
STANDARD
100
AcDbRadialDimension
 15
-7.709881016336652
 25
3.506355560202422
 35
0.0
 40
-0.4851216570048282
  0
DIMENSION
  5
91C
330
90B
100
AcDbEntity
  8
COTES
100
AcDbDimension
  2
*D2
 10
-6.709881016336652
 20
1.430369219734018
 30
0.0
 11
-7.209881016336652
 21
1.510369219734015
 31
0.0
 12
-150.7663357172268
 22
-121.4918615500937
 32
0.0
 71
     5
 42
-1.0
  3
STANDARD
100
AcDbAlignedDimension
 13
-7.709881016336652
 23
1.206355560202425
 33
0.0
 14
-6.709881016336652
 24
0.9063555602024278
 34
0.0
100
AcDbRotatedDimension
  0
DIMENSION
  5
91D
330
90B
100
AcDbEntity
  8
COTES
100
AcDbDimension
  2
*D1
 10
-7.709881016336652
 20
1.430369219734018
 30
0.0
 11
-8.209881016336652
 21
1.510369219734015
 31
0.0
 12
-150.7663357172268
 22
-121.4918615500937
 32
0.0
 71
     5
 42
-1.0
  3
STANDARD
100
AcDbAlignedDimension
 13
-8.709881016336652
 23
1.206355560202425
 33
0.0
 14
-7.709881016336652
 24
1.206355560202425
 34
0.0
100
AcDbRotatedDimension
  0
LINE
  5
91E
330
90B
100
AcDbEntity
  8
SECCIO
100
AcDbLine
 10
-7.709881016336652
 20
0.9063555602024422
 30
0.0
 11
-6.709881016336652
 21
0.9063555602024138
 31
0.0
  0
LINE
  5
91F
330
90B
100
AcDbEntity
  8
SECCIO
100
AcDbLine
 10
-7.709881016336652
 20
1.206355560202425
 30
0.0
 11
-8.709881016336652
 21
1.206355560202425
 31
0.0
  0
LINE
  5
920
330
90B
100
AcDbEntity
  8
SECCIO
100
AcDbLine
 10
-7.709881016336652
 20
0.9063555602024278
 30
0.0
 11
-7.709881016336652
 21
1.206355560202425
 31
0.0
  0
DIMENSION
  5
921
330
90B
100
AcDbEntity
  8
COTES
100
AcDbDimension
  2
*D22
 10
-3.301087139114883
 20
2.087701546392465
 30
0.0
 11
-3.267275787598578
 21
2.284315670481531
 31
0.0
 12
-157.9040550441503
 22
-121.4918615500937
 32
0.0
 70
     4
 71
     5
 42
-1.0
  3
STANDARD
100
AcDbRadialDimension
 15
-3.517036783117531
 25
2.961409593313831
 35
0.0
 40
-0.4772424521868898
  0
DIMENSION
  5
922
330
90B
100
AcDbEntity
  8
COTES
100
AcDbDimension
  2
*D21
 10
-1.752982373372589
 20
3.237701546392471
 30
0.0
 11
-1.8329823733726
 21
3.453066288988238
 31
0.0
 12
-157.9040550441503
 22
-121.4918615500937
 32
0.0
 70
   128
 71
     5
 42
-1.0
  3
STANDARD
100
AcDbAlignedDimension
 13
-2.585798070365
 23
2.987701546392471
 33
0.0
 14
-3.132197715443964
 24
3.237701546392471
 34
0.0
 50
90.0
100
AcDbRotatedDimension
  0
DIMENSION
  5
923
330
90B
100
AcDbEntity
  8
COTES
100
AcDbDimension
  2
*D20
 10
-1.752982373372589
 20
2.987701546392471
 30
0.0
 11
-1.8329823733726
 21
2.537701546392469
 31
0.0
 12
-157.9040550441503
 22
-121.4918615500937
 32
0.0
 71
     5
 42
-1.0
  3
STANDARD
100
AcDbAlignedDimension
 13
-2.150224274286387
 23
2.087701546392465
 33
0.0
 14
-2.585798070365
 24
2.987701546392471
 34
0.0
 50
90.0
100
AcDbRotatedDimension
  0
DIMENSION
  5
924
330
90B
100
AcDbEntity
  8
COTES
100
AcDbDimension
  2
*D19
 10
-1.752982373372589
 20
2.087701546392465
 30
0.0
 11
-1.8329823733726
 21
1.637701546392463
 31
0.0
 12
-157.9040550441503
 22
-121.4918615500937
 32
0.0
 71
     5
 42
-1.0
  3
STANDARD
100
AcDbAlignedDimension
 13
-2.150224274286387
 23
1.18770154639246
 33
0.0
 14
-2.150224274286387
 24
2.087701546392465
 34
0.0
 50
90.0
100
AcDbRotatedDimension
  0
DIMENSION
  5
925
330
90B
100
AcDbEntity
  8
COTES
100
AcDbDimension
  2
*D18
 10
-1.752982373372589
 20
1.18770154639246
 30
0.0
 11
-1.8329823733726
 21
1.041668740061922
 31
0.0
 12
-157.9040550441503
 22
-121.4918615500937
 32
0.0
 70
   128
 71
     5
 42
-1.0
  3
STANDARD
100
AcDbAlignedDimension
 13
-2.151087139114905
 23
0.8877015463924633
 33
0.0
 14
-2.150224274286387
 24
1.18770154639246
 34
0.0
 50
90.0
100
AcDbRotatedDimension
  0
DIMENSION
  5
926
330
90B
100
AcDbEntity
  8
COTES
100
AcDbDimension
  2
*D17
 10
-2.151087139114905
 20
0.5512733935177039
 30
0.0
 11
-1.944173269369429
 21
0.6312733935177022
 31
0.0
 12
-157.9040550441503
 22
-121.4918615500937
 32
0.0
 70
   128
 71
     5
 42
-1.0
  3
STANDARD
100
AcDbAlignedDimension
 13
-2.401087139114877
 23
0.8883478218676684
 33
0.0
 14
-2.151087139114905
 24
0.8877015463924633
 34
0.0
100
AcDbRotatedDimension
  0
DIMENSION
  5
927
330
90B
100
AcDbEntity
  8
COTES
100
AcDbDimension
  2
*D16
 10
-2.401087139114877
 20
0.5512733935177039
 30
0.0
 11
-3.301087139114883
 21
0.6312733935177022
 31
0.0
 12
-157.9040550441503
 22
-121.4918615500937
 32
0.0
 71
     5
 42
-1.0
  3
STANDARD
100
AcDbAlignedDimension
 13
-4.201087139114888
 23
0.884879711129585
 33
0.0
 14
-2.401087139114877
 24
0.8883478218676684
 34
0.0
100
AcDbRotatedDimension
  0
DIMENSION
  5
928
330
90B
100
AcDbEntity
  8
COTES
100
AcDbDimension
  2
*D15
 10
-4.201087139114888
 20
0.5512733935177039
 30
0.0
 11
-4.642955161661375
 21
0.6312733935177022
 31
0.0
 12
-157.9040550441503
 22
-121.4918615500937
 32
0.0
 70
   128
 71
     5
 42
-1.0
  3
STANDARD
100
AcDbAlignedDimension
 13
-4.451087139114861
 23
0.8877015463924633
 33
0.0
 14
-4.201087139114888
 24
0.884879711129585
 34
0.0
100
AcDbRotatedDimension
  0
DIMENSION
  5
929
330
90B
100
AcDbEntity
  8
COTES
100
AcDbDimension
  2
*D14
 10
-2.90420560404803
 20
1.487701546392443
 30
0.0
 11
-2.984205604048041
 21
1.34671404930347
 31
0.0
 12
-157.9040550441503
 22
-121.4918615500937
 32
0.0
 70
   128
 71
     5
 42
-1.0
  3
STANDARD
100
AcDbAlignedDimension
 13
-3.201087139114888
 23
1.18770154639246
 33
0.0
 14
-3.201087139114888
 24
1.487701546392443
 34
0.0
 50
90.0
100
AcDbRotatedDimension
  0
DIMENSION
  5
92A
330
90B
100
AcDbEntity
  8
COTES
100
AcDbDimension
  2
*D13
 10
-2.401087139114877
 20
1.756917941735778
 30
0.0
 11
-2.801087139114883
 21
1.836917941735777
 31
0.0
 12
-157.9040550441503
 22
-121.4918615500937
 32
0.0
 71
     5
 42
-1.0
  3
STANDARD
100
AcDbAlignedDimension
 13
-3.201087139114888
 23
1.487701546392443
 33
0.0
 14
-2.401087139114877
 24
1.18770154639246
 34
0.0
100
AcDbRotatedDimension
  0
DIMENSION
  5
92B
330
90B
100
AcDbEntity
  8
COTES
100
AcDbDimension
  2
*D12
 10
-3.201087139114888
 20
1.756917941735778
 30
0.0
 11
-3.701087139114888
 21
1.836917941735777
 31
0.0
 12
-157.9040550441503
 22
-121.4918615500937
 32
0.0
 71
     5
 42
-1.0
  3
STANDARD
100
AcDbAlignedDimension
 13
-4.201087139114888
 23
1.487701546392456
 33
0.0
 14
-3.201087139114888
 24
1.487701546392443
 34
0.0
100
AcDbRotatedDimension
  0
LINE
  5
92C
330
90B
100
AcDbEntity
  8
SECCIO
100
AcDbLine
 10
-3.201087139114888
 20
1.18770154639246
 30
0.0
 11
-3.201087139114888
 21
1.487701546392443
 31
0.0
  0
LINE
  5
92D
330
90B
100
AcDbEntity
  8
SECCIO
100
AcDbLine
 10
-4.201087139114888
 20
1.487701546392456
 30
0.0
 11
-3.201087139114888
 21
1.487701546392443
 31
0.0
  0
LINE
  5
92E
330
90B
100
AcDbEntity
  8
SECCIO
100
AcDbLine
 10
-4.451087139114861
 20
0.8877015463924633
 30
0.0
 11
-4.451087139114888
 21
2.087701546392465
 31
0.0
  0
ARC
  5
92F
330
90B
100
AcDbEntity
  8
SECCIO
100
AcDbCircle
 10
-3.301087139114883
 20
2.087701546392465
 30
0.0
 40
1.150000000000005
100
AcDbArc
 50
0.0
 51
180.0
  0
LINE
  5
930
330
90B
100
AcDbEntity
  8
SECCIO
100
AcDbLine
 10
-2.151087139114905
 20
0.8877015463924633
 30
0.0
 11
-2.151087139114878
 21
2.087701546392465
 31
0.0
  0
LINE
  5
931
330
90B
100
AcDbEntity
  8
SECCIO
100
AcDbLine
 10
-3.201087139114888
 20
1.18770154639246
 30
0.0
 11
-2.401087139114877
 21
1.18770154639246
 31
0.0
  0
ARC
  5
932
330
90B
100
AcDbEntity
  8
SECCIO
100
AcDbCircle
 10
-3.301087139114883
 20
2.087701546392465
 30
0.0
 40
0.9000000000000055
100
AcDbArc
 50
0.0
 51
180.0
  0
LINE
  5
933
330
90B
100
AcDbEntity
  8
SECCIO
100
AcDbLine
 10
-4.201087139114888
 20
1.487701546392456
 30
0.0
 11
-4.201087139114888
 21
2.087701546392465
 31
0.0
  0
LINE
  5
934
330
90B
100
AcDbEntity
  8
SECCIO
100
AcDbLine
 10
-2.401087139114877
 20
1.18770154639246
 30
0.0
 11
-2.401087139114877
 21
2.087701546392465
 31
0.0
  0
LINE
  5
935
330
90B
100
AcDbEntity
  8
SECCIO
100
AcDbLine
 10
-4.451087139114861
 20
0.8877015463924633
 30
0.0
 11
-2.151087139114905
 21
0.8877015463924633
 31
0.0
  0
ENDBLK
  5
937
330
90B
100
AcDbEntity
  8
0
100
AcDbBlockEnd
  0
BLOCK
  5
100D
330
1003
100
AcDbEntity
  8
0
100
AcDbBlockBegin
  2
*D24
 70
     1
 10
0.0
 20
0.0
 30
0.0
  3
*D24
  1

  0
LINE
  5
1025
330
1003
100
AcDbEntity
  8
0
 62
     0
370
    -2
100
AcDbLine
 10
322.6095831532583
 20
35.36651566130531
 30
0.0
 11
322.6095831532583
 21
34.25714486947281
 31
0.0
  0
LINE
  5
1026
330
1003
100
AcDbEntity
  8
0
 62
     0
370
    -2
100
AcDbLine
 10
324.6095831532583
 20
35.36651566130531
 30
0.0
 11
324.6095831532583
 21
34.25714486947281
 31
0.0
  0
LINE
  5
1027
330
1003
100
AcDbEntity
  8
0
 62
     0
370
    -2
100
AcDbLine
 10
322.7595831532583
 20
34.27214486947281
 30
0.0
 11
324.4595831532585
 21
34.27214486947281
 31
0.0
  0
SOLID
  5
1028
330
1003
100
AcDbEntity
  8
0
 62
     0
100
AcDbTrace
 10
322.7595831532583
 20
34.29714486947281
 30
0.0
 11
322.7595831532583
 21
34.24714486947282
 31
0.0
 12
322.6095831532583
 22
34.27214486947281
 32
0.0
 13
322.6095831532583
 23
34.27214486947281
 33
0.0
  0
SOLID
  5
1029
330
1003
100
AcDbEntity
  8
0
 62
     0
100
AcDbTrace
 10
324.4595831532585
 20
34.29714486947281
 30
0.0
 11
324.4595831532585
 21
34.24714486947282
 31
0.0
 12
324.6095831532583
 22
34.27214486947281
 32
0.0
 13
324.6095831532583
 23
34.27214486947281
 33
0.0
  0
MTEXT
  5
102A
330
1003
100
AcDbEntity
  8
0
 62
     0
100
AcDbMText
 10
323.6095831532583
 20
34.34714486947282
 30
0.0
 40
0.075
 41
0.0
 71
     5
 72
     1
  1
\A1;2.00
  7
ROMANC
 73
     1
 44
1.0
  0
POINT
  5
102B
330
1003
100
AcDbEntity
  8
DEFPOINTS
 62
     0
100
AcDbPoint
 10
322.6095831532583
 20
35.38151566130531
 30
0.0
  0
POINT
  5
102C
330
1003
100
AcDbEntity
  8
DEFPOINTS
 62
     0
100
AcDbPoint
 10
324.6095831532583
 20
35.38151566130531
 30
0.0
  0
POINT
  5
102D
330
1003
100
AcDbEntity
  8
DEFPOINTS
 62
     0
100
AcDbPoint
 10
324.6095831532583
 20
34.27214486947281
 30
0.0
  0
ENDBLK
  5
100E
330
1003
100
AcDbEntity
  8
0
100
AcDbBlockEnd
  0
BLOCK
  5
101A
330
1010
100
AcDbEntity
  8
0
100
AcDbBlockBegin
  2
*D25
 70
     1
 10
0.0
 20
0.0
 30
0.0
  3
*D25
  1

  0
LINE
  5
1011
330
1010
100
AcDbEntity
  8
0
 62
     0
370
    -2
100
AcDbLine
 10
323.6245831532583
 20
34.83151566130532
 30
0.0
 11
324.9439118517853
 21
34.83151566130532
 31
0.0
  0
LINE
  5
1012
330
1010
100
AcDbEntity
  8
0
 62
     0
370
    -2
100
AcDbLine
 10
323.6245831532583
 20
36.23151566130529
 30
0.0
 11
324.9439118517853
 21
36.23151566130529
 31
0.0
  0
LINE
  5
1013
330
1010
100
AcDbEntity
  8
0
 62
     0
370
    -2
100
AcDbLine
 10
324.9289118517852
 20
34.9815156613053
 30
0.0
 11
324.9289118517852
 21
36.08151566130529
 31
0.0
  0
SOLID
  5
1014
330
1010
100
AcDbEntity
  8
0
 62
     0
100
AcDbTrace
 10
324.9039118517853
 20
34.9815156613053
 30
0.0
 11
324.9539118517853
 21
34.9815156613053
 31
0.0
 12
324.9289118517852
 22
34.83151566130532
 32
0.0
 13
324.9289118517852
 23
34.83151566130532
 33
0.0
  0
SOLID
  5
1015
330
1010
100
AcDbEntity
  8
0
 62
     0
100
AcDbTrace
 10
324.9039118517853
 20
36.08151566130529
 30
0.0
 11
324.9539118517853
 21
36.08151566130529
 31
0.0
 12
324.9289118517852
 22
36.23151566130529
 32
0.0
 13
324.9289118517852
 23
36.23151566130529
 33
0.0
  0
MTEXT
  5
1016
330
1010
100
AcDbEntity
  8
0
 62
     0
100
AcDbMText
 10
324.8539118517853
 20
35.53151566130535
 30
0.0
 40
0.075
 41
0.0
 71
     5
 72
     1
  1
\A1;1.40
  7
ROMANC
 11
0.0000000000000001
 21
1.0
 31
0.0
 73
     1
 44
1.0
  0
POINT
  5
1017
330
1010
100
AcDbEntity
  8
DEFPOINTS
 62
     0
100
AcDbPoint
 10
323.6095831532583
 20
34.83151566130532
 30
0.0
  0
POINT
  5
1018
330
1010
100
AcDbEntity
  8
DEFPOINTS
 62
     0
100
AcDbPoint
 10
323.6095831532583
 20
36.23151566130529
 30
0.0
  0
POINT
  5
1019
330
1010
100
AcDbEntity
  8
DEFPOINTS
 62
     0
100
AcDbPoint
 10
324.9289118517852
 20
36.23151566130529
 30
0.0
  0
ENDBLK
  5
101B
330
1010
100
AcDbEntity
  8
0
100
AcDbBlockEnd
  0
BLOCK
  5
1039
330
102F
100
AcDbEntity
  8
0
100
AcDbBlockBegin
  2
*D26
 70
     1
 10
0.0
 20
0.0
 30
0.0
  3
*D26
  1

  0
LINE
  5
1030
330
102F
100
AcDbEntity
  8
0
 62
     0
370
    -2
100
AcDbLine
 10
322.6095831532583
 20
35.36651566130531
 30
0.0
 11
322.6095831532583
 21
34.52484374800901
 31
0.0
  0
LINE
  5
1031
330
102F
100
AcDbEntity
  8
0
 62
     0
370
    -2
100
AcDbLine
 10
323.6095831532583
 20
34.81651566130532
 30
0.0
 11
323.6095831532583
 21
34.52484374800901
 31
0.0
  0
LINE
  5
1032
330
102F
100
AcDbEntity
  8
0
 62
     0
370
    -2
100
AcDbLine
 10
322.7595831532583
 20
34.53984374800901
 30
0.0
 11
323.4595831532585
 21
34.53984374800901
 31
0.0
  0
SOLID
  5
1033
330
102F
100
AcDbEntity
  8
0
 62
     0
100
AcDbTrace
 10
322.7595831532583
 20
34.56484374800901
 30
0.0
 11
322.7595831532583
 21
34.514843748009
 31
0.0
 12
322.6095831532583
 22
34.53984374800901
 32
0.0
 13
322.6095831532583
 23
34.53984374800901
 33
0.0
  0
SOLID
  5
1034
330
102F
100
AcDbEntity
  8
0
 62
     0
100
AcDbTrace
 10
323.4595831532585
 20
34.56484374800901
 30
0.0
 11
323.4595831532585
 21
34.514843748009
 31
0.0
 12
323.6095831532583
 22
34.53984374800901
 32
0.0
 13
323.6095831532583
 23
34.53984374800901
 33
0.0
  0
MTEXT
  5
1035
330
102F
100
AcDbEntity
  8
0
 62
     0
100
AcDbMText
 10
323.1095831532583
 20
34.614843748009
 30
0.0
 40
0.075
 41
0.0
 71
     5
 72
     1
  1
\A1;1.00
  7
ROMANC
 73
     1
 44
1.0
  0
POINT
  5
1036
330
102F
100
AcDbEntity
  8
DEFPOINTS
 62
     0
100
AcDbPoint
 10
322.6095831532583
 20
35.38151566130531
 30
0.0
  0
POINT
  5
1037
330
102F
100
AcDbEntity
  8
DEFPOINTS
 62
     0
100
AcDbPoint
 10
323.6095831532583
 20
34.83151566130532
 30
0.0
  0
POINT
  5
1038
330
102F
100
AcDbEntity
  8
DEFPOINTS
 62
     0
100
AcDbPoint
 10
323.6095831532583
 20
34.53984374800901
 30
0.0
  0
ENDBLK
  5
103A
330
102F
100
AcDbEntity
  8
0
100
AcDbBlockEnd
  0
BLOCK
  5
1046
330
103C
100
AcDbEntity
  8
0
100
AcDbBlockBegin
  2
*D27
 70
     1
 10
0.0
 20
0.0
 30
0.0
  3
*D27
  1

  0
LINE
  5
103D
330
103C
100
AcDbEntity
  8
0
 62
     0
370
    -2
100
AcDbLine
 10
323.6095831532583
 20
34.81651566130532
 30
0.0
 11
323.6095831532583
 21
34.52484374800901
 31
0.0
  0
LINE
  5
103E
330
103C
100
AcDbEntity
  8
0
 62
     0
370
    -2
100
AcDbLine
 10
324.6095831532583
 20
35.36651566130531
 30
0.0
 11
324.6095831532583
 21
34.52484374800901
 31
0.0
  0
LINE
  5
103F
330
103C
100
AcDbEntity
  8
0
 62
     0
370
    -2
100
AcDbLine
 10
323.7595831532583
 20
34.53984374800901
 30
0.0
 11
324.4595831532585
 21
34.53984374800901
 31
0.0
  0
SOLID
  5
1040
330
103C
100
AcDbEntity
  8
0
 62
     0
100
AcDbTrace
 10
323.7595831532583
 20
34.56484374800901
 30
0.0
 11
323.7595831532583
 21
34.514843748009
 31
0.0
 12
323.6095831532583
 22
34.53984374800901
 32
0.0
 13
323.6095831532583
 23
34.53984374800901
 33
0.0
  0
SOLID
  5
1041
330
103C
100
AcDbEntity
  8
0
 62
     0
100
AcDbTrace
 10
324.4595831532585
 20
34.56484374800901
 30
0.0
 11
324.4595831532585
 21
34.514843748009
 31
0.0
 12
324.6095831532583
 22
34.53984374800901
 32
0.0
 13
324.6095831532583
 23
34.53984374800901
 33
0.0
  0
MTEXT
  5
1042
330
103C
100
AcDbEntity
  8
0
 62
     0
100
AcDbMText
 10
324.1095831532585
 20
34.614843748009
 30
0.0
 40
0.075
 41
0.0
 71
     5
 72
     1
  1
\A1;1.00
  7
ROMANC
 73
     1
 44
1.0
  0
POINT
  5
1043
330
103C
100
AcDbEntity
  8
DEFPOINTS
 62
     0
100
AcDbPoint
 10
323.6095831532583
 20
34.83151566130532
 30
0.0
  0
POINT
  5
1044
330
103C
100
AcDbEntity
  8
DEFPOINTS
 62
     0
100
AcDbPoint
 10
324.6095831532583
 20
35.38151566130531
 30
0.0
  0
POINT
  5
1045
330
103C
100
AcDbEntity
  8
DEFPOINTS
 62
     0
100
AcDbPoint
 10
324.6095831532583
 20
34.53984374800901
 30
0.0
  0
ENDBLK
  5
1047
330
103C
100
AcDbEntity
  8
0
100
AcDbBlockEnd
  0
BLOCK
  5
106A
330
1060
100
AcDbEntity
  8
0
100
AcDbBlockBegin
  2
*D28
 70
     1
 10
0.0
 20
0.0
 30
0.0
  3
*D28
  1

  0
LINE
  5
1199
330
1060
100
AcDbEntity
  8
0
 62
     0
370
    -2
100
AcDbLine
 10
314.0079872441033
 20
38.09346965739096
 30
0.0
 11
314.0079872441033
 21
37.75061525090574
 31
0.0
  0
LINE
  5
119A
330
1060
100
AcDbEntity
  8
0
 62
     0
370
    -2
100
AcDbLine
 10
315.5079872441033
 20
38.09346965739096
 30
0.0
 11
315.5079872441033
 21
37.75061525090574
 31
0.0
  0
LINE
  5
119B
330
1060
100
AcDbEntity
  8
0
 62
     0
370
    -2
100
AcDbLine
 10
314.1579872441033
 20
37.76561525090574
 30
0.0
 11
315.3579872441033
 21
37.76561525090574
 31
0.0
  0
SOLID
  5
119C
330
1060
100
AcDbEntity
  8
0
 62
     0
100
AcDbTrace
 10
314.1579872441033
 20
37.79061525090574
 30
0.0
 11
314.1579872441033
 21
37.74061525090574
 31
0.0
 12
314.0079872441033
 22
37.76561525090574
 32
0.0
 13
314.0079872441033
 23
37.76561525090574
 33
0.0
  0
SOLID
  5
119D
330
1060
100
AcDbEntity
  8
0
 62
     0
100
AcDbTrace
 10
315.3579872441033
 20
37.79061525090574
 30
0.0
 11
315.3579872441033
 21
37.74061525090574
 31
0.0
 12
315.5079872441033
 22
37.76561525090574
 32
0.0
 13
315.5079872441033
 23
37.76561525090574
 33
0.0
  0
MTEXT
  5
119E
330
1060
100
AcDbEntity
  8
0
 62
     0
100
AcDbMText
 10
314.7579872441033
 20
37.84061525090574
 30
0.0
 40
0.075
 41
0.0
 71
     5
 72
     1
  1
\A1;0.30
  7
ROMANC
 73
     1
 44
1.0
  0
POINT
  5
119F
330
1060
100
AcDbEntity
  8
DEFPOINTS
 62
     0
100
AcDbPoint
 10
314.0079872441033
 20
38.10846965739096
 30
0.0
  0
POINT
  5
11A0
330
1060
100
AcDbEntity
  8
DEFPOINTS
 62
     0
100
AcDbPoint
 10
315.5079872441033
 20
38.10846965739096
 30
0.0
  0
POINT
  5
11A1
330
1060
100
AcDbEntity
  8
DEFPOINTS
 62
     0
100
AcDbPoint
 10
315.5079872441033
 20
37.76561525090574
 30
0.0
  0
ENDBLK
  5
106B
330
1060
100
AcDbEntity
  8
0
100
AcDbBlockEnd
  0
BLOCK
  5
1080
330
1076
100
AcDbEntity
  8
0
100
AcDbBlockBegin
  2
*D29
 70
     1
 10
0.0
 20
0.0
 30
0.0
  3
*D29
  1

  0
LINE
  5
1190
330
1076
100
AcDbEntity
  8
0
 62
     0
370
    -2
100
AcDbLine
 10
313.5079872441033
 20
40.09346965739096
 30
0.0
 11
313.5079872441033
 21
37.39135983094229
 31
0.0
  0
LINE
  5
1191
330
1076
100
AcDbEntity
  8
0
 62
     0
370
    -2
100
AcDbLine
 10
316.0229872441033
 20
40.09346965739099
 30
0.0
 11
316.0229872441033
 21
37.39135983094229
 31
0.0
  0
LINE
  5
1192
330
1076
100
AcDbEntity
  8
0
 62
     0
370
    -2
100
AcDbLine
 10
313.6579872441032
 20
37.40635983094229
 30
0.0
 11
315.8729872441033
 21
37.40635983094229
 31
0.0
  0
SOLID
  5
1193
330
1076
100
AcDbEntity
  8
0
 62
     0
100
AcDbTrace
 10
313.6579872441032
 20
37.43135983094229
 30
0.0
 11
313.6579872441032
 21
37.38135983094229
 31
0.0
 12
313.5079872441033
 22
37.40635983094229
 32
0.0
 13
313.5079872441033
 23
37.40635983094229
 33
0.0
  0
SOLID
  5
1194
330
1076
100
AcDbEntity
  8
0
 62
     0
100
AcDbTrace
 10
315.8729872441033
 20
37.43135983094229
 30
0.0
 11
315.8729872441033
 21
37.38135983094229
 31
0.0
 12
316.0229872441033
 22
37.40635983094229
 32
0.0
 13
316.0229872441033
 23
37.40635983094229
 33
0.0
  0
MTEXT
  5
1195
330
1076
100
AcDbEntity
  8
0
 62
     0
100
AcDbMText
 10
314.7654872441033
 20
37.48135983094229
 30
0.0
 40
0.075
 41
0.0
 71
     5
 72
     1
  1
\A1;0.50
  7
ROMANC
 73
     1
 44
1.0
  0
POINT
  5
1196
330
1076
100
AcDbEntity
  8
DEFPOINTS
 62
     0
100
AcDbPoint
 10
313.5079872441033
 20
40.10846965739096
 30
0.0
  0
POINT
  5
1197
330
1076
100
AcDbEntity
  8
DEFPOINTS
 62
     0
100
AcDbPoint
 10
316.0229872441033
 20
40.10846965739099
 30
0.0
  0
POINT
  5
1198
330
1076
100
AcDbEntity
  8
DEFPOINTS
 62
     0
100
AcDbPoint
 10
316.0229872441033
 20
37.40635983094229
 30
0.0
  0
ENDBLK
  5
1081
330
1076
100
AcDbEntity
  8
0
100
AcDbBlockEnd
  0
BLOCK
  5
109F
330
1095
100
AcDbEntity
  8
0
100
AcDbBlockBegin
  2
*D30
 70
     1
 10
0.0
 20
0.0
 30
0.0
  3
*D30
  1

  0
LINE
  5
1187
330
1095
100
AcDbEntity
  8
0
 62
     0
370
    -2
100
AcDbLine
 10
316.4140224951407
 20
40.10846965739099
 30
0.0
 11
316.8447283633771
 21
40.10846965739099
 31
0.0
  0
LINE
  5
1188
330
1095
100
AcDbEntity
  8
0
 62
     0
370
    -2
100
AcDbLine
 10
315.5229872441033
 20
38.10846965739096
 30
0.0
 11
316.8447283633771
 21
38.10846965739096
 31
0.0
  0
LINE
  5
1189
330
1095
100
AcDbEntity
  8
0
 62
     0
370
    -2
100
AcDbLine
 10
316.8297283633771
 20
39.95846965739099
 30
0.0
 11
316.8297283633771
 21
38.25846965739096
 31
0.0
  0
SOLID
  5
118A
330
1095
100
AcDbEntity
  8
0
 62
     0
100
AcDbTrace
 10
316.8047283633772
 20
39.95846965739099
 30
0.0
 11
316.8547283633771
 21
39.95846965739099
 31
0.0
 12
316.8297283633771
 22
40.10846965739099
 32
0.0
 13
316.8297283633771
 23
40.10846965739099
 33
0.0
  0
SOLID
  5
118B
330
1095
100
AcDbEntity
  8
0
 62
     0
100
AcDbTrace
 10
316.8047283633772
 20
38.25846965739096
 30
0.0
 11
316.8547283633771
 21
38.25846965739096
 31
0.0
 12
316.8297283633771
 22
38.10846965739096
 32
0.0
 13
316.8297283633771
 23
38.10846965739096
 33
0.0
  0
MTEXT
  5
118C
330
1095
100
AcDbEntity
  8
0
 62
     0
100
AcDbMText
 10
316.7547283633771
 20
39.10846965739102
 30
0.0
 40
0.075
 41
0.0
 71
     5
 72
     1
  1
\A1;0.40
  7
ROMANC
 11
0.0000000000000001
 21
1.0
 31
0.0
 73
     1
 44
1.0
  0
POINT
  5
118D
330
1095
100
AcDbEntity
  8
DEFPOINTS
 62
     0
100
AcDbPoint
 10
316.3990224951407
 20
40.10846965739099
 30
0.0
  0
POINT
  5
118E
330
1095
100
AcDbEntity
  8
DEFPOINTS
 62
     0
100
AcDbPoint
 10
315.5079872441033
 20
38.10846965739096
 30
0.0
  0
POINT
  5
118F
330
1095
100
AcDbEntity
  8
DEFPOINTS
 62
     0
100
AcDbPoint
 10
316.8297283633771
 20
38.10846965739096
 30
0.0
  0
ENDBLK
  5
10A0
330
1095
100
AcDbEntity
  8
0
100
AcDbBlockEnd
  0
BLOCK
  5
11BA
330
11B0
100
AcDbEntity
  8
0
100
AcDbBlockBegin
  2
*D31
 70
     1
 10
0.0
 20
0.0
 30
0.0
  3
*D31
  1

  0
LINE
  5
121E
330
11B0
100
AcDbEntity
  8
0
 62
     0
370
    -2
100
AcDbLine
 10
323.3985470305186
 20
35.41823712263107
 30
0.0
 11
323.3985470305186
 21
36.31478937334602
 31
0.0
  0
LINE
  5
121F
330
11B0
100
AcDbEntity
  8
0
 62
     0
370
    -2
100
AcDbLine
 10
324.1985470305185
 20
35.41823712263107
 30
0.0
 11
324.1985470305185
 21
36.31478937334602
 31
0.0
  0
LINE
  5
1220
330
11B0
100
AcDbEntity
  8
0
 62
     0
370
    -2
100
AcDbLine
 10
323.5485470305186
 20
36.29978937334602
 30
0.0
 11
324.0485470305185
 21
36.29978937334602
 31
0.0
  0
SOLID
  5
1221
330
11B0
100
AcDbEntity
  8
0
 62
     0
100
AcDbTrace
 10
323.5485470305186
 20
36.32478937334602
 30
0.0
 11
323.5485470305186
 21
36.27478937334602
 31
0.0
 12
323.3985470305186
 22
36.29978937334602
 32
0.0
 13
323.3985470305186
 23
36.29978937334602
 33
0.0
  0
SOLID
  5
1222
330
11B0
100
AcDbEntity
  8
0
 62
     0
100
AcDbTrace
 10
324.0485470305185
 20
36.32478937334602
 30
0.0
 11
324.0485470305185
 21
36.27478937334602
 31
0.0
 12
324.1985470305185
 22
36.29978937334602
 32
0.0
 13
324.1985470305185
 23
36.29978937334602
 33
0.0
  0
MTEXT
  5
1223
330
11B0
100
AcDbEntity
  8
0
 62
     0
100
AcDbMText
 10
323.7985470305186
 20
36.37478937334602
 30
0.0
 40
0.075
 41
0.0
 71
     5
 72
     1
  1
\A1;0.80
  7
ROMANC
 73
     1
 44
1.0
  0
POINT
  5
1224
330
11B0
100
AcDbEntity
  8
DEFPOINTS
 62
     0
100
AcDbPoint
 10
323.3985470305186
 20
35.40323712263107
 30
0.0
  0
POINT
  5
1225
330
11B0
100
AcDbEntity
  8
DEFPOINTS
 62
     0
100
AcDbPoint
 10
324.1985470305185
 20
35.40323712263107
 30
0.0
  0
POINT
  5
1226
330
11B0
100
AcDbEntity
  8
DEFPOINTS
 62
     0
100
AcDbPoint
 10
324.1985470305185
 20
36.29978937334602
 30
0.0
  0
ENDBLK
  5
11BB
330
11B0
100
AcDbEntity
  8
0
100
AcDbBlockEnd
  0
BLOCK
  5
11C7
330
11BD
100
AcDbEntity
  8
0
100
AcDbBlockBegin
  2
*D32
 70
     1
 10
0.0
 20
0.0
 30
0.0
  3
*D32
  1

  0
LINE
  5
120C
330
11BD
100
AcDbEntity
  8
0
 62
     0
370
    -2
100
AcDbLine
 10
323.3985470305186
 20
34.33823712263107
 30
0.0
 11
323.3985470305186
 21
33.80309970808409
 31
0.0
  0
LINE
  5
120D
330
11BD
100
AcDbEntity
  8
0
 62
     0
370
    -2
100
AcDbLine
 10
324.1985470305185
 20
34.33823712263107
 30
0.0
 11
324.1985470305185
 21
33.80309970808409
 31
0.0
  0
LINE
  5
120E
330
11BD
100
AcDbEntity
  8
0
 62
     0
370
    -2
100
AcDbLine
 10
323.5485470305186
 20
33.81809970808409
 30
0.0
 11
324.0485470305185
 21
33.81809970808409
 31
0.0
  0
MTEXT
  5
120F
330
11BD
100
AcDbEntity
  8
0
 62
     0
100
AcDbMText
 10
323.7985470305186
 20
33.70944427663931
 30
0.0
 40
0.075
 41
0.0
 71
     5
 72
     1
  1
\A1;0.80
  7
ROMANC
 73
     1
 44
1.0
  0
SOLID
  5
1210
330
11BD
100
AcDbEntity
  8
0
 62
     0
100
AcDbTrace
 10
323.5485470305186
 20
33.84309970808409
 30
0.0
 11
323.5485470305186
 21
33.79309970808409
 31
0.0
 12
323.3985470305186
 22
33.81809970808409
 32
0.0
 13
323.3985470305186
 23
33.81809970808409
 33
0.0
  0
SOLID
  5
1211
330
11BD
100
AcDbEntity
  8
0
 62
     0
100
AcDbTrace
 10
324.0485470305185
 20
33.84309970808409
 30
0.0
 11
324.0485470305185
 21
33.79309970808409
 31
0.0
 12
324.1985470305185
 22
33.81809970808409
 32
0.0
 13
324.1985470305185
 23
33.81809970808409
 33
0.0
  0
POINT
  5
1212
330
11BD
100
AcDbEntity
  8
DEFPOINTS
 62
     0
100
AcDbPoint
 10
323.3985470305186
 20
34.35323712263107
 30
0.0
  0
POINT
  5
1213
330
11BD
100
AcDbEntity
  8
DEFPOINTS
 62
     0
100
AcDbPoint
 10
324.1985470305185
 20
34.35323712263107
 30
0.0
  0
POINT
  5
1214
330
11BD
100
AcDbEntity
  8
DEFPOINTS
 62
     0
100
AcDbPoint
 10
324.1985470305185
 20
33.81809970808409
 30
0.0
  0
ENDBLK
  5
11C8
330
11BD
100
AcDbEntity
  8
0
100
AcDbBlockEnd
  0
BLOCK
  5
11D4
330
11CA
100
AcDbEntity
  8
0
100
AcDbBlockBegin
  2
*D33
 70
     1
 10
0.0
 20
0.0
 30
0.0
  3
*D33
  1

  0
LINE
  5
1215
330
11CA
100
AcDbEntity
  8
0
 62
     0
370
    -2
100
AcDbLine
 10
323.7985470305186
 20
34.33823712263107
 30
0.0
 11
323.7985470305186
 21
33.95087106503996
 31
0.0
  0
LINE
  5
1216
330
11CA
100
AcDbEntity
  8
0
 62
     0
370
    -2
100
AcDbLine
 10
324.1985470305185
 20
34.32323712263107
 30
0.0
 11
324.1985470305185
 21
33.95087106503996
 31
0.0
  0
LINE
  5
1217
330
11CA
100
AcDbEntity
  8
0
 62
     0
370
    -2
100
AcDbLine
 10
323.9485470305185
 20
33.96587106503996
 30
0.0
 11
324.0485470305185
 21
33.96587106503996
 31
0.0
  0
SOLID
  5
1218
330
11CA
100
AcDbEntity
  8
0
 62
     0
100
AcDbTrace
 10
323.9485470305185
 20
33.99087106503996
 30
0.0
 11
323.9485470305185
 21
33.94087106503996
 31
0.0
 12
323.7985470305186
 22
33.96587106503996
 32
0.0
 13
323.7985470305186
 23
33.96587106503996
 33
0.0
  0
SOLID
  5
1219
330
11CA
100
AcDbEntity
  8
0
 62
     0
100
AcDbTrace
 10
324.0485470305185
 20
33.99087106503996
 30
0.0
 11
324.0485470305185
 21
33.94087106503996
 31
0.0
 12
324.1985470305185
 22
33.96587106503996
 32
0.0
 13
324.1985470305185
 23
33.96587106503996
 33
0.0
  0
MTEXT
  5
121A
330
11CA
100
AcDbEntity
  8
0
 62
     0
100
AcDbMText
 10
323.9985470305185
 20
34.04087106503996
 30
0.0
 40
0.075
 41
0.0
 71
     5
 72
     1
  1
\A1;0.40
  7
ROMANC
 73
     1
 44
1.0
  0
POINT
  5
121B
330
11CA
100
AcDbEntity
  8
DEFPOINTS
 62
     0
100
AcDbPoint
 10
323.7985470305186
 20
34.35323712263107
 30
0.0
  0
POINT
  5
121C
330
11CA
100
AcDbEntity
  8
DEFPOINTS
 62
     0
100
AcDbPoint
 10
324.1985470305185
 20
34.33823712263107
 30
0.0
  0
POINT
  5
121D
330
11CA
100
AcDbEntity
  8
DEFPOINTS
 62
     0
100
AcDbPoint
 10
324.1985470305185
 20
33.96587106503996
 30
0.0
  0
ENDBLK
  5
11D5
330
11CA
100
AcDbEntity
  8
0
100
AcDbBlockEnd
  0
BLOCK
  5
11EA
330
11E0
100
AcDbEntity
  8
0
100
AcDbBlockBegin
  2
*D34
 70
     1
 10
0.0
 20
0.0
 30
0.0
  3
*D34
  1

  0
LINE
  5
1203
330
11E0
100
AcDbEntity
  8
0
 62
     0
370
    -2
100
AcDbLine
 10
323.3835470305186
 20
34.35323712263107
 30
0.0
 11
323.0130009185177
 21
34.35323712263107
 31
0.0
  0
LINE
  5
1204
330
11E0
100
AcDbEntity
  8
0
 62
     0
370
    -2
100
AcDbLine
 10
323.3835470305186
 20
35.40323712263107
 30
0.0
 11
323.0130009185177
 21
35.40323712263107
 31
0.0
  0
LINE
  5
1205
330
11E0
100
AcDbEntity
  8
0
 62
     0
370
    -2
100
AcDbLine
 10
323.0280009185177
 20
34.50323712263107
 30
0.0
 11
323.0280009185177
 21
35.25323712263107
 31
0.0
  0
SOLID
  5
1206
330
11E0
100
AcDbEntity
  8
0
 62
     0
100
AcDbTrace
 10
323.0030009185177
 20
34.50323712263107
 30
0.0
 11
323.0530009185176
 21
34.50323712263107
 31
0.0
 12
323.0280009185177
 22
34.35323712263107
 32
0.0
 13
323.0280009185177
 23
34.35323712263107
 33
0.0
  0
SOLID
  5
1207
330
11E0
100
AcDbEntity
  8
0
 62
     0
100
AcDbTrace
 10
323.0030009185177
 20
35.25323712263107
 30
0.0
 11
323.0530009185176
 21
35.25323712263107
 31
0.0
 12
323.0280009185177
 22
35.40323712263107
 32
0.0
 13
323.0280009185177
 23
35.40323712263107
 33
0.0
  0
MTEXT
  5
1208
330
11E0
100
AcDbEntity
  8
0
 62
     0
100
AcDbMText
 10
322.9530009185177
 20
34.87823712263112
 30
0.0
 40
0.075
 41
0.0
 71
     5
 72
     1
  1
\A1;1.05
  7
ROMANC
 11
0.0000000000000001
 21
1.0
 31
0.0
 73
     1
 44
1.0
  0
POINT
  5
1209
330
11E0
100
AcDbEntity
  8
DEFPOINTS
 62
     0
100
AcDbPoint
 10
323.3985470305186
 20
34.35323712263107
 30
0.0
  0
POINT
  5
120A
330
11E0
100
AcDbEntity
  8
DEFPOINTS
 62
     0
100
AcDbPoint
 10
323.3985470305186
 20
35.40323712263107
 30
0.0
  0
POINT
  5
120B
330
11E0
100
AcDbEntity
  8
DEFPOINTS
 62
     0
100
AcDbPoint
 10
323.0280009185177
 20
35.40323712263107
 30
0.0
  0
ENDBLK
  5
11EB
330
11E0
100
AcDbEntity
  8
0
100
AcDbBlockEnd
  0
BLOCK
  5
11F7
330
11ED
100
AcDbEntity
  8
0
100
AcDbBlockBegin
  2
*D35
 70
     1
 10
0.0
 20
0.0
 30
0.0
  3
*D35
  1

  0
LINE
  5
11FA
330
11ED
100
AcDbEntity
  8
0
 62
     0
370
    -2
100
AcDbLine
 10
324.0135470305185
 20
34.15323712263107
 30
0.0
 11
324.7561760661625
 21
34.15323712263107
 31
0.0
  0
LINE
  5
11FB
330
11ED
100
AcDbEntity
  8
0
 62
     0
370
    -2
100
AcDbLine
 10
323.8135470305185
 20
35.65323712263109
 30
0.0
 11
324.7561760661625
 21
35.65323712263109
 31
0.0
  0
LINE
  5
11FC
330
11ED
100
AcDbEntity
  8
0
 62
     0
370
    -2
100
AcDbLine
 10
324.7411760661625
 20
34.30323712263106
 30
0.0
 11
324.7411760661625
 21
35.50323712263109
 31
0.0
  0
SOLID
  5
11FD
330
11ED
100
AcDbEntity
  8
0
 62
     0
100
AcDbTrace
 10
324.7161760661625
 20
34.30323712263106
 30
0.0
 11
324.7661760661625
 21
34.30323712263106
 31
0.0
 12
324.7411760661625
 22
34.15323712263107
 32
0.0
 13
324.7411760661625
 23
34.15323712263107
 33
0.0
  0
SOLID
  5
11FE
330
11ED
100
AcDbEntity
  8
0
 62
     0
100
AcDbTrace
 10
324.7161760661625
 20
35.50323712263109
 30
0.0
 11
324.7661760661625
 21
35.50323712263109
 31
0.0
 12
324.7411760661625
 22
35.65323712263109
 32
0.0
 13
324.7411760661625
 23
35.65323712263109
 33
0.0
  0
MTEXT
  5
11FF
330
11ED
100
AcDbEntity
  8
0
 62
     0
100
AcDbMText
 10
324.6661760661625
 20
34.90323712263113
 30
0.0
 40
0.075
 41
0.0
 71
     5
 72
     1
  1
\A1;1.50
  7
ROMANC
 11
0.0000000000000001
 21
1.0
 31
0.0
 73
     1
 44
1.0
  0
POINT
  5
1200
330
11ED
100
AcDbEntity
  8
DEFPOINTS
 62
     0
100
AcDbPoint
 10
323.9985470305185
 20
34.15323712263107
 30
0.0
  0
POINT
  5
1201
330
11ED
100
AcDbEntity
  8
DEFPOINTS
 62
     0
100
AcDbPoint
 10
323.7985470305186
 20
35.65323712263109
 30
0.0
  0
POINT
  5
1202
330
11ED
100
AcDbEntity
  8
DEFPOINTS
 62
     0
100
AcDbPoint
 10
324.7411760661625
 20
35.65323712263109
 30
0.0
  0
ENDBLK
  5
11F8
330
11ED
100
AcDbEntity
  8
0
100
AcDbBlockEnd
  0
ENDSEC
  0
SECTION
  2
ENTITIES
  0
TEXT
  5
2A
330
17
100
AcDbEntity
  8
0
100
AcDbText
 10
321.7731487472426
 20
42.309482
 30
0.0
 40
0.3
  1
TIPUS   NT10B
  7
ROMANC
100
AcDbText
  0
TEXT
  5
2D
330
17
100
AcDbEntity
  8
0
100
AcDbText
 10
321.7819632635875
 20
40.49646044792456
 30
0.0
 40
0.3
  1
P = 41,2 dm
  7
ROMANC
100
AcDbText
  0
TEXT
  5
2E
330
17
100
AcDbEntity
  8
0
100
AcDbText
 10
321.7602779830869
 20
41.10581332917407
 30
0.0
 40
0.3
  1
S = 10,5 dm
  7
ROMANC
100
AcDbText
  0
TEXT
  5
2F
330
17
100
AcDbEntity
  8
0
100
AcDbText
 10
321.7731487472426
 20
41.70440332917407
 30
0.0
 40
0.3
  1
ESCALA  1:10
  7
ROMANC
100
AcDbText
  0
TEXT
  5
30
330
17
100
AcDbEntity
  8
0
100
AcDbText
 10
324.6965909189492
 20
41.41172932917407
 30
0.0
 40
0.1
  1
2
  7
ROMANC
100
AcDbText
  0
LWPOLYLINE
  5
117D
330
17
100
AcDbEntity
  8
0
100
AcDbPolyline
 90
        4
 70
     1
 43
0.0
 10
318.7173387644618
 20
30.2638493817211
 10
329.2173387644618
 20
30.2638493817211
 10
329.2173387644618
 20
45.11384938172105
 10
318.7173387644618
 20
45.11384938172105
  0
DIMENSION
  5
11AF
330
17
100
AcDbEntity
  8
0
100
AcDbDimension
  2
*D31
 10
324.1985470305185
 20
36.29978937334602
 30
0.0
 11
323.7985470305186
 21
36.37478937334602
 31
0.0
 70
    32
 71
     5
 42
0.7999999999999546
  3
MERITXELL
100
AcDbAlignedDimension
 13
323.3985470305186
 23
35.40323712263107
 33
0.0
 14
324.1985470305185
 24
35.40323712263107
 34
0.0
100
AcDbRotatedDimension
1001
ACAD
1000
DSTYLE
1002
{
1070
   141
1040
0.0
1070
   147
1040
0.025
1002
}
  0
DIMENSION
  5
11BC
330
17
100
AcDbEntity
  8
0
100
AcDbDimension
  2
*D32
 10
324.1985470305185
 20
33.81809970808409
 30
0.0
 11
323.7985470305186
 21
33.70944427663931
 31
0.0
 70
   160
 71
     5
 42
0.7999999999999546
  3
MERITXELL
100
AcDbAlignedDimension
 13
323.3985470305186
 23
34.35323712263107
 33
0.0
 14
324.1985470305185
 24
34.35323712263107
 34
0.0
100
AcDbRotatedDimension
1001
ACAD
1000
DSTYLE
1002
{
1070
   141
1040
0.0
1070
   147
1040
0.025
1002
}
  0
DIMENSION
  5
11C9
330
17
100
AcDbEntity
  8
0
100
AcDbDimension
  2
*D33
 10
324.1985470305185
 20
33.96587106503996
 30
0.0
 11
323.9985470305185
 21
34.04087106503996
 31
0.0
 70
    32
 71
     5
 42
0.3999999999999772
  3
MERITXELL
100
AcDbAlignedDimension
 13
323.7985470305186
 23
34.35323712263107
 33
0.0
 14
324.1985470305185
 24
34.33823712263107
 34
0.0
100
AcDbRotatedDimension
1001
ACAD
1000
DSTYLE
1002
{
1070
   141
1040
0.0
1070
   147
1040
0.025
1002
}
  0
DIMENSION
  5
11DF
330
17
100
AcDbEntity
  8
0
100
AcDbDimension
  2
*D34
 10
323.0280009185177
 20
35.40323712263107
 30
0.0
 11
322.9530009185177
 21
34.87823712263112
 31
0.0
 70
    32
 71
     5
 42
1.049999999999997
  3
MERITXELL
100
AcDbAlignedDimension
 13
323.3985470305186
 23
34.35323712263107
 33
0.0
 14
323.3985470305186
 24
35.40323712263107
 34
0.0
 50
90.0
100
AcDbRotatedDimension
1001
ACAD
1000
DSTYLE
1002
{
1070
   141
1040
0.0
1070
   147
1040
0.025
1002
}
  0
DIMENSION
  5
11EC
330
17
100
AcDbEntity
  8
0
100
AcDbDimension
  2
*D35
 10
324.7411760661625
 20
35.65323712263109
 30
0.0
 11
324.6661760661625
 21
34.90323712263113
 31
0.0
 70
    32
 71
     5
 42
1.500000000000021
  3
MERITXELL
100
AcDbAlignedDimension
 13
323.9985470305185
 23
34.15323712263107
 33
0.0
 14
323.7985470305186
 24
35.65323712263109
 34
0.0
 50
90.0
100
AcDbRotatedDimension
1001
ACAD
1000
DSTYLE
1002
{
1070
   141
1040
0.0
1070
   147
1040
0.025
1002
}
  0
LWPOLYLINE
  5
11F9
330
17
100
AcDbEntity
  8
0
100
AcDbPolyline
 90
        5
 70
     1
 43
0.03
 10
324.1985470305185
 20
35.40323712263107
 42
0.6250000000000942
 10
323.3985470305186
 20
35.40323712263107
 10
323.3985470305186
 20
34.35323712263107
 10
323.7985470305186
 20
34.35323712263107
 42
0.9999999999999998
 10
324.1985470305185
 20
34.35323712263107
  0
VIEWPORT
  5
FCA
330
14
100
AcDbEntity
 67
     1
  8
0
100
AcDbViewport
 10
3.959436645507813
 20
5.669703330993653
 30
0.0
 40
21.44806040799458
 41
12.56590810302735
 68
     1
 69
     1
 12
3.959436645507813
 22
5.669703330993653
 13
0.0
 23
0.0
 14
10.0
 24
10.0
 15
10.0
 25
10.0
 16
0.0
 26
0.0
 36
1.0
 17
0.0
 27
0.0
 37
0.0
 42
50.0
 43
0.0
 44
0.0
 45
12.56590810302735
 50
0.0
 51
0.0
 72
   100
 90
    32800
  1

281
     0
 71
     1
 74
     0
110
0.0
120
0.0
130
0.0
111
1.0
121
0.0
131
0.0
112
0.0
122
1.0
132
0.0
 79
     0
146
0.0
  0
VIEWPORT
  5
FCC
330
14
100
AcDbEntity
 67
     1
  8
Finestra
100
AcDbViewport
 10
3.972109424221375
 20
5.74787193526479
 30
0.0
 40
7.521002543796178
 41
11.0264663887638
 68
     2
 69
     2
 12
324.1005717719679
 22
37.29169518569444
 13
0.0
 23
0.0
 14
1.0
 24
1.0
 15
10.0
 25
10.0
 16
0.0
 26
0.0
 36
1.0
 17
0.0
 27
0.0
 37
0.0
 42
50.0
 43
0.0
 44
0.0
 45
13.78308298595475
 50
0.0
 51
0.0
 72
   100
 90
    36864
  1

281
     0
 71
     1
 74
     0
110
0.0
120
0.0
130
0.0
111
1.0
121
0.0
131
0.0
112
0.0
122
1.0
132
0.0
 79
     0
146
0.0
  0
ENDSEC
  0
SECTION
  2
OBJECTS
  0
DICTIONARY
  5
C
330
0
100
AcDbDictionary
281
     1
  3
ACAD_GROUP
350
D
  3
ACAD_LAYOUT
350
FC0
  3
ACAD_MLINESTYLE
350
1A
  3
ACAD_PLOTSETTINGS
350
FC1
  3
ACAD_PLOTSTYLENAME
350
FBE
  3
ACDBVARIABLEDICTIONARY
350
25
  0
DICTIONARY
  5
D
102
{ACAD_REACTORS
330
C
102
}
330
C
100
AcDbDictionary
281
     1
  0
DICTIONARY
  5
FC0
102
{ACAD_REACTORS
330
C
102
}
330
C
100
AcDbDictionary
281
     1
  3
Model
350
FC2
  3
Presentación1
350
FC3
  0
DICTIONARY
  5
1A
102
{ACAD_REACTORS
330
C
102
}
330
C
100
AcDbDictionary
281
     1
  3
STANDARD
350
1B
  0
DICTIONARY
  5
FC1
102
{ACAD_REACTORS
330
C
102
}
330
C
100
AcDbDictionary
281
     1
  0
ACDBDICTIONARYWDFLT
  5
FBE
102
{ACAD_REACTORS
330
C
102
}
330
C
100
AcDbDictionary
281
     1
  3
Normal
350
FBF
100
AcDbDictionaryWithDefault
340
FBF
  0
DICTIONARY
  5
25
102
{ACAD_REACTORS
330
C
102
}
330
C
100
AcDbDictionary
281
     1
  3
DIMADEC
350
26
  3
DIMASSOC
350
1229
  0
LAYOUT
  5
FC2
102
{ACAD_REACTORS
330
FC0
102
}
330
FC0
100
AcDbPlotSettings
  1

  2
\\SERVIDOR1\PLOTTER750
  4

  6

 40
0.0
 41
0.0
 42
0.0
 43
0.0
 44
0.0
 45
0.0
 46
0.0
 47
0.0
 48
0.0
 49
0.0
140
0.0
141
0.0
142
1.0
143
1.0
 70
  1712
 72
     0
 73
     0
 74
     0
  7
standard.ctb
 75
     0
147
1.0
148
0.0
149
0.0
100
AcDbLayout
  1
Model
 70
     1
 71
     0
 10
0.0
 20
0.0
 11
12.0
 21
9.0
 12
0.0
 22
0.0
 32
0.0
 14
0.0
 24
0.0
 34
0.0
 15
0.0
 25
0.0
 35
0.0
146
0.0
 13
0.0
 23
0.0
 33
0.0
 16
1.0
 26
0.0
 36
0.0
 17
0.0
 27
1.0
 37
0.0
 76
     0
330
17
  0
LAYOUT
  5
FC3
102
{ACAD_REACTORS
330
FC0
102
}
330
FC0
100
AcDbPlotSettings
  1

  2
\\SERVIDOR1\LS3_4DEI
  4
User136
  6

 40
6.043083190917967
 41
6.720414161682128
 42
7.821090698242187
 43
5.027069091796875
 44
210.0579986572264
 45
296.9259948730469
 46
0.0
 47
0.0
 48
0.0
 49
0.0
140
0.0
141
0.0
142
1.0
143
0.04
 70
   672
 72
     1
 73
     0
 74
     5
  7
standard.ctb
 75
     0
147
1.0
148
0.0
149
0.0
100
AcDbLayout
  1
Presentación1
 70
     0
 71
     1
 10
-0.2417233276367187
 20
-0.2688165664672852
 11
8.160596618652341
 21
11.60822322845459
 12
0.0
 22
0.0
 32
0.0
 14
0.2112398939039579
 24
0.2346383041533784
 34
-0.0015258207003583
 15
7.732634235667847
 25
11.26153171017695
 35
0.0000000349246037
146
0.0
 13
0.0
 23
0.0
 33
0.0
 16
1.0
 26
0.0
 36
0.0
 17
0.0
 27
1.0
 37
0.0
 76
     0
330
14
331
FCA
  0
MLINESTYLE
  5
1B
102
{ACAD_REACTORS
330
1A
102
}
330
1A
100
AcDbMlineStyle
  2
STANDARD
 70
     0
  3

 62
   256
 51
90.0
 52
90.0
 71
     2
 49
0.5
 62
   256
  6
BYLAYER
 49
-0.5
 62
   256
  6
BYLAYER
  0
ACDBPLACEHOLDER
  5
FBF
102
{ACAD_REACTORS
330
FBE
102
}
330
FBE
  0
DICTIONARYVAR
  5
26
102
{ACAD_REACTORS
330
25
102
}
330
25
100
DictionaryVariables
280
     0
  1
0
  0
DICTIONARYVAR
  5
1229
102
{ACAD_REACTORS
330
25
102
}
330
25
100
DictionaryVariables
280
     0
  1
1
  0
ENDSEC
  0
EOF
